<?xml version="1.0" standalone="no"?>
<!DOCTYPE svg PUBLIC "-//W3C//DTD SVG 1.1//EN" "http://www.w3.org/Graphics/SVG/1.1/DTD/svg11.dtd">
<svg xmlns="http://www.w3.org/2000/svg">
  <defs>
    <font id="Poppins" horiz-adv-x="836">
      <font-face font-family="Poppins ExtraLight" units-per-em="1000" panose-1="0 0 3 0 0 0 0 0 0 0" ascent="1050" descent="-350" alphabetic="0" />
      <glyph unicode=" " glyph-name="space" horiz-adv-x="293" />
      <glyph unicode="!" glyph-name="exclam" horiz-adv-x="251" d="M224,702L124,171H85l89,531h50ZM76-3Q62-3 53,5.5T44,28q0,20 14,33.5T91,75q14,0 23-8.5T123,44q0-20-14-33.5T76-3Z" />
      <glyph unicode="&quot;" glyph-name="quotedbl" horiz-adv-x="230" d="M180,794L139,608H107l23,186h50Zm102,0L242,608H209l23,186h50Z" />
      <glyph unicode="#" glyph-name="numbersign" horiz-adv-x="777" d="M605,463L530,271H679l-7-40H514L424,0H380l90,231H234L144,0H100l90,231H30l7,40H206l75,192H123l7,40H296l93,237h44L340,503H576l93,237h44L620,503H772l-7-40H605Zm-44,0H325L250,271H486l75,192Z" />
      <glyph unicode="$" glyph-name="dollar" horiz-adv-x="566" d="M369,708q79-8 119.5-53T528,548H480q-1,41-29.5,77T363,669L310,373q55-16 89.5-32T457,295.5T480,218q0-21-4-41q-8-46-37-88T360,20T243-7L229-87H197L211-6Q133,1 88,46T43,156q0,11 1,17H91q-2-29 10-59.5t41-53T218,33l55,308q-56,16-90.5,31.5t-58,44.5T101,493q0,20 4,39q13,77 75.5,126.5T338,709l15,87h32l-16-88ZM151,534q-3-15-3-29q0-51 34-77t98-45l51,288q-71,0-119.5-35.5T151,534ZM431,175q3,17 3,31q0,52-34,79t-97,46L250,31q75,1 122.5,42T431,175Z" />
      <glyph unicode="%" glyph-name="percent" horiz-adv-x="580" d="M91,547q0,46 22,83t58.5,58.5T251,710q50,0 80.5-30T362,601q0-46-22-83t-58.5-58T202,439q-50,0-80.5,29.5T91,547ZM597,702L56,0H9L550,702h47ZM245,678q-48,0-82-36t-34-92q0-37 21-58.5T208,470q48,0 82,36.5T324,598q0,37-21,58.5T245,678Zm0-578q0,46 21.5,83.5t58,58.5T404,263q50,0 81-30t31-79q0-18-2-27q-10-60-55-98T357-9q-51,0-81.5,30T245,100ZM398,231q-42,0-73.5-28.5T285,127q-3-13-3-25q0-37 21.5-58T362,23q42,0 73.5,28.5T476,127q2,16 2,23q0,38-21.5,59.5T398,231Z" />
      <glyph unicode="&amp;" glyph-name="ampersand" horiz-adv-x="699" d="M603,243q-51-67-89-108L622,0H566L483,103Q422,44 360.5,16.5T227-11Q136-11 81,38T26,167q0,84 56,148.5T234,414q-27,34-39.5,63T182,538q0,49 24.5,88.5T275,688t98,22q62,0 101-32t39-86q0-9-2-25H466q2,12 2,19q0,40-28,62.5T368,671q-60,0-100-36t-40-91q0-28 13-55t39-61L489,166q41,46 81,100l73,95h49L603,243ZM232,29q63,0 117,25.5T458,134L258,384h-1q-87-30-136.5-84T71,172q0-64 44-103.5T232,29Z" />
      <glyph unicode="&apos;" glyph-name="quotesingle" horiz-adv-x="133" d="M186,794L142,608H110l20,186h56Z" />
      <glyph unicode="(" glyph-name="parenleft" horiz-adv-x="380" d="M199-186q-55,70-87,170.5T80,206q0,134 38.5,270t111,255.5T401,934h49l-1-5Q348,843 275,726T163.5,476.5T125,212Q125,98 156-2t91-179v-5H199Z" />
      <glyph unicode=")" glyph-name="parenright" horiz-adv-x="379" d="M-28-186v5Q122-50 206,141t84,391q0,116-32,217.5T163,929l1,5h48q58-70 90-171t32-223q0-133-38-268.5T187,17T20-186H-28Z" />
      <glyph unicode="*" glyph-name="asterisk" horiz-adv-x="449" d="M442,651l13-34L298,546l131-73l-23-33L283,524L261,360H223l35,164L106,439L91,475l158,71L119,619l23,32l124-84l22,163h38L291,567l151,84Z" />
      <glyph unicode="+" glyph-name="plus" horiz-adv-x="622" d="M580,355H346L305,120H261l41,235H71l6,40H310l41,235h44L354,395H587l-7-40Z" />
      <glyph unicode="," glyph-name="comma" horiz-adv-x="143" d="M82,105L-56-151H-91L30,105H82Z" />
      <glyph unicode="-" glyph-name="hyphen" horiz-adv-x="482" d="M395,395l-7-39H12l7,39H395Z" />
      <glyph unicode="." glyph-name="period" horiz-adv-x="149" d="M25-3Q11-3 2,5.5T-7,28Q-7,48 7,61.5T40,75q14,0 23-8.5T72,44q0-20-14-33.5T25-3Z" />
      <glyph unicode="/" glyph-name="slash" horiz-adv-x="400" d="M476,937L6-161H-39L430,937h46Z" />
      <glyph unicode="0" glyph-name="zero" horiz-adv-x="602" d="M82,357q31,172 97,265.5T379,716q100,0 143-54.5T565,507q0-64-16-150Q519,184 452,89.5T251-5Q151-5 108.5,49T66,203q0,66 16,154Zm422,0q16,86 16,148q0,82-34,126T372,675q-78,0-126.5-40.5T170,525.5T126,357q-16-86-16-149q0-83 34-127.5T258,36q77,0 126,41t75.5,110T504,357Z" />
      <glyph unicode="1" glyph-name="one" horiz-adv-x="259" d="M91,665l8,41H247L122,0H76L194,665H91Z" />
      <glyph unicode="2" glyph-name="two" horiz-adv-x="570" d="M7,33Q218,163 347.5,284T497,514q4,19 4,42q0,56-33,89T362,678q-87,0-142.5-53T142,485H98q26,110 98.5,171T369,717q79,0 128-38.5T546,563q0-24-4-47Q520,392 383,265T82,41H481L474,3H2L7,33Z" />
      <glyph unicode="3" glyph-name="three" horiz-adv-x="580" d="M107,525q25,91 96,143t173,52q86,0 131-40t45-105q0-16-3-33q-12-64-59-110.5T361,376v-6q65-10 103-47.5T502,223q0-18-3-38q-15-84-80-137.5T247-6Q146-6 90,48T38,201H82q-1-75 43-121T254,34q86,0 138,43t64,111q3,17 3,32q0,66-55.5,99T244,352H225l7,39h21q226,1 251,148q3,15 3,30q0,52-36,82T368,681q-75,0-134-39.5T152,525H107Z" />
      <glyph unicode="4" glyph-name="four" horiz-adv-x="593" d="M10,180l6,35L484,708h52L449,219H563l-7-39H442L410,0H366l32,180H10ZM483,654L70,219H406l77,435Z" />
      <glyph unicode="5" glyph-name="five" horiz-adv-x="605" d="M580,671H196L145,384q34,38 90.5,62.5T353,471q101,0 147.5-50T547,293q0-24-5-52Q523,135 451.5,65T261-5Q163-5 108.5,48.5T56,193h44q2-77 47-117.5T268,35q96,0 155,56.5T499,240q4,21 4,46q0,69-41,107.5T341,432q-63,0-117.5-28T134,327H92l68,384H587l-7-40Z" />
      <glyph unicode="6" glyph-name="six" horiz-adv-x="621" d="M536,532q2,73-33,112T395,683q-109,0-178.5-85T120,322q28,69 96.5,109.5T366,472q92,0 142-48t50-136q0-33-5-59q-11-64-45-117T416.5,27T281-5Q166-5 118,52.5T70,214q0,52 14,136q32,179 108.5,275T402,721q93,0 137-51.5T578,532H536ZM352,433q-51,0-101.5-21t-88-63.5T115,245q-4-21-4-47q0-73 43-119T286,33q86,0 146.5,52T509,228q5,32 5,53q0,73-42,112.5T352,433Z" />
      <glyph unicode="7" glyph-name="seven" horiz-adv-x="517" d="M548,674L149,0H99L504,671H88l7,39H555l-7-36Z" />
      <glyph unicode="8" glyph-name="eight" horiz-adv-x="616" d="M232,370q-57,15-85,50t-28,84q0,16 3,34q15,82 85.5,133T387,722q97,0 149.5-41T589,571q0-16-3-33q-11-62-54-106.5T416,370q63-14 97-52.5T547,221q0-16-3-36Q527,89 449.5,33T255-23Q152-23 94.5,21.5T37,144q0,22 4,41q13,72 63.5,120.5T232,370ZM380,683q-86,0-144-38.5T165,534q-2-9-2-27q0-57 43.5-89T328,386q86,0 143.5,39.5T542,534q3,15 3,29q0,58-44,89T380,683ZM321,350q-91,0-156.5-40.5T85,186q-3-18-3-35q0-65 48-100.5T262,15q95,0 159,45t78,126q3,18 3,34q0,66-50,98T321,350Z" />
      <glyph unicode="9" glyph-name="nine" horiz-adv-x="620" d="M117,186q-2-73 34.5-113T262,33q106,0 173.5,83.5T530,390q-27-66-93.5-105T291,246q-92,0-143.5,48T96,428q0,28 6,59q11,64 45,117t91.5,84.5T374,720q112,0 159.5-56.5T581,504q0-52-14-136Q535,185 461.5,89.5T253-6Q159-6 114.5,46.5T75,186h42Zm186,98q51,0 101,21.5T490,369t46,102q4,21 4,47q0,72-42,118T368,682q-85,0-146-52.5T145,487q-5-30-5-50q0-73 42.5-113T303,284Z" />
      <glyph unicode=":" glyph-name="colon" horiz-adv-x="150" d="M25-3Q11-3 2,5.5T-7,28Q-7,48 7,61.5T40,75q14,0 23-8.5T72,44q0-20-14-33.5T25-3Zm0,444q-14,0-23,8.5T-7,472q0,20 14,33.5T40,519q14,0 23-8.5T72,488q0-20-14-33.5T25,441Z" />
      <glyph unicode=";" glyph-name="semicolon" horiz-adv-x="184" d="M117,443q-14,0-23,8.5T85,474q0,20 14,33.5T132,521q14,0 23-8.5t9-22.5q0-20-14-33.5T117,443ZM104,105L-34-151H-69L52,105h52Z" />
      <glyph unicode="&lt;" glyph-name="less" horiz-adv-x="442" d="M296,141L73,375L378,610h56L129,375L352,141H296Z" />
      <glyph unicode="=" glyph-name="equal" horiz-adv-x="620" d="M596,491l-7-41H93l7,41H596ZM562,300l-7-40H58l7,40H562Z" />
      <glyph unicode="&gt;" glyph-name="greater" horiz-adv-x="437" d="M118,610h56L397,375L92,141H36L340,375L118,610Z" />
      <glyph unicode="?" glyph-name="question" horiz-adv-x="497" d="M318,709q84,0 133.5-43.5T501,548q0-11-4-39Q459,298 204,296L178,168H140l26,162h21q107,0 177,37t89,142q3,18 3,33q0,60-39,94.5T312,671q-77,0-129.5-42T116,516H73q16,89 84.5,141T318,709ZM129-3q-14,0-23,8.5T97,28q0,20 14,33.5T144,75q14,0 23-8.5T176,44q0-20-14-33.5T129-3Z" />
      <glyph unicode="@" glyph-name="at" horiz-adv-x="981" d="M545,630q105,0 186-42T856.5,471T901,299q0-77-23.5-147.5t-68-114T706-6q-47,0-71.5,29.5T612,102q-30-51-79.5-79.5T428-6Q353-6 310.5,40T268,164q0,73 30.5,136.5t85,102T507,441q55,0 91.5-26.5T647,338l16,90h40L651,135q-3-16-3-32q0-35 16.5-55T712,28q45,0 79,40t52.5,101.5T862,294q0,92-39.5,160T710,559T539,596q-121,0-220-60.5t-156-164T106,145q0-94 39-162T256.5-120.5T426-156q89,0 164,33l8-34q-87-34-183-34q-102,0-181,40.5T111-35.5T67,139q0,136 62,248.5T300.5,565T545,630Zm84-403q3,21 3,41q0,61-32.5,99T506,405q-58,0-102.5-33.5T335,284T311,170q0-65 33.5-102T440,31q70,0 123,52.5T629,227Z" />
      <glyph unicode="A" glyph-name="A" horiz-adv-x="627" d="M463,180H130L31,0H-18L361,686h50L547,0H498L463,180Zm-7,37L376,628L150,217H456Z" />
      <glyph unicode="B" glyph-name="B" horiz-adv-x="579" d="M557,528q-12-68-55-109T400,363q52-9 84.5-48.5T517,219q0-16-3-31q-15-83-83-135.5T255,0H33L158,702H377q92,0 137.5-38T560,563q0-17-3-35ZM322,382q79,0 128.5,38T511,524q3,15 3,30q0,51-36.5,80T367,663H196L146,382H322ZM469,191q3,15 3,30q0,57-43,90T311,344H139L85,38H260q85,0 140.5,41T469,191Z" />
      <glyph unicode="C" glyph-name="C" horiz-adv-x="770" d="M67,350q19,104 76.5,185.5T285.5,663T465,709q120,0 192-56t93-157H698q-17,79-78,125.5T458,668q-81,0-153.5-38.5T181,518.5T113,350q-6-37-6-70q0-76 30-131.5t84-85T346,34q101,0 178.5,46.5T647,206h51Q643,105 551,49T339-7Q256-7 192.5,28.5T94.5,128T60,275q0,39 7,75Z" />
      <glyph unicode="D" glyph-name="D" horiz-adv-x="704" d="M354,702q154,0 235-70t81-198q0-36-8-84Q633,184 520.5,92T229,0H33L158,702H354ZM237,36q159,0 256.5,83T617,350q7,38 7,77q0,113-69.5,175T347,664H196L85,36H237Z" />
      <glyph unicode="E" glyph-name="E" horiz-adv-x="491" d="M196,665L144,370H424l-7-36H138L85,37H395L388,0H33L158,702H512l-7-37H196Z" />
      <glyph unicode="F" glyph-name="F" horiz-adv-x="481" d="M519,702l-7-37H196L144,370H421l-7-37H137L78,0H33L158,702H519Z" />
      <glyph unicode="G" glyph-name="G" horiz-adv-x="787" d="M67,350q18,104 76.5,185.5T288,662.5T471,708q113,0 185.5-56.5T750,495H698q-17,79-78.5,126T464,668q-83,0-157-39T181.5,518T113,350q-6-36-6-70q0-76 31-131.5T224.5,63T352,33q80,0 151.5,36t122,102.5T696,328H383l7,37H749l-6-30q-20-98-77.5-175.5T524,37.5T345-7Q260-7 195.5,28t-100,99.5T60,276q0,38 7,74Z" />
      <glyph unicode="H" glyph-name="H" horiz-adv-x="664" d="M657,702L532,0H487l61,341H139L78,0H33L158,702h45L145,377H554l58,325h45Z" />
      <glyph unicode="I" glyph-name="I" horiz-adv-x="210" d="M203,702L78,0H33L158,702h45Z" />
      <glyph unicode="J" glyph-name="J" horiz-adv-x="463" d="M450,702L354,157Q341,84 288,38.5T158-7Q88-7 50.5,29.5T13,133q0,25 4,46H62q-4-28-4-40q0-48 26-77t81-29q64,0 99,36.5T309,157l96,545h45Z" />
      <glyph unicode="K" glyph-name="K" horiz-adv-x="531" d="M179,350L460,0H401L137,329L78,0H33L158,702h45L144,369L526,702h57L179,350Z" />
      <glyph unicode="L" glyph-name="L" horiz-adv-x="408" d="M85,36H346L339,0H33L158,702h45L85,36Z" />
      <glyph unicode="M" glyph-name="M" horiz-adv-x="820" d="M810,687L688,0H643L749,594L379,0H343L183,590L78,0H33L155,687h47L372,60L763,687h47Z" />
      <glyph unicode="N" glyph-name="N" horiz-adv-x="667" d="M535,0H490L189,628L78,0H33L157,701h45L504,75L614,701h45L535,0Z" />
      <glyph unicode="O" glyph-name="O" horiz-adv-x="790" d="M346-8Q261-8 196.5,27.5T97,128T62,277q0,116 53.5,215t147,157.5T470,708q86,0 150-35.5t99-100T754,424q0-117-53.5-216T553.5,50.5T346-8Zm6,41q100,0 181.5,53T661,228.5T707,422q0,76-30.5,131.5t-86,85T463,668q-101,0-182-53.5t-127-143T108,280q0-76 31-131.5T225,63T352,33Z" />
      <glyph unicode="P" glyph-name="P" horiz-adv-x="546" d="M547,504q-16-93-83.5-144.5T282,308H133L78,0H33L158,702H352q101,0 150-40.5T551,549q0-24-4-45ZM289,347q186,0 212,157q4,20 4,43q0,116-160,116H196L140,347H289Z" />
      <glyph unicode="Q" glyph-name="Q" horiz-adv-x="791" d="M754,424q0-88-31-167T636,118T506,25L673-143H609L459,8Q401-8 346-8Q261-8 196.5,27.5T97,128T62,277q0,116 53.5,215t147,157.5T470,708q86,0 150-35.5t99-100T754,424ZM108,280q0-76 31-131.5T225,63T352,33q100,0 181.5,53T661,228.5T707,422q0,76-30.5,131.5t-86,85T463,668q-101,0-182-53.5t-127-143T108,280Z" />
      <glyph unicode="R" glyph-name="R" horiz-adv-x="561" d="M351,702q102,0 152-42.5T553,544q0-23-4-43q-15-81-69.5-133.5T335,303L466,0H412L285,299h-4H132L78,0H33L158,702H351ZM502,501q4,19 4,41q0,121-162,121H196L138,337H288q93,0 147,45t67,119Z" />
      <glyph unicode="S" glyph-name="S" horiz-adv-x="547" d="M241-7Q174-7 126.5,17T57,82T39,173H84q-2-33 12-65.5T147,53t98-22q82,0 131.5,43.5T426,190q0,43-22,71t-53.5,45T264,344q-58,23-92,41.5t-57.5,50T91,515q0,7 2,25q5,47 34,85.5t78.5,61T320,709q63,0 108-22.5t67-59T515,550H469q1,27-15.5,55.5t-51.5,47T316,671q-78,0-128.5-39.5T137,523q0-38 20.5-63.5t51-42T291,381q59-24 95-43.5t61-54T472,197q0-8-2-30q-6-48-34.5-87.5T357,16.5T241-7Z" />
      <glyph unicode="T" glyph-name="T" horiz-adv-x="495" d="M545,702l-7-37H338L221,0H176L293,665H93l7,37H545Z" />
      <glyph unicode="U" glyph-name="U" horiz-adv-x="645" d="M199,702L121,264q-6-37-6-68q0-84 44-123.5T281,33q92,0 154.5,55.5T519,264l78,438h45L564,264Q540,127 462.5,60T274-7Q179-7 124,42T69,191q0,37 7,73l78,438h45Z" />
      <glyph unicode="V" glyph-name="V" horiz-adv-x="639" d="M153,702L280,57L637,702h50L295,0H245L102,702h51Z" />
      <glyph unicode="W" glyph-name="W" horiz-adv-x="929" d="M974,702L656,0H607L526,631L222,0H173L106,702h50L211,66L515,702h52L643,66L924,702h50Z" />
      <glyph unicode="X" glyph-name="X" horiz-adv-x="543" d="M310,351L458,0H407L274,315L37,0H-14L258,354L111,702h51L293,391L532,702h51L310,351Z" />
      <glyph unicode="Y" glyph-name="Y" horiz-adv-x="541" d="M591,702L295,284L245,0H200l50,284L101,702h52L280,327L539,702h52Z" />
      <glyph unicode="Z" glyph-name="Z" horiz-adv-x="506" d="M50,40H426L418,0H-10l7,38L476,661H116l8,41H535l-7-39L50,40Z" />
      <glyph unicode="[" glyph-name="bracketleft" horiz-adv-x="300" d="M343,937l-7-39H255L71-144h81l-7-39H21L218,937H343Z" />
      <glyph unicode="\" glyph-name="backslash" horiz-adv-x="463" d="M280-161L144,937h47L325-161H280Z" />
      <glyph unicode="]" glyph-name="bracketright" horiz-adv-x="300" d="M118-185H-7l7,38H81L265,896H184l6,38H315L118-185Z" />
      <glyph unicode="^" glyph-name="asciicircum" horiz-adv-x="579" d="M67,172H21L343,686h38L522,172H476L353,628L67,172Z" />
      <glyph unicode="_" glyph-name="underscore" horiz-adv-x="603" d="M489-33l-7-41H1L8-33H489Z" />
      <glyph unicode="`" glyph-name="grave" horiz-adv-x="264" d="M289,624l-6-37L109,711l8,44L289,624Z" />
      <glyph unicode="a" glyph-name="a" horiz-adv-x="673" d="M53,272q15,84 59.5,147T223,516t142,34q85,0 137.5-42T568,401l25,142h45L541,0H497l25,143Q487,77 419,34.5T265-8Q166-8 106.5,50.5T47,209q0,30 6,63Zm492,0q5,30 5,53q0,85-51,135.5T364,511q-66,0-121.5-28.5t-93-82.5T99,272q-5-33-5-56q0-87 49.5-135.5T279,32q63,0 119.5,29.5t95,84T545,272Z" />
      <glyph unicode="b" glyph-name="b" horiz-adv-x="673" d="M149,400q36,66 103.5,108T405,550q101,0 160-57.5T624,335q0-30-6-63q-15-84-59.5-147.5t-110-98T307-8Q222-8 169.5,34T103,142L78,0H33L164,740h45L149,400ZM572,272q5,25 5,57q0,86-50,134T392,511q-63,0-119-29.5t-95-84T126,272q-5-32-5-53q0-86 51.5-136.5T307,32q66,0 121.5,29t93,83T572,272Z" />
      <glyph unicode="c" glyph-name="c" horiz-adv-x="621" d="M53,272q15,85 60,148t110.5,96.5T365,550q102,0 158.5-51T581,362H534q-1,69-48.5,109.5T358,512q-59,0-113-26.5t-93-81T99,272q-6-31-6-60q0-88 50.5-134.5T273,31q80,0 141.5,40T502,181h48Q518,95 443,43.5T266-8Q166-8 106.5,49.5T47,207q0,31 6,65Z" />
      <glyph unicode="d" glyph-name="d" horiz-adv-x="673" d="M53,272q15,84 59.5,147T223,516t142,34q83,0 136.5-41.5T568,401l60,339h44L541,0H497l26,144Q488,77 420,34.5T266-8Q166-8 106.5,50.5T47,209q0,30 6,63Zm492,0q5,30 5,53q0,85-51,135.5T364,511q-66,0-121.5-28.5t-93-82.5T99,272q-5-33-5-56q0-87 49.5-135.5T279,32q63,0 119.5,29.5t95,84T545,272Z" />
      <glyph unicode="e" glyph-name="e" horiz-adv-x="625" d="M366,550q69,0 117.5-26.5t73-71T581,353q0-24-4-44q-6-36-12-54H96q-4-32-4-46q0-86 52-132T275,31T415.5,70.5T503,178h47Q518,95 443.5,43.5T268-8Q168-8 107.5,50T47,208q0,31 6,64q15,85 60,148t110.5,96.5T366,550ZM529,290q7,29 7,59q0,79-50.5,121T358,512q-57,0-110-25t-92-75T102,290H529Z" />
      <glyph unicode="f" glyph-name="f" horiz-adv-x="322" d="M363,709q-78,0-113.5-30T202,581l-7-38H336l-7-40H188L99,0H54l88,503H61l7,40h81l7,38q15,86 65.5,127T370,749l-7-40Z" />
      <glyph unicode="g" glyph-name="g" horiz-adv-x="673" d="M365,550q85,0 138-41.5T568,402l25,141h45L539-17q-14-75-56.5-131.5t-104-87T248-266q-102,0-160.5,49T24-85H69q8-65 56-103.5T255-227q57,0 107.5,25.5t85.5,73T494-17l28,159Q487,77 419,34.5T266-8Q166-8 106.5,50.5T47,209q0,30 6,63q15,84 59.5,147T223,516t142,34ZM545,272q5,30 5,53q0,85-51,135.5T364,511q-66,0-121.5-28.5t-93-82.5T99,272q-5-33-5-56q0-87 49.5-135.5T279,32q63,0 119.5,29.5t95,84T545,272Z" />
      <glyph unicode="h" glyph-name="h" horiz-adv-x="623" d="M378,554q81,0 131-44.5T559,378q0-27-6-60L497,0H453l56,315q5,32 5,53q0,72-40,109.5T362,515q-88,0-150-56.5T130,293v1L78,0H33L164,740h45L154,427q34,62 93.5,94.5T378,554Z" />
      <glyph unicode="i" glyph-name="i" horiz-adv-x="210" d="M173,664q-14,0-23,8.5T141,695q0,20 14,33.5T187,742q14,0 23.5-9t9.5-23q0-20-14.5-33T173,664Zm2-121L78,0H33l97,543h45Z" />
      <glyph unicode="j" glyph-name="j" horiz-adv-x="217" d="M181,664q-14,0-23.5,8.5T148,695q0,20 14,33.5T194,742q14,0 23.5-9t9.5-23q0-20-14-33t-32-13ZM61-140q-10-58-43.5-87T-77-256h-42l6,40h37q42,0 64,18t29,62L137,543h45L61-140Z" />
      <glyph unicode="k" glyph-name="k" horiz-adv-x="437" d="M159,273L377,0H315L122,249L78,0H33L164,740h45L131,297L407,543h63L159,273Z" />
      <glyph unicode="l" glyph-name="l" horiz-adv-x="210" d="M209,740L78,0H33L164,740h45Z" />
      <glyph unicode="m" glyph-name="m" horiz-adv-x="1013" d="M773,554q80,0 128-44.5T949,378q0-27-6-60L886,0H842l56,315q5,25 5,56q0,70-37.5,107T760,515q-84,0-145.5-58T534,289v1L482,0H438l56,315q5,25 5,56q0,70-37.5,107T356,515q-84,0-145.5-58T130,289v2L78,0H33l97,543h45L154,427q35,63 92,95t123,32q74,0 120.5-38T543,403q33,74 95,112.5T773,554Z" />
      <glyph unicode="n" glyph-name="n" horiz-adv-x="623" d="M376,554q83,0 133-44.5T559,378q0-27-6-60L497,0H453l56,315q5,32 5,53q0,72-40,109.5T362,515q-84,0-145-52T133,310L78,0H33l97,543h45L155,429q34,61 92.5,93T376,554Z" />
      <glyph unicode="o" glyph-name="o" horiz-adv-x="645" d="M273-8Q171-8 109.5,51T48,211q0,92 41.5,170T205,504.5T370,550q66,0 117-26.5t79.5-76T595,331q0-92-42-170T437.5,37.5T273-8Zm6,39q78,0 139.5,41t96,109T549,329q0,89-53,136T363,512q-79,0-140-41T128,361.5T94,214q0-89 52.5-136T279,31Z" />
      <glyph unicode="p" glyph-name="p" horiz-adv-x="673" d="M149,400q35,65 103,107.5T405,550q101,0 160-57.5T624,335q0-30-6-63q-15-84-59.5-147.5t-110-98T307-8Q222-8 169,34.5T103,142L33-256H-11L130,543h44L149,400ZM572,272q5,25 5,57q0,86-50,134T392,511q-63,0-119-29.5t-95-84T126,272q-5-32-5-53q0-86 51.5-136.5T307,32q66,0 121.5,29t93,83T572,272Z" />
      <glyph unicode="q" glyph-name="q" horiz-adv-x="673" d="M53,272q15,84 59.5,147T223,516t142,34q85,0 138-42t65-107l25,142h45L497-256H452l70,398Q488,77 419.5,34.5T265-8Q166-8 106.5,50.5T47,209q0,30 6,63Zm492,0q5,30 5,53q0,85-51,135.5T364,511q-66,0-121.5-28.5t-93-82.5T99,272q-5-33-5-56q0-87 49.5-135.5T279,32q63,0 119.5,29.5t95,84T545,272Z" />
      <glyph unicode="r" glyph-name="r" horiz-adv-x="350" d="M154,426q32,62 88.5,95T377,554l-9-47H354q-80,0-141-45.5T134,313L78,0H33l97,543h45L154,426Z" />
      <glyph unicode="s" glyph-name="s" horiz-adv-x="497" d="M204-8Q120-8 70.5,32T27,146H72q-5-53 30.5-84.5T207,30q71,0 113,31.5T362,143q0,30-17,50t-42,32t-70,28q-50,17-81.5,33t-53,44.5T77,403q0,43 25,76.5t69,52T269,550q75,0 125-38.5T444,410q0-13-1-20H399q1,5 1,16q0,48-38.5,77.5T265,513q-62,0-102.5-29.5T122,404q0-33 18-54.5t44.5-34T256,287q50-17 79.5-32T386,213t21-69q0-70-56.5-111T204-8Z" />
      <glyph unicode="t" glyph-name="t" horiz-adv-x="347" d="M126,145q-4-20-4-40q0-36 20-50.5T208,40h60L261,0H193q-60,0-88.5,23T76,99q0,23 4,46l64,359H62l7,39h82l24,138h46L197,543H357l-7-39H190L126,145Z" />
      <glyph unicode="u" glyph-name="u" horiz-adv-x="623" d="M588,543L492,0H447l21,117q-34-61-93-93.5T247-9Q164-9 113.5,35.5T63,168q0,33 5,59l57,316h44L113,230q-5-32-5-52q0-73 40-110.5T260,30q88,0 150.5,56.5T491,252v-3l52,294h45Z" />
      <glyph unicode="v" glyph-name="v" horiz-adv-x="531" d="M227,53L512,543h49L240,0H193L65,543h48L227,53Z" />
      <glyph unicode="w" glyph-name="w" horiz-adv-x="809" d="M839,543L572,0H529L441,482L182,0H139L65,543h47L172,57L431,543h44L561,57L793,543h46Z" />
      <glyph unicode="x" glyph-name="x" horiz-adv-x="438" d="M245,274L372,0H320L209,238L16,0H-32L192,274L67,543h52L227,311L416,543h48L245,274Z" />
      <glyph unicode="y" glyph-name="y" horiz-adv-x="524" d="M114,543L231,56L506,543h48L97-255H48L195,1L65,543h49Z" />
      <glyph unicode="z" glyph-name="z" horiz-adv-x="424" d="M43,38H348L341,0H-15l7,38L372,505H81l7,38H430l-7-38L43,38Z" />
      <glyph unicode="{" glyph-name="braceleft" horiz-adv-x="354" d="M84,393q67,17 95.5,49.5T217,524q6,35 8,75.5t2,49.5q1,47 3,78t8,62q12,73 55.5,107.5T405,931h40l-7-40H404q-51,0-82-24.5T281,787q-7-40-9-84.5T270,649q0-8-2-50t-8-76Q239,398 122,374v-2q47-15 68-39t21-66q0-27-10-68.5T171,91Q152,29 142-10.5T132-75q0-71 89-71h35l-7-40H208q-58,0-89.5,26T87-81q0,28 11,71T129,99q19,65 28.5,102t9.5,60q0,36-19.5,56T77,352l7,41Z" />
      <glyph unicode="|" glyph-name="bar" horiz-adv-x="226" d="M70-93H25L180,784h45L70-93Z" />
      <glyph unicode="}" glyph-name="braceright" horiz-adv-x="354" d="M305,352q-68-18-96-52.5T173,221q-8-47-10-128Q161,8 152-44q-13-73-56.5-107.5T-15-186H-56l7,40h35q51,0 82,24.5T108-42q9,52 11,141q0,9 2,49.5t8,73.5q9,57 45,96.5T272,372v2q-93,23-93,115q0,16 3,34q7,34 33,120q12,35 23,73.5T254,787q3,17 3,30q0,74-89,74H134l7,40h40q121,0 121-105q0-17-3-37q-11-56-38-137q-11-33-20.5-67T226,524q-3-15-3-30q0-75 89-101l-7-41Z" />
      <glyph unicode="~" glyph-name="asciitilde" horiz-adv-x="450" d="M38,268q19,53 51,81t75,28q25,0 42.5-9T246,341q20-16 34-23.5t33-7.5q25,0 46.5,19T391,376h37q-18-52-51-80t-76-28q-24,0-41.5,9T220,303q-19,15-34,23t-34,8q-25,0-46-18.5T74,268H38Z" />
      <glyph unicode="&#xa0;" glyph-name="uni00A0" horiz-adv-x="293" />
      <glyph unicode="&#xa1;" glyph-name="exclamdown" horiz-adv-x="284" d="M192,557q14,0 23-8.5t9-22.5q0-20-14-33.5T177,479q-14,0-23,8.5T145,510q0,20 14,33.5T192,557ZM44-148L144,383h39L94-148H44Z" />
      <glyph unicode="&#xa2;" glyph-name="cent" horiz-adv-x="615" d="M343,480q-56,0-106-24t-85.5-72T103,267q-5-30-5-49q0-80 47.5-121.5T269,55q75,0 131.5,39.5T482,203h43q-27-82-94-133T272,16L253-92H221L241,17q-87,6-136.5,58T55,212q0,23 5,55q19,108 92,175t176,75l18,102h32L360,518q91-3 140.5-54T548,332H505q0,68-43.5,108T343,480Z" />
      <glyph unicode="&#xa3;" glyph-name="sterling" horiz-adv-x="568" d="M389,714q87,0 131.5-48.5T565,540q0-14-1-22H521q1,7 1,20q0,61-37,99T382,675T264.5,635T199,517q-4-23-4-49q0-33 6-68t8-45H402l-6-34H215q5-30 5-55t-4-45q-9-52-35.5-94.5T105,39H476L469-1H58L55,30q53,51 81,91t38,96q3,23 3,42q0,32-6,62H56l6,34H165q-14,66-14,107q0,23 5,56q10,57 42.5,101.5t82,69.5T389,714Z" />
      <glyph unicode="&#xa4;" glyph-name="currency" horiz-adv-x="514" d="M419,489q19-33 19-76q0-16-3-36q-12-65-55-111l51-60l-28-23l-49,59q-51-39-111-39q-62,0-98,39L76,183L56,206l72,60q-17,34-17,73q0,12 4,38q12,66 53,112l-51,61l28,23l50-60q51,38 110,38q58,0 96-38l71,60l20-23l-73-61ZM396,377q3,18 3,33q0,50-28.5,80T299,520q-52,0-92.5-39T154,377q-3-19-3-36q0-51 27-79t71-28q50,0 93,39t54,104Z" />
      <glyph unicode="&#xa5;" glyph-name="yen" horiz-adv-x="574" d="M366,359H527l-6-35l-180-1l-28-39l-10-57H504l-7-36H297L263,0H218l34,191H52l7,36H258l10,57l-14,39L76,324l6,35H241L120,702h51L298,327L557,702h52L366,359Z" />
      <glyph unicode="&#xa6;" glyph-name="brokenbar" horiz-adv-x="226" d="M180,784h45L161,424H116l64,360ZM70-93H25L89,268h45L70-93Z" />
      <glyph unicode="&#xa7;" glyph-name="section" horiz-adv-x="569" d="M485,569q4,52-30.5,91.5T342,700q-65,0-107.5-25.5T183,600q-2-14-2-19q0-37 33.5-62T327,472q94-26 143-60.5T519,314q0-46-26.5-88.5t-76-71.5T301,120q62-19 99-47T437-3q0-6-2-22q-11-60-66.5-99.5T228-164q-91,0-141,43.5T43,1H88q-3-56 31.5-93.5T235-130q63,0 104.5,26T390-27q2,14 2,19q0,36-34,60T245,99q-94,26-143,60T53,256q0,46 27,89t77,72t117,33q-62,18-100.5,47.5T135,576q0,7 2,21q11,60 68,99t143,39q89,0 138.5-44T530,569H485ZM472,307q0,52-43,83T308,421q-63,0-110.5-22.5T125,340t-25-77q0-51 43-82t122-31q62,0 109.5,22T447,230.5T472,307Z" />
      <glyph unicode="&#xa8;" glyph-name="dieresis" horiz-adv-x="317" d="M149,625q-14,0-23,9t-9,23q0,17 13.5,30.5T162,701q13,0 21.5-9t8.5-22q0-18-13-31.5T149,625Zm144,0q-14,0-23,9t-9,23q0,17 13.5,30.5T306,701q13,0 22-9t9-22q0-18-13.5-31.5T293,625Z" />
      <glyph unicode="&#xa9;" glyph-name="copyright" horiz-adv-x="799" d="M475,703q88,0 153-34.5T728,571t35-145q0-39-7-75q-18-102-75-182T538,44T352-1Q263-1 197.5,34T97,132T62,278q0,29 7,73q18,102 75.5,182T288,658t187,45Zm-4-26q-95,0-174-41.5T166,520T97,351q-6-36-6-70q0-76 31.5-134t91-90.5T356,24q95,0 173.5,42T660,182.5T728,351q7,44 7,72q0,76-31,133.5t-90.5,89T471,677Zm-15-90q-59,0-112.5-27.5t-92-81T200,352q-5-32-5-55q0-86 50-134t128-48q72,0 135,40.5T604,268H561q-29-56-77-86T380,152q-63,0-103,39T237,302q0,25 4,48q12,64 43.5,109.5t75,68.5T450,551q55,0 93.5-30.5T590,434h43q-7,73-55.5,113T456,587Z" />
      <glyph unicode="&#xaa;" glyph-name="ordfeminine" horiz-adv-x="439" d="M82,529q14,80 68,130t127,50q55,0 87.5-26.5T403,611l16,92h38L396,354H358l16,91q-22-46-63.5-72T214,347q-62,0-98.5,39T79,489q0,19 3,40Zm306-1q3,18 3,35q0,53-31,83.5T278,677q-57,0-101-40.5T121,528q-3-18-3-35q0-53 29.5-83.5T226,379q60,0 105,40.5T388,528Z" />
      <glyph unicode="&#xab;" glyph-name="guillemotleft" horiz-adv-x="405" d="M121,120L48,295L182,470h49L94,295l76-175H121Zm157,0L205,295L339,470h50L252,295l75-175H278Z" />
      <glyph unicode="&#xac;" glyph-name="logicalnot" horiz-adv-x="719" d="M698,427L665,243H622l26,146H74l7,38H698Z" />
      <glyph unicode="&#xad;" glyph-name="uni00AD" horiz-adv-x="482" d="M395,395l-7-39H12l7,39H395Z" />
      <glyph unicode="&#xae;" glyph-name="registered" horiz-adv-x="494" d="M325,709q73,0 116.5-43.5T485,553q0-11-4-39q-10-55-42.5-100T358,343.5T255,318q-73,0-116.5,43.5T95,475q0,11 4,39q9,55 41.5,99.5t80.5,70T325,709ZM453,514q3,18 3,35q0,60-36.5,97T320,683q-73,0-126.5-47.5T127,514q-3-18-3-35q0-60 36.5-97.5T260,344q73,0 126.5,48T453,514ZM325,621q28,0 43.5-13T384,571q0-31-20-51t-51-23l47-89l-36-1l-45,90H247l-17-90H199l38,214h88Zm26-62q6,33-34,33H263l-12-67h54q39,0 46,34Z" />
      <glyph unicode="&#xaf;" glyph-name="macron" horiz-adv-x="388" d="M429,688l-6-35H99l6,35H429Z" />
      <glyph unicode="&#xb0;" glyph-name="degree" horiz-adv-x="375" d="M73,521q13,78 65,125.5T261,694q61,0 96.5-36T393,560q0-11-4-39q-14-79-66-126.5T200,347q-61,0-96,35.5T69,480q0,22 4,41Zm277,0q4,26 4,37q0,50-26.5,77.5T255,663q-53,0-92.5-38T111,521q-4-28-4-39q0-50 26-77t72-27q54,0 93.5,38T350,521Z" />
      <glyph unicode="&#xb1;" glyph-name="plusminus" horiz-adv-x="623" d="M593,425l-8-40H352L313,165H270l39,220H76l8,40H316l36,206h43L359,425H593ZM33,140H542l-7-40H26l7,40Z" />
      <glyph unicode="&#xb2;" glyph-name="twosuperior" horiz-adv-x="311" d="M320,607q-7-42-35-74.5T203,459L103,384H290l-6-32H50l5,25L185,481q41,34 64.5,61T280,605q2,12 2,18q0,27-16.5,40.5T224,677q-34,0-57.5-20T132,600H94q11,47 46,77.5T230,708q42,0 67-22t25-58q0-7-2-21Z" />
      <glyph unicode="&#xb3;" glyph-name="threesuperior" horiz-adv-x="313" d="M96,616q13,41 49.5,66.5T234,708q44,0 71.5-22.5T333,626t-21.5-63T252,528v-2q53-18 53-69q0-28-16.5-53t-48-41T168,347q-53,0-80,25.5T65,447h38q-4-69 69-69q42,0 67.5,22T265,457q0,26-20,40.5T193,512H138l6,29h56q36,0 60.5,17.5T291,608q1,5 1,13q0,25-17,40t-48,15q-35,0-58.5-16T134,616H96Z" />
      <glyph unicode="&#xb4;" glyph-name="acute" horiz-adv-x="260" d="M305,711L87,587l6,37L313,755l-8-44Z" />
      <glyph unicode="&#xb5;" glyph-name="uni00B5" horiz-adv-x="628" d="M593,543L497,0H452l23,130Q441,60 382.5,24.5T257-11q-62,0-105.5,29T98,114L33-256H-11L130,543h44L123,258q-6-36-6-66q0-81 41.5-122.5T273,28q84,0 144,56.5T496,250v-1l52,294h45Z" />
      <glyph unicode="&#xb6;" glyph-name="paragraph" horiz-adv-x="527" d="M395,0H354L469,650H372L256,0H215l52,293h-4q-102,0-153.5,42T58,449q0,12 4,40q16,90 86,144t184,54H517L395,0Z" />
      <glyph unicode="&#xb7;" glyph-name="periodcentered" horiz-adv-x="148" d="M26,314q-14,0-23,8.5T-6,345q0,20 14,33.5T41,392q14,0 23-8.5T73,361q0-20-14-33.5T26,314Z" />
      <glyph unicode="&#xb8;" glyph-name="cedilla" horiz-adv-x="257" d="M36-78q54,3 83.5-15T149-147q0-48-35.5-78.5T20-256H-62l6,34H17q43,0 64.5,14.5T108-164q1,4 1,11q0,44-72,44H-4L16,7H51L36-78Z" />
      <glyph unicode="&#xb9;" glyph-name="onesuperior" horiz-adv-x="169" d="M104,673l6,31h93L140,352H102l56,321H104Z" />
      <glyph unicode="&#xba;" glyph-name="ordmasculine" horiz-adv-x="421" d="M82,527q9,54 38.5,95t73,64T286,709q66,0 106-39t40-104q0-20-4-39q-9-54-38.5-95.5t-73-64.5T223,344q-65,0-104.5,39.5T79,489q0,19 3,38Zm307-1q4,26 4,37q0,54-31,84t-81,30q-58,0-103-40T121,526q-3-19-3-36q0-54 30.5-83.5T229,377q57,0 102.5,39.5T389,526Z" />
      <glyph unicode="&#xbb;" glyph-name="guillemotright" horiz-adv-x="405" d="M159,295L84,470h49l72-175L72,120H23L159,295Zm157,0L241,470h50l72-175L230,120H180L316,295Z" />
      <glyph unicode="&#xbc;" glyph-name="onequarter" horiz-adv-x="557" d="M122,673l6,31h93L158,352H120l56,321H122Zm412,29L53,0H10L491,702h43ZM482,74H430L416,0H378l13,74H215l5,26L435,354h44L434,103h53l-5-29ZM432,303L262,103H397l35,200Z" />
      <glyph unicode="&#xbd;" glyph-name="onehalf" horiz-adv-x="622" d="M123,352l56,321H125l6,31h93L161,352H123ZM519,702L40,0H-3L476,702h43ZM630,254q-7-42-35-74.5T513,106L413,31H600L594-1H360l5,25L495,128q41,34 64.5,61T590,252q2,12 2,18q0,27-16.5,40.5T534,324q-34,0-57.5-20T442,247H404q11,47 46,77.5T540,355q42,0 67-22t25-58q0-7-2-21Z" />
      <glyph unicode="&#xbe;" glyph-name="threequarters" horiz-adv-x="588" d="M112,616q13,41 49.5,66.5T250,708q44,0 71.5-22.5T349,626t-21.5-63T268,528v-2q53-18 53-69q0-28-16.5-53t-48-41T184,347q-53,0-80,25.5T81,447h38q-4-69 69-69q42,0 67.5,22T281,457q0,26-20,40.5T209,512H154l6,29h56q36,0 60.5,17.5T307,608q1,5 1,13q0,25-17,40t-48,15q-35,0-58.5-16T150,616H112Zm484,86L110,0H66L553,702h43ZM516,74H464L450,0H412l13,74H250l4,26L469,354h44L469,103h52l-5-29ZM466,303L296,103H431l35,200Z" />
      <glyph unicode="&#xbf;" glyph-name="questiondown" horiz-adv-x="482" d="M361,545q14,0 23-8.5t9-22.5q0-20-14-33.5T346,467q-14,0-23,8.5T314,498q0,20 14,33.5T361,545ZM172-167q-84,0-133.5,43.5T-11-6q0,11 4,39Q31,244 286,246l26,128h38L324,212H303q-107,0-177-37T37,33Q34,15 34,0q0-60 39-94.5T178-129q77,0 129.5,42T374,26h43q-16-89-84.5-141T172-167Z" />
      <glyph unicode="&#xc0;" glyph-name="Agrave" horiz-adv-x="627" d="M463,180H130L31,0H-18L361,686h50L547,0H498L463,180Zm-7,37L376,628L150,217H456Zm30,551l-6-37L306,855l8,44L486,768Z" />
      <glyph unicode="&#xc1;" glyph-name="Aacute" horiz-adv-x="627" d="M463,180H130L31,0H-18L361,686h50L547,0H498L463,180Zm-7,37L376,628L150,217H456Zm46,638L284,731l6,37L510,899l-8-44Z" />
      <glyph unicode="&#xc2;" glyph-name="Acircumflex" horiz-adv-x="627" d="M463,180H130L31,0H-18L361,686h50L547,0H498L463,180Zm-7,37L376,628L150,217H456ZM413,840L270,758l6,38l144,82l113-82l-6-38L413,840Z" />
      <glyph unicode="&#xc3;" glyph-name="Atilde" horiz-adv-x="627" d="M463,180H130L31,0H-18L361,686h50L547,0H498L463,180Zm-7,37L376,628L150,217H456ZM283,749q11,38 34.5,59T371,829q18,0 29.5-6.5T426,803q13-12 22.5-17.5T473,780q17,0 31.5,12T525,826h30q-10-36-34.5-57.5T466,747q-19,0-30.5,6.5T408,774q-14,11-23,16.5T363,796q-35,0-50-47H283Z" />
      <glyph unicode="&#xc4;" glyph-name="Adieresis" horiz-adv-x="627" d="M463,180H130L31,0H-18L361,686h50L547,0H498L463,180Zm-7,37L376,628L150,217H456ZM330,769q-14,0-23,9t-9,23q0,17 13.5,30.5T343,845q13,0 21.5-9t8.5-22q0-18-13-31.5T330,769Zm144,0q-14,0-23,9t-9,23q0,17 13.5,30.5T487,845q13,0 22-9t9-22q0-18-13.5-31.5T474,769Z" />
      <glyph unicode="&#xc5;" glyph-name="Aring" horiz-adv-x="627" d="M463,180H130L31,0H-18L361,686h50L547,0H498L463,180Zm-7,37L376,628L150,217H456ZM320,851q8,44 40,70t72,26q36,0 58-20t22-55q0-51-34-83.5T398,756q-35,0-57.5,20.5T318,832q0,5 2,19Zm162,16q0,24-15.5,37.5T426,918q-28,0-49-18t-27-48q-1-5-1-14q0-24 15-38.5T403,785q32,0 55.5,23T482,867Z" />
      <glyph unicode="&#xc6;" glyph-name="AE" horiz-adv-x="859" d="M564,665L512,370H792l-7-36H506L454,37H763L756,0H402l32,180H150L11,0H-39L506,702H880l-7-37H564Zm-47-11L179,217H440l77,437Z" />
      <glyph unicode="&#xc7;" glyph-name="Ccedilla" horiz-adv-x="770" d="M458,668q-81,0-153.5-38.5T181,518.5T113,350q-6-37-6-70q0-76 30-131.5t84-85T346,34q101,0 178.5,46.5T647,206h51Q647,113 564.5,57.5T375-6L362-78q54,3 83.5-15T475-147q0-48-35.5-78.5T346-256H264l6,34h73q43,0 64.5,14.5T434-164q1,4 1,11q0,44-72,44H322L340-7h-1Q256-7 192.5,28.5T94.5,128T60,275q0,39 7,75q19,104 76.5,185.5T285.5,663T465,709q120,0 192-56t93-157H698q-17,79-78,125.5T458,668Z" />
      <glyph unicode="&#xc8;" glyph-name="Egrave" horiz-adv-x="491" d="M196,665L144,370H424l-7-36H138L85,37H395L388,0H33L158,702H512l-7-37H196ZM413,768l-6-37L233,855l8,44L413,768Z" />
      <glyph unicode="&#xc9;" glyph-name="Eacute" horiz-adv-x="491" d="M196,665L144,370H424l-7-36H138L85,37H395L388,0H33L158,702H512l-7-37H196ZM429,855L211,731l6,37L437,899l-8-44Z" />
      <glyph unicode="&#xca;" glyph-name="Ecircumflex" horiz-adv-x="491" d="M196,665L144,370H424l-7-36H138L85,37H395L388,0H33L158,702H512l-7-37H196ZM340,840L197,758l6,38l144,82l113-82l-6-38L340,840Z" />
      <glyph unicode="&#xcb;" glyph-name="Edieresis" horiz-adv-x="491" d="M196,665L144,370H424l-7-36H138L85,37H395L388,0H33L158,702H512l-7-37H196Zm61,104q-14,0-23,9t-9,23q0,17 13.5,30.5T270,845q13,0 21.5-9t8.5-22q0-18-13-31.5T257,769Zm144,0q-14,0-23,9t-9,23q0,17 13.5,30.5T414,845q13,0 22-9t9-22q0-18-13.5-31.5T401,769Z" />
      <glyph unicode="&#xcc;" glyph-name="Igrave" horiz-adv-x="210" d="M203,702L78,0H33L158,702h45Zm74,66l-6-37L97,855l8,44L277,768Z" />
      <glyph unicode="&#xcd;" glyph-name="Iacute" horiz-adv-x="210" d="M203,702L78,0H33L158,702h45Zm90,153L75,731l6,37L301,899l-8-44Z" />
      <glyph unicode="&#xce;" glyph-name="Icircumflex" horiz-adv-x="210" d="M203,702L78,0H33L158,702h45Zm1,138L61,758l6,38l144,82l113-82l-6-38L204,840Z" />
      <glyph unicode="&#xcf;" glyph-name="Idieresis" horiz-adv-x="210" d="M203,702L78,0H33L158,702h45Zm-82,67q-14,0-23,9t-9,23q0,17 13.5,30.5T134,845q13,0 21.5-9t8.5-22q0-18-13-31.5T121,769Zm144,0q-14,0-23,9t-9,23q0,17 13.5,30.5T278,845q13,0 22-9t9-22q0-18-13.5-31.5T265,769Z" />
      <glyph unicode="&#xd0;" glyph-name="Eth" horiz-adv-x="736" d="M386,702q155,0 236-70t81-199q0-37-8-83Q666,184 553,92T262,0H66l58,330H19l8,41H132l58,331H386ZM649,350q7,38 7,77q0,113-69.5,175T379,664H228L177,371H395l-7-41H169L118,36H269q160,0 257,83T649,350Z" />
      <glyph unicode="&#xd1;" glyph-name="Ntilde" horiz-adv-x="667" d="M535,0H490L189,628L78,0H33L157,701h45L504,75L614,701h45L535,0ZM303,749q11,38 34.5,59T391,829q18,0 29.5-6.5T446,803q13-12 22.5-17.5T493,780q17,0 31.5,12T545,826h30q-10-36-34.5-57.5T486,747q-19,0-30.5,6.5T428,774q-14,11-23,16.5T383,796q-35,0-50-47H303Z" />
      <glyph unicode="&#xd2;" glyph-name="Ograve" horiz-adv-x="790" d="M346-8Q261-8 196.5,27.5T97,128T62,277q0,116 53.5,215t147,157.5T470,708q86,0 150-35.5t99-100T754,424q0-117-53.5-216T553.5,50.5T346-8Zm6,41q100,0 181.5,53T661,228.5T707,422q0,76-30.5,131.5t-86,85T463,668q-101,0-182-53.5t-127-143T108,280q0-76 31-131.5T225,63T352,33ZM575,770l-6-37L395,857l8,44L575,770Z" />
      <glyph unicode="&#xd3;" glyph-name="Oacute" horiz-adv-x="790" d="M346-8Q261-8 196.5,27.5T97,128T62,277q0,116 53.5,215t147,157.5T470,708q86,0 150-35.5t99-100T754,424q0-117-53.5-216T553.5,50.5T346-8Zm6,41q100,0 181.5,53T661,228.5T707,422q0,76-30.5,131.5t-86,85T463,668q-101,0-182-53.5t-127-143T108,280q0-76 31-131.5T225,63T352,33ZM591,857L373,733l6,37L599,901l-8-44Z" />
      <glyph unicode="&#xd4;" glyph-name="Ocircumflex" horiz-adv-x="790" d="M346-8Q261-8 196.5,27.5T97,128T62,277q0,116 53.5,215t147,157.5T470,708q86,0 150-35.5t99-100T754,424q0-117-53.5-216T553.5,50.5T346-8Zm6,41q100,0 181.5,53T661,228.5T707,422q0,76-30.5,131.5t-86,85T463,668q-101,0-182-53.5t-127-143T108,280q0-76 31-131.5T225,63T352,33ZM501,842L358,760l6,38l144,82l113-82l-6-38L501,842Z" />
      <glyph unicode="&#xd5;" glyph-name="Otilde" horiz-adv-x="790" d="M346-8Q261-8 196.5,27.5T97,128T62,277q0,116 53.5,215t147,157.5T470,708q86,0 150-35.5t99-100T754,424q0-117-53.5-216T553.5,50.5T346-8Zm6,41q100,0 181.5,53T661,228.5T707,422q0,76-30.5,131.5t-86,85T463,668q-101,0-182-53.5t-127-143T108,280q0-76 31-131.5T225,63T352,33Zm20,718q11,38 34.5,59T460,831q18,0 29.5-6.5T515,805q13-12 22.5-17.5T562,782q17,0 31.5,12T614,828h30q-10-36-34.5-57.5T555,749q-19,0-30.5,6.5T497,776q-14,11-23,16.5T452,798q-35,0-50-47H372Z" />
      <glyph unicode="&#xd6;" glyph-name="Odieresis" horiz-adv-x="790" d="M346-8Q261-8 196.5,27.5T97,128T62,277q0,116 53.5,215t147,157.5T470,708q86,0 150-35.5t99-100T754,424q0-117-53.5-216T553.5,50.5T346-8Zm6,41q100,0 181.5,53T661,228.5T707,422q0,76-30.5,131.5t-86,85T463,668q-101,0-182-53.5t-127-143T108,280q0-76 31-131.5T225,63T352,33Zm66,738q-14,0-23,9t-9,23q0,17 13.5,30.5T431,847q13,0 21.5-9t8.5-22q0-18-13-31.5T418,771Zm144,0q-14,0-23,9t-9,23q0,17 13.5,30.5T575,847q13,0 22-9t9-22q0-18-13.5-31.5T562,771Z" />
      <glyph unicode="&#xd7;" glyph-name="multiply" horiz-adv-x="530" d="M312,375L455,202l-35-29L277,346L74,173L50,203L253,376L111,548l35,29L288,405L490,577l24-30L312,375Z" />
      <glyph unicode="&#xd8;" glyph-name="Oslash" horiz-adv-x="790" d="M702,600q52-72 52-176q0-117-53.5-216T553.5,50.5T346-8Q279-8 224,14.5T131,79L45,0H3L114,101Q62,173 62,277q0,116 53.5,215t147,157.5T470,708q67,0 122-22.5T684,622l88,80h42L702,600ZM108,280q0-87 40-147L650,591q-32,38-80,57.5T463,668q-101,0-182-53.5t-127-143T108,280ZM707,422q0,85-39,146L165,110q33-38 81-57.5T352,33q100,0 181.5,53T661,228.5T707,422Z" />
      <glyph unicode="&#xd9;" glyph-name="Ugrave" horiz-adv-x="645" d="M199,702L121,264q-6-37-6-68q0-84 44-123.5T281,33q92,0 154.5,55.5T519,264l78,438h45L564,264Q540,127 462.5,60T274-7Q179-7 124,42T69,191q0,37 7,73l78,438h45Zm296,66l-6-37L315,855l8,44L495,768Z" />
      <glyph unicode="&#xda;" glyph-name="Uacute" horiz-adv-x="645" d="M199,702L121,264q-6-37-6-68q0-84 44-123.5T281,33q92,0 154.5,55.5T519,264l78,438h45L564,264Q540,127 462.5,60T274-7Q179-7 124,42T69,191q0,37 7,73l78,438h45ZM511,855L293,731l6,37L519,899l-8-44Z" />
      <glyph unicode="&#xdb;" glyph-name="Ucircumflex" horiz-adv-x="645" d="M199,702L121,264q-6-37-6-68q0-84 44-123.5T281,33q92,0 154.5,55.5T519,264l78,438h45L564,264Q540,127 462.5,60T274-7Q179-7 124,42T69,191q0,37 7,73l78,438h45ZM421,840L278,758l6,38l144,82l113-82l-6-38L421,840Z" />
      <glyph unicode="&#xdc;" glyph-name="Udieresis" horiz-adv-x="645" d="M199,702L121,264q-6-37-6-68q0-84 44-123.5T281,33q92,0 154.5,55.5T519,264l78,438h45L564,264Q540,127 462.5,60T274-7Q179-7 124,42T69,191q0,37 7,73l78,438h45Zm139,67q-14,0-23,9t-9,23q0,17 13.5,30.5T351,845q13,0 21.5-9t8.5-22q0-18-13-31.5T338,769Zm144,0q-14,0-23,9t-9,23q0,17 13.5,30.5T495,845q13,0 22-9t9-22q0-18-13.5-31.5T482,769Z" />
      <glyph unicode="&#xdd;" glyph-name="Yacute" horiz-adv-x="541" d="M591,702L295,284L245,0H200l50,284L101,702h52L280,327L539,702h52ZM460,855L242,731l6,37L468,899l-8-44Z" />
      <glyph unicode="&#xde;" glyph-name="Thorn" horiz-adv-x="546" d="M520,351q-16-93-83.5-145T255,154H105L78,0H33L158,702h44L175,548H325q101,0 150-40.5T524,396q0-24-4-45ZM262,194q185,0 213,157q4,28 4,40q0,58-38.5,88.5T318,510H169L113,194H262Z" />
      <glyph unicode="&#xdf;" glyph-name="germandbls" horiz-adv-x="613" d="M124,559q17,94 81,150.5T368,766q83,0 128-35.5T541,638q0-38-16.5-68t-40-51.5T424,469q-42-31-61.5-52T343,370q0-24 23.5-41.5T452,290q56-19 82-48t26-75q0-50-25-90T465.5,14T365-9Q290-9 246.5,33T203,146l1,18h45q-5-62 27.5-99T371,28q40,0 72.5,17.5T495,94t19,68q0,33-23,55t-73,40q-66,23-93.5,46.5T297,363q0,38 23.5,65.5T394,494t75.5,68T495,633q0,42-35,68t-99,26q-79,0-128.5-46T168,555L71,0H26l98,559Z" />
      <glyph unicode="&#xe0;" glyph-name="agrave" horiz-adv-x="673" d="M53,272q15,84 59.5,147T223,516t142,34q85,0 137.5-42T568,401l25,142h45L541,0H497l25,143Q487,77 419,34.5T265-8Q166-8 106.5,50.5T47,209q0,30 6,63Zm492,0q5,30 5,53q0,85-51,135.5T364,511q-66,0-121.5-28.5t-93-82.5T99,272q-5-33-5-56q0-87 49.5-135.5T279,32q63,0 119.5,29.5t95,84T545,272ZM486,624l-6-37L306,711l8,44L486,624Z" />
      <glyph unicode="&#xe1;" glyph-name="aacute" horiz-adv-x="673" d="M53,272q15,84 59.5,147T223,516t142,34q85,0 137.5-42T568,401l25,142h45L541,0H497l25,143Q487,77 419,34.5T265-8Q166-8 106.5,50.5T47,209q0,30 6,63Zm492,0q5,30 5,53q0,85-51,135.5T364,511q-66,0-121.5-28.5t-93-82.5T99,272q-5-33-5-56q0-87 49.5-135.5T279,32q63,0 119.5,29.5t95,84T545,272ZM502,711L284,587l6,37L510,755l-8-44Z" />
      <glyph unicode="&#xe2;" glyph-name="acircumflex" horiz-adv-x="673" d="M53,272q15,84 59.5,147T223,516t142,34q85,0 137.5-42T568,401l25,142h45L541,0H497l25,143Q487,77 419,34.5T265-8Q166-8 106.5,50.5T47,209q0,30 6,63Zm492,0q5,30 5,53q0,85-51,135.5T364,511q-66,0-121.5-28.5t-93-82.5T99,272q-5-33-5-56q0-87 49.5-135.5T279,32q63,0 119.5,29.5t95,84T545,272ZM413,696L270,614l6,38l144,82l113-82l-6-38L413,696Z" />
      <glyph unicode="&#xe3;" glyph-name="atilde" horiz-adv-x="673" d="M53,272q15,84 59.5,147T223,516t142,34q85,0 137.5-42T568,401l25,142h45L541,0H497l25,143Q487,77 419,34.5T265-8Q166-8 106.5,50.5T47,209q0,30 6,63Zm492,0q5,30 5,53q0,85-51,135.5T364,511q-66,0-121.5-28.5t-93-82.5T99,272q-5-33-5-56q0-87 49.5-135.5T279,32q63,0 119.5,29.5t95,84T545,272ZM283,605q11,38 34.5,59T371,685q18,0 29.5-6.5T426,659q13-12 22.5-17.5T473,636q17,0 31.5,12T525,682h30q-10-36-34.5-57.5T466,603q-19,0-30.5,6.5T408,630q-14,11-23,16.5T363,652q-35,0-50-47H283Z" />
      <glyph unicode="&#xe4;" glyph-name="adieresis" horiz-adv-x="673" d="M53,272q15,84 59.5,147T223,516t142,34q85,0 137.5-42T568,401l25,142h45L541,0H497l25,143Q487,77 419,34.5T265-8Q166-8 106.5,50.5T47,209q0,30 6,63Zm492,0q5,30 5,53q0,85-51,135.5T364,511q-66,0-121.5-28.5t-93-82.5T99,272q-5-33-5-56q0-87 49.5-135.5T279,32q63,0 119.5,29.5t95,84T545,272ZM330,625q-14,0-23,9t-9,23q0,17 13.5,30.5T343,701q13,0 21.5-9t8.5-22q0-18-13-31.5T330,625Zm144,0q-14,0-23,9t-9,23q0,17 13.5,30.5T487,701q13,0 22-9t9-22q0-18-13.5-31.5T474,625Z" />
      <glyph unicode="&#xe5;" glyph-name="aring" horiz-adv-x="673" d="M53,272q15,84 59.5,147T223,516t142,34q85,0 137.5-42T568,401l25,142h45L541,0H497l25,143Q487,77 419,34.5T265-8Q166-8 106.5,50.5T47,209q0,30 6,63Zm492,0q5,30 5,53q0,85-51,135.5T364,511q-66,0-121.5-28.5t-93-82.5T99,272q-5-33-5-56q0-87 49.5-135.5T279,32q63,0 119.5,29.5t95,84T545,272ZM320,707q8,44 40,70t72,26q36,0 58-20t22-55q0-51-34-83.5T398,612q-35,0-57.5,20.5T318,688q0,5 2,19Zm162,16q0,24-15.5,37.5T426,774q-28,0-49-18t-27-48q-1-5-1-14q0-24 15-38.5T403,641q32,0 55.5,23T482,723Z" />
      <glyph unicode="&#xe6;" glyph-name="ae" horiz-adv-x="1122" d="M865,550q69,0 117-26.5t72-71t24-99.5q0-24-4-44q-7-32-14-54H587q-3-22-3-43q0-59 25-100t67-61t92-20q82,0 144,39.5T999,178h48Q1015,95 941,43.5T767-8Q686-8 630.5,33.5T566,151L540,0H497l27,150Q488,79 419,35.5T266-8Q166-8 106.5,50.5T47,209q0,30 6,63q15,84 59.5,147T223,516t143,34q84,0 136.5-42T567,394l26,149h43L610,394q39,76 107,116t148,40Zm161-260q7,29 7,58q0,79-51,121.5T854,512q-58,0-111.5-25T649,412T594,290h432ZM545,272q5,30 5,53q0,85-51,135.5T364,511q-66,0-121.5-28.5t-93-82.5T99,272q-5-33-5-56q0-87 49.5-135.5T279,32q63,0 119.5,29.5t95,84T545,272Z" />
      <glyph unicode="&#xe7;" glyph-name="ccedilla" horiz-adv-x="621" d="M273,31q80,0 141.5,40T502,181h48Q519,99 448.5,47.5T282-8L270-78q54,3 83.5-15T383-147q0-48-35.5-78.5T254-256H172l6,34h73q43,0 64.5,14.5T342-164q1,4 1,11q0,44-72,44H230L248-7Q155-2 101,54.5T47,207q0,31 6,65q15,85 60,148t110.5,96.5T365,550q102,0 158.5-51T581,362H534q-1,69-48.5,109.5T358,512q-59,0-113-26.5t-93-81T99,272q-6-31-6-60q0-88 50.5-134.5T273,31Z" />
      <glyph unicode="&#xe8;" glyph-name="egrave" horiz-adv-x="625" d="M366,550q69,0 117.5-26.5t73-71T581,353q0-24-4-44q-6-36-12-54H96q-4-32-4-46q0-86 52-132T275,31T415.5,70.5T503,178h47Q518,95 443.5,43.5T268-8Q168-8 107.5,50T47,208q0,31 6,64q15,85 60,148t110.5,96.5T366,550ZM529,290q7,29 7,59q0,79-50.5,121T358,512q-57,0-110-25t-92-75T102,290H529ZM460,624l-6-37L280,711l8,44L460,624Z" />
      <glyph unicode="&#xe9;" glyph-name="eacute" horiz-adv-x="625" d="M366,550q69,0 117.5-26.5t73-71T581,353q0-24-4-44q-6-36-12-54H96q-4-32-4-46q0-86 52-132T275,31T415.5,70.5T503,178h47Q518,95 443.5,43.5T268-8Q168-8 107.5,50T47,208q0,31 6,64q15,85 60,148t110.5,96.5T366,550ZM529,290q7,29 7,59q0,79-50.5,121T358,512q-57,0-110-25t-92-75T102,290H529ZM476,711L258,587l6,37L484,755l-8-44Z" />
      <glyph unicode="&#xea;" glyph-name="ecircumflex" horiz-adv-x="625" d="M366,550q69,0 117.5-26.5t73-71T581,353q0-24-4-44q-6-36-12-54H96q-4-32-4-46q0-86 52-132T275,31T415.5,70.5T503,178h47Q518,95 443.5,43.5T268-8Q168-8 107.5,50T47,208q0,31 6,64q15,85 60,148t110.5,96.5T366,550ZM529,290q7,29 7,59q0,79-50.5,121T358,512q-57,0-110-25t-92-75T102,290H529ZM387,696L244,614l6,38l144,82l113-82l-6-38L387,696Z" />
      <glyph unicode="&#xeb;" glyph-name="edieresis" horiz-adv-x="625" d="M366,550q69,0 117.5-26.5t73-71T581,353q0-24-4-44q-6-36-12-54H96q-4-32-4-46q0-86 52-132T275,31T415.5,70.5T503,178h47Q518,95 443.5,43.5T268-8Q168-8 107.5,50T47,208q0,31 6,64q15,85 60,148t110.5,96.5T366,550ZM529,290q7,29 7,59q0,79-50.5,121T358,512q-57,0-110-25t-92-75T102,290H529ZM303,625q-14,0-23,9t-9,23q0,17 13.5,30.5T316,701q13,0 21.5-9t8.5-22q0-18-13-31.5T303,625Zm144,0q-14,0-23,9t-9,23q0,17 13.5,30.5T460,701q13,0 22-9t9-22q0-18-13.5-31.5T447,625Z" />
      <glyph unicode="&#xec;" glyph-name="igrave" horiz-adv-x="210" d="M175,543L78,0H33l97,543h45Zm77,81l-6-37L72,711l8,44L252,624Z" />
      <glyph unicode="&#xed;" glyph-name="iacute" horiz-adv-x="210" d="M175,543L78,0H33l97,543h45Zm93,168L50,587l6,37L276,755l-8-44Z" />
      <glyph unicode="&#xee;" glyph-name="icircumflex" horiz-adv-x="210" d="M175,543L78,0H33l97,543h45Zm4,153L36,614l6,38l144,82l113-82l-6-38L179,696Z" />
      <glyph unicode="&#xef;" glyph-name="idieresis" horiz-adv-x="210" d="M175,543L78,0H33l97,543h45ZM96,625q-14,0-23,9t-9,23q0,17 13.5,30.5T109,701q13,0 21.5-9t8.5-22q0-18-13-31.5T96,625Zm144,0q-14,0-23,9t-9,23q0,17 13.5,30.5T253,701q13,0 22-9t9-22q0-18-13.5-31.5T240,625Z" />
      <glyph unicode="&#xf0;" glyph-name="eth" horiz-adv-x="643" d="M632,712L505,670q98-122 98-269q0-40-8-91Q567,155 479.5,73.5T271-8Q167-8 108,52T49,214q0,33 6,69q14,81 58.5,142.5t110.5,95T368,554t130.5-40.5T563,391q-1,79-22.5,142T469,658L313,606l5,29l132,44q-24,28-60,61h47q27-24 49-49l151,51l-5-30ZM542,272q5,25 5,57q0,88-51,137T364,515q-63,0-118.5-27T152,408.5T101,283q-6-34-6-64q0-89 49.5-138.5T277,31q62,0 118,28.5t95,83T542,272Z" />
      <glyph unicode="&#xf1;" glyph-name="ntilde" horiz-adv-x="623" d="M376,554q83,0 133-44.5T559,378q0-27-6-60L497,0H453l56,315q5,32 5,53q0,72-40,109.5T362,515q-84,0-145-52T133,310L78,0H33l97,543h45L155,429q34,61 92.5,93T376,554ZM240,605q11,38 34.5,59T328,685q18,0 29.5-6.5T383,659q13-12 22.5-17.5T430,636q17,0 31.5,12T482,682h30q-10-36-34.5-57.5T423,603q-19,0-30.5,6.5T365,630q-14,11-23,16.5T320,652q-35,0-50-47H240Z" />
      <glyph unicode="&#xf2;" glyph-name="ograve" horiz-adv-x="645" d="M273-8Q171-8 109.5,51T48,211q0,92 41.5,170T205,504.5T370,550q66,0 117-26.5t79.5-76T595,331q0-92-42-170T437.5,37.5T273-8Zm6,39q78,0 139.5,41t96,109T549,329q0,89-53,136T363,512q-79,0-140-41T128,361.5T94,214q0-89 52.5-136T279,31ZM469,632l-6-37L289,719l8,44L469,632Z" />
      <glyph unicode="&#xf3;" glyph-name="oacute" horiz-adv-x="645" d="M273-8Q171-8 109.5,51T48,211q0,92 41.5,170T205,504.5T370,550q66,0 117-26.5t79.5-76T595,331q0-92-42-170T437.5,37.5T273-8Zm6,39q78,0 139.5,41t96,109T549,329q0,89-53,136T363,512q-79,0-140-41T128,361.5T94,214q0-89 52.5-136T279,31ZM485,719L267,595l6,37L493,763l-8-44Z" />
      <glyph unicode="&#xf4;" glyph-name="ocircumflex" horiz-adv-x="645" d="M273-8Q171-8 109.5,51T48,211q0,92 41.5,170T205,504.5T370,550q66,0 117-26.5t79.5-76T595,331q0-92-42-170T437.5,37.5T273-8Zm6,39q78,0 139.5,41t96,109T549,329q0,89-53,136T363,512q-79,0-140-41T128,361.5T94,214q0-89 52.5-136T279,31ZM396,704L253,622l6,38l144,82l113-82l-6-38L396,704Z" />
      <glyph unicode="&#xf5;" glyph-name="otilde" horiz-adv-x="645" d="M273-8Q171-8 109.5,51T48,211q0,92 41.5,170T205,504.5T370,550q66,0 117-26.5t79.5-76T595,331q0-92-42-170T437.5,37.5T273-8Zm6,39q78,0 139.5,41t96,109T549,329q0,89-53,136T363,512q-79,0-140-41T128,361.5T94,214q0-89 52.5-136T279,31ZM267,613q11,38 34.5,59T355,693q18,0 29.5-6.5T410,667q13-12 22.5-17.5T457,644q17,0 31.5,12T509,690h30q-10-36-34.5-57.5T450,611q-19,0-30.5,6.5T392,638q-14,11-23,16.5T347,660q-35,0-50-47H267Z" />
      <glyph unicode="&#xf6;" glyph-name="odieresis" horiz-adv-x="645" d="M273-8Q171-8 109.5,51T48,211q0,92 41.5,170T205,504.5T370,550q66,0 117-26.5t79.5-76T595,331q0-92-42-170T437.5,37.5T273-8Zm6,39q78,0 139.5,41t96,109T549,329q0,89-53,136T363,512q-79,0-140-41T128,361.5T94,214q0-89 52.5-136T279,31Zm34,602q-14,0-23,9t-9,23q0,17 13.5,30.5T326,709q13,0 21.5-9t8.5-22q0-18-13-31.5T313,633Zm144,0q-14,0-23,9t-9,23q0,17 13.5,30.5T470,709q13,0 22-9t9-22q0-18-13.5-31.5T457,633Z" />
      <glyph unicode="&#xf7;" glyph-name="divide" horiz-adv-x="613" d="M343,552q-14,0-23,8.5T311,583q0,20 14,33.5T358,630q14,0 23-8.5t9-22.5q0-20-14-33.5T343,552ZM584,395l-7-40H67l7,40H584ZM277,123q-14,0-23,8.5T245,154q0,20 14,33.5T292,201q14,0 23-8.5t9-22.5q0-20-14-33.5T277,123Z" />
      <glyph unicode="&#xf8;" glyph-name="oslash" horiz-adv-x="645" d="M554,467q41-55 41-136q0-92-42-170T437.5,37.5T273-8Q221-8 178,8T106,55L46,0H9L89,74Q48,131 48,211q0,92 41.5,170T205,504.5T370,550q107,0 168-63l61,56h37l-82-76ZM94,214q0-64 29-109L505,456q-26,28-62.5,42T363,512q-79,0-140-41T128,361.5T94,214ZM549,329q0,64-29,107L139,86q25-27 61.5-41T279,31q78,0 139.5,41t96,109T549,329Z" />
      <glyph unicode="&#xf9;" glyph-name="ugrave" horiz-adv-x="623" d="M588,543L492,0H447l21,117q-34-61-93-93.5T247-9Q164-9 113.5,35.5T63,168q0,33 5,59l57,316h44L113,230q-5-32-5-52q0-73 40-110.5T260,30q88,0 150.5,56.5T491,252v-3l52,294h45ZM460,624l-6-37L280,711l8,44L460,624Z" />
      <glyph unicode="&#xfa;" glyph-name="uacute" horiz-adv-x="623" d="M588,543L492,0H447l21,117q-34-61-93-93.5T247-9Q164-9 113.5,35.5T63,168q0,33 5,59l57,316h44L113,230q-5-32-5-52q0-73 40-110.5T260,30q88,0 150.5,56.5T491,252v-3l52,294h45ZM476,711L258,587l6,37L484,755l-8-44Z" />
      <glyph unicode="&#xfb;" glyph-name="ucircumflex" horiz-adv-x="623" d="M588,543L492,0H447l21,117q-34-61-93-93.5T247-9Q164-9 113.5,35.5T63,168q0,33 5,59l57,316h44L113,230q-5-32-5-52q0-73 40-110.5T260,30q88,0 150.5,56.5T491,252v-3l52,294h45ZM386,696L243,614l6,38l144,82l113-82l-6-38L386,696Z" />
      <glyph unicode="&#xfc;" glyph-name="udieresis" horiz-adv-x="623" d="M588,543L492,0H447l21,117q-34-61-93-93.5T247-9Q164-9 113.5,35.5T63,168q0,33 5,59l57,316h44L113,230q-5-32-5-52q0-73 40-110.5T260,30q88,0 150.5,56.5T491,252v-3l52,294h45ZM303,625q-14,0-23,9t-9,23q0,17 13.5,30.5T316,701q13,0 21.5-9t8.5-22q0-18-13-31.5T303,625Zm144,0q-14,0-23,9t-9,23q0,17 13.5,30.5T460,701q13,0 22-9t9-22q0-18-13.5-31.5T447,625Z" />
      <glyph unicode="&#xfd;" glyph-name="yacute" horiz-adv-x="524" d="M114,543L231,56L506,543h48L97-255H48L195,1L65,543h49ZM426,711L208,587l6,37L434,755l-8-44Z" />
      <glyph unicode="&#xfe;" glyph-name="thorn" horiz-adv-x="673" d="M147,389q36,72 104,116.5T405,550q101,0 160-57.5T624,335q0-30-6-63q-15-84-59.5-147.5t-110-98T307-8Q221-8 168.5,37T105,155L33-256H-11L164,740h45L147,389ZM572,272q5,25 5,57q0,86-50,134T392,511q-63,0-119-29.5t-95-84T126,272q-5-32-5-53q0-86 51.5-136.5T307,32q66,0 121.5,29t93,83T572,272Z" />
      <glyph unicode="&#xff;" glyph-name="ydieresis" horiz-adv-x="524" d="M114,543L231,56L506,543h48L97-255H48L195,1L65,543h49Zm140,82q-14,0-23,9t-9,23q0,17 13.5,30.5T267,701q13,0 21.5-9t8.5-22q0-18-13-31.5T254,625Zm144,0q-14,0-23,9t-9,23q0,17 13.5,30.5T411,701q13,0 22-9t9-22q0-18-13.5-31.5T398,625Z" />
      <glyph unicode="&#x2013;" glyph-name="endash" horiz-adv-x="615" d="M584,395l-7-39H67l7,39H584Z" />
      <glyph unicode="&#x2014;" glyph-name="emdash" horiz-adv-x="807" d="M775,395l-7-39H67l7,39H775Z" />
      <glyph unicode="&#x2018;" glyph-name="quoteleft" horiz-adv-x="172" d="M115,497H58L172,702h35L115,497Z" />
      <glyph unicode="&#x2019;" glyph-name="quoteright" horiz-adv-x="172" d="M167,702h57L110,497H75l92,205Z" />
      <glyph unicode="&#x201a;" glyph-name="quotesinglbase" horiz-adv-x="127" d="M9,98H65L-49-106H-83L9,98Z" />
      <glyph unicode="&#x201c;" glyph-name="quotedblleft" horiz-adv-x="300" d="M115,497H58L172,702h35L115,497Zm128,0H187L301,702h34L243,497Z" />
      <glyph unicode="&#x201d;" glyph-name="quotedblright" horiz-adv-x="300" d="M167,702h57L110,497H75l92,205Zm129,0h56L238,497H204l92,205Z" />
      <glyph unicode="&#x201e;" glyph-name="quotedblbase" horiz-adv-x="271" d="M9,98H65L-49-106H-83L9,98Zm143,0h57L95-106H60L152,98Z" />
      <glyph unicode="&#x2022;" glyph-name="bullet" horiz-adv-x="311" d="M146,227q-39,0-64,24.5T57,314q0,33 18,62.5t47.5,47T184,441q39,0 64.5-25T274,353q0-33-17.5-62T209,244.5T146,227Z" />
      <glyph unicode="&#x2039;" glyph-name="guilsinglleft" horiz-adv-x="247" d="M121,120L48,295L182,470h49L94,295l76-175H121Z" />
      <glyph unicode="&#x203a;" glyph-name="guilsinglright" horiz-adv-x="247" d="M159,295L84,470h49l72-175L72,120H23L159,295Z" />
    </font>
</defs>
</svg>
