<?xml version="1.0" standalone="no"?>
<!DOCTYPE svg PUBLIC "-//W3C//DTD SVG 1.1//EN" "http://www.w3.org/Graphics/SVG/1.1/DTD/svg11.dtd">
<svg xmlns="http://www.w3.org/2000/svg">
<defs >
<font id="Barlow" horiz-adv-x="491" ><font-face
    font-family="Barlow ExtraLight"
    units-per-em="1000"
    panose-1="0 0 3 0 0 0 0 0 0 0"
    ascent="1000"
    descent="-200"
    alphabetic="0" />
<glyph unicode=" " glyph-name="space" horiz-adv-x="194" />
<glyph unicode="!" glyph-name="exclam" horiz-adv-x="299" d="M142 223T143 233L197 690Q199 700 208 700H227Q231 700 233 697T235 690L177 233Q176 223 166 223H152Q142 223 143 233ZM112 4T102 15T91 44Q91 66 106 81T141 96Q159 96 169 85T180 56Q180 34
165 19T130 4Q112 4 102 15Z" />
<glyph unicode="&quot;" glyph-name="quotedbl" horiz-adv-x="213" d="M82 496T82 506L99 683Q101 693 110 693H132Q136 693 138 690T140 683L114 506Q113 496 103 496H91Q82 496 82 506ZM183 496T184 506L202 683Q204 693 213 693H233Q238 693 240 690T242 683L216
506Q215 496 205 496H193Q183 496 184 506Z" />
<glyph unicode="#" glyph-name="numbersign" horiz-adv-x="627" d="M580 441T570 441H497Q492 441 492 437L441 250Q441 246 443 246H512Q517 246 519 243T521 236L518 221Q517 211 507 211H434Q429 211 429 207L378 21Q375 12 367 12L349 13Q345 13 343 16T341
24L391 207Q391 211 389 211H208Q203 211 203 207L152 21Q149 12 141 12L123 13Q119 13 117 16T115 24L165 207Q165 211 163 211H98Q93 211 91 214T89 221L92 236Q93 246 103 246H172Q177 246 177 250L227 437Q228 438 227 439T225 441H161Q152 441 152 451L155
466Q156 476 166 476H235Q240 476 240 480L291 667Q294 676 302 676L321 675Q325 675 327 672T328 664L278 480Q278 476 281 476H461Q466 476 466 480L517 667Q520 676 528 676L547 675Q551 675 553 672T554 664L504 480Q504 476 507 476H575Q580 476 582 473T584
466L581 451Q580 441 570 441ZM403 246T403 250L453 437Q454 438 453 439T451 441H271Q266 441 266 437L215 250Q215 246 217 246H398Q403 246 403 250Z" />
<glyph unicode="$" glyph-name="dollar" horiz-adv-x="536" d="M479 108T424 53T273 -8Q268 -8 268 -12L259 -86Q257 -96 248 -96H232Q227 -96 225 -93T223 -86L233 -12Q235 -8 230 -8Q148 -3 103 37T58 144Q58 151 60 169L64 204Q66 214 75 214H89Q94 214 96
211T98 204L94 172Q93 165 93 153Q93 95 137 61T259 27Q346 27 394 70T443 185Q443 233 407 267T280 347Q218 377 186 397T136 445T117 515Q117 523 119 541Q128 618 178 660T312 708Q316 708 316 712L326 791Q328 801 337 801H352Q357 801 359 798T361 791L350
711Q350 707 353 707Q433 702 475 662T518 555Q518 547 516 529L513 505Q511 495 502 495H486Q481 495 479 498T477 505L480 526Q481 533 481 546Q481 605 441 639T323 673Q249 673 205 640T154 543Q153 536 153 522Q153 488 169 466T215 426T306 379Q395 336 437
295T479 193Q479 108 424 53Z" />
<glyph unicode="%" glyph-name="percent" horiz-adv-x="833" d="M222 439T189 473T156 558Q156 598 177 633T232 689T306 710Q356 710 389 676T423 592Q423 551 402 516T346 460T273 439Q222 439 189 473ZM199 0T198 3T199 12L651 693Q656 700 663 700H674Q680
700 681 697T679 688L229 7Q224 0 216 0H205Q199 0 198 3ZM307 469T333 485T376 529T393 588Q393 627 368 653T303 680Q273 680 246 664T203 620T186 562Q186 522 211 496T277 469Q307 469 333 485ZM524 -10T492 24T459 109Q459 149 479 184T534 240T608 261Q659
261 692 227T725 143Q725 102 704 67T649 11T575 -10Q524 -10 492 24ZM609 20T636 36T679 80T695 139Q695 178 670 204T605 231Q575 231 548 215T505 171T489 112Q489 73 514 47T579 20Q609 20 636 36Z" />
<glyph unicode="&amp;" glyph-name="ampersand" horiz-adv-x="618" d="M532 10T532 6Q532 0 523 0H501Q493 0 490 6L433 89Q432 91 430 91T427 89Q373 37 326 15T219 -8Q143 -8 99 26T55 123Q55 131 57 147Q66 218 111 268T236 372Q239 373 237 377Q193 444 177
479T160 544Q160 591 181 628T241 687T326 708Q388 708 425 676T462 588Q462 541 440 503T383 435T294 368Q290 367 292 363L377 239L409 191L435 152Q437 147 440 152Q470 185 517 240Q525 248 531 243L544 234Q552 228 545 220Q486 150 459 123V121Q459 118 463
111L530 12Q532 10 532 6ZM273 671T240 643T199 563Q198 558 198 549Q198 525 212 494T268 399Q271 396 274 398Q348 449 386 490T424 584Q424 624 397 647T323 671Q273 671 240 643ZM276 27T317 48T407 118Q411 121 408 124Q408 124 342 223Q291 297 260 341Q259
344 255 342Q202 305 170 277T116 212T94 130Q94 81 129 54T225 27Q276 27 317 48Z" />
<glyph unicode="&apos;" glyph-name="quotesingle" horiz-adv-x="111" d="M82 502T83 512L100 687Q102 697 111 697H133Q142 697 142 687L115 512Q114 502 104 502H92Q82 502 83 512Z" />
<glyph unicode="(" glyph-name="parenleft" horiz-adv-x="214" d="M60 -110T57 -103Q33 -49 20 27T6 191Q6 252 14 322Q30 446 71 564T166 758Q170 765 178 765H194Q200 765 201 762T200 753Q151 677 112 561T58 324Q50 263 50 186Q50 102 61 28T95 -98L96 -102Q96
-110 86 -110H68Q60 -110 57 -103Z" />
<glyph unicode=")" glyph-name="parenright" horiz-adv-x="214" d="M196 765T199 758Q223 704 236 628T250 464Q250 403 242 333Q226 209 185 91T90 -103Q86 -110 78 -110H62Q56 -110 55 -107T56 -98Q105 -22 144 94T198 332Q206 393 206 469Q206 553 195 627T161
753L160 757Q160 765 170 765H188Q196 765 199 758Z" />
<glyph unicode="*" glyph-name="asterisk" horiz-adv-x="385" d="M206 393T208 403L224 539Q225 541 224 542T220 542L94 472Q92 471 89 471Q83 471 81 476L78 484Q77 485 77 488Q77 495 83 498L208 567Q210 568 210 570T209 573L101 642Q98 644 97 648T99 656L104
664Q106 668 110 669T118 668L227 598Q229 597 230 598T232 601L249 737Q249 741 252 744T260 747H269Q278 747 278 737L261 601Q261 596 265 598L392 668Q394 669 397 669Q403 669 406 664L408 656Q409 655 409 652Q409 645 403 642L277 573Q275 572 275 570T276
567L385 498Q389 496 389 492T387 484L382 476Q380 472 376 471T368 472L259 542Q257 543 256 542T253 539L237 403Q235 393 226 393H216Q206 393 208 403Z" />
<glyph unicode="+" glyph-name="plus" d="M470 336T470 326L468 312Q466 302 457 302H283Q282 302 281 301T279 298L258 124Q256 114 247 114H233Q223 114 225 124L246 298Q246 302 243 302H70Q60 302 62 312L63 326Q65 336 74 336H247Q251 336 251 340L274 523Q274
527 277 530T285 533H298Q307 533 307 523L284 340Q284 336 288 336H461Q470 336 470 326Z" />
<glyph unicode="," glyph-name="comma" horiz-adv-x="256" d="M52 -71T51 -68T51 -60L123 145Q124 149 127 151T134 154H150Q162 154 157 143L81 -62Q78 -71 69 -71H57Q52 -71 51 -68Z" />
<glyph unicode="-" glyph-name="hyphen" horiz-adv-x="376" d="M61 300T61 310L63 325Q65 335 74 335H346Q356 335 354 325L352 310Q352 306 349 303T341 300H70Q61 300 61 310Z" />
<glyph unicode="." glyph-name="period" horiz-adv-x="273" d="M100 5T90 16T79 44Q79 66 93 81T128 96Q145 96 156 86T168 58Q168 35 154 20T117 5Q100 5 90 16Z" />
<glyph unicode="/" glyph-name="slash" horiz-adv-x="356" d="M13 0T18 11L300 692Q305 700 313 700H330Q335 700 337 697T338 689L55 8Q52 0 43 0H25Q13 0 18 11Z" />
<glyph unicode="0" glyph-name="zero" horiz-adv-x="545" d="M172 -9T126 34T80 151Q80 160 82 180L124 520Q135 606 193 657T339 709Q419 709 465 666T512 549Q512 540 510 520L468 180Q458 95 398 43T251 -9Q172 -9 126 34ZM326 26T374 67T430 178L472 522Q474
538 474 546Q474 605 437 639T335 674Q266 674 218 632T162 522L120 178Q119 170 119 155Q119 96 155 61T255 26Q326 26 374 67Z" />
<glyph unicode="1" glyph-name="one" horiz-adv-x="338" d="M259 700T266 700H288Q298 700 296 690L213 10Q211 0 202 0H183Q179 0 177 3T175 10L253 648Q254 650 253 651T249 651L136 598L132 597Q127 597 125 604L122 617Q122 625 130 630L253 697Q259 700 266 700Z" />
<glyph unicode="2" glyph-name="two" horiz-adv-x="509" d="M95 35T99 35H421Q426 35 428 32T430 25L428 10Q426 0 417 0H54Q44 0 46 10L48 27Q50 35 54 39L179 184Q302 326 312 338Q422 466 430 539Q431 546 431 558Q431 611 397 642T303 673Q240 673 198 636T148
538L143 505Q143 501 140 498T133 495H114Q104 495 106 505L110 542Q120 616 174 662T307 708Q382 708 425 669T469 563Q469 547 468 539Q458 453 346 324Q237 198 175 128L98 40Q95 35 99 35Z" />
<glyph unicode="3" glyph-name="three" horiz-adv-x="489" d="M424 301T424 261Q424 237 421 208Q415 155 398 113Q372 53 326 23T215 -8Q142 -8 100 36T58 151Q58 157 61 196Q62 206 72 206H90Q100 206 99 196Q96 157 96 155Q96 98 129 63T220 27Q320 27 361
121Q376 153 384 209Q387 233 387 255Q387 286 380 317Q357 400 264 400Q253 400 237 396Q228 393 225 399L217 410Q215 414 215 415Q215 420 219 424L424 660Q426 661 426 663T423 665H130Q120 665 122 675L124 690Q124 694 127 697T134 700H470Q479 700 479 690L476
670Q474 661 471 657L277 433Q275 431 276 430T280 428Q389 427 417 329Q424 301 424 261Z" />
<glyph unicode="4" glyph-name="four" horiz-adv-x="510" d="M455 235T453 225L451 209Q451 205 448 202T441 199H401Q398 199 396 195L374 10Q372 0 363 0H344Q340 0 338 3T336 10L359 195Q359 199 355 199H69Q59 199 61 209L63 225Q63 230 67 237L331 693Q335
700 343 700H362Q367 700 368 697T368 688L107 240Q106 238 106 237T109 235H360Q364 235 364 239L386 415Q386 419 389 422T397 425H415Q425 425 423 415L402 239Q402 235 405 235H445Q455 235 453 225Z" />
<glyph unicode="5" glyph-name="five" horiz-adv-x="488" d="M444 262T438 212Q434 171 423 133Q401 68 350 30T231 -8Q166 -8 125 28T76 124Q74 137 74 161Q74 171 84 171H103Q113 171 112 161Q112 147 113 140Q118 89 150 59T235 28Q290 28 331 60T389 149Q397
178 400 212Q405 240 405 286Q405 340 371 368T281 396Q231 396 191 373T132 310Q131 306 128 304T121 302H101Q91 302 93 312L139 690Q141 700 150 700H459Q464 700 466 697T468 690L466 675Q464 665 455 665H178Q175 665 173 661L137 375Q137 373 138 372T142
373Q168 400 206 415T288 431Q356 431 397 398T443 300Q444 262 438 212Z" />
<glyph unicode="6" glyph-name="six" horiz-adv-x="489" d="M444 295T444 268Q444 242 440 211Q432 146 419 121Q394 61 348 27T236 -8Q161 -8 118 35T75 150Q75 166 77 185T80 213L120 531Q130 612 184 660T317 708Q386 708 426 669T467 565Q467 558 465 540L464
533Q462 523 453 523H435Q426 523 426 533L427 540Q428 547 428 561Q428 611 397 642T313 673Q253 673 209 635T157 531L136 358Q136 355 137 355T140 356Q168 396 205 413T289 431Q417 431 440 307Q444 295 444 268ZM397 163T402 212Q406 239 406 262Q406 276
404 288Q399 336 367 366T281 396Q228 396 189 366T133 287Q124 262 118 211Q114 178 114 156Q114 143 115 137Q118 89 150 59T237 28Q287 28 327 55T385 137Q397 163 402 212Z" />
<glyph unicode="7" glyph-name="seven" horiz-adv-x="449" d="M130 0T135 11L444 660Q445 662 444 663T442 665H143Q140 665 138 661L133 617Q131 607 122 607H108Q103 607 101 610T99 617L108 690Q110 700 119 700H481Q491 700 489 690L487 671Q485 663 483 659L175
8Q171 0 162 0H142Q130 0 135 11Z" />
<glyph unicode="8" glyph-name="eight" horiz-adv-x="498" d="M435 264T435 231Q435 218 433 192Q425 121 388 68Q361 32 321 12T229 -8Q176 -8 140 13T86 76Q71 110 71 157Q71 169 73 193Q80 249 105 292Q135 348 194 374Q200 376 195 379Q161 399 141 431Q121
465 121 507Q121 572 158 626Q185 665 227 687T317 709Q368 709 402 688T455 626Q469 596 469 558Q469 486 423 430Q397 398 359 380Q354 377 358 375Q411 350 428 288Q435 264 435 231ZM188 424T215 409T277 393Q313 393 344 409T398 453Q431 499 431 554Q431
580 420 604Q407 636 380 654T311 673Q271 673 239 654T185 602Q164 568 161 533Q160 526 160 512Q160 477 174 451Q188 424 215 409ZM388 131T395 194Q398 212 398 228Q398 247 392 277Q381 317 351 338T273 360Q182 360 138 282Q117 241 111 193Q109 169 109
159Q109 118 122 89Q153 27 233 27Q311 27 356 86Q388 131 395 194Z" />
<glyph unicode="9" glyph-name="nine" horiz-adv-x="502" d="M473 555T473 543Q473 513 469 487L430 169Q420 88 365 40T233 -8Q163 -8 123 30T82 133Q82 142 84 160L85 167Q85 171 88 174T95 177H114Q124 177 122 167L121 160Q120 154 120 141Q120 90 151 59T237
27Q297 27 340 65T392 169L414 344Q414 347 412 347T409 345Q358 269 260 269Q132 269 108 393Q105 405 105 425Q105 446 110 489Q116 546 129 579Q155 640 201 674T314 708Q381 708 422 673T471 577Q473 555 473 543ZM321 304T360 334T415 413Q425 436 432 489Q437
532 435 563Q431 611 399 641T311 672Q261 672 221 645T163 563Q154 539 147 488Q143 442 143 433Q143 422 145 412Q150 364 181 334T267 304Q321 304 360 334Z" />
<glyph unicode=":" glyph-name="colon" horiz-adv-x="317" d="M166 358T156 369T145 397Q145 419 159 434T194 449Q211 449 222 439T234 411Q234 388 220 373T183 358Q166 358 156 369ZM124 17T114 28T103 56Q103 78 117 93T152 108Q169 108 180 98T192 70Q192
47 178 32T141 17Q124 17 114 28Z" />
<glyph unicode=";" glyph-name="semicolon" horiz-adv-x="299" d="M159 362T148 373T136 402Q136 423 152 439T189 456Q206 456 218 444T231 414Q231 393 215 378T177 362Q159 362 148 373ZM86 -65T84 -62T83 -54L134 139Q137 148 145 148H164Q168 148 170 145T171
137L112 -56Q111 -65 101 -65H90Q86 -65 84 -62Z" />
<glyph unicode="&lt;" glyph-name="less" d="M437 58T434 56T425 56L60 245Q54 250 55 257L58 279Q58 286 66 291L477 480Q479 481 482 481Q485 481 487 479T488 473L485 454Q485 447 477 443L98 271Q93 268 98 265L434 93Q440 89 440 82L437 63Q437 58 434 56Z" />
<glyph unicode="=" glyph-name="equal" d="M74 416T76 426L77 440Q79 450 88 450H475Q484 450 484 440L482 426Q480 416 471 416H84Q74 416 76 426ZM304 456T306 466L307 480Q309 490 318 490H705Q714 490 714 480L712 466Q710 456 701 456H314Q304 456 306 466Z" />
<glyph unicode="&gt;" glyph-name="greater" d="M40 55T37 55Q34 55 32 57T31 63L33 82Q34 89 41 93L420 265Q425 268 420 271L84 443Q78 448 79 454L81 473Q82 478 85 480T94 480L459 291Q465 286 464 279L461 257Q461 250 453 245L42 56Q40 55 37 55Z" />
<glyph unicode="?" glyph-name="question" horiz-adv-x="420" d="M176 190T178 200L186 270Q191 311 213 337T279 395Q312 421 330 438T364 481T383 543Q384 550 384 564Q384 614 354 643T273 673Q215 673 176 638T129 544L124 507Q124 503 121 500T113 497L95
498Q85 498 87 508L91 544Q100 617 151 663T277 709Q344 709 383 671T423 568Q423 560 421 542Q415 498 398 466T359 413T303 367Q265 338 247 318T226 269L218 200Q217 196 214 193T207 190H186Q176 190 178 200ZM156 4T146 15T135 44Q135 66 149 80T185 95Q202
95 213 85T224 58Q224 35 210 20T174 4Q156 4 146 15Z" />
<glyph unicode="@" glyph-name="at" horiz-adv-x="807" d="M575 599T633 568T723 480T755 352Q755 307 743 259Q721 172 672 122T563 71Q529 71 506 86T475 131Q473 137 470 132Q450 103 421 87T354 71Q306 71 279 96T251 161Q251 194 267 252Q282 316 294 341Q314
384 352 409T435 435Q464 435 486 424T519 392Q520 390 521 391T524 394L530 421Q533 430 541 430H552Q556 430 559 427T561 419L508 200Q504 185 504 170Q504 138 521 120T570 101Q615 101 653 142T711 258Q724 304 724 348Q724 414 695 464T612 541T489 568Q408
568 327 531T187 418T113 230Q109 203 109 172Q109 65 167 1T335 -63Q383 -63 431 -51T506 -21Q511 -18 514 -18T519 -23L524 -31Q526 -35 526 -37Q526 -43 521 -45Q487 -68 434 -81T327 -94Q206 -94 142 -22T77 171Q77 199 82 237Q98 353 163 435T317 558T496
599Q575 599 633 568ZM396 101T424 122T467 177Q468 179 473 191T489 253Q497 286 500 302T504 330Q508 362 489 384T434 406Q398 406 368 385T321 331Q316 320 311 304T298 253Q288 216 286 203T284 177Q280 143 301 122T360 101Q396 101 424 122Z" />
<glyph unicode="A" glyph-name="A" horiz-adv-x="560" d="M467 0T465 8L438 146Q437 149 434 149H122Q119 149 118 146L58 8Q57 4 53 2T46 0H27Q16 0 21 11L321 692Q324 700 333 700H359Q362 700 365 698T369 692L504 11V9Q504 0 495 0H475Q467 0 465 8ZM134 185T135
184T139 182H427Q429 182 430 183T431 187L342 644Q341 646 339 646T336 644L135 187Q134 185 135 184Z" />
<glyph unicode="B" glyph-name="B" horiz-adv-x="611" d="M443 363T443 362T445 360Q490 341 513 304T537 216Q537 151 509 102T432 27T322 0H96Q86 0 88 10L171 690Q173 700 182 700H401Q480 700 525 660T570 550Q570 483 537 435T446 364Q443 363 443 362ZM207
665T205 661L171 383Q171 379 175 379H362Q437 379 484 424T532 541Q532 598 496 631T397 665H210Q207 665 205 661ZM395 36T442 78T498 189Q499 197 499 212Q499 273 462 308T358 344H170Q166 344 166 340L129 40Q129 38 130 37T132 36H326Q395 36 442 78Z" />
<glyph unicode="C" glyph-name="C" horiz-adv-x="588" d="M189 -9T137 40T85 170Q85 181 87 203L123 498Q135 593 201 650T366 708Q454 708 506 660T559 529Q559 519 557 499V498Q555 488 546 488L527 487Q518 487 519 496V499Q521 517 521 525Q521 593 478 633T362
673Q281 673 226 625T161 499L125 201Q123 183 123 174Q123 107 166 67T283 26Q362 26 417 74T483 201V203Q485 212 494 212L512 211Q522 211 520 202Q513 140 480 92T395 18T278 -9Q189 -9 137 40Z" />
<glyph unicode="D" glyph-name="D" horiz-adv-x="599" d="M86 0T88 10L171 690Q173 700 182 700H404Q485 700 531 659T577 546Q577 537 575 515L535 185Q525 99 467 50T318 0H96Q86 0 88 10ZM129 35T132 35H324Q395 35 442 76T497 187L537 512Q539 530 539 538Q539
598 503 631T402 665H210Q207 665 205 661L129 39Q129 35 132 35Z" />
<glyph unicode="E" glyph-name="E" horiz-adv-x="596" d="M593 665T584 665H210Q207 665 205 661L170 373Q170 369 173 369H441Q450 369 450 359L448 343Q447 339 444 336T437 333H169Q165 333 165 329L129 39Q129 35 132 35H507Q517 35 515 25L513 10Q513 6 510
3T502 0H96Q86 0 88 10L171 690Q173 700 182 700H588Q593 700 595 697T597 690L595 675Q593 665 584 665Z" />
<glyph unicode="F" glyph-name="F" horiz-adv-x="555" d="M592 665T583 665H210Q207 665 205 661L170 373Q170 369 173 369H440Q449 369 449 359L447 343Q446 339 443 336T436 333H169Q165 333 165 329L125 10Q125 6 122 3T114 0H96Q86 0 88 10L171 690Q173 700
182 700H587Q592 700 594 697T596 690L594 675Q592 665 583 665Z" />
<glyph unicode="G" glyph-name="G" horiz-adv-x="595" d="M189 -8T137 40T85 168Q85 178 87 200L123 500Q135 594 201 651T366 708Q454 708 506 660T558 533Q558 523 556 503L555 488Q553 478 544 478H525Q515 478 517 488L519 503Q520 511 520 527Q520 593 478
633T362 673Q281 673 226 626T161 501L124 199Q123 191 123 175Q123 107 166 67T284 27Q363 27 417 73T481 196L494 305Q495 306 494 307T491 309H333Q324 309 324 319L326 334Q328 344 337 344H527Q536 344 536 334L520 203Q508 106 442 49T278 -8Q189 -8 137
40Z" />
<glyph unicode="H" glyph-name="H" horiz-adv-x="646" d="M569 694T572 697T580 700H598Q607 700 607 690L523 10Q521 0 512 0H494Q485 0 485 10L524 329Q525 330 524 331T521 333H169Q165 333 165 329L125 10Q125 6 122 3T114 0H96Q86 0 88 10L171 690Q173 700
182 700H200Q205 700 207 697T209 690L170 373Q170 369 173 369H525Q527 369 528 370T530 373L569 690Q569 694 572 697Z" />
<glyph unicode="I" glyph-name="I" horiz-adv-x="249" d="M86 0T88 10L171 690Q173 700 182 700H200Q205 700 207 697T209 690L125 10Q125 6 122 3T114 0H96Q86 0 88 10Z" />
<glyph unicode="J" glyph-name="J" horiz-adv-x="557" d="M136 -8T86 38T35 163Q35 173 37 193L47 273Q49 283 58 283H76Q81 283 83 280T85 273L75 192Q73 176 73 168Q73 103 114 65T225 27Q303 27 356 72T418 192L480 690Q480 694 483 697T490 700H508Q518 700
516 690L455 193Q444 102 380 47T221 -8Q136 -8 86 38Z" />
<glyph unicode="K" glyph-name="K" horiz-adv-x="586" d="M86 0T88 10L171 690Q173 700 182 700H200Q205 700 207 697T209 690L164 326Q164 324 165 323T169 324L558 695Q563 700 570 700H590Q596 700 597 697T595 688L315 415Q312 412 314 409L535 12Q537 8 537
7Q537 4 535 2T528 0H504Q497 0 493 6L284 380Q284 382 282 382T279 381L159 271Q157 269 157 266L125 10Q125 6 122 3T114 0H96Q86 0 88 10Z" />
<glyph unicode="L" glyph-name="L" horiz-adv-x="550" d="M86 0T88 10L171 690Q173 700 182 700H200Q205 700 207 697T209 690L129 39Q129 35 132 35H484Q489 35 491 32T493 25L491 10Q489 0 480 0H96Q86 0 88 10Z" />
<glyph unicode="M" glyph-name="M" horiz-adv-x="694" d="M618 700T625 700H646Q650 700 652 697T654 690L571 10Q569 0 560 0H541Q531 0 533 10L608 622Q608 625 607 625T603 623L386 332Q381 325 374 325H364Q358 325 353 332L205 622Q204 625 203 624T200 620L125
10Q125 6 122 3T114 0H96Q86 0 88 10L171 690Q173 700 182 700H202Q210 700 213 693L372 379Q373 378 375 378T378 379L613 693Q618 700 625 700Z" />
<glyph unicode="N" glyph-name="N" horiz-adv-x="661" d="M584 700T593 700H612Q622 700 620 690L537 10Q535 0 526 0H506Q500 0 496 7L205 620Q204 623 203 623T200 619L125 10Q125 6 122 3T114 0H96Q86 0 88 10L171 690Q173 700 182 700H201Q209 700 212 693L503
82Q504 79 505 79T508 83L582 690Q584 700 593 700Z" />
<glyph unicode="O" glyph-name="O" horiz-adv-x="603" d="M191 -8T139 43T86 181Q86 191 88 215L122 484Q130 550 163 601T250 680T368 708Q458 708 511 657T564 518Q564 508 562 484L529 215Q521 149 487 99T400 20T280 -8Q191 -8 139 43ZM367 27T424 78T491
213L524 485Q526 505 526 515Q526 587 483 630T364 673Q282 673 226 622T159 485L126 213Q124 193 124 183Q124 112 167 70T285 27Q367 27 424 78Z" />
<glyph unicode="P" glyph-name="P" horiz-adv-x="572" d="M492 702T534 660T577 546Q577 537 575 515Q565 431 510 381T373 330H161Q158 330 156 326L118 10Q116 0 107 0H88Q78 0 80 10L164 692Q164 696 167 699T174 702H420Q492 702 534 660ZM423 364T460 386T518
449T539 540Q539 598 506 632T414 666H202Q198 666 198 662L162 368Q161 367 162 366T165 364H376Q423 364 460 386Z" />
<glyph unicode="Q" glyph-name="Q" horiz-adv-x="551" d="M429 708T479 659T530 527Q530 517 528 493L493 206Q482 116 424 59T279 -7Q274 -7 274 -11L262 -113Q261 -117 258 -120T251 -123H232Q222 -123 224 -113L236 -11Q238 -7 233 -7Q156 0 112 48T68 172Q68
182 70 206L105 493Q113 557 145 605T229 681T343 708Q429 708 479 659ZM490 495Q492 515 492 524Q492 592 451 632T339 673Q261 673 207 624T143 495L108 205Q106 187 106 177Q106 109 147 68T259 27Q338 27 391 76T455 205L490 495Z" />
<glyph unicode="R" glyph-name="R" horiz-adv-x="593" d="M484 0T483 7L371 332Q370 335 367 335H169Q165 335 165 331L125 10Q125 6 122 3T114 0H96Q86 0 88 10L171 690Q173 700 182 700H420Q492 700 534 658T577 544Q577 462 531 406T411 338Q406 336 408 333L519
12L520 8Q520 0 511 0H494Q484 0 483 7ZM207 665T205 661L170 372Q170 368 173 368H378Q423 368 460 390T518 451T539 539Q539 597 506 631T414 665H210Q207 665 205 661Z" />
<glyph unicode="S" glyph-name="S" horiz-adv-x="562" d="M168 -8T113 33T58 145Q58 153 60 169L64 204Q66 214 75 214H91Q100 214 100 204L96 172Q95 166 95 154Q95 96 142 62T272 27Q363 27 414 69T466 184Q466 233 428 267T293 347Q226 378 192 398T138 446T118
516Q118 523 120 541Q130 622 188 665T342 708Q439 708 491 667T543 554Q543 547 541 529L538 505Q538 501 535 498T527 495H509Q500 495 500 505L503 526Q504 533 504 546Q504 604 461 638T336 673Q250 673 203 635T156 523Q156 489 173 466T222 426T319 379Q415
335 460 294T505 190Q505 176 504 168Q494 88 431 40T265 -8Q168 -8 113 33Z" />
<glyph unicode="T" glyph-name="T" horiz-adv-x="545" d="M557 700T559 697T561 690L559 675Q557 665 548 665H353Q349 665 349 661L269 10Q267 0 258 0H240Q235 0 233 3T231 10L311 661Q311 665 308 665H120Q116 665 114 668T112 675L114 690Q116 700 125 700H553Q557
700 559 697Z" />
<glyph unicode="U" glyph-name="U" horiz-adv-x="637" d="M208 -8T155 42T102 176Q102 187 104 209L163 690Q165 700 174 700H193Q197 700 199 697T201 690L142 206Q140 188 140 179Q140 110 183 69T302 27Q385 27 441 76T507 206L567 690Q569 700 578 700H596Q605
700 605 690L546 209Q538 145 505 96T418 19T298 -8Q208 -8 155 42Z" />
<glyph unicode="V" glyph-name="V" horiz-adv-x="556" d="M239 0T237 8L104 689V691Q104 700 113 700H132Q135 700 138 698T142 692L264 63Q264 61 266 61T270 63L546 692Q549 700 558 700H576Q587 700 582 689L281 8Q278 0 269 0H247Q239 0 237 8Z" />
<glyph unicode="W" glyph-name="W" horiz-adv-x="852" d="M205 0T203 8L94 689V691Q94 695 97 697T104 700H123Q130 700 132 692L229 82Q230 80 231 80T234 82L468 691Q472 700 480 700H500Q508 700 510 691L598 82Q598 80 600 80T603 82L851 692Q856 700 863
700H881Q886 700 888 697T889 689L611 8Q608 0 599 0H579Q570 0 570 9L484 627Q484 629 483 629T480 627L244 9Q240 0 232 0H212Q205 0 203 8Z" />
<glyph unicode="X" glyph-name="X" horiz-adv-x="552" d="M23 0T22 3T25 12L276 347Q279 350 277 353L108 688Q107 690 107 694Q107 700 115 700H135Q143 700 146 693L301 384Q302 383 304 383T307 384L537 693Q544 700 550 700H570Q576 700 577 697T574 688L323
352Q320 349 322 346L491 12Q492 10 492 6Q492 0 484 0H464Q457 0 453 7L299 315Q298 317 296 317T293 315L62 7Q57 0 49 0H29Q23 0 22 3Z" />
<glyph unicode="Y" glyph-name="Y" horiz-adv-x="528" d="M227 0T227 10L266 326Q266 327 266 328T266 331L107 688Q106 690 106 693Q106 700 115 700H133Q141 700 144 693L287 372Q288 371 290 371T293 372L515 693Q520 700 527 700H546Q551 700 553 697T551
688L304 331Q303 330 303 326L264 10Q262 0 253 0H236Q227 0 227 10Z" />
<glyph unicode="Z" glyph-name="Z" horiz-adv-x="529" d="M31 0T31 10L34 29Q34 32 39 42L488 660Q490 662 489 663T486 665H121Q117 665 115 668T113 675L115 690Q117 700 126 700H528Q537 700 537 690L534 671Q534 668 529 658L80 40Q78 38 79 37T82 35H447Q451
35 453 32T455 25L453 10Q453 6 450 3T442 0H40Q31 0 31 10Z" />
<glyph unicode="[" glyph-name="bracketleft" horiz-adv-x="352" d="M-1 -109T-1 -99L104 752Q106 762 115 762H279Q289 762 287 752L285 737Q285 733 282 730T275 727H143Q141 727 140 726T138 723L41 -70Q41 -74 44 -74H177Q186 -74 186 -84L184 -99Q182 -109
173 -109H8Q-1 -109 -1 -99Z" />
<glyph unicode="\" glyph-name="backslash" horiz-adv-x="356" d="M303 9Q303 0 293 0H275Q267 0 265 8L150 689V691Q150 700 160 700H177Q185 700 188 692L303 11V9Z" />
<glyph unicode="]" glyph-name="bracketright" horiz-adv-x="352" d="M289 -103T286 -106T279 -109H114Q109 -109 107 -106T105 -99L107 -84Q109 -74 118 -74H251Q255 -74 255 -70L353 723Q353 727 349 727H216Q212 727 210 730T208 737L210 752Q210 756 213 759T221
762H386Q390 762 392 759T394 752L290 -99Q289 -103 286 -106Z" />
<glyph unicode="^" glyph-name="asciicircum" horiz-adv-x="426" d="M69 312T67 315T68 324L258 692Q261 700 269 700H290Q298 700 299 692L400 324V321Q400 317 397 315T390 312H376Q367 312 366 320L277 655Q277 658 275 658T272 655L100 320Q97 312 89 312H74Q69
312 67 315Z" />
<glyph unicode="_" glyph-name="underscore" horiz-adv-x="452" d="M13 0T15 10L17 24Q17 28 20 31T27 34H395Q404 34 404 24L402 10Q400 0 391 0H23Q13 0 15 10Z" />
<glyph unicode="`" glyph-name="grave" horiz-adv-x="173" d="M187 578Q187 570 177 570H165Q158 570 154 577L105 688Q104 690 104 693Q104 700 113 700H129Q139 700 140 693L186 582L187 578Z" />
<glyph unicode="a" glyph-name="a" horiz-adv-x="520" d="M436 502T445 502H463Q472 502 472 492L413 10Q412 6 409 3T402 0H383Q373 0 375 10L382 72Q383 75 381 75T378 73Q353 35 315 14T228 -8Q164 -8 123 29T76 126Q75 134 75 151Q75 175 84 249Q91 301 95
328T108 378Q127 437 177 473T293 510Q341 510 373 489T421 430Q422 427 424 427T426 431L434 492Q436 502 445 502ZM391 155T394 178T404 250Q410 299 412 322T413 362Q411 411 380 443T295 475Q240 475 199 443T141 362Q136 347 133 324T123 252Q117 203 115
180T114 140Q116 91 150 59T240 27Q295 27 333 59T386 140Q391 155 394 178Z" />
<glyph unicode="b" glyph-name="b" horiz-adv-x="521" d="M467 369T467 351Q467 324 458 250Q453 203 448 175T435 124Q413 64 363 28T248 -8Q204 -8 172 11T121 65Q120 67 119 67T116 64L110 10Q108 0 99 0H81Q76 0 74 3T72 10L156 690Q156 694 159 697T166 700H185Q195
700 193 690L162 438Q162 435 163 435T167 437Q192 471 229 490T312 510Q378 510 419 474T466 377Q467 369 467 351ZM405 153T409 174T421 252Q429 313 429 340Q429 357 426 370Q421 416 389 445T304 475Q253 475 216 445T163 369Q155 349 151 328T139 250Q131
183 131 158Q131 150 133 134Q137 88 167 58T249 27Q302 27 343 57T398 134Q405 153 409 174Z" />
<glyph unicode="c" glyph-name="c" horiz-adv-x="497" d="M173 -8T131 28T80 126Q78 150 78 164Q78 200 84 252Q93 324 111 377Q133 437 184 473T304 510Q371 510 415 475T466 386Q468 377 468 360Q468 351 458 349L440 347H438Q431 347 431 356L430 370Q426 414
391 444T299 475Q242 475 201 444T144 362Q130 318 122 251Q116 204 116 162Q116 101 149 64T244 27Q300 27 344 57T400 133L402 138Q405 148 415 146L431 143Q441 141 438 132Q435 122 433 116Q415 62 362 27T241 -8Q173 -8 131 28Z" />
<glyph unicode="d" glyph-name="d" horiz-adv-x="521" d="M460 700T469 700H488Q492 700 494 697T496 690L413 10Q412 6 409 3T402 0H383Q373 0 375 10L381 65Q382 68 381 68T377 66Q351 31 314 12T232 -8Q159 -8 118 36T76 151Q76 184 84 250Q96 340 108 377Q129
437 179 473T295 510Q340 510 372 491T422 437Q424 435 425 435T427 438L458 690Q460 700 469 700ZM388 151T392 172T404 250Q412 315 412 341Q412 351 410 369Q407 415 377 445T295 475Q243 475 203 446T147 370Q139 352 135 330T123 252Q114 174 114 159Q114
150 116 134Q119 87 153 57T240 27Q292 27 329 57T381 134Q388 151 392 172Z" />
<glyph unicode="e" glyph-name="e" horiz-adv-x="512" d="M294 27T332 50T392 115Q397 123 406 120L420 114Q429 111 424 102Q398 52 349 22T238 -8Q171 -8 130 27T79 121Q76 139 76 158Q76 193 84 252Q90 300 94 326T107 375Q129 436 180 473T300 510Q374 510
416 470T462 363L463 345Q463 328 454 251Q452 240 443 240H125Q121 240 120 236Q116 205 114 179T113 141Q117 89 151 58T244 27Q294 27 332 50ZM239 475T198 444T141 363Q133 333 125 278Q125 274 129 274H415Q419 274 419 278Q425 331 425 361Q420 413 386 444T296
475Q239 475 198 444Z" />
<glyph unicode="f" glyph-name="f" horiz-adv-x="332" d="M257 665T232 635T198 537L194 506Q194 502 197 502H315Q325 502 323 492L321 476Q321 472 318 469T310 466H193Q189 466 189 462L133 10Q131 0 122 0H104Q95 0 95 10L151 462Q151 466 147 466H84Q80 466
78 469T76 476L78 492Q80 502 89 502H152Q156 502 156 506L160 538Q170 623 205 661T320 700H343Q353 700 351 690L350 675Q348 665 339 665H317Q257 665 232 635Z" />
<glyph unicode="g" glyph-name="g" horiz-adv-x="510" d="M435 502T444 502H462Q471 502 471 492L411 6Q384 -207 146 -199Q137 -199 138 -189L141 -172Q142 -162 152 -162Q255 -165 308 -123T373 7L381 67Q381 70 380 70T376 68Q351 33 314 14T230 -6Q166 -6
125 29T76 126Q73 143 73 164Q73 191 80 250Q91 335 107 379Q129 438 179 474T293 510Q339 510 371 491T421 437Q422 434 424 434T426 438L433 492Q435 502 444 502ZM390 156T393 179T403 251Q409 300 411 322T413 362Q411 411 380 443T294 475Q240 475 200 444T140
362Q129 330 119 252Q112 193 112 163Q112 147 113 142Q118 92 151 60T239 28Q295 28 333 60T386 141Q390 156 393 179Z" />
<glyph unicode="h" glyph-name="h" horiz-adv-x="520" d="M383 509T422 470T462 366Q462 358 460 340L419 10Q419 6 416 3T408 0H390Q381 0 381 10L421 333Q422 340 422 355Q422 409 391 441T306 474Q243 474 200 436T149 335L109 10Q107 0 98 0H80Q75 0 73 3T71
10L155 690Q155 694 158 697T165 700H184Q194 700 192 690L161 438Q161 435 162 435T165 436Q191 471 229 490T317 509Q383 509 422 470Z" />
<glyph unicode="i" glyph-name="i" horiz-adv-x="248" d="M163 610T152 620T140 648Q140 671 155 686T191 701Q208 701 219 690T230 661Q230 640 216 625T180 610Q163 610 152 620ZM83 1T85 11L144 493Q146 503 155 503H173Q178 503 180 500T182 493L123 11Q122
7 119 4T112 1H93Q83 1 85 11Z" />
<glyph unicode="j" glyph-name="j" horiz-adv-x="234" d="M148 610T138 621T127 649Q127 671 141 686T176 701Q193 701 204 691T216 663Q216 640 202 625T165 610Q148 610 138 621ZM-69 -210T-67 -200L-65 -185Q-65 -181 -62 -178T-54 -175Q-4 -173 26 -144T63
-64L131 492Q133 502 142 502H161Q165 502 167 499T169 492L101 -63Q93 -133 52 -170T-59 -210Q-69 -210 -67 -200Z" />
<glyph unicode="k" glyph-name="k" horiz-adv-x="471" d="M75 0T73 3T71 10L155 690Q155 694 158 697T165 700H184Q194 700 192 690L138 250Q138 248 139 247T143 248L412 497Q417 502 424 502H449Q456 502 456 497Q456 494 452 490L314 359Q311 356 312 354L419
12V9Q419 5 416 3T409 0H390Q381 0 380 8L283 326Q281 330 278 327L134 195Q131 194 131 190L109 10Q107 0 98 0H80Q75 0 73 3Z" />
<glyph unicode="l" glyph-name="l" horiz-adv-x="217" d="M75 0T73 3T71 10L155 690Q155 694 158 697T165 700H184Q194 700 192 690L109 10Q107 0 98 0H80Q75 0 73 3Z" />
<glyph unicode="m" glyph-name="m" horiz-adv-x="803" d="M673 509T710 473T747 373Q747 364 745 346L704 10Q703 6 700 3T693 0H674Q664 0 666 10L706 339Q707 347 707 361Q707 414 677 444T596 474Q535 474 495 439T446 341L406 10Q404 0 395 0H376Q372 0 370
3T368 10L408 339Q410 355 410 363Q410 415 380 444T299 474Q238 474 198 439T150 341L109 10Q107 0 98 0H80Q75 0 73 3T71 10L130 492Q132 502 141 502H160Q164 502 166 499T168 492L162 442Q161 439 162 439T166 441Q191 474 228 491T312 509Q363 509 397 486T443
419Q444 417 445 417T447 419Q471 463 513 486T609 509Q673 509 710 473Z" />
<glyph unicode="n" glyph-name="n" horiz-adv-x="520" d="M383 509T422 470T462 366Q462 358 460 340L419 10Q419 6 416 3T408 0H390Q381 0 381 10L421 333Q422 340 422 355Q422 409 391 441T306 474Q243 474 200 436T149 335L109 10Q107 0 98 0H80Q75 0 73 3T71
10L130 492Q132 502 141 502H160Q164 502 166 499T168 492L161 438Q161 435 162 435T165 436Q191 471 229 490T317 509Q383 509 422 470Z" />
<glyph unicode="o" glyph-name="o" horiz-adv-x="517" d="M162 -8T119 37T76 155Q76 176 84 252Q95 339 108 377Q131 437 182 473T302 510Q370 510 413 474T463 377Q464 369 464 351Q464 314 456 252Q450 202 446 175T433 126Q410 65 358 29T238 -8Q162 -8 119
37ZM298 27T340 58T399 141Q407 165 418 251Q427 332 427 350Q427 406 392 440T297 475Q241 475 200 444T141 361Q132 333 122 251Q112 163 114 141Q118 89 152 58T242 27Q298 27 340 58Z" />
<glyph unicode="p" glyph-name="p" horiz-adv-x="529" d="M476 324T467 252Q457 164 443 125Q422 65 372 29T256 -8Q211 -8 179 11T129 65Q128 67 127 67T124 64L93 -188Q93 -192 90 -195T82 -198H64Q55 -198 55 -188L139 492Q141 502 150 502H168Q173 502 175
499T177 492L170 437Q170 434 171 434T174 436Q200 471 237 490T320 510Q393 510 434 466T476 350Q476 324 467 252ZM412 150T417 172T428 250Q437 328 437 343Q437 352 435 368Q432 415 398 445T311 475Q260 475 223 445T170 368Q163 350 159 329T147 252Q139
187 139 161Q139 151 141 133Q145 87 175 57T256 27Q308 27 348 56T404 132Q412 150 417 172Z" />
<glyph unicode="q" glyph-name="q" horiz-adv-x="529" d="M436 502T445 502H463Q472 502 472 492L388 -188Q386 -198 377 -198H359Q350 -198 350 -188L381 64Q382 67 381 67T377 65Q351 31 314 12T232 -8Q159 -8 118 35T76 149Q76 186 84 252Q95 339 108 378Q130
438 180 474T295 510Q340 510 372 491T422 436Q424 434 425 434T427 437L434 492Q436 502 445 502ZM388 152T392 173T404 252Q412 316 412 341Q412 352 410 368Q406 414 376 444T295 475Q242 475 201 445T145 368Q138 351 134 330T123 250Q115 189 115 162Q115
146 118 132Q123 86 155 57T240 27Q291 27 328 57T381 133Q388 152 392 173Z" />
<glyph unicode="r" glyph-name="r" horiz-adv-x="345" d="M342 506T362 495Q369 492 366 482L356 462Q353 452 344 457Q324 465 297 464Q240 464 197 419T146 310L109 10Q107 0 98 0H80Q75 0 73 3T71 10L130 492Q132 502 141 502H160Q164 502 166 499T168 492L159
417Q158 414 160 414T163 416Q188 458 225 482T307 506Q342 506 362 495Z" />
<glyph unicode="s" glyph-name="s" horiz-adv-x="460" d="M144 -4T101 28T58 110Q58 119 59 124L61 138Q61 142 64 145T72 148H89Q99 148 97 138L96 125Q93 100 107 78T150 43T218 29Q281 29 321 61T362 143Q362 169 346 185T309 210T237 237Q189 252 160 266T111
302T91 360Q91 425 143 465T275 506Q344 506 386 474T428 391Q428 382 427 377L426 374Q424 364 415 364H398Q389 364 389 374L390 377Q395 418 362 445T270 473Q208 473 169 444T129 367Q129 342 144 326T182 299T248 274Q299 258 328 246T379 210T400 150Q400
106 377 71T311 16T215 -4Q144 -4 101 28Z" />
<glyph unicode="t" glyph-name="t" horiz-adv-x="345" d="M320 474T317 471T310 468H192Q188 468 188 464L147 132Q145 116 145 109Q145 68 167 52T235 35H256Q261 35 263 32T265 25L263 10Q261 0 252 0H228Q169 0 138 21T107 98Q107 105 109 125L151 464Q151
468 148 468H89Q84 468 82 471T80 478L82 492Q82 496 85 499T93 502H152Q156 502 156 506L170 619Q172 629 181 629H198Q203 629 205 626T207 619L193 506Q193 504 194 503T196 502H314Q324 502 322 492L321 478Q320 474 317 471Z" />
<glyph unicode="u" glyph-name="u" horiz-adv-x="518" d="M434 502T443 502H461Q470 502 470 492L411 10Q410 6 407 3T400 0H381Q371 0 373 10L379 63Q380 66 379 66T375 64Q349 29 311 11T225 -7Q160 -7 120 30T80 133Q80 149 81 158L122 492Q123 496 126 499T133
502H152Q162 502 160 492L120 167Q119 159 119 145Q119 91 150 60T236 28Q299 28 341 66T392 167L432 492Q434 502 443 502Z" />
<glyph unicode="v" glyph-name="v" horiz-adv-x="441" d="M182 0T179 8L77 491V493Q77 502 86 502H108Q112 502 115 500T119 494L206 63Q206 61 208 61T211 63L405 494Q410 502 418 502H439Q450 502 445 491L225 8Q220 0 212 0H190Q182 0 179 8Z" />
<glyph unicode="w" glyph-name="w" horiz-adv-x="671" d="M156 0T153 8L76 491V493Q76 502 86 502H104Q114 502 114 494L178 59Q179 57 181 57T184 59L356 494Q358 502 367 502H386Q393 502 395 494L462 60Q463 58 464 58T467 60L640 494Q643 502 651 502H670Q682
502 677 491L480 8Q477 0 469 0H448Q441 0 438 8L371 428Q370 430 368 430T365 428L196 8Q191 0 184 0H163Q156 0 153 8Z" />
<glyph unicode="x" glyph-name="x" horiz-adv-x="436" d="M14 0T13 4T15 12L207 248Q208 250 208 254L74 490L72 495Q72 502 81 502H100Q109 502 111 496L231 285Q232 284 234 284T237 285L405 496Q410 502 418 502H439Q445 502 446 499T443 490L252 254Q251 251
252 248L385 12Q387 8 387 7Q387 0 377 0H357Q348 0 346 6L229 217Q229 219 227 219T224 217L53 6Q49 0 41 0H19Q14 0 13 4Z" />
<glyph unicode="y" glyph-name="y" horiz-adv-x="427" d="M8 -200T10 -190L11 -175Q12 -171 15 -168T22 -165H26Q63 -164 84 -152T125 -108T176 -3Q178 2 177 3L69 491V493Q69 502 78 502H97Q100 502 103 500T107 494L200 55Q200 53 202 53T206 55L403 494Q408
502 416 502H434Q444 502 441 491L187 -56Q158 -119 136 -149T89 -189T22 -200H15Q8 -200 10 -190Z" />
<glyph unicode="z" glyph-name="z" horiz-adv-x="425" d="M17 0T19 10L21 29Q23 38 26 42L378 461Q380 463 379 464T376 466H87Q77 466 79 476L81 492Q83 502 92 502H421Q425 502 427 499T429 492L427 473Q425 464 421 460L68 41Q67 40 67 38T69 36H361Q366 36
368 33T370 26L368 10Q366 0 357 0H27Q17 0 19 10Z" />
<glyph unicode="{" glyph-name="braceleft" horiz-adv-x="261" d="M101 -109T83 -91T64 -33Q64 -12 66 0L93 222Q95 244 95 252Q95 279 86 293T59 312Q50 314 51 322L53 338Q54 347 63 348Q87 354 101 375T120 438L146 653Q153 711 176 736T247 762H294Q299 762
301 759T303 752L301 737Q299 727 290 727H249Q220 727 204 709T183 648L158 440Q152 395 139 370T102 333Q98 332 101 328Q133 308 133 253Q133 244 131 220L104 5Q103 -3 103 -18Q103 -47 114 -60T151 -74H192Q202 -74 200 -84L198 -99Q198 -103 195 -106T187
-109H140Q101 -109 83 -91Z" />
<glyph unicode="|" glyph-name="bar" horiz-adv-x="145" d="M25 -80T25 -70L126 750Q128 760 137 760H155Q160 760 162 757T164 750L63 -70Q61 -80 52 -80H34Q25 -80 25 -70Z" />
<glyph unicode="}" glyph-name="braceright" horiz-adv-x="261" d="M8 -109Q-1 -109 -1 -99L1 -84Q3 -74 12 -74H52Q82 -74 98 -56T119 5L145 220Q151 264 164 289T201 328Q206 332 202 333Q185 342 178 359T170 405Q170 427 172 440L198 648Q200 666 200 672Q200
701 188 714T150 727H111Q106 727 104 730T102 737L104 752Q106 762 115 762H162Q202 762 220 744T238 686Q238 665 236 653L210 438Q208 416 208 409Q208 382 217 368T244 348Q253 346 252 338L250 322Q249 313 240 312Q216 307 202 286T183 222L156 0Q149 -58
126 -83T55 -109H8Z" />
<glyph unicode="~" glyph-name="asciitilde" horiz-adv-x="471" d="M310 246T290 254T239 282Q219 294 204 300T168 306Q117 306 85 264Q79 254 72 261L64 267Q56 272 62 280Q80 309 108 325T171 342Q196 342 214 335T253 315Q257 313 273 303T307 288T345 282Q367
282 382 292T417 323Q423 330 431 325L441 318Q447 312 442 304Q421 276 397 261T341 246Q310 246 290 254Z" />
<glyph unicode="&#xa0;" glyph-name="uni00A0" horiz-adv-x="194" />
<glyph unicode="&#xa1;" glyph-name="exclamdown" horiz-adv-x="299" d="M233 708T244 697T255 668Q255 646 241 632T205 617Q188 617 177 627T166 655Q166 678 180 693T216 708Q233 708 244 697ZM174 490T184 490H199Q208 490 207 480L153 22Q151 12 142 12H124Q119
12 117 15T115 22L173 480Q174 490 184 490Z" />
<glyph unicode="&#xa2;" glyph-name="cent" horiz-adv-x="497" d="M413 228Q416 238 426 236L442 233Q452 231 449 222Q446 212 444 206Q427 154 376 120T260 82Q256 82 256 78L247 9Q247 5 244 2T237 -1H220Q210 -1 212 9L221 80Q222 84 218 85Q165 94 132 129T92
216Q89 236 89 258Q89 293 95 342Q104 414 122 467Q142 519 183 553T280 597Q284 598 284 602L293 672Q295 682 304 682H320Q325 682 327 679T329 672L320 604Q318 600 323 600Q388 597 429 563T477 476Q479 467 479 450Q479 441 469 439L451 437H449Q442 437 442
446L441 460Q437 505 402 535T310 565Q253 565 212 534T155 452Q141 408 133 341Q127 294 127 252Q127 191 160 154T255 117Q311 117 355 147T412 223L413 228Z" />
<glyph unicode="&#xa3;" glyph-name="sterling" horiz-adv-x="585" d="M171 37T171 36T174 34H525Q534 34 534 24L532 10Q530 0 521 0H124Q114 0 116 10L118 26Q118 33 126 38Q152 52 172 88T198 171L215 314Q215 318 212 318H135Q125 318 127 328L128 341Q130
351 139 351H216Q220 351 220 355L241 522Q251 609 307 658T450 708Q508 708 543 678T591 588V586Q591 579 583 576L564 571L561 570Q555 570 553 578Q543 628 516 651T442 674Q373 674 330 634T278 522L258 355Q258 351 261 351H450Q455 351 457 348T459 341L457
328Q457 324 454 321T446 318H257Q253 318 253 314L236 173Q231 131 214 97T173 39Q171 37 171 36Z" />
<glyph unicode="&#xa4;" glyph-name="currency" horiz-adv-x="482" d="M440 285T426 249T384 184Q382 181 385 178L439 114Q441 110 441 109Q441 104 436 100L423 90Q416 84 410 91L356 153Q354 155 351 154Q296 113 232 113Q171 113 127 151Q124 153 121 150L56
91Q47 83 42 90L32 100Q25 107 32 114L99 174Q102 177 100 180Q69 224 69 278Q69 316 84 352T126 418Q128 422 126 424L72 488Q70 490 70 493Q70 498 74 502L87 512Q90 515 94 515Q97 515 101 511L153 449Q156 446 159 448Q213 489 278 489Q311 489 339 478T390
445Q393 442 396 445L468 511Q476 518 482 512L492 502Q499 495 492 488L416 420Q413 418 415 414Q440 375 440 324Q440 285 426 249ZM105 224T142 186T236 148Q279 148 318 171T381 234T405 319Q405 376 368 415T274 454Q231 454 192 430T129 366T105 281Q105
224 142 186Z" />
<glyph unicode="&#xa5;" glyph-name="yen" horiz-adv-x="669" d="M622 700T624 697T622 688L388 347Q387 345 387 344T390 342H514Q519 342 521 339T523 332L522 323Q520 313 511 313H377Q373 313 373 309L361 215Q361 211 364 211H498Q503 211 505 208T507 201L506
192Q504 182 495 182H361Q357 182 357 178L336 10Q334 0 325 0H307Q302 0 300 3T298 10L319 178Q319 182 315 182H176Q171 182 169 185T167 192L168 201Q170 211 179 211H319Q323 211 323 215L335 309Q335 313 331 313H192Q187 313 185 316T183 323L184 332Q186
342 195 342H325Q329 342 329 347L178 688Q177 690 177 693Q177 700 186 700H204Q212 700 215 693L358 372Q359 371 361 371T364 372L587 693Q592 700 599 700H617Q622 700 624 697Z" />
<glyph unicode="&#xa6;" glyph-name="brokenbar" horiz-adv-x="145" d="M82 396T84 406L126 750Q128 760 137 760H155Q160 760 162 757T164 750L122 406Q120 396 111 396H92Q82 396 84 406ZM25 -80T25 -70L68 274Q68 278 71 281T79 284H97Q107 284 105 274L63
-70Q61 -80 52 -80H34Q25 -80 25 -70Z" />
<glyph unicode="&#xa7;" glyph-name="section" horiz-adv-x="421" d="M107 -207T75 -172T43 -74Q43 -66 45 -46L47 -31Q47 -27 50 -24T58 -21H76Q86 -21 84 -31L83 -43Q82 -51 82 -67Q82 -116 105 -144T171 -173Q217 -173 251 -138T292 -51Q293 -45 293 -35Q293
15 262 39T181 79Q142 92 117 109T79 158Q67 185 67 219Q67 289 106 341Q143 389 198 402Q201 403 201 404T199 406Q162 421 139 456T115 534Q115 578 136 618T195 682T279 707Q335 707 368 671T402 577Q402 562 401 555L399 542Q399 538 396 535T388 532H370Q361
532 361 542L363 553Q364 559 364 571Q364 616 340 644T275 673Q241 673 213 653T168 600T152 533Q152 491 180 464T262 419Q292 408 315 395T355 355Q374 327 374 280Q374 209 337 154Q321 130 299 114T251 94Q245 93 250 91Q288 75 309 44T331 -32Q331 -80 309
-120T249 -183T165 -207Q107 -207 75 -172ZM270 118T307 170Q328 202 334 247Q335 256 335 272Q335 313 320 333Q292 378 238 378Q208 378 180 361T133 316Q105 274 105 218Q105 189 114 171Q142 118 204 118Q270 118 307 170Z" />
<glyph unicode="&#xa8;" glyph-name="dieresis" horiz-adv-x="307" d="M269 611T259 622T248 650Q248 672 262 687T297 702Q314 702 325 692T337 664Q337 641 323 626T286 611Q269 611 259 622ZM115 611T105 622T94 650Q94 672 108 687T143 702Q160 702 171 692T183
664Q183 641 169 626T132 611Q115 611 105 622Z" />
<glyph unicode="&#xa9;" glyph-name="copyright" horiz-adv-x="866" d="M321 -8T251 31T141 141T102 299Q102 323 105 348Q117 450 172 532T314 661T500 708Q592 708 662 668T772 558T811 398Q811 374 808 348Q796 248 741 167T599 39T412 -8Q321 -8 251 31ZM507
23T585 65T713 182T775 348Q778 372 778 395Q778 477 743 541T644 641T496 677Q404 677 327 634T199 516T137 348Q134 324 134 302Q134 222 169 159T268 59T416 23Q507 23 585 65ZM393 169T369 191T345 252Q345 262 346 267L366 433Q372 477 402 503T479 530Q520
530 544 508T569 448Q569 439 568 434V432Q567 423 557 423L548 424Q539 424 539 434L540 436Q543 466 526 484T476 503Q443 503 421 485T395 436L374 262Q370 233 388 215T438 196Q470 196 492 214T518 262L519 265Q519 270 522 273T530 276H539Q550 276 548 267V266Q543
223 512 196T435 169Q393 169 369 191Z" />
<glyph unicode="&#xaa;" glyph-name="ordfeminine" horiz-adv-x="312" d="M283 562Q285 562 286 563T288 566L291 596Q292 601 292 612Q292 644 274 662T217 681Q184 681 161 667T129 630Q124 621 116 622L107 624Q96 626 100 635Q111 668 144 688T222 708Q271
708 297 683T323 616Q323 604 322 598L295 381Q293 371 284 371H274Q269 371 267 374T265 381L268 406Q268 411 264 407Q246 387 219 377T158 366Q116 366 90 385T63 443Q63 498 103 530T209 562H283ZM207 392T239 413T276 473L283 531Q284 532 283 533T280 535H206Q155
535 123 513T91 449Q91 420 111 406T165 392Q207 392 239 413ZM43 290T52 290H282Q292 290 290 280L289 267Q287 257 278 257H48Q38 257 40 267L41 280Q43 290 52 290Z" />
<glyph unicode="&#xab;" glyph-name="guillemotleft" horiz-adv-x="538" d="M272 114Q272 107 263 107H247Q239 107 236 113L122 274Q120 278 120 280Q120 285 124 288L277 449Q283 455 290 455H306Q312 455 313 452T310 443L158 284Q157 282 157 278L270 119L272
114ZM419 115T419 113Q419 111 417 109T411 107H394Q388 107 383 113L269 274Q267 278 267 279Q267 284 271 288L425 449Q430 455 437 455H454Q459 455 460 451T457 443L306 284Q303 281 305 278L417 119Q419 115 419 113Z" />
<glyph unicode="&#xac;" glyph-name="logicalnot" d="M65 336T74 336H461Q470 336 470 326L453 188Q451 178 442 178H426Q422 178 420 181T418 188L431 298Q432 299 431 300T428 302H70Q60 302 62 312L63 326Q65 336 74 336Z" />
<glyph unicode="&#xad;" glyph-name="uni00AD" horiz-adv-x="376" d="M61 300T61 310L63 325Q65 335 74 335H346Q356 335 354 325L352 310Q352 306 349 303T341 300H70Q61 300 61 310Z" />
<glyph unicode="&#xae;" glyph-name="registered" horiz-adv-x="441" d="M336 715T374 693T433 633T454 548Q454 490 425 441T346 362T242 332Q195 332 157 354T98 414T77 500Q77 557 106 606T185 685T289 715Q336 715 374 693ZM292 358T334 383T401 452T427 545Q427
606 387 647T285 689Q238 689 196 664T129 595T103 503Q103 441 143 400T245 358Q292 358 334 383ZM328 548T319 535T295 515Q292 514 293 510L312 446V443Q312 439 310 437T303 434H298Q289 434 288 442L269 508Q268 511 265 511H244Q240 511 240 507L232 444Q230
434 221 434H217Q207 434 209 444L228 601Q230 611 239 611H286Q306 611 317 599T328 566Q328 548 319 535ZM251 590T249 586L243 534Q243 532 244 531T246 530H274Q288 530 296 539T305 565Q305 577 299 583T281 590H254Q251 590 249 586Z" />
<glyph unicode="&#xaf;" glyph-name="overscore" horiz-adv-x="249" d="M54 601T56 611L57 623Q59 633 68 633H298Q308 633 306 623L305 611Q303 601 294 601H64Q54 601 56 611Z" />
<glyph unicode="&#xb0;" glyph-name="degree" horiz-adv-x="371" d="M168 494T131 532T93 630Q93 678 116 719T180 784T265 808Q324 808 362 770T400 672Q400 624 377 583T313 518T227 494Q168 494 131 532ZM267 525T299 544T350 597T369 668Q369 715 339 746T261
777Q225 777 193 758T142 706T123 634Q123 587 153 556T230 525Q267 525 299 544Z" />
<glyph unicode="&#xb1;" glyph-name="plusminus" d="M472 350T472 340L470 326Q468 316 459 316H285Q284 316 283 315T281 312L260 138Q258 128 249 128H235Q225 128 227 138L248 312Q248 316 245 316H72Q62 316 64 326L65 340Q67 350 76 350H249Q253 350 253
354L276 537Q276 541 279 544T287 547H300Q309 547 309 537L286 354Q286 350 290 350H463Q472 350 472 340ZM23 0T25 10L26 24Q28 34 37 34H424Q433 34 433 24L431 10Q429 0 420 0H33Q23 0 25 10Z" />
<glyph unicode="&#xb2;" glyph-name="uni00B2" horiz-adv-x="309" d="M73 454T75 464L76 475Q78 483 82 487L139 551Q203 623 234 659Q269 700 287 730T305 785Q305 814 285 832T232 850Q196 850 172 829T144 774L142 758Q140 748 131 748H118Q108 748 110 758L112
778Q119 824 153 851T235 879Q282 879 309 854T336 789Q336 733 264 649Q200 574 121 487Q120 485 120 484T122 482H303Q313 482 311 472L310 464Q310 460 307 457T299 454H83Q73 454 75 464Z" />
<glyph unicode="&#xb3;" glyph-name="uni00B3" horiz-adv-x="312" d="M322 638T322 607Q322 599 320 579Q314 535 296 505Q279 477 252 462T190 447Q151 447 127 469T95 528Q93 542 93 548L94 568Q95 578 105 578H118Q126 578 126 570Q126 563 125 554T125 539Q127
511 145 494T194 477Q242 477 267 517Q284 546 288 579Q289 587 289 602Q289 631 281 648Q274 667 258 677T219 688Q210 688 205 686H201Q196 686 193 690L188 696Q186 700 186 701Q186 706 190 710L307 839Q308 840 308 842T306 844H140Q135 844 133 847T131 854L132
862Q134 872 143 872H343Q353 872 351 862L350 851Q349 844 345 839L237 717Q235 716 235 714T238 712Q293 708 313 660Q322 638 322 607Z" />
<glyph unicode="&#xb4;" glyph-name="acute" horiz-adv-x="173" d="M91 570T90 573T91 582L164 693Q168 700 177 700H193Q199 700 200 697T198 688L122 577Q115 570 109 570H97Q91 570 90 573Z" />
<glyph unicode="&#xb5;" glyph-name="uni00B5" horiz-adv-x="527" d="M440 496T443 499T451 502H469Q478 502 478 492L418 10Q418 6 415 3T407 0H389Q380 0 380 10L387 61Q387 64 385 64T382 62Q357 29 319 11T234 -7Q158 -7 118 42Q113 45 113 40L84 -190Q84
-194 81 -197T73 -200H55Q45 -200 47 -190L130 492Q132 502 141 502H160Q164 502 166 499T168 492L128 167Q127 159 127 145Q127 91 158 60T244 28Q307 28 349 66T400 167L440 492Q440 496 443 499Z" />
<glyph unicode="&#xb6;" glyph-name="paragraph" horiz-adv-x="538" d="M490 700Q495 700 497 697T499 690L391 -190Q389 -200 380 -200H368Q358 -200 360 -190L465 664Q465 668 461 668H325Q323 668 322 667T320 664L215 -190Q215 -194 212 -197T204 -200H191Q182
-200 182 -190L236 246Q236 250 233 250Q188 252 153 278T97 346T77 442Q77 453 79 475Q86 537 119 588T201 670T305 700H490Z" />
<glyph unicode="&#xb7;" glyph-name="middot" horiz-adv-x="192" d="M87 228T77 239T66 267Q66 289 80 304T115 319Q132 319 143 309T155 281Q155 258 141 243T104 228Q87 228 77 239Z" />
<glyph unicode="&#xb8;" glyph-name="cedilla" horiz-adv-x="123" d="M-41 -178T-38 -168L-35 -160Q-31 -151 -22 -152Q-10 -155 0 -155Q20 -155 35 -145T57 -114Q60 -104 60 -93Q60 -53 21 -12Q17 -8 17 -5Q17 0 24 0H33Q41 0 45 -4Q92 -45 92 -93Q92 -108 87
-125Q77 -156 53 -169T-2 -183Q-17 -183 -32 -180Q-41 -178 -38 -168Z" />
<glyph unicode="&#xb9;" glyph-name="uni00B9" horiz-adv-x="175" d="M179 874T186 874H203Q207 874 209 871T211 864L162 464Q160 454 151 454H138Q134 454 132 457T130 464L176 836Q176 838 175 839T172 839L116 827L113 826Q105 826 107 836L108 842Q108 850
117 854L174 872Q179 874 186 874Z" />
<glyph unicode="&#xba;" glyph-name="ordmasculine" horiz-adv-x="327" d="M147 367T120 390T86 455Q85 463 85 479Q85 509 89 538Q98 598 105 620Q120 660 154 684T232 708Q281 708 309 679T338 600Q338 578 333 538Q327 481 317 455Q302 415 268 391T191 367Q147
367 120 390ZM227 395T252 414T289 467Q295 481 302 538Q308 588 308 597L307 608Q303 641 283 660T228 680Q194 680 170 661T133 608Q127 590 120 538Q115 498 115 480Q115 441 135 418T194 395Q227 395 252 414ZM49 258T49 268L51 280Q53 290 62 290H298Q302
290 304 287T306 280L305 268Q304 264 301 261T294 258H58Q49 258 49 268Z" />
<glyph unicode="&#xbb;" glyph-name="guillemotright" horiz-adv-x="538" d="M108 107T108 112Q108 115 112 119L263 278Q265 282 264 284L151 443L149 448Q149 455 158 455H174Q182 455 185 449L299 288Q301 286 301 282Q301 277 297 274L144 113Q138 107 131
107H115Q108 107 108 112ZM256 107T256 112Q256 115 260 119L411 278Q413 282 412 284L299 443L297 448Q297 455 306 455H322Q330 455 333 449L447 288Q449 286 449 282Q449 277 445 274L292 113Q286 107 279 107H263Q256 107 256 112Z" />
<glyph unicode="&#xbc;" glyph-name="onequarter" horiz-adv-x="773" d="M157 700T164 700H181Q185 700 187 697T189 690L140 290Q138 280 129 280H116Q112 280 110 283T108 290L154 662Q154 664 153 665T150 665L94 653L91 652Q83 652 85 662L86 668Q86 676 95
680L152 698Q157 700 164 700ZM79 0T86 12L595 693Q600 700 607 700H621Q627 700 628 697T625 688L116 7Q109 0 103 0H91Q79 0 86 12ZM715 147T717 144T719 137L718 127Q716 117 707 117H688Q684 117 684 113L671 10Q671 6 668 3T660 0H648Q639 0 639 10L652 113Q652
115 651 116T649 117H482Q477 117 475 120T473 127L474 137Q476 143 479 149L632 413Q635 420 643 420H655Q660 420 661 417T660 408L512 152Q511 150 512 149T514 147H652Q655 147 657 151L668 247Q670 257 679 257H692Q702 257 700 247L689 151Q688 150 689 149T692
147H710Q715 147 717 144Z" />
<glyph unicode="&#xbd;" glyph-name="onehalf" horiz-adv-x="770" d="M157 700T164 700H181Q185 700 187 697T189 690L140 290Q138 280 129 280H116Q112 280 110 283T108 290L154 662Q154 664 153 665T150 665L94 653L91 652Q83 652 85 662L86 668Q86 676 95 680L152
698Q157 700 164 700ZM79 0T86 12L595 693Q600 700 607 700H621Q627 700 628 697T625 688L116 7Q109 0 103 0H91Q79 0 86 12ZM463 0T465 10L466 21Q468 29 472 33L529 97Q593 169 624 205Q659 246 677 276T695 331Q695 360 675 378T622 396Q586 396 562 375T534
320L532 304Q530 294 521 294H508Q498 294 500 304L502 324Q509 370 543 397T625 425Q672 425 699 400T726 335Q726 279 654 195Q590 120 511 33Q510 31 510 30T512 28H693Q703 28 701 18L700 10Q700 6 697 3T689 0H473Q463 0 465 10Z" />
<glyph unicode="&#xbe;" glyph-name="threequarters" horiz-adv-x="868" d="M302 474T302 443Q302 435 300 415Q294 371 276 341Q259 313 232 298T170 283Q131 283 107 305T75 364Q73 378 73 384L74 404Q75 414 85 414H98Q106 414 106 406Q106 399 105 390T105
375Q107 347 125 330T174 313Q222 313 247 353Q264 382 268 415Q269 423 269 438Q269 467 261 484Q254 503 238 513T199 524Q190 524 185 522H181Q176 522 173 526L168 532Q166 536 166 537Q166 542 170 546L287 675Q288 676 288 678T286 680H120Q115 680 113 683T111
690L112 698Q114 708 123 708H323Q333 708 331 698L330 687Q329 680 325 675L217 553Q215 552 215 550T218 548Q273 544 293 496Q302 474 302 443ZM179 0T186 12L695 693Q700 700 707 700H721Q727 700 728 697T725 688L216 7Q209 0 203 0H191Q179 0 186 12ZM815
147T817 144T819 137L818 127Q816 117 807 117H788Q784 117 784 113L771 10Q771 6 768 3T760 0H748Q739 0 739 10L752 113Q752 115 751 116T749 117H582Q577 117 575 120T573 127L574 137Q576 143 579 149L732 413Q735 420 743 420H755Q760 420 761 417T760 408L612
152Q611 150 612 149T614 147H752Q755 147 757 151L768 247Q770 257 779 257H792Q802 257 800 247L789 151Q788 150 789 149T792 147H810Q815 147 817 144Z" />
<glyph unicode="&#xbf;" glyph-name="questiondown" horiz-adv-x="420" d="M285 496T296 486T308 458Q308 435 294 420T257 405Q240 405 230 416T219 444Q219 466 233 481T268 496Q285 496 296 486ZM261 310T263 307T265 300L256 230Q251 189 230 164T164 105Q131
79 113 62T79 19T60 -43Q59 -50 59 -65Q59 -115 88 -144T170 -173Q227 -173 266 -138T314 -44L318 -7Q320 3 329 3L348 2Q352 2 354 -1T356 -8L352 -44Q343 -117 291 -163T165 -209Q98 -209 59 -171T20 -68Q20 -60 22 -42Q28 2 45 34T85 87T140 133Q176 161 194
181T217 231L225 300Q227 310 236 310H256Q261 310 263 307Z" />
<glyph unicode="&#xc0;" glyph-name="Agrave" horiz-adv-x="560" d="M467 0T465 8L438 146Q437 149 434 149H122Q119 149 118 146L58 8Q57 4 53 2T46 0H27Q16 0 21 11L321 692Q324 700 333 700H359Q362 700 365 698T369 692L504 11V9Q504 0 495 0H475Q467 0 465
8ZM134 185T135 184T139 182H427Q429 182 430 183T431 187L342 644Q341 646 339 646T336 644L135 187Q134 185 135 184ZM371 776Q371 768 361 768H349Q342 768 338 775L289 886Q288 888 288 891Q288 898 297 898H313Q323 898 324 891L370 780L371 776Z" />
<glyph unicode="&#xc1;" glyph-name="Aacute" horiz-adv-x="560" d="M467 0T465 8L438 146Q437 149 434 149H122Q119 149 118 146L58 8Q57 4 53 2T46 0H27Q16 0 21 11L321 692Q324 700 333 700H359Q362 700 365 698T369 692L504 11V9Q504 0 495 0H475Q467 0 465
8ZM134 185T135 184T139 182H427Q429 182 430 183T431 187L342 644Q341 646 339 646T336 644L135 187Q134 185 135 184ZM327 768T326 771T327 780L400 891Q404 898 413 898H429Q435 898 436 895T434 886L358 775Q351 768 345 768H333Q327 768 326 771Z" />
<glyph unicode="&#xc2;" glyph-name="Acircumflex" horiz-adv-x="560" d="M467 0T465 8L438 146Q437 149 434 149H122Q119 149 118 146L58 8Q57 4 53 2T46 0H27Q16 0 21 11L321 692Q324 700 333 700H359Q362 700 365 698T369 692L504 11V9Q504 0 495 0H475Q467
0 465 8ZM134 185T135 184T139 182H427Q429 182 430 183T431 187L342 644Q341 646 339 646T336 644L135 187Q134 185 135 184ZM250 773T249 776T251 785L344 892Q349 898 357 898H380Q387 898 392 892L459 785Q461 781 461 780Q461 777 459 775T452 773H436Q428
773 424 779L369 869Q369 871 367 871T364 869L285 779Q279 773 271 773H256Q250 773 249 776Z" />
<glyph unicode="&#xc3;" glyph-name="Atilde" horiz-adv-x="560" d="M467 0T465 8L438 146Q437 149 434 149H122Q119 149 118 146L58 8Q57 4 53 2T46 0H27Q16 0 21 11L321 692Q324 700 333 700H359Q362 700 365 698T369 692L504 11V9Q504 0 495 0H475Q467 0 465
8ZM134 185T135 184T139 182H427Q429 182 430 183T431 187L342 644Q341 646 339 646T336 644L135 187Q134 185 135 184ZM393 815T366 838Q350 850 342 854T320 859Q303 859 291 853T263 831Q256 823 250 829L244 835Q238 841 243 849Q278 892 323 892Q339 892 351
887T380 869Q396 857 405 852T425 847Q441 847 454 853T482 878Q488 887 496 881L499 878Q502 875 502 875Q504 871 504 869Q504 865 500 858Q483 836 462 826T421 815Q393 815 366 838Z" />
<glyph unicode="&#xc4;" glyph-name="Adieresis" horiz-adv-x="560" d="M467 0T465 8L438 146Q437 149 434 149H122Q119 149 118 146L58 8Q57 4 53 2T46 0H27Q16 0 21 11L321 692Q324 700 333 700H359Q362 700 365 698T369 692L504 11V9Q504 0 495 0H475Q467 0
465 8ZM134 185T135 184T139 182H427Q429 182 430 183T431 187L342 644Q341 646 339 646T336 644L135 187Q134 185 135 184ZM418 809T408 820T397 848Q397 870 411 885T446 900Q463 900 474 890T486 862Q486 839 472 824T435 809Q418 809 408 820ZM264 809T254
820T243 848Q243 870 257 885T292 900Q309 900 320 890T332 862Q332 839 318 824T281 809Q264 809 254 820Z" />
<glyph unicode="&#xc5;" glyph-name="Aring" horiz-adv-x="560" d="M467 0T465 8L438 146Q437 149 434 149H122Q119 149 118 146L58 8Q57 4 53 2T46 0H27Q16 0 21 11L321 692Q324 700 333 700H359Q362 700 365 698T369 692L504 11V9Q504 0 495 0H475Q467 0 465
8ZM134 185T135 184T139 182H427Q429 182 430 183T431 187L342 644Q341 646 339 646T336 644L135 187Q134 185 135 184ZM317 784T293 809T268 872Q268 902 283 928T325 970T380 986Q419 986 444 961T469 898Q469 868 453 842T411 800T356 784Q317 784 293 809ZM391
813T415 836T440 894Q440 922 422 939T377 957Q345 957 321 933T296 876Q296 848 314 831T359 813Q391 813 415 836Z" />
<glyph unicode="&#xc6;" glyph-name="AE" horiz-adv-x="876" d="M874 671T871 668T863 665H524Q520 665 520 661L484 373Q484 369 488 369H721Q726 369 728 366T730 359L728 343Q726 333 717 333H483Q479 333 479 329L443 39Q443 35 447 35H786Q795 35 795 25L793
10Q791 0 782 0H410Q400 0 402 10L418 145Q419 146 418 147T415 149H156Q153 149 151 146L63 7Q59 0 50 0H29Q23 0 21 3T23 12L460 693Q464 700 473 700H868Q878 700 876 690L874 675Q874 671 871 668ZM176 182T179 182H419Q423 182 423 186L481 653Q481 656 480
656T476 654L178 187Q176 182 179 182Z" />
<glyph unicode="&#xc7;" glyph-name="Ccedilla" horiz-adv-x="588" d="M556 492T553 490T546 488L527 487Q518 487 519 496V499Q521 517 521 525Q521 593 478 633T362 673Q281 673 226 625T161 499L125 201Q123 183 123 174Q123 107 166 67T283 26Q362 26 417
74T483 201V203Q485 212 494 212L512 211Q522 211 520 202Q513 140 480 92T395 18T278 -9H267Q264 -9 264 -10T265 -13Q305 -52 305 -97Q305 -111 300 -129Q290 -160 266 -173T213 -187Q197 -187 182 -184Q173 -183 176 -172L179 -164Q180 -160 183 -158T191 -156Q203
-159 214 -159Q234 -159 249 -149T271 -118Q274 -108 274 -97Q274 -57 235 -16Q223 -4 224 -4L211 0Q152 16 119 61T85 171Q85 181 87 203L123 498Q135 593 201 650T366 708Q454 708 506 660T559 529Q559 519 557 499L556 494Q556 492 553 490Z" />
<glyph unicode="&#xc8;" glyph-name="Egrave" horiz-adv-x="596" d="M593 665T584 665H210Q207 665 205 661L170 373Q170 369 173 369H441Q450 369 450 359L448 343Q447 339 444 336T437 333H169Q165 333 165 329L129 39Q129 35 132 35H507Q517 35 515 25L513
10Q513 6 510 3T502 0H96Q86 0 88 10L171 690Q173 700 182 700H588Q593 700 595 697T597 690L595 675Q593 665 584 665ZM405 776Q405 768 395 768H383Q376 768 372 775L323 886Q322 888 322 891Q322 898 331 898H347Q357 898 358 891L404 780L405 776Z" />
<glyph unicode="&#xc9;" glyph-name="Eacute" horiz-adv-x="596" d="M593 665T584 665H210Q207 665 205 661L170 373Q170 369 173 369H441Q450 369 450 359L448 343Q447 339 444 336T437 333H169Q165 333 165 329L129 39Q129 35 132 35H507Q517 35 515 25L513
10Q513 6 510 3T502 0H96Q86 0 88 10L171 690Q173 700 182 700H588Q593 700 595 697T597 690L595 675Q593 665 584 665ZM362 768T361 771T362 780L435 891Q439 898 448 898H464Q470 898 471 895T469 886L393 775Q386 768 380 768H368Q362 768 361 771Z" />
<glyph unicode="&#xca;" glyph-name="Ecircumflex" horiz-adv-x="596" d="M593 665T584 665H210Q207 665 205 661L170 373Q170 369 173 369H441Q450 369 450 359L448 343Q447 339 444 336T437 333H169Q165 333 165 329L129 39Q129 35 132 35H507Q517 35 515 25L513
10Q513 6 510 3T502 0H96Q86 0 88 10L171 690Q173 700 182 700H588Q593 700 595 697T597 690L595 675Q593 665 584 665ZM285 773T284 776T286 785L379 892Q384 898 392 898H415Q422 898 427 892L494 785Q496 781 496 780Q496 777 494 775T487 773H471Q463 773 459
779L404 869Q404 871 402 871T399 869L320 779Q314 773 306 773H291Q285 773 284 776Z" />
<glyph unicode="&#xcb;" glyph-name="Edieresis" horiz-adv-x="596" d="M593 665T584 665H210Q207 665 205 661L170 373Q170 369 173 369H441Q450 369 450 359L448 343Q447 339 444 336T437 333H169Q165 333 165 329L129 39Q129 35 132 35H507Q517 35 515 25L513
10Q513 6 510 3T502 0H96Q86 0 88 10L171 690Q173 700 182 700H588Q593 700 595 697T597 690L595 675Q593 665 584 665ZM453 809T443 820T432 848Q432 870 446 885T481 900Q498 900 509 890T521 862Q521 839 507 824T470 809Q453 809 443 820ZM299 809T289 820T278
848Q278 870 292 885T327 900Q344 900 355 890T367 862Q367 839 353 824T316 809Q299 809 289 820Z" />
<glyph unicode="&#xcc;" glyph-name="Igrave" horiz-adv-x="249" d="M86 0T88 10L171 690Q173 700 182 700H200Q205 700 207 697T209 690L125 10Q125 6 122 3T114 0H96Q86 0 88 10ZM217 776Q217 768 207 768H195Q188 768 184 775L135 886Q134 888 134 891Q134
898 143 898H159Q169 898 170 891L216 780L217 776Z" />
<glyph unicode="&#xcd;" glyph-name="Iacute" horiz-adv-x="249" d="M86 0T88 10L171 690Q173 700 182 700H200Q205 700 207 697T209 690L125 10Q125 6 122 3T114 0H96Q86 0 88 10ZM173 768T172 771T173 780L246 891Q250 898 259 898H275Q281 898 282 895T280
886L204 775Q197 768 191 768H179Q173 768 172 771Z" />
<glyph unicode="&#xce;" glyph-name="Icircumflex" horiz-adv-x="249" d="M86 0T88 10L171 690Q173 700 182 700H200Q205 700 207 697T209 690L125 10Q125 6 122 3T114 0H96Q86 0 88 10ZM96 773T95 776T97 785L190 892Q195 898 203 898H226Q233 898 238 892L305
785Q307 781 307 780Q307 777 305 775T298 773H282Q274 773 270 779L215 869Q215 871 213 871T210 869L131 779Q125 773 117 773H102Q96 773 95 776Z" />
<glyph unicode="&#xcf;" glyph-name="Idieresis" horiz-adv-x="249" d="M86 0T88 10L171 690Q173 700 182 700H200Q205 700 207 697T209 690L125 10Q125 6 122 3T114 0H96Q86 0 88 10ZM264 809T254 820T243 848Q243 870 257 885T292 900Q309 900 320 890T332 862Q332
839 318 824T281 809Q264 809 254 820ZM110 809T100 820T89 848Q89 870 103 885T138 900Q155 900 166 890T178 862Q178 839 164 824T127 809Q110 809 100 820Z" />
<glyph unicode="&#xd0;" glyph-name="Eth" horiz-adv-x="669" d="M555 700T601 659T647 545Q647 535 645 515L605 185Q595 99 536 50T387 0H166Q157 0 157 10L199 346Q199 350 195 350H139Q129 350 131 360L132 372Q134 382 143 382H199Q202 382 204 386L241 690Q243
700 252 700H473Q555 700 601 659ZM607 512Q609 530 609 538Q609 598 573 631T472 665H280Q278 665 277 664T275 661L241 386Q241 382 245 382H376Q386 382 384 372L383 360Q381 350 372 350H241Q238 350 236 346L199 39Q199 35 202 35H394Q465 35 512 76T567 187L607
512Z" />
<glyph unicode="&#xd1;" glyph-name="Ntilde" horiz-adv-x="661" d="M584 700T593 700H612Q622 700 620 690L537 10Q535 0 526 0H506Q500 0 496 7L205 620Q204 623 203 623T200 619L125 10Q125 6 122 3T114 0H96Q86 0 88 10L171 690Q173 700 182 700H201Q209 700
212 693L503 82Q504 79 505 79T508 83L582 690Q584 700 593 700ZM445 815T418 838Q402 850 394 854T372 859Q355 859 343 853T315 831Q308 823 302 829L296 835Q290 841 295 849Q330 892 375 892Q391 892 403 887T432 869Q448 857 457 852T477 847Q493 847 506
853T534 878Q540 887 548 881L551 878Q554 875 554 875Q556 871 556 869Q556 865 552 858Q535 836 514 826T473 815Q445 815 418 838Z" />
<glyph unicode="&#xd2;" glyph-name="Ograve" horiz-adv-x="603" d="M191 -8T139 43T86 181Q86 191 88 215L122 484Q130 550 163 601T250 680T368 708Q458 708 511 657T564 518Q564 508 562 484L529 215Q521 149 487 99T400 20T280 -8Q191 -8 139 43ZM367 27T424
78T491 213L524 485Q526 505 526 515Q526 587 483 630T364 673Q282 673 226 622T159 485L126 213Q124 193 124 183Q124 112 167 70T285 27Q367 27 424 78ZM393 776Q393 768 383 768H371Q364 768 360 775L311 886Q310 888 310 891Q310 898 319 898H335Q345 898 346
891L392 780L393 776Z" />
<glyph unicode="&#xd3;" glyph-name="Oacute" horiz-adv-x="603" d="M191 -8T139 43T86 181Q86 191 88 215L122 484Q130 550 163 601T250 680T368 708Q458 708 511 657T564 518Q564 508 562 484L529 215Q521 149 487 99T400 20T280 -8Q191 -8 139 43ZM367 27T424
78T491 213L524 485Q526 505 526 515Q526 587 483 630T364 673Q282 673 226 622T159 485L126 213Q124 193 124 183Q124 112 167 70T285 27Q367 27 424 78ZM349 768T348 771T349 780L422 891Q426 898 435 898H451Q457 898 458 895T456 886L380 775Q373 768 367 768H355Q349
768 348 771Z" />
<glyph unicode="&#xd4;" glyph-name="Ocircumflex" horiz-adv-x="603" d="M191 -8T139 43T86 181Q86 191 88 215L122 484Q130 550 163 601T250 680T368 708Q458 708 511 657T564 518Q564 508 562 484L529 215Q521 149 487 99T400 20T280 -8Q191 -8 139 43ZM367
27T424 78T491 213L524 485Q526 505 526 515Q526 587 483 630T364 673Q282 673 226 622T159 485L126 213Q124 193 124 183Q124 112 167 70T285 27Q367 27 424 78ZM272 773T271 776T273 785L366 892Q371 898 379 898H402Q409 898 414 892L481 785Q483 781 483 780Q483
777 481 775T474 773H458Q450 773 446 779L391 869Q391 871 389 871T386 869L307 779Q301 773 293 773H278Q272 773 271 776Z" />
<glyph unicode="&#xd5;" glyph-name="Otilde" horiz-adv-x="603" d="M191 -8T139 43T86 181Q86 191 88 215L122 484Q130 550 163 601T250 680T368 708Q458 708 511 657T564 518Q564 508 562 484L529 215Q521 149 487 99T400 20T280 -8Q191 -8 139 43ZM367 27T424
78T491 213L524 485Q526 505 526 515Q526 587 483 630T364 673Q282 673 226 622T159 485L126 213Q124 193 124 183Q124 112 167 70T285 27Q367 27 424 78ZM414 815T387 838Q371 850 363 854T341 859Q324 859 312 853T284 831Q277 823 271 829L265 835Q259 841 264
849Q299 892 344 892Q360 892 372 887T401 869Q417 857 426 852T446 847Q462 847 475 853T503 878Q509 887 517 881L520 878Q523 875 523 875Q525 871 525 869Q525 865 521 858Q504 836 483 826T442 815Q414 815 387 838Z" />
<glyph unicode="&#xd6;" glyph-name="Odieresis" horiz-adv-x="603" d="M191 -8T139 43T86 181Q86 191 88 215L122 484Q130 550 163 601T250 680T368 708Q458 708 511 657T564 518Q564 508 562 484L529 215Q521 149 487 99T400 20T280 -8Q191 -8 139 43ZM367 27T424
78T491 213L524 485Q526 505 526 515Q526 587 483 630T364 673Q282 673 226 622T159 485L126 213Q124 193 124 183Q124 112 167 70T285 27Q367 27 424 78ZM440 809T430 820T419 848Q419 870 433 885T468 900Q485 900 496 890T508 862Q508 839 494 824T457 809Q440
809 430 820ZM286 809T276 820T265 848Q265 870 279 885T314 900Q331 900 342 890T354 862Q354 839 340 824T303 809Q286 809 276 820Z" />
<glyph unicode="&#xd7;" glyph-name="multiply" horiz-adv-x="399" d="M390 460T390 459Q390 454 386 450L248 324Q245 321 248 318L352 195Q354 191 354 190Q354 185 350 181L338 171Q331 164 325 171L221 294Q219 297 216 294L77 167Q69 161 63 167L55 178Q53
182 53 184Q53 189 57 192L194 318Q198 322 195 324L86 453Q83 456 83 459Q83 463 87 467L98 477Q102 480 106 480T112 477L221 348Q224 345 227 348L365 474Q372 481 378 474L388 464Q390 460 390 459Z" />
<glyph unicode="&#xd8;" glyph-name="Oslash" horiz-adv-x="603" d="M604 696T599 688L545 617Q544 615 544 611Q564 569 564 518Q564 508 562 484L529 215Q521 149 487 99T400 20T280 -8Q184 -8 130 52Q127 55 125 51L78 -10Q73 -19 65 -13L52 -3Q46 3 51 10L105
83Q107 87 106 89Q86 129 86 181Q86 191 88 215L122 484Q130 550 163 601T250 680T368 708Q467 708 520 647Q523 644 525 648L571 709Q578 718 584 712L597 702Q604 696 599 688ZM124 193T124 185Q124 154 133 127Q134 123 138 127L496 608Q498 611 496 614Q475
642 442 657T364 673Q282 673 226 622T159 485L126 213Q124 193 124 185ZM526 507T526 516Q526 547 517 572Q517 576 513 572L154 91Q152 87 153 85Q197 27 285 27Q368 27 424 78T491 213L524 485Q526 507 526 516Z" />
<glyph unicode="&#xd9;" glyph-name="Ugrave" horiz-adv-x="637" d="M208 -8T155 42T102 176Q102 187 104 209L163 690Q165 700 174 700H193Q197 700 199 697T201 690L142 206Q140 188 140 179Q140 110 183 69T302 27Q385 27 441 76T507 206L567 690Q569 700 578
700H596Q605 700 605 690L546 209Q538 145 505 96T418 19T298 -8Q208 -8 155 42ZM410 776Q410 768 400 768H388Q381 768 377 775L328 886Q327 888 327 891Q327 898 336 898H352Q362 898 363 891L409 780L410 776Z" />
<glyph unicode="&#xda;" glyph-name="Uacute" horiz-adv-x="637" d="M208 -8T155 42T102 176Q102 187 104 209L163 690Q165 700 174 700H193Q197 700 199 697T201 690L142 206Q140 188 140 179Q140 110 183 69T302 27Q385 27 441 76T507 206L567 690Q569 700 578
700H596Q605 700 605 690L546 209Q538 145 505 96T418 19T298 -8Q208 -8 155 42ZM366 768T365 771T366 780L439 891Q443 898 452 898H468Q474 898 475 895T473 886L397 775Q390 768 384 768H372Q366 768 365 771Z" />
<glyph unicode="&#xdb;" glyph-name="Ucircumflex" horiz-adv-x="637" d="M208 -8T155 42T102 176Q102 187 104 209L163 690Q165 700 174 700H193Q197 700 199 697T201 690L142 206Q140 188 140 179Q140 110 183 69T302 27Q385 27 441 76T507 206L567 690Q569
700 578 700H596Q605 700 605 690L546 209Q538 145 505 96T418 19T298 -8Q208 -8 155 42ZM289 773T288 776T290 785L383 892Q388 898 396 898H419Q426 898 431 892L498 785Q500 781 500 780Q500 777 498 775T491 773H475Q467 773 463 779L408 869Q408 871 406 871T403
869L324 779Q318 773 310 773H295Q289 773 288 776Z" />
<glyph unicode="&#xdc;" glyph-name="Udieresis" horiz-adv-x="637" d="M208 -8T155 42T102 176Q102 187 104 209L163 690Q165 700 174 700H193Q197 700 199 697T201 690L142 206Q140 188 140 179Q140 110 183 69T302 27Q385 27 441 76T507 206L567 690Q569 700
578 700H596Q605 700 605 690L546 209Q538 145 505 96T418 19T298 -8Q208 -8 155 42ZM457 809T447 820T436 848Q436 870 450 885T485 900Q502 900 513 890T525 862Q525 839 511 824T474 809Q457 809 447 820ZM303 809T293 820T282 848Q282 870 296 885T331 900Q348
900 359 890T371 862Q371 839 357 824T320 809Q303 809 293 820Z" />
<glyph unicode="&#xdd;" glyph-name="Yacute" horiz-adv-x="528" d="M227 0T227 10L266 326Q266 327 266 328T266 331L107 688Q106 690 106 693Q106 700 115 700H133Q141 700 144 693L287 372Q288 371 290 371T293 372L515 693Q520 700 527 700H546Q551 700 553
697T551 688L304 331Q303 330 303 326L264 10Q262 0 253 0H236Q227 0 227 10ZM312 767T311 770T312 779L385 890Q389 897 398 897H414Q420 897 421 894T419 885L343 774Q336 767 330 767H318Q312 767 311 770Z" />
<glyph unicode="&#xde;" glyph-name="Thorn" horiz-adv-x="544" d="M445 535T487 493T530 378Q530 369 528 349Q518 265 463 215T326 165H141Q139 165 138 164T136 161L118 10Q116 0 107 0H88Q78 0 80 10L163 690Q165 700 174 700H193Q197 700 199 697T201 690L183
539Q182 538 183 537T186 535H372Q445 535 487 493ZM375 199T412 221T470 282T492 373Q492 431 458 465T366 500H182Q179 500 177 496L141 203Q141 199 145 199H329Q375 199 412 221Z" />
<glyph unicode="&#xdf;" glyph-name="germandbls" horiz-adv-x="533" d="M76 0T74 3T72 10L135 522Q145 609 201 659T340 709Q415 709 458 668T501 555Q501 487 471 439T389 373Q386 372 386 371T388 369Q425 352 445 315T466 227Q466 204 464 192Q453 101 395
51T242 0H171Q162 0 162 10L164 24Q166 34 175 34H249Q325 34 371 75T426 195Q428 217 428 227Q428 287 396 320T305 354H243Q233 354 235 364L236 377Q237 381 240 384T247 387H310Q383 387 423 430T463 551Q463 610 430 642T336 675Q271 675 227 635T173 524L110
10Q108 0 99 0H81Q76 0 74 3Z" />
<glyph unicode="&#xe0;" glyph-name="agrave" horiz-adv-x="487" d="M436 502T445 502H463Q472 502 472 492L413 10Q412 6 409 3T402 0H383Q373 0 375 10L382 72Q383 75 381 75T378 73Q353 35 315 14T228 -8Q164 -8 123 29T76 126Q75 134 75 151Q75 175 84 249Q91
301 95 328T108 378Q127 437 177 473T293 510Q341 510 373 489T421 430Q422 427 424 427T426 431L434 492Q436 502 445 502ZM391 155T394 178T404 250Q410 299 412 322T413 362Q411 411 380 443T295 475Q240 475 199 443T141 362Q136 347 133 324T123 252Q117 203
115 180T114 140Q116 91 150 59T240 27Q295 27 333 59T386 140Q391 155 394 178ZM311 578Q311 570 301 570H289Q282 570 278 577L229 688Q228 690 228 693Q228 700 237 700H253Q263 700 264 693L310 582L311 578Z" />
<glyph unicode="&#xe1;" glyph-name="aacute" horiz-adv-x="487" d="M436 502T445 502H463Q472 502 472 492L413 10Q412 6 409 3T402 0H383Q373 0 375 10L382 72Q383 75 381 75T378 73Q353 35 315 14T228 -8Q164 -8 123 29T76 126Q75 134 75 151Q75 175 84 249Q91
301 95 328T108 378Q127 437 177 473T293 510Q341 510 373 489T421 430Q422 427 424 427T426 431L434 492Q436 502 445 502ZM391 155T394 178T404 250Q410 299 412 322T413 362Q411 411 380 443T295 475Q240 475 199 443T141 362Q136 347 133 324T123 252Q117 203
115 180T114 140Q116 91 150 59T240 27Q295 27 333 59T386 140Q391 155 394 178ZM268 570T267 573T268 582L341 693Q345 700 354 700H370Q376 700 377 697T375 688L299 577Q292 570 286 570H274Q268 570 267 573Z" />
<glyph unicode="&#xe2;" glyph-name="acircumflex" horiz-adv-x="487" d="M436 502T445 502H463Q472 502 472 492L413 10Q412 6 409 3T402 0H383Q373 0 375 10L382 72Q383 75 381 75T378 73Q353 35 315 14T228 -8Q164 -8 123 29T76 126Q75 134 75 151Q75 175 84
249Q91 301 95 328T108 378Q127 437 177 473T293 510Q341 510 373 489T421 430Q422 427 424 427T426 431L434 492Q436 502 445 502ZM391 155T394 178T404 250Q410 299 412 322T413 362Q411 411 380 443T295 475Q240 475 199 443T141 362Q136 347 133 324T123 252Q117
203 115 180T114 140Q116 91 150 59T240 27Q295 27 333 59T386 140Q391 155 394 178ZM191 575T190 578T192 587L285 694Q290 700 298 700H321Q328 700 333 694L400 587Q402 583 402 582Q402 579 400 577T393 575H377Q369 575 365 581L310 671Q310 673 308 673T305
671L226 581Q220 575 212 575H197Q191 575 190 578Z" />
<glyph unicode="&#xe3;" glyph-name="atilde" horiz-adv-x="487" d="M436 502T445 502H463Q472 502 472 492L413 10Q412 6 409 3T402 0H383Q373 0 375 10L382 72Q383 75 381 75T378 73Q353 35 315 14T228 -8Q164 -8 123 29T76 126Q75 134 75 151Q75 175 84 249Q91
301 95 328T108 378Q127 437 177 473T293 510Q341 510 373 489T421 430Q422 427 424 427T426 431L434 492Q436 502 445 502ZM391 155T394 178T404 250Q410 299 412 322T413 362Q411 411 380 443T295 475Q240 475 199 443T141 362Q136 347 133 324T123 252Q117 203
115 180T114 140Q116 91 150 59T240 27Q295 27 333 59T386 140Q391 155 394 178ZM333 617T306 640Q290 652 282 656T260 661Q243 661 231 655T203 633Q196 625 190 631L184 637Q178 643 183 651Q218 694 263 694Q279 694 291 689T320 671Q336 659 345 654T365 649Q381
649 394 655T422 680Q428 689 436 683L439 680Q442 677 442 677Q444 673 444 671Q444 667 440 660Q423 638 402 628T361 617Q333 617 306 640Z" />
<glyph unicode="&#xe4;" glyph-name="adieresis" horiz-adv-x="487" d="M436 502T445 502H463Q472 502 472 492L413 10Q412 6 409 3T402 0H383Q373 0 375 10L382 72Q383 75 381 75T378 73Q353 35 315 14T228 -8Q164 -8 123 29T76 126Q75 134 75 151Q75 175 84
249Q91 301 95 328T108 378Q127 437 177 473T293 510Q341 510 373 489T421 430Q422 427 424 427T426 431L434 492Q436 502 445 502ZM391 155T394 178T404 250Q410 299 412 322T413 362Q411 411 380 443T295 475Q240 475 199 443T141 362Q136 347 133 324T123 252Q117
203 115 180T114 140Q116 91 150 59T240 27Q295 27 333 59T386 140Q391 155 394 178ZM358 611T348 622T337 650Q337 672 351 687T386 702Q403 702 414 692T426 664Q426 641 412 626T375 611Q358 611 348 622ZM204 611T194 622T183 650Q183 672 197 687T232 702Q249
702 260 692T272 664Q272 641 258 626T221 611Q204 611 194 622Z" />
<glyph unicode="&#xe5;" glyph-name="aring" horiz-adv-x="487" d="M436 502T445 502H463Q472 502 472 492L413 10Q412 6 409 3T402 0H383Q373 0 375 10L382 72Q383 75 381 75T378 73Q353 35 315 14T228 -8Q164 -8 123 29T76 126Q75 134 75 151Q75 175 84 249Q91
301 95 328T108 378Q127 437 177 473T293 510Q341 510 373 489T421 430Q422 427 424 427T426 431L434 492Q436 502 445 502ZM391 155T394 178T404 250Q410 299 412 322T413 362Q411 411 380 443T295 475Q240 475 199 443T141 362Q136 347 133 324T123 252Q117 203
115 180T114 140Q116 91 150 59T240 27Q295 27 333 59T386 140Q391 155 394 178ZM257 586T233 611T208 674Q208 704 223 730T265 772T320 788Q359 788 384 763T409 700Q409 670 393 644T351 602T296 586Q257 586 233 611ZM331 615T355 638T380 696Q380 724 362
741T317 759Q285 759 261 735T236 678Q236 650 254 633T299 615Q331 615 355 638Z" />
<glyph unicode="&#xe6;" glyph-name="ae" horiz-adv-x="805" d="M132 -8T91 20T49 108Q49 190 107 235T267 281H387Q391 281 391 285L398 342Q400 358 400 366Q400 416 371 445T281 475Q229 475 192 453T142 392Q138 382 130 384L112 387Q107 388 105 391T105
398Q122 449 171 479T288 510Q348 510 383 485T428 415Q430 410 433 415Q457 458 501 484T598 510Q663 510 706 474T755 377Q756 369 756 353Q756 325 747 257Q747 252 744 249T736 246H429Q425 246 425 242L413 149Q412 144 412 134Q412 84 449 57T543 29Q592
29 629 52T689 117Q692 126 701 123L713 119Q722 116 718 106Q695 55 646 24T535 -8Q477 -8 438 16T389 84Q388 86 387 86T385 85Q362 41 309 17T195 -8Q132 -8 91 20ZM428 281T432 281H709Q713 281 713 285Q718 330 718 352Q718 406 685 440T594 475Q539 475 499
443T443 361Q438 344 429 285Q428 281 432 281ZM265 26T316 57T374 148L386 242Q386 246 382 246H265Q186 246 137 213T87 116Q87 72 118 49T201 26Q265 26 316 57Z" />
<glyph unicode="&#xe7;" glyph-name="ccedilla" horiz-adv-x="497" d="M402 138Q405 148 415 146L431 143Q441 141 438 132Q435 122 433 116Q416 64 366 30T251 -8Q246 -8 249 -13Q290 -51 290 -95Q290 -112 284 -128Q274 -159 251 -172T198 -186Q182 -186 167
-183Q158 -182 160 -171L163 -164Q166 -155 176 -156Q190 -158 197 -158Q217 -158 233 -148T255 -117Q259 -103 259 -95Q259 -52 211 -8Q211 -6 207 -6Q153 3 121 38T80 126Q78 150 78 164Q78 200 84 252Q93 324 111 377Q133 437 184 473T304 510Q371 510 415 475T466
386Q468 377 468 360Q468 351 458 349L440 347H438Q431 347 431 356L430 370Q426 414 391 444T299 475Q242 475 201 444T144 362Q130 318 122 251Q116 204 116 162Q116 101 149 64T244 27Q300 27 344 57T400 133L402 138Z" />
<glyph unicode="&#xe8;" glyph-name="egrave" horiz-adv-x="512" d="M294 27T332 50T392 115Q397 123 406 120L420 114Q429 111 424 102Q398 52 349 22T238 -8Q171 -8 130 27T79 121Q76 139 76 158Q76 193 84 252Q90 300 94 326T107 375Q129 436 180 473T300 510Q374
510 416 470T462 363L463 345Q463 328 454 251Q452 240 443 240H125Q121 240 120 236Q116 205 114 179T113 141Q117 89 151 58T244 27Q294 27 332 50ZM239 475T198 444T141 363Q133 333 125 278Q125 274 129 274H415Q419 274 419 278Q425 331 425 361Q420 413 386
444T296 475Q239 475 198 444ZM323 578Q323 570 313 570H301Q294 570 290 577L241 688Q240 690 240 693Q240 700 249 700H265Q275 700 276 693L322 582L323 578Z" />
<glyph unicode="&#xe9;" glyph-name="eacute" horiz-adv-x="512" d="M294 27T332 50T392 115Q397 123 406 120L420 114Q429 111 424 102Q398 52 349 22T238 -8Q171 -8 130 27T79 121Q76 139 76 158Q76 193 84 252Q90 300 94 326T107 375Q129 436 180 473T300 510Q374
510 416 470T462 363L463 345Q463 328 454 251Q452 240 443 240H125Q121 240 120 236Q116 205 114 179T113 141Q117 89 151 58T244 27Q294 27 332 50ZM239 475T198 444T141 363Q133 333 125 278Q125 274 129 274H415Q419 274 419 278Q425 331 425 361Q420 413 386
444T296 475Q239 475 198 444ZM280 570T279 573T280 582L353 693Q357 700 366 700H382Q388 700 389 697T387 688L311 577Q304 570 298 570H286Q280 570 279 573Z" />
<glyph unicode="&#xea;" glyph-name="ecircumflex" horiz-adv-x="512" d="M294 27T332 50T392 115Q397 123 406 120L420 114Q429 111 424 102Q398 52 349 22T238 -8Q171 -8 130 27T79 121Q76 139 76 158Q76 193 84 252Q90 300 94 326T107 375Q129 436 180 473T300
510Q374 510 416 470T462 363L463 345Q463 328 454 251Q452 240 443 240H125Q121 240 120 236Q116 205 114 179T113 141Q117 89 151 58T244 27Q294 27 332 50ZM239 475T198 444T141 363Q133 333 125 278Q125 274 129 274H415Q419 274 419 278Q425 331 425 361Q420
413 386 444T296 475Q239 475 198 444ZM202 575T201 578T203 587L296 694Q301 700 309 700H332Q339 700 344 694L411 587Q413 583 413 582Q413 579 411 577T404 575H388Q380 575 376 581L321 671Q321 673 319 673T316 671L237 581Q231 575 223 575H208Q202 575
201 578Z" />
<glyph unicode="&#xeb;" glyph-name="edieresis" horiz-adv-x="512" d="M294 27T332 50T392 115Q397 123 406 120L420 114Q429 111 424 102Q398 52 349 22T238 -8Q171 -8 130 27T79 121Q76 139 76 158Q76 193 84 252Q90 300 94 326T107 375Q129 436 180 473T300
510Q374 510 416 470T462 363L463 345Q463 328 454 251Q452 240 443 240H125Q121 240 120 236Q116 205 114 179T113 141Q117 89 151 58T244 27Q294 27 332 50ZM239 475T198 444T141 363Q133 333 125 278Q125 274 129 274H415Q419 274 419 278Q425 331 425 361Q420
413 386 444T296 475Q239 475 198 444ZM370 611T360 622T349 650Q349 672 363 687T398 702Q415 702 426 692T438 664Q438 641 424 626T387 611Q370 611 360 622ZM216 611T206 622T195 650Q195 672 209 687T244 702Q261 702 272 692T284 664Q284 641 270 626T233
611Q216 611 206 622Z" />
<glyph unicode="&#xec;" glyph-name="igrave" horiz-adv-x="194" d="M60 0T60 10L120 492Q120 496 123 499T131 502H149Q159 502 157 492L98 10Q96 0 87 0H69Q60 0 60 10ZM165 578Q165 570 155 570H143Q136 570 132 577L83 688Q82 690 82 693Q82 700 91 700H107Q117
700 118 693L164 582L165 578Z" />
<glyph unicode="&#xed;" glyph-name="iacute" horiz-adv-x="194" d="M60 0T60 10L120 492Q120 496 123 499T131 502H149Q159 502 157 492L98 10Q96 0 87 0H69Q60 0 60 10ZM121 570T120 573T121 582L194 693Q198 700 207 700H223Q229 700 230 697T228 688L152 577Q145
570 139 570H127Q121 570 120 573Z" />
<glyph unicode="&#xee;" glyph-name="icircumflex" horiz-adv-x="194" d="M60 0T60 10L120 492Q120 496 123 499T131 502H149Q159 502 157 492L98 10Q96 0 87 0H69Q60 0 60 10ZM44 575T43 578T45 587L138 694Q143 700 151 700H174Q181 700 186 694L253 587Q255
583 255 582Q255 579 253 577T246 575H230Q222 575 218 581L163 671Q163 673 161 673T158 671L79 581Q73 575 65 575H50Q44 575 43 578Z" />
<glyph unicode="&#xef;" glyph-name="idieresis" horiz-adv-x="194" d="M60 0T60 10L120 492Q120 496 123 499T131 502H149Q159 502 157 492L98 10Q96 0 87 0H69Q60 0 60 10ZM212 611T202 622T191 650Q191 672 205 687T240 702Q257 702 268 692T280 664Q280 641
266 626T229 611Q212 611 202 622ZM58 611T48 622T37 650Q37 672 51 687T86 702Q103 702 114 692T126 664Q126 641 112 626T75 611Q58 611 48 622Z" />
<glyph unicode="&#xf0;" glyph-name="eth" horiz-adv-x="506" d="M439 209T434 177T422 124Q401 65 350 29T232 -8Q160 -8 118 35T75 147Q75 173 84 249Q91 302 95 326T107 372Q126 427 172 462T278 498Q318 500 353 488T409 452Q410 450 411 450T412 453Q400
521 350 589Q348 593 345 591L261 563L257 562Q252 562 249 570L248 578V580Q248 587 256 590L325 612Q327 613 328 615T327 618Q297 653 261 688Q258 691 258 694Q258 696 260 698T267 700H290Q296 700 301 695Q348 650 366 629Q368 627 371 628L442 651L446 652Q451
652 453 644L454 636L455 632Q455 627 447 624L391 606Q386 603 388 600Q454 507 454 382Q454 362 453 351Q453 322 444 248Q439 209 434 177ZM392 151T396 177T402 221T405 247L409 280Q415 334 415 343Q415 352 414 356Q412 406 379 437T290 469Q236 469 196
438T140 356Q132 332 122 247Q113 178 113 147Q113 92 146 59T236 25Q291 25 332 56T387 138Q392 151 396 177Z" />
<glyph unicode="&#xf1;" glyph-name="ntilde" horiz-adv-x="520" d="M383 509T422 470T462 366Q462 358 460 340L419 10Q419 6 416 3T408 0H390Q381 0 381 10L421 333Q422 340 422 355Q422 409 391 441T306 474Q243 474 200 436T149 335L109 10Q107 0 98 0H80Q75
0 73 3T71 10L130 492Q132 502 141 502H160Q164 502 166 499T168 492L161 438Q161 435 162 435T165 436Q191 471 229 490T317 509Q383 509 422 470ZM349 617T322 640Q306 652 298 656T276 661Q259 661 247 655T219 633Q212 625 206 631L200 637Q194 643 199 651Q234
694 279 694Q295 694 307 689T336 671Q352 659 361 654T381 649Q397 649 410 655T438 680Q444 689 452 683L455 680Q458 677 458 677Q460 673 460 671Q460 667 456 660Q439 638 418 628T377 617Q349 617 322 640Z" />
<glyph unicode="&#xf2;" glyph-name="ograve" horiz-adv-x="514" d="M162 -8T119 37T76 155Q76 176 84 252Q95 339 108 377Q131 437 182 473T302 510Q370 510 413 474T463 377Q464 369 464 351Q464 314 456 252Q450 202 446 175T433 126Q410 65 358 29T238 -8Q162
-8 119 37ZM298 27T340 58T399 141Q407 165 418 251Q427 332 427 350Q427 406 392 440T297 475Q241 475 200 444T141 361Q132 333 122 251Q112 163 114 141Q118 89 152 58T242 27Q298 27 340 58ZM324 578Q324 570 314 570H302Q295 570 291 577L242 688Q241 690
241 693Q241 700 250 700H266Q276 700 277 693L323 582L324 578Z" />
<glyph unicode="&#xf3;" glyph-name="oacute" horiz-adv-x="514" d="M162 -8T119 37T76 155Q76 176 84 252Q95 339 108 377Q131 437 182 473T302 510Q370 510 413 474T463 377Q464 369 464 351Q464 314 456 252Q450 202 446 175T433 126Q410 65 358 29T238 -8Q162
-8 119 37ZM298 27T340 58T399 141Q407 165 418 251Q427 332 427 350Q427 406 392 440T297 475Q241 475 200 444T141 361Q132 333 122 251Q112 163 114 141Q118 89 152 58T242 27Q298 27 340 58ZM281 570T280 573T281 582L354 693Q358 700 367 700H383Q389 700
390 697T388 688L312 577Q305 570 299 570H287Q281 570 280 573Z" />
<glyph unicode="&#xf4;" glyph-name="ocircumflex" horiz-adv-x="514" d="M162 -8T119 37T76 155Q76 176 84 252Q95 339 108 377Q131 437 182 473T302 510Q370 510 413 474T463 377Q464 369 464 351Q464 314 456 252Q450 202 446 175T433 126Q410 65 358 29T238
-8Q162 -8 119 37ZM298 27T340 58T399 141Q407 165 418 251Q427 332 427 350Q427 406 392 440T297 475Q241 475 200 444T141 361Q132 333 122 251Q112 163 114 141Q118 89 152 58T242 27Q298 27 340 58ZM204 575T203 578T205 587L298 694Q303 700 311 700H334Q341
700 346 694L413 587Q415 583 415 582Q415 579 413 577T406 575H390Q382 575 378 581L323 671Q323 673 321 673T318 671L239 581Q233 575 225 575H210Q204 575 203 578Z" />
<glyph unicode="&#xf5;" glyph-name="otilde" horiz-adv-x="514" d="M162 -8T119 37T76 155Q76 176 84 252Q95 339 108 377Q131 437 182 473T302 510Q370 510 413 474T463 377Q464 369 464 351Q464 314 456 252Q450 202 446 175T433 126Q410 65 358 29T238 -8Q162
-8 119 37ZM298 27T340 58T399 141Q407 165 418 251Q427 332 427 350Q427 406 392 440T297 475Q241 475 200 444T141 361Q132 333 122 251Q112 163 114 141Q118 89 152 58T242 27Q298 27 340 58ZM346 617T319 640Q303 652 295 656T273 661Q256 661 244 655T216
633Q209 625 203 631L197 637Q191 643 196 651Q231 694 276 694Q292 694 304 689T333 671Q349 659 358 654T378 649Q394 649 407 655T435 680Q441 689 449 683L452 680Q455 677 455 677Q457 673 457 671Q457 667 453 660Q436 638 415 628T374 617Q346 617 319 640Z"
/>
<glyph unicode="&#xf6;" glyph-name="odieresis" horiz-adv-x="514" d="M162 -8T119 37T76 155Q76 176 84 252Q95 339 108 377Q131 437 182 473T302 510Q370 510 413 474T463 377Q464 369 464 351Q464 314 456 252Q450 202 446 175T433 126Q410 65 358 29T238
-8Q162 -8 119 37ZM298 27T340 58T399 141Q407 165 418 251Q427 332 427 350Q427 406 392 440T297 475Q241 475 200 444T141 361Q132 333 122 251Q112 163 114 141Q118 89 152 58T242 27Q298 27 340 58ZM372 611T362 622T351 650Q351 672 365 687T400 702Q417 702
428 692T440 664Q440 641 426 626T389 611Q372 611 362 622ZM218 611T208 622T197 650Q197 672 211 687T246 702Q263 702 274 692T286 664Q286 641 272 626T235 611Q218 611 208 622Z" />
<glyph unicode="&#xf7;" glyph-name="divide" d="M264 450T253 461T242 489Q242 510 257 524T291 539Q308 539 319 529T331 502Q331 481 316 466T280 450Q264 450 253 461ZM67 314T65 317T63 324L65 339Q67 349 76 349H463Q473 349 471 339L469 324Q469 320 466
317T459 314H72Q67 314 65 317ZM226 143T215 154T204 182Q204 202 219 217T254 232Q271 232 282 221T293 193Q293 173 278 158T243 143Q226 143 215 154Z" />
<glyph unicode="&#xf8;" glyph-name="oslash" horiz-adv-x="510" d="M462 369T462 351Q462 314 454 252Q448 202 444 175T431 126Q408 65 356 29T236 -8Q164 -8 120 34Q117 37 115 33L80 -11Q78 -15 74 -16T66 -14L54 -4Q47 2 53 10L93 63Q95 67 94 69Q81 92 76
126Q74 144 74 155Q74 176 82 252Q93 339 106 377Q129 437 180 473T300 510Q364 510 409 476Q411 474 414 477L447 521Q450 525 454 526T461 524L473 514Q479 509 474 500L437 452Q434 449 436 446Q456 417 461 377Q462 369 462 351ZM113 125T119 104Q121 100 125
104L385 440Q387 444 384 445Q349 475 295 475Q239 475 197 444T139 361Q130 333 120 251Q110 163 112 141Q113 125 119 104ZM405 165T416 251L419 275Q420 287 423 317T425 361Q422 391 411 411Q410 413 408 413T405 411L142 70Q141 67 142 64Q179 27 240 27Q296
27 338 58T398 141Q405 165 416 251Z" />
<glyph unicode="&#xf9;" glyph-name="ugrave" horiz-adv-x="519" d="M434 502T443 502H461Q470 502 470 492L411 10Q410 6 407 3T400 0H381Q371 0 373 10L379 63Q380 66 379 66T375 64Q349 29 311 11T225 -7Q160 -7 120 30T80 133Q80 149 81 158L122 492Q123 496
126 499T133 502H152Q162 502 160 492L120 167Q119 159 119 145Q119 91 150 60T236 28Q299 28 341 66T392 167L432 492Q434 502 443 502ZM327 578Q327 570 317 570H305Q298 570 294 577L245 688Q244 690 244 693Q244 700 253 700H269Q279 700 280 693L326 582L327
578Z" />
<glyph unicode="&#xfa;" glyph-name="uacute" horiz-adv-x="519" d="M434 502T443 502H461Q470 502 470 492L411 10Q410 6 407 3T400 0H381Q371 0 373 10L379 63Q380 66 379 66T375 64Q349 29 311 11T225 -7Q160 -7 120 30T80 133Q80 149 81 158L122 492Q123 496
126 499T133 502H152Q162 502 160 492L120 167Q119 159 119 145Q119 91 150 60T236 28Q299 28 341 66T392 167L432 492Q434 502 443 502ZM284 570T283 573T284 582L357 693Q361 700 370 700H386Q392 700 393 697T391 688L315 577Q308 570 302 570H290Q284 570 283
573Z" />
<glyph unicode="&#xfb;" glyph-name="ucircumflex" horiz-adv-x="519" d="M434 502T443 502H461Q470 502 470 492L411 10Q410 6 407 3T400 0H381Q371 0 373 10L379 63Q380 66 379 66T375 64Q349 29 311 11T225 -7Q160 -7 120 30T80 133Q80 149 81 158L122 492Q123
496 126 499T133 502H152Q162 502 160 492L120 167Q119 159 119 145Q119 91 150 60T236 28Q299 28 341 66T392 167L432 492Q434 502 443 502ZM207 575T206 578T208 587L301 694Q306 700 314 700H337Q344 700 349 694L416 587Q418 583 418 582Q418 579 416 577T409
575H393Q385 575 381 581L326 671Q326 673 324 673T321 671L242 581Q236 575 228 575H213Q207 575 206 578Z" />
<glyph unicode="&#xfc;" glyph-name="udieresis" horiz-adv-x="519" d="M434 502T443 502H461Q470 502 470 492L411 10Q410 6 407 3T400 0H381Q371 0 373 10L379 63Q380 66 379 66T375 64Q349 29 311 11T225 -7Q160 -7 120 30T80 133Q80 149 81 158L122 492Q123
496 126 499T133 502H152Q162 502 160 492L120 167Q119 159 119 145Q119 91 150 60T236 28Q299 28 341 66T392 167L432 492Q434 502 443 502ZM375 611T365 622T354 650Q354 672 368 687T403 702Q420 702 431 692T443 664Q443 641 429 626T392 611Q375 611 365 622ZM221
611T211 622T200 650Q200 672 214 687T249 702Q266 702 277 692T289 664Q289 641 275 626T238 611Q221 611 211 622Z" />
<glyph unicode="&#xfd;" glyph-name="yacute" horiz-adv-x="427" d="M8 -200T10 -190L11 -175Q12 -171 15 -168T22 -165H26Q63 -164 84 -152T125 -108T176 -3Q178 2 177 3L69 491V493Q69 502 78 502H97Q100 502 103 500T107 494L200 55Q200 53 202 53T206 55L403
494Q408 502 416 502H434Q444 502 441 491L187 -56Q158 -119 136 -149T89 -189T22 -200H15Q8 -200 10 -190ZM238 571T237 574T238 583L311 694Q315 701 324 701H340Q346 701 347 698T345 689L269 578Q262 571 256 571H244Q238 571 237 574Z" />
<glyph unicode="&#xfe;" glyph-name="thorn" horiz-adv-x="519" d="M466 370T466 352Q466 325 457 249Q452 203 448 176T435 126Q414 66 364 29T249 -8Q202 -8 170 13T121 70Q120 73 119 73T116 69L84 -190Q84 -194 81 -197T73 -200H55Q45 -200 47 -190L155 690Q155
694 158 697T165 700H184Q194 700 192 690L161 433Q160 430 162 430T165 432Q190 469 227 489T313 510Q377 510 418 474T465 378Q466 370 466 352ZM405 159T408 178T419 252Q428 327 428 353Q428 405 394 440T302 475Q248 475 209 443T156 362Q151 348 149 335L128
165Q128 148 129 140Q131 92 161 60T247 27Q302 27 344 59T400 140Q405 159 408 178Z" />
<glyph unicode="&#xff;" glyph-name="ydieresis" horiz-adv-x="427" d="M8 -200T10 -190L11 -175Q12 -171 15 -168T22 -165H26Q63 -164 84 -152T125 -108T176 -3Q178 2 177 3L69 491V493Q69 502 78 502H97Q100 502 103 500T107 494L200 55Q200 53 202 53T206 55L403
494Q408 502 416 502H434Q444 502 441 491L187 -56Q158 -119 136 -149T89 -189T22 -200H15Q8 -200 10 -190ZM329 612T319 623T308 651Q308 673 322 688T357 703Q374 703 385 693T397 665Q397 642 383 627T346 612Q329 612 319 623ZM175 612T165 623T154 651Q154
673 168 688T203 703Q220 703 231 693T243 665Q243 642 229 627T192 612Q175 612 165 623Z" />
<glyph unicode="&#x2013;" glyph-name="endash" horiz-adv-x="425" d="M61 264T59 267T57 274L59 289Q61 299 70 299H391Q401 299 399 289L397 274Q397 270 394 267T386 264H65Q61 264 59 267Z" />
<glyph unicode="&#x2014;" glyph-name="emdash" horiz-adv-x="677" d="M61 264T59 267T57 274L59 289Q61 299 70 299H642Q652 299 650 289L649 274Q647 264 638 264H65Q61 264 59 267Z" />
<glyph unicode="&#x2018;" glyph-name="quoteleft" horiz-adv-x="108" d="M49 505T48 508T49 517L138 692Q142 700 150 700H163Q168 700 169 697T169 689L88 513Q87 509 83 507T76 505H54Q49 505 48 508Z" />
<glyph unicode="&#x2019;" glyph-name="quoteright" horiz-adv-x="108" d="M168 700T169 697T168 688L79 513Q75 505 67 505H54Q43 505 48 516L130 692Q133 700 142 700H163Q168 700 169 697Z" />
<glyph unicode="&#x201a;" glyph-name="quotesinglbase" horiz-adv-x="582" d="M52 -71T51 -68T51 -60L123 145Q124 149 127 151T134 154H150Q162 154 157 143L81 -62Q78 -71 69 -71H57Q52 -71 51 -68Z" />
<glyph unicode="&#x201c;" glyph-name="quotedblleft" horiz-adv-x="216" d="M49 505T48 508T49 517L137 692Q141 700 149 700H161Q166 700 167 697T167 689L87 513Q86 509 82 507T75 505H54Q49 505 48 508ZM160 505T159 508T160 517L247 692Q251 700 259 700H270Q280
700 277 689L197 513Q192 505 184 505H165Q160 505 159 508Z" />
<glyph unicode="&#x201d;" glyph-name="quotedblright" horiz-adv-x="216" d="M166 700T167 697T166 688L78 513Q74 505 66 505H54Q43 505 48 516L128 692Q131 700 140 700H161Q166 700 167 697ZM275 700T276 697T276 688L188 513Q184 505 176 505H164Q154 505
157 516L238 692Q243 700 251 700H270Q275 700 276 697Z" />
<glyph unicode="&#x201e;" glyph-name="quotedblbase" horiz-adv-x="218" d="M96 127T97 124T96 115L8 -60Q4 -68 -4 -68H-16Q-27 -68 -22 -57L58 119Q61 127 70 127H91Q96 127 97 124ZM205 127T206 124T206 115L118 -60Q114 -68 106 -68H94Q84 -68 87 -57L168
119Q173 127 181 127H200Q205 127 206 124Z" />
<glyph unicode="&#x2022;" glyph-name="bullet" horiz-adv-x="296" d="M108 154T82 181T55 248Q55 281 71 309T115 354T175 371Q215 371 241 344T267 276Q267 244 250 216T206 171T148 154Q108 154 82 181Z" />
<glyph unicode="&#x2039;" glyph-name="guilsinglleft" horiz-adv-x="365" d="M246 114Q246 107 237 107H221Q213 107 210 113L96 274Q93 277 93 280Q93 284 97 288L251 449Q255 455 263 455H280Q287 455 287 450Q287 447 283 443L132 284Q130 280 131 278L244
119L246 114Z" />
<glyph unicode="&#x203a;" glyph-name="guilsinglright" horiz-adv-x="394" d="M108 107T108 112Q108 115 112 119L263 278Q265 282 264 284L151 443L149 448Q149 455 158 455H174Q182 455 185 449L299 288Q301 286 301 282Q301 277 297 274L144 113Q138 107 131
107H115Q108 107 108 112Z" />
</font>
</defs>
</svg>
