<?xml version="1.0" standalone="no"?>
<!DOCTYPE svg PUBLIC "-//W3C//DTD SVG 1.1//EN" "http://www.w3.org/Graphics/SVG/1.1/DTD/svg11.dtd">
<svg xmlns="http://www.w3.org/2000/svg">
  <defs>
    <font id="Barlow" horiz-adv-x="506">
      <font-face font-family="Barlow ExtraLight" units-per-em="1000" panose-1="0 0 3 0 0 0 0 0 0 0" ascent="1000" descent="-200" alphabetic="0" />
      <glyph unicode=" " glyph-name="space" horiz-adv-x="200" />
      <glyph unicode="!" glyph-name="exclam" horiz-adv-x="308" d="M148,223q-10,0-10,10l-2,457q0,10 10,10h19q10,0 10-10l-2-457q0-10-10-10H148ZM153,4q-19,0-32,13T108,50t13,33t32,13q20,0 33-13t13-33q0-19-13-32.5T153,4Z" />
      <glyph unicode="&quot;" glyph-name="quotedbl" horiz-adv-x="219" d="M51,496q-10,0-10,10L36,683q0,10 10,10H68q10,0 10-10L73,506q0-10-10-10H51Zm105,0q-10,0-10,10l-4,177q0,10 10,10h21q10,0 10-10l-4-177q0-10-10-10H156Z" />
      <glyph unicode="#" glyph-name="numbersign" horiz-adv-x="647" d="M562,451q0-10-10-10H477q-5,0-5-4L443,250q0-4 3-4h71q10,0 10-10l-1-15q0-10-10-10H441q-5,0-5-4L407,21q-1-9-10-9l-19,1q-4,0-7,3t-2,8l28,183q0,4-3,4H208q-5,0-5-4L174,21q-1-9-10-9l-19,1q-4,0-7,3t-2,8l28,183q0,4-3,4H94q-10,0-10,10l1,15q0,10 10,10h71q5,0 5,4l28,187q0,4-3,4H130q-10,0-10,10l1,15q0,10 10,10h71q5,0 5,4l29,187q1,9 10,9l19-1q4,0 7-3t2-8L246,480q0-4 3-4H435q5,0 5,4l29,187q1,9 10,9l19-1q4,0 7-3t2-8L479,480q0-4 3-4h71q10,0 10-10l-1-15ZM399,246q5,0 5,4l28,187q0,4-3,4H244q-5,0-5-4L210,250q0-4 3-4H399Z" />
      <glyph unicode="$" glyph-name="dollar" horiz-adv-x="553" d="M491,168q0-76-49-123.5T302-8q-4,0-4-4V-86q0-10-10-10H271q-10,0-10,10l1,74q0,4-4,4Q165-2 112.5,45.5T60,169v35q0,10 10,10H85q10,0 10-10V172q0-65 50.5-105T284,27q83,0 127,37t44,101q0,40-18.5,69T378,288.5T265,347q-74,33-111,55T95.5,457T74,541q0,77 46.5,119.5T252,708q4,0 4,4v79q0,10 10,10h16q10,0 10-10l-1-80q0-4 4-4q90-6 140-53.5T485,529V505q0-10-10-10H458q-10,0-10,10v21q0,67-47,107T268,673q-76,0-117-33.5T110,543q0-41 18.5-67.5t52.5-46T287,379q71-31 114-59.5t66.5-65T491,168Z" />
      <glyph unicode="%" glyph-name="percent" horiz-adv-x="858" d="M246,439q-37,0-68.5,18.5t-50,49.5T109,575t18.5,68t50,49T246,710t68-18.5T363.5,642T382,575q0-37-18.5-68T314,457.5T246,439ZM231,0q-6,0-8,3.5t1,8.5L603,693q5,7 12,7h11q6,0 8-3.5t-1-8.5L255,7q-3-7-12-7H231Zm15,469q43,0 74,31t31,75t-30.5,74.5T246,680t-75-30.5T140,575t31-75t75-31ZM614-10q-37,0-68.5,18.5T496,58t-18,68t18,68t49.5,49T614,261t68.5-18T732,193.5T750,126q0-37-18-68T682.5,8.5T614-10Zm0,30q44,0 74.5,31T719,126t-30.5,74.5T614,231t-74.5-30.5T509,126t30.5-75T614,20Z" />
      <glyph unicode="&amp;" glyph-name="ampersand" horiz-adv-x="637" d="M565,12q3-3 3-6q0-6-9-6H536q-7,0-12,6L455,89q-1,2-3,1.5T449,89q-49-52-95-74.5T247-8Q161-8 110.5,32.5T60,147q0,71 40.5,121T216,372q3,2 0,5q-61,77-81,114t-20,74q0,64 41.5,103.5T266,708q70,0 113.5-38T423,569q0-42-19.5-77t-50-62.5T276,368q-3-2 0-5q33-41 102-124l23-28l48-59q3-4 6,0q25,31 68,88q6,8 14,3l14-9q9-6 3-14q-50-67-76-97v-2q0-4 5-10l52-62q11-14 18.5-22.5T565,12ZM268,671q-52,0-83-28.5T154,563q0-28 17.5-59.5T246,399q3-3 6-1q66,48 99,85.5T384,569q0,46-32.5,74T268,671ZM249,27q52,0 92,21t84,70q3,3 0,6l-60,73q-17,22-21,26l-19,23l-80,95q-1,3-5,1q-69-50-105-93.5T99,148q0-58 40.5-89.5T249,27Z" />
      <glyph unicode="&apos;" glyph-name="quotesingle" horiz-adv-x="115" d="M51,502q-10,0-10,10L36,687q0,10 10,10H69q10,0 10-10L74,512q0-10-10-10H51Z" />
      <glyph unicode="(" glyph-name="parenleft" horiz-adv-x="221" d="M104-110q-8,0-12,7Q48-29 21,86T-6,322q0,125 27.5,243T95,758q4,7 12,7h16q6,0 8-3.5t-1-8.5Q89,677 64,561T39,324Q39,205 64,90.5T130-98q2-4 2-6q0-6-9-6H104Z" />
      <glyph unicode=")" glyph-name="parenright" horiz-adv-x="221" d="M117,765q8,0 12-7q44-74 71-189t27-236q0-125-27.5-243T126-103q-4-7-12-7H98q-6,0-8,3.5T91-98q41,76 66,192.5T182,332q0,118-25,232.5T91,753q-2,4-2,6q0,6 9,6h19Z" />
      <glyph unicode="*" glyph-name="asterisk" horiz-adv-x="396" d="M193,393q-10,0-10,10V539q0,2-1.5,3t-3.5,0L57,472q-2-1-5-1q-6,0-9,5l-4,8q-1,2-1,5q0,6 5,9l120,69q2,1 2,3t-2,3L43,642q-4,2-5,6t1,8l4,8q2,4 6,5t8-1l121-70q2-1 3.5,0t1.5,3V737q0,10 10,10h10q10,0 10-10V601q0-2 1.5-3t3.5,0l122,70q2,1 5,1q6,0 9-5l4-8q1-2 1-5q0-6-5-9L233,573q-1-1-1-3t1-3l121-69q4-2 5-6t-1-8l-4-8q-2-4-6-5t-8,1L218,542q-2,1-3.5,0t-1.5-3V403q0-10-10-10H193Z" />
      <glyph unicode="+" glyph-name="plus" horiz-adv-x="507" d="M453,336q10,0 10-10V312q0-10-10-10H274q-4,0-4-4V124q0-10-10-10H246q-10,0-10,10V298q0,4-4,4H54q-10,0-10,10v14q0,10 10,10H232q4,0 4,4V523q0,10 10,10h14q10,0 10-10V340q0-4 4-4H453Z" />
      <glyph unicode="," glyph-name="comma" horiz-adv-x="264" d="M88-71q-5,0-7.5,3T80-60l48,205q2,9 11,9h16q5,0 7.5-3t1.5-8L111-62q-1-9-11-9H88Z" />
      <glyph unicode="-" glyph-name="hyphen" horiz-adv-x="388" d="M54,300q-10,0-10,10v15q0,10 10,10H334q10,0 10-10V310q0-10-10-10H54Z" />
      <glyph unicode="." glyph-name="period" horiz-adv-x="282" d="M140,5q-20,0-32.5,13T95,50q0,20 12.5,33T140,96t33-13t13-33T173,17.5T140,5Z" />
      <glyph unicode="/" glyph-name="slash" horiz-adv-x="368" d="M46,0q-5,0-7.5,3T37,11L242,692q3,8 12,8h18q5,0 7.5-3t1.5-8L76,8Q73,0 64,0H46Z" />
      <glyph unicode="0" glyph-name="zero" horiz-adv-x="562" d="M280-9Q190-9 136,42.5T82,180V520q0,86 54,137.5T280,709t145-52t55-137V180q0-85-55-137T280-9Zm0,35q73,0 117,41.5T441,178V522q0,68-44,110T280,674q-71,0-115-42T121,522V178q0-69 44-110.5T280,26Z" />
      <glyph unicode="1" glyph-name="one" horiz-adv-x="349" d="M193,697q5,3 13,3h22q10,0 10-10V10q0-10-10-10H209q-10,0-10,10V648q0,2-1.5,3t-3.5,0L85,598q-2-1-5-1t-5,2t-3,5l-4,13v2q0,8 6,11l119,67Z" />
      <glyph unicode="2" glyph-name="two" horiz-adv-x="525" d="M116,40q-3-5 2-5H450q10,0 10-10V10q0-10-10-10H76Q66,0 66,10V27q0,7 4,12L170,170q66,84 129,168q96,127 96,201q0,60-40.5,97T247,673q-65,0-104.5-37T104,538V505q0-10-10-10H75q-10,0-10,10v37q1,74 51.5,120T247,708q84,0 135.5-47T434,539q0-86-98-215q-51-67-97.5-126.5T152,85L116,40Z" />
      <glyph unicode="3" glyph-name="three" horiz-adv-x="504" d="M408,329q20-51 20-121q0-54-12-95q-19-59-62.5-90T243-8Q175-8 128.5,28T66,124q-8,29-8,72q0,10 10,10H87q10,0 10-10q0-31 5-56q11-51 48-82t93-31q51,0 85,24t49,70q12,36 12,88q0,63-17,108q-35,83-130,83q-12,0-28-4q-2-1-5-1q-5,0-8,4l-9,11q-6,6 0,14L374,660q2,2 1,3.5t-3,1.5H70q-10,0-10,10v15q0,10 10,10H416q10,0 10-10V670q0-8-4-13L251,433q-2-2-1-3.5t4-1.5q114-1 154-99Z" />
      <glyph unicode="4" glyph-name="four" horiz-adv-x="526" d="M449,235q10,0 10-10V209q0-10-10-10H408q-4,0-4-4V10q0-10-10-10H375q-10,0-10,10V195q0,4-4,4H66q-10,0-10,10v16q0,5 3,12L274,693q3,7 11,7h20q5,0 7-3.5t0-8.5L100,240q-1-2 0-3.5t3-1.5H361q4,0 4,4V415q0,10 10,10h19q10,0 10-10V239q0-4 4-4h41Z" />
      <glyph unicode="5" glyph-name="five" horiz-adv-x="503" d="M439,300q6-41 6-88q0-48-6-79Q425,68 376.5,30T259-8Q192-8 145,28T83,124q-5,17-7,37v2q0,8 9,8h20q10,0 10-10q2-14 4-21q11-51 48-81.5T259,28q57,0 95,32.5T402,149q4,21 4,63q0,33-4,72q-7,55-45.5,83.5T260,396q-52,0-91-23t-52-63q-2-8-11-8H86q-10,0-10,10V690q0,10 10,10H405q10,0 10-10V675q0-10-10-10H119q-4,0-4-4l-1-286q0-2 1.5-3t3.5,1q23,27 61,42.5T262,431q70,0 117.5-33.5T439,300Z" />
      <glyph unicode="6" glyph-name="six" horiz-adv-x="504" d="M435,307q12-31 12-96q0-61-10-90q-19-61-62-95T264-8Q194-8 147,27T84,123q-8,32-8,90V531q0,81 50.5,129T257,708q78,0 126-46t48-122v-7q0-10-10-10H402q-10,0-10,10v7q0,59-37.5,96T257,673q-62,0-102-38.5T115,531V358q0-3 1.5-3.5T120,356q24,40 59.5,57.5T263,431q133,0 172-124ZM400,137q8,26 8,75q0,50-8,76q-11,48-47.5,78T260,396q-55,0-92-30t-47-79q-6-23-6-76q0-52 6-74q9-48 46-78.5T261,28q52,0 90,27.5T400,137Z" />
      <glyph unicode="7" glyph-name="seven" horiz-adv-x="463" d="M166,0q-11,0-8,11L394,660q1,2 0,3.5t-3,1.5H83q-4,0-4-4V617q0-10-10-10H54q-10,0-10,10v73q0,10 10,10H427q10,0 10-10V671q0-4-2-12L199,8q-3-8-12-8H166Z" />
      <glyph unicode="8" glyph-name="eight" horiz-adv-x="513" d="M425,288q17-42 17-96q0-73-31-124q-23-36-62.5-56T257-8q-54,0-94.5,21.5T99,76Q71,124 71,193q0,56 20,99q24,56 82,82q5,2 0,5q-38,20-62,52Q79,474 79,533q0,52 25,93q23,39 63,61t90,22q53,0 91.5-22T410,626q24-42 24-93q0-58-32-103q-22-31-60-50q-5-3 0-5q57-25 83-87ZM142,451q18-27 48-42.5T256,393q37,0 67.5,16T373,453q22,36 22,81q0,37-18,70q-17,32-48,50.5T255,673q-40,0-71.5-19T135,602q-17-32-17-69q0-47 24-82ZM376,86q27,44 27,108q0,43-14,83q-16,40-50,61.5T256,360q-48,0-80.5-20.5T127,282q-17-39-17-89q0-60 25-104q39-62 122-62q80,0 119,59Z" />
      <glyph unicode="9" glyph-name="nine" horiz-adv-x="517" d="M433,577q9-36 9-90V169q0-81-50.5-129T261-8Q182-8 134,38T86,160v7q0,10 10,10h19q10,0 10-10v-7q0-59 37.5-96T261,27T362.5,65.5T403,169V344q0,3-2,3.5t-3-2.5q-23-41-59-58.5T254,269Q123,269 82,393q-11,28-11,96q0,60 9,90q19,61 62,95t112,34t116-35t63-96ZM257,304q55,0 92,30t47,79q7,27 7,76q0,47-6,74q-10,48-47,78.5T256,672q-52,0-90-27.5T117,563q-7-23-7-75q0-53 7-76q11-48 47.5-78T257,304Z" />
      <glyph unicode=":" glyph-name="colon" horiz-adv-x="327" d="M163,358q-20,0-32.5,13T118,403q0,20 12.5,33T163,449t33-13t13-33t-13-32.5T163,358Zm0-341q-20,0-32.5,13T118,62q0,20 12.5,33T163,108t33-13t13-33T196,29.5T163,17Z" />
      <glyph unicode=";" glyph-name="semicolon" horiz-adv-x="308" d="M157,362q-20,0-34,13.5T109,409q0,19 14.5,33T157,456q20,0 34.5-14T206,409t-14.5-33T157,362ZM121-65q-4,0-7,3t-2,8l29,193q1,9 10,9h19q5,0 7.5-3t1.5-8L143-56q-1-9-11-9H121Z" />
      <glyph unicode="&lt;" glyph-name="less" horiz-adv-x="507" d="M463,63q0-5-3.5-7T451,56L51,245q-7,4-7,12v22q0,8 7,12L451,480q2,1 5,1q7,0 7-8V454q0-7-7-11L87,271q-4-3 0-6L456,93q7-4 7-11V63Z" />
      <glyph unicode="=" glyph-name="equal" horiz-adv-x="507" d="M54,416q-10,0-10,10v14q0,10 10,10H453q10,0 10-10V426q0-10-10-10H54Zm0-216q-10,0-10,10v14q0,10 10,10H453q10,0 10-10V210q0-10-10-10H54Z" />
      <glyph unicode="&gt;" glyph-name="greater" horiz-adv-x="507" d="M56,56q-2-1-5-1q-7,0-7,8V82q0,7 7,11L419,265q4,3 0,6L51,443q-7,4-7,11v19q0,5 3.5,7t8.5,0L456,291q7-4 7-12V257q0-8-7-12L56,56Z" />
      <glyph unicode="?" glyph-name="question" horiz-adv-x="433" d="M188,190q-10,0-10,10v70q0,41 19.5,66.5T257,395q30,24 47.5,42T334,481.5T346,543q0,59-36,94.5T216,673q-59,0-95.5-35.5T84,544V507q0-10-10-10l-19,1q-10,0-10,10v36q0,73 47.5,119T216,709t122.5-45.5T385,542q0-44-14-76t-34-53t-51-46q-35-28-51-48t-16-50V200q0-10-10-10H188ZM199,4q-20,0-33,13T153,50t13,32.5T199,95t32.5-12.5T244,50T231.5,17T199,4Z" />
      <glyph unicode="@" glyph-name="at" horiz-adv-x="832" d="M456,599q89,0 157.5-37t106-103T757,310q0-15-4-51q-12-88-56-138T591,71q-35,0-61,16t-37,44q-2,6-5,1q-17-29-45.5-45T376,71q-51,0-82.5,26T258,165q-1,7-1,20q0,25 6,67q8,65 17,89q15,43 51,68.5T413,435q30,0 54-11t38-32q1-2 3-1t2,3l3,27q1,9 10,9h12q5,0 8-3.5t2-7.5L518,200q-1-5-1-16q0-37 21.5-60T595,101q47,0 80.5,41T720,258q4,24 4,52q0,77-35,135.5T592,536T452,568q-84,0-163.5-38T158,414.5T107,225q0-83 30.5-148.5T228-26T373-63q50,0 98,12t73,30q5,3 8,2.5t6-4.5l6-8q3-3 3-7t-5-7q-31-23-85-36T369-94q-93,0-159.5,41.5T109,62T75,229q0,119 56,202.5T274.5,557T456,599ZM378,101q37,0 64,21.5T479,177q4,13 6.5,26t6.5,50q4,33 5.5,49t0.5,28q0,32-22.5,54T416,406t-65.5-21.5T309,331q-4-11-7-28t-7-50q-6-42-6-61q0-10 1-15q1-34 25-55t63-21Z" />
      <glyph unicode="A" glyph-name="A" horiz-adv-x="578" d="M510,0q-9,0-12,8L453,146q-1,3-4,3H127q-3,0-4-3L79,8Q76,0 67,0H48Q37,0 40,11L263,692q3,8 12,8h26q9,0 12-8L538,11l1-4q0-7-9-7H510ZM136,187q-1-2 0.5-3.5T140,182H437q2,0 3.5,1.5T441,187L291,644q-1,2-3,2t-3-2L136,187Z" />
      <glyph unicode="B" glyph-name="B" horiz-adv-x="630" d="M434,364q-3-1-3-2t3-2q54-21 84-65.5T548,187q0-86-54-136.5T352,0H119q-10,0-10,10V690q0,10 10,10H345q89,0 142-48.5T540,521q0-56-27.5-96T434,364ZM152,665q-4,0-4-4V383q0-4 4-4H345q71,0 114,38.5T502,519q0,66-43,106T345,665H152ZM352,36q70,0 113.5,42.5T509,189q0,71-44.5,113T346,344H152q-4,0-4-4V40q0-4 4-4H352Z" />
      <glyph unicode="C" glyph-name="C" horiz-adv-x="606" d="M308-9Q241-9 190.5,17.5T112,92T84,203V498q0,62 28,110t78.5,74T308,708q66,0 116.5-26T503,608.5T531,499v-1q0-10-10-10l-19-1q-10,0-10,9v3q0,78-51,126T308,673q-84,0-134.5-48T123,499V201q0-78 50.5-126.5T308,26q82,0 133,48.5T492,201v2q0,9 10,9l19-1q10,0 10-9q0-62-28-110T424.5,17.5T308-9Z" />
      <glyph unicode="D" glyph-name="D" horiz-adv-x="618" d="M119,0q-10,0-10,10V690q0,10 10,10H348q92,0 146-49.5T548,515V185q0-86-54-135.5T348,0H119Zm29,39q0-4 4-4H350q74,0 116.5,41T509,187V512q0,71-42.5,112T350,665H152q-4,0-4-4V39Z" />
      <glyph unicode="E" glyph-name="E" horiz-adv-x="615" d="M548,675q0-10-10-10H152q-4,0-4-4V373q0-4 4-4H428q10,0 10-10V343q0-10-10-10H152q-4,0-4-4V39q0-4 4-4H538q10,0 10-10V10q0-10-10-10H119q-10,0-10,10V690q0,10 10,10H538q10,0 10-10V675Z" />
      <glyph unicode="F" glyph-name="F" horiz-adv-x="572" d="M547,675q0-10-10-10H152q-4,0-4-4V373q0-4 4-4H427q10,0 10-10V343q0-10-10-10H152q-4,0-4-4V10q0-10-10-10H119q-10,0-10,10V690q0,10 10,10H537q10,0 10-10V675Z" />
      <glyph unicode="G" glyph-name="G" horiz-adv-x="614" d="M308-8Q241-8 190.5,18T112,91.5T84,200V500q0,62 28,109t78.5,73T308,708q66,0 116-26t78-72.5T530,503V488q0-10-10-10H501q-10,0-10,10v15q0,76-50.5,123T308,673q-83,0-134-47.5T123,501V199q0-77 51-124.5T309,27q82,0 132,46.5T491,196V305q0,4-4,4H324q-10,0-10,10v15q0,10 10,10H520q10,0 10-10V203q0-97-61-154T308-8Z" />
      <glyph unicode="H" glyph-name="H" horiz-adv-x="666" d="M519,690q0,10 10,10h19q10,0 10-10V10q0-10-10-10H529q-10,0-10,10V329q0,4-4,4H152q-4,0-4-4V10q0-10-10-10H119q-10,0-10,10V690q0,10 10,10h19q10,0 10-10V373q0-4 4-4H515q4,0 4,4V690Z" />
      <glyph unicode="I" glyph-name="I" horiz-adv-x="257" d="M119,0q-10,0-10,10V690q0,10 10,10h19q10,0 10-10V10q0-10-10-10H119Z" />
      <glyph unicode="J" glyph-name="J" horiz-adv-x="574" d="M249-8Q185-8 136.5,17T61,87.5T34,193v80q0,10 10,10H63q10,0 10-10V192q0-74 48.5-119.5T249,27q80,0 129,45.5T427,192V690q0,10 10,10h18q10,0 10-10V193q0-60-27-105.5T362,17T249-8Z" />
      <glyph unicode="K" glyph-name="K" horiz-adv-x="604" d="M119,0q-10,0-10,10V690q0,10 10,10h19q10,0 10-10V326q0-2 1.5-3t3.5,1L507,695q5,5 12,5h21q6,0 8-3.5t-2-8.5L292,415q-2-2 0-6L570,12q2-2 2-6q0-2-2-4t-6-2H540q-8,0-12,6L265,380q-1,2-3,2t-3-1L150,271q-2-2-2-5V10q0-10-10-10H119Z" />
      <glyph unicode="L" glyph-name="L" horiz-adv-x="567" d="M119,0q-10,0-10,10V690q0,10 10,10h19q10,0 10-10V39q0-4 4-4H515q10,0 10-10V10q0-10-10-10H119Z" />
      <glyph unicode="M" glyph-name="M" horiz-adv-x="716" d="M564,693q5,7 12,7h21q10,0 10-10V10q0-10-10-10H578q-10,0-10,10V622q0,3-2,3.5t-3-2.5L376,332q-5-7-12-7H354q-7,0-12,7L153,622q-1,3-3,2t-2-4V10q0-10-10-10H119q-10,0-10,10V690q0,10 10,10h21q7,0 12-7L356,379q1-1 3-1t3,1L564,693Z" />
      <glyph unicode="N" glyph-name="N" horiz-adv-x="681" d="M533,690q0,10 10,10h19q10,0 10-10V10q0-10-10-10H542q-7,0-12,7L153,620q-1,3-3,2.5t-2-3.5V10q0-10-10-10H119q-10,0-10,10V690q0,10 10,10h20q7,0 12-7L528,82q1-3 3-2.5t2,3.5V690Z" />
      <glyph unicode="O" glyph-name="O" horiz-adv-x="622" d="M310-8Q243-8 191.5,20T112,98.5T84,215V484q0,66 28,117t79.5,79T310,708q68,0 119.5-28t80-79T538,484V215q0-66-28.5-116.5T429.5,20T310-8Zm0,35q85,0 137,51t52,135V485q0,85-52,136.5T310,673q-84,0-135.5-51.5T123,485V213q0-84 51.5-135T310,27Z" />
      <glyph unicode="P" glyph-name="P" horiz-adv-x="589" d="M364,702q83,0 133.5-51.5T548,515T497,380.5T363,330H144q-4,0-4-4V10q0-10-10-10H111q-10,0-10,10V692q0,10 10,10H364Zm-2-338q66,0 106.5,41.5T509,514q0,69-40.5,110.5T362,666H144q-4,0-4-4V368q0-4 4-4H362Z" />
      <glyph unicode="Q" glyph-name="Q" horiz-adv-x="568" d="M284,708q65,0 114.5-27T475,605.5T502,493V206q0-90-52.5-147.5T308-7q-4,0-4-4V-113q0-10-10-10H275q-10,0-10,10V-11q0,4-4,4Q172,1 119,58.5T66,206V493q0,64 27,112.5T169.5,681T284,708ZM463,495q0,80-49,129T284,673q-80,0-129.5-49T105,495V205q0-80 49.5-129T284,27q81,0 130,49t49,129V495Z" />
      <glyph unicode="R" glyph-name="R" horiz-adv-x="611" d="M529,0q-9,0-12,7L360,332q-1,3-4,3H152q-4,0-4-4V10q0-10-10-10H119q-10,0-10,10V690q0,10 10,10H364q82,0 132.5-51T547,516q0-72-39.5-119.5T401,338q-5-2-3-5L554,12q1-2 1-5q0-7-8-7H529ZM152,665q-4,0-4-4V372q0-4 4-4H363q65,0 105,41t40,106q0,67-40,108.5T363,665H152Z" />
      <glyph unicode="S" glyph-name="S" horiz-adv-x="580" d="M294-8Q185-8 122.5,40T60,169v35q0,10 10,10H87q10,0 10-10V172q0-65 53.5-105T297,27q88,0 135,37t47,101q0,40-20,69t-62,54.5T278,347q-78,33-117.5,55T98,457T75,541q0,81 54.5,124T283,708q108,0 168-48.5T511,529V505q0-10-10-10H482q-10,0-10,10v21q0,67-50,107T281,673q-81,0-124.5-33.5T113,543q0-42 19.5-68t56-45.5T301,379q75-31 121-59.5t71-65T518,168q0-80-58.5-128T294-8Z" />
      <glyph unicode="T" glyph-name="T" horiz-adv-x="562" d="M501,700q10,0 10-10V675q0-10-10-10H300q-4,0-4-4V10q0-10-10-10H267q-10,0-10,10V661q0,4-4,4H60q-10,0-10,10v15q0,10 10,10H501Z" />
      <glyph unicode="U" glyph-name="U" horiz-adv-x="656" d="M328-8Q261-8 209.5,19t-80,76.5T101,209V690q0,10 10,10h19q10,0 10-10V206q0-80 51.5-129.5T328,27T465,76.5T517,206V690q0,10 10,10h19q10,0 10-10V209q0-64-28.5-113.5T447.5,19T328-8Z" />
      <glyph unicode="V" glyph-name="V" horiz-adv-x="573" d="M275,0q-9,0-12,8L40,689l-1,4q0,7 9,7H67q9,0 12-8L284,63q1-2 3-2t3,2L495,692q3,8 12,8h18q11,0 8-11L309,8q-3-8-12-8H275Z" />
      <glyph unicode="W" glyph-name="W" horiz-adv-x="879" d="M239,0q-8,0-11,8L30,689l-1,3q0,8 10,8H58q8,0 11-8L246,82q1-2 2.5-2t2.5,2L415,691q2,9 11,9h21q9,0 11-9L626,82q1-2 2.5-2t2.5,2L810,692q3,8 11,8h19q5,0 7.5-3t1.5-8L649,8q-3-8-11-8H617q-9,0-11,9L440,627q-1,2-2.5,2t-2.5-2L270,9q-2-9-11-9H239Z" />
      <glyph unicode="X" glyph-name="X" horiz-adv-x="569" d="M50,0q-6,0-7.5,3.5T44,12L261,347q2,3 0,6L44,688q-2,4-2,6q0,6 8,6H71q7,0 12-7L282,384q1-1 3-1t3,1L486,693q5,7 12,7h21q6,0 7.5-3.5T525,688L308,352q-1-3 0-6L525,12q2-4 2-6q0-6-8-6H498q-7,0-12,7L288,315q-1,2-3,2t-3-2L83,7Q78,0 71,0H50Z" />
      <glyph unicode="Y" glyph-name="Y" horiz-adv-x="544" d="M263,0q-10,0-10,10V326q0,4-1,5L43,688q-2,4-2,6q0,6 9,6H69q7,0 12-7L269,372q1-1 3-1t3,1L463,693q5,7 12,7h19q6,0 8-3.5t-1-8.5L292,331q-1-1-1-5V10q0-10-10-10H263Z" />
      <glyph unicode="Z" glyph-name="Z" horiz-adv-x="545" d="M61,0Q51,0 51,10V29q0,5 4,13L440,660q1,2 0,3.5t-3,1.5H61q-10,0-10,10v15q0,10 10,10H476q10,0 10-10V671q0-5-4-13L97,40q-1-2 0-3.5t3-1.5H476q10,0 10-10V10q0-10-10-10H61Z" />
      <glyph unicode="[" glyph-name="bracketleft" horiz-adv-x="363" d="M42-109q-10,0-10,10V752q0,10 10,10H211q10,0 10-10V737q0-10-10-10H75q-4,0-4-4V-70q0-4 4-4H212q10,0 10-10V-99q0-10-10-10H42Z" />
      <glyph unicode="\" glyph-name="backslash" horiz-adv-x="368" d="M332,8q0-8-10-8H304q-9,0-12,8L87,689l-1,3q0,8 10,8h18q9,0 12-8L331,11l1-3Z" />
      <glyph unicode="]" glyph-name="bracketright" horiz-adv-x="363" d="M331-99q0-10-10-10H151q-10,0-10,10v15q0,10 10,10H288q4,0 4,4V723q0,4-4,4H151q-10,0-10,10v15q0,10 10,10H321q10,0 10-10V-99Z" />
      <glyph unicode="^" glyph-name="asciicircum" horiz-adv-x="440" d="M57,312q-5,0-7.5,3.5T49,324L198,692q3,8 11,8h21q8,0 11-8L391,324l1-4q0-8-9-8H368q-8,0-11,8L223,655q-1,3-3,3t-3-3L83,320q-3-8-11-8H57Z" />
      <glyph unicode="_" glyph-name="underscore" horiz-adv-x="466" d="M44,0Q34,0 34,10V24q0,10 10,10H423q10,0 10-10V10q0-10-10-10H44Z" />
      <glyph unicode="`" glyph-name="grave" horiz-adv-x="178" d="M138,582q2-4 2-6q0-6-9-6H118q-7,0-12,7L41,688q-2,4-2,6q0,6 9,6H65q9,0 12-7l61-111Z" />
      <glyph unicode="a" glyph-name="a" horiz-adv-x="502" d="M253,510q86,0 129.5-44.5T426,343V10q0-10-10-10H397q-10,0-10,10V60q0,2-1.5,2.5T382,61Q357,27 313.5,9.5T219-8Q150-8 102.5,25.5T55,131q0,74 54.5,115.5T260,288H383q4,0 4,4v52q0,60-33,95.5T251,475q-54,0-89-22.5T119,392q-3-10-12-9l-21,3q-4,1-7,3.5T77,395q10,52 57.5,83.5T253,510ZM223,27q66,0 115,32t49,90V251q0,4-4,4H262q-75,0-121.5-32.5T94,133q0-52 36-79t93-27Z" />
      <glyph unicode="b" glyph-name="b" horiz-adv-x="537" d="M453,377q5-22 6.5-49t1.5-78t-1.5-77.5T453,124q-15-60-62-96T277-8q-46,0-82,19.5T137,65q-2,2-3.5,2T132,64V10q0-10-10-10H103Q93,0 93,10V690q0,10 10,10h19q10,0 10-10V438q0-3 1.5-3t3.5,2q22,34 58,53.5T277,510q68,0 115-36.5T453,377ZM413,134q6,18 7.5,39t1.5,79q0,56-2,78t-8,40q-11,46-48.5,75.5T273,475t-88-30t-44-76q-5-20-7-41.5T132,250q0-57 1.5-78t6.5-38q10-46 44.5-76.5T273,27t93,30t47,77Z" />
      <glyph unicode="c" glyph-name="c" horiz-adv-x="512" d="M269-8Q199-8 151,28.5T87,126Q75,170 75,252q0,77 12,125q15,60 63.5,96.5T269,510q69,0 119-35.5T452,386q3-8 5-26v-2q0-7-9-9l-18-2h-2q-7,0-9,9l-3,14q-9,45-49.5,75T268,475t-97-31t-48-82q-9-40-9-111q0-68 8-110q11-51 49.5-82.5T268,27t99,30.5T416,133l1,5q1,10 12,8l17-3q10-2 9-11q-1-2-1-6t-2-10q-12-54-62.5-89T269-8Z" />
      <glyph unicode="d" glyph-name="d" horiz-adv-x="537" d="M405,690q0,10 10,10h19q10,0 10-10V10q0-10-10-10H415q-10,0-10,10V65q0,3-1.5,3T400,66q-22-35-58.5-54.5T260-8Q192-8 145.5,28T84,124q-6,23-7.5,51T75,250q0,46 1.5,75T84,377q14,60 60.5,96.5T260,510q46,0 82-19.5T400,437q2-2 3.5-2t1.5,3V690Zm-9-556q5,18 7,39.5t2,76.5q0,56-2,77.5T396,369q-9,46-44,76t-88,30t-90.5-29.5T125,370q-6-18-8-40t-2-78q0-57 1.5-78.5T123,134q9-47 48-77t93-30q53,0 87.5,30.5T396,134Z" />
      <glyph unicode="e" glyph-name="e" horiz-adv-x="528" d="M268,27q51,0 88,23.5T410,115q4,8 13,5l16-6q9-3 5-12q-20-50-67-80T266-8Q198-8 150.5,27T86,121q-7,23-9,52.5T75,252q0,46 1.5,73.5T83,375q15,61 63.5,98T265,510q76,0 124.5-40T450,363q4-18 5-44t1-68q0-11-10-11H118q-4,0-4-4q0-31 1-57t4-38q10-52 49.5-83T268,27Zm-3,448q-58,0-97-31t-49-81q-5-30-5-85q0-4 4-4H413q4,0 4,4q0,56-5,83q-11,51-50,82.5T265,475Z" />
      <glyph unicode="f" glyph-name="f" horiz-adv-x="342" d="M263,665q-63,0-85-30.5T156,537V506q0-4 4-4H281q10,0 10-10V476q0-10-10-10H160q-4,0-4-4V10q0-10-10-10H127q-10,0-10,10V462q0,4-4,4H48q-10,0-10,10v16q0,10 10,10h65q4,0 4,4v32q0,85 31,123.5T261,700h24q10,0 10-10V675q0-10-10-10H263Z" />
      <glyph unicode="g" glyph-name="g" horiz-adv-x="526" d="M404,492q0,10 10,10h19q10,0 10-10V6q0-107-63-158T196-199q-10,0-10,10l1,17q0,10 10,10q107-3 157,39T404,7V67q0,3-1.5,3T399,68q-21-35-56.5-54.5T258-6Q192-6 145,29.5T82,126Q71,166 71,250T82,379q16,59 62.5,95T257,510q48,0 84-19.5T399,437q1-3 3-2.5t2,3.5v54Zm-4-351q2,16 3,38.5t1,71.5t-1,71.5T400,362q-8,49-44.5,81T263,475q-55,0-92.5-32T119,362q-8-32-8-110q0-82 8-110q12-50 50.5-82T263,28q57,0 93,32.5T400,141Z" />
      <glyph unicode="h" glyph-name="h" horiz-adv-x="536" d="M282,509q75,0 122-46.5T451,340V10q0-10-10-10H422q-10,0-10,10V333q0,62-38,101.5T275,474q-65,0-104.5-38.5T131,335V10q0-10-10-10H102Q92,0 92,10V690q0,10 10,10h19q10,0 10-10V438q0-3 1.5-3.5T135,436q22,35 59.5,54T282,509Z" />
      <glyph unicode="i" glyph-name="i" horiz-adv-x="256" d="M128,610q-20,0-33,13T82,655q0,20 13,33t33,13t33-13t13-33q0-19-13-32t-33-13ZM116,1q-10,0-10,10V493q0,10 10,10h19q10,0 10-10V11q0-10-10-10H116Z" />
      <glyph unicode="j" glyph-name="j" horiz-adv-x="241" d="M113,610q-19,0-32,13T68,655q0,20 12.5,33T113,701t33-13t13-33t-13-32.5T113,610ZM-14-210q-10,0-10,10v15q0,10 10,10q52,2 79.5,31T93-64V492q0,10 10,10h19q10,0 10-10V-63q0-70-37-107.5T-14-210Z" />
      <glyph unicode="k" glyph-name="k" horiz-adv-x="486" d="M102,0Q92,0 92,10V690q0,10 10,10h19q10,0 10-10V250q0-2 1.5-3t3.5,1L382,497q5,5 12,5h25q6,0 7.5-3.5T424,490L298,359q-2-2-1-5L450,12l1-4q0-8-9-8H422q-8,0-11,8L270,326q-2,4-5,1L133,195q-2-2-2-5V10q0-10-10-10H102Z" />
      <glyph unicode="l" glyph-name="l" horiz-adv-x="223" d="M102,0Q92,0 92,10V690q0,10 10,10h19q10,0 10-10V10q0-10-10-10H102Z" />
      <glyph unicode="m" glyph-name="m" horiz-adv-x="828" d="M583,509q73,0 117-43.5T744,346V10q0-10-10-10H715q-10,0-10,10V339q0,62-36,98.5T574,474q-63,0-100-35.5T437,341V10q0-10-10-10H408q-10,0-10,10V339q0,62-36,98.5T268,474q-63,0-100-35.5T131,341V10q0-10-10-10H102Q92,0 92,10V492q0,10 10,10h19q10,0 10-10V442q0-3 1.5-3t3.5,2q21,33 57.5,50.5T277,509q52,0 90.5-23.5T424,419q1-2 2-2t2,2q19,44 59.5,67T583,509Z" />
      <glyph unicode="n" glyph-name="n" horiz-adv-x="536" d="M282,509q75,0 122-46.5T451,340V10q0-10-10-10H422q-10,0-10,10V333q0,62-38,101.5T275,474q-65,0-104.5-38.5T131,335V10q0-10-10-10H102Q92,0 92,10V492q0,10 10,10h19q10,0 10-10V438q0-3 1.5-3.5T135,436q22,35 59.5,54T282,509Z" />
      <glyph unicode="o" glyph-name="o" horiz-adv-x="533" d="M266-8Q197-8 149,28.5T84,126q-6,23-7.5,51.5T75,252q0,47 1.5,75T84,377q16,60 64.5,96.5T267,510t119.5-36.5T450,377q5-22 6.5-49t1.5-76q0-51-1.5-77.5T450,126q-15-61-64.5-97.5T266-8Zm0,35q58,0 97.5,31.5T414,141q3,15 4,45.5t1,64.5q0,37-1,66.5T414,361q-11,51-50.5,82.5T266,475q-57,0-96-31.5T120,361q-6-26-6-110q0-85 6-110q10-52 49-83t97-31Z" />
      <glyph unicode="p" glyph-name="p" horiz-adv-x="545" d="M461,378q6-23 7.5-51t1.5-75q0-46-1.5-75T461,125q-14-60-61-96.5T285-8q-46,0-82,19.5T145,65q-2,2-3.5,2T140,64V-188q0-10-10-10H111q-10,0-10,10V492q0,10 10,10h19q10,0 10-10V437q0-3 1.5-3t3.5,2q22,35 58.5,54.5T285,510q68,0 114.5-36T461,378ZM420,132q6,18 8,40t2,78q0,57-1.5,78.5T422,368q-9,47-48,77t-93,30q-53,0-87.5-30.5T149,368q-5-18-7-39.5T140,252q0-56 2-77.5t7-41.5q9-46 44-76t88-30t90.5,29.5T420,132Z" />
      <glyph unicode="q" glyph-name="q" horiz-adv-x="545" d="M405,492q0,10 10,10h19q10,0 10-10V-188q0-10-10-10H415q-10,0-10,10V64q0,3-1.5,3T400,65q-22-34-58-53.5T260-8Q191-8 144.5,28.5T84,125q-6,23-7.5,52T75,252q0,47 1.5,75T84,378q15,60 61.5,96T260,510q45,0 81.5-19.5T400,436q2-2 3.5-2t1.5,3v55Zm-9-359q5,20 7,41.5t2,77.5q0,55-2,76.5T396,368q-10,46-44.5,76.5T264,475q-54,0-93-30t-48-77q-5-18-6.5-39.5T115,250q0-56 2-78t8-40q11-46 48.5-75.5T264,27t88,30t44,76Z" />
      <glyph unicode="r" glyph-name="r" horiz-adv-x="356" d="M272,506q35,0 59-11q8-3 5-13l-7-20q-3-10-12-5q-22,8-50,7q-39,0-70-21t-48.5-56T131,310V10q0-10-10-10H102Q92,0 92,10V492q0,10 10,10h19q10,0 10-10V417q0-3 1.5-3.5T135,416q21,42 56,66t81,24Z" />
      <glyph unicode="s" glyph-name="s" horiz-adv-x="474" d="M242-4q-52,0-92.5,17T87,59.5T65,124v14q0,10 10,10H93q10,0 10-10V125q0-25 17.5-47t49-35.5T241,29q60,0 97.5,28.5T376,131q0,31-19,50t-43.5,28.5T234,237q-55,17-88.5,32t-56,41T67,376q0,59 47.5,94.5T239,506t125-36.5T412,377v-3q0-10-10-10H384q-10,0-10,10v3q0,41-37.5,68.5T238,473q-60,0-96-26.5T106,378q0-29 17-47.5t44-30T241,274q59-18 92.5-31.5t57.5-40T415,133q0-61-47.5-99T242-4Z" />
      <glyph unicode="t" glyph-name="t" horiz-adv-x="356" d="M290,478q0-10-10-10H159q-4,0-4-4V132q0-54 25-75.5T258,35h22q10,0 10-10V10q0-10-10-10H255Q188,0 152.5,27T117,125V464q0,4-4,4H52q-10,0-10,10v14q0,10 10,10h61q4,0 4,4V619q0,10 10,10h18q10,0 10-10V506q0-4 4-4H280q10,0 10-10V478Z" />
      <glyph unicode="u" glyph-name="u" horiz-adv-x="534" d="M403,492q0,10 10,10h19q10,0 10-10V10q0-10-10-10H413q-10,0-10,10V63q0,3-1.5,3T398,64q-22-35-59-53T253-7Q179-7 131.5,37.5T84,158V492q0,10 10,10h19q10,0 10-10V167q0-64 37.5-101.5T260,28q65,0 104,38.5T403,167V492Z" />
      <glyph unicode="v" glyph-name="v" horiz-adv-x="455" d="M216,0q-9,0-12,8L37,491l-1,4q0,7 9,7H68q9,0 12-8L224,63q1-2 3-2t3,2L375,494q3,8 12,8h22q11,0 8-11L251,8q-3-8-12-8H216Z" />
      <glyph unicode="w" glyph-name="w" horiz-adv-x="692" d="M188,0q-8,0-11,8L36,491l-1,3q0,8 10,8H64q9,0 11-8L196,59q1-2 3-2t3,2L324,494q2,8 11,8h19q8,0 11-8L489,60q1-2 2.5-2t2.5,2L617,494q3,8 11,8h19q5,0 7.5-3t1.5-8L514,8q-3-8-11-8H482q-8,0-11,8L348,428q-1,2-3,2t-3-2L221,8q-3-8-11-8H188Z" />
      <glyph unicode="x" glyph-name="x" horiz-adv-x="450" d="M40,0q-6,0-8,4t2,8L202,248q2,3 0,6L34,490q-2,2-2,6q0,2 2,4t6,2H60q8,0 12-6L222,285q1-1 3-1t3,1L375,496q4,6 12,6h22q6,0 8-4t-2-8L248,254q-1-3 0-6L415,12q2-2 2-6q0-2-2-4t-6-2H388q-8,0-12,6L229,217q-1,2-3,2t-3-2L74,6Q70,0 62,0H40Z" />
      <glyph unicode="y" glyph-name="y" horiz-adv-x="441" d="M61-200q-7,0-7,10v15q0,10 10,10h4q38,1 58.5,13.5t36,44.5T202-3q2,4 0,6L29,491l-1,4q0,7 9,7H56q9,0 12-8L219,55q1-2 3-2t3,2L373,494q3,8 12,8h19q11,0 8-11L220-56q-22-63-41-93t-43.5-40.5T68-200H61Z" />
      <glyph unicode="z" glyph-name="z" horiz-adv-x="439" d="M48,0Q38,0 38,10V29q0,8 4,13L351,461q2,2 1,3.5t-3,1.5H51q-10,0-10,10v16q0,10 10,10H390q10,0 10-10V473q0-8-4-13L85,41q-2-2-1-3.5T87,36H388q10,0 10-10V10q0-10-10-10H48Z" />
      <glyph unicode="{" glyph-name="braceleft" horiz-adv-x="269" d="M178-109q-48,0-69,25.5T88,0V222q0,42-11.5,63.5T41,312q-9,2-9,10v16q0,9 9,10q24,6 35.5,27.5T88,438V653q0,58 21,83.5T178,762h49q10,0 10-10V737q0-10-10-10H185q-30,0-44-18.5T127,648V440q0-45-10.5-70.5T83,333q-5-2 0-5q23-13 33.5-38.5T127,220V5q0-42 14-60.5T185-74h42q10,0 10-10V-99q0-10-10-10H178Z" />
      <glyph unicode="|" glyph-name="bar" horiz-adv-x="149" d="M65-80Q55-80 55-70V750q0,10 10,10H84q10,0 10-10V-70q0-10-10-10H65Z" />
      <glyph unicode="}" glyph-name="braceright" horiz-adv-x="269" d="M42-109q-10,0-10,10v15q0,10 10,10H83q31,0 45,18.5T142,5V220q0,44 10.5,69.5T186,328q5,3 0,5q-23,11-33.5,36.5T142,440V648q0,42-14,60.5T83,727H42q-10,0-10,10v15q0,10 10,10H91q48,0 69-25.5T181,653V438q0-42 11-63.5T228,348q9-1 9-10V322q0-8-9-10q-25-5-36-26t-11-64V0q0-58-21-83.5T91-109H42Z" />
      <glyph unicode="~" glyph-name="asciitilde" horiz-adv-x="485" d="M340,246q-31,0-52.5,8.5T231,282q-21,11-38.5,17.5T154,306q-51,0-80-42q-5-10-13-3l-9,6q-8,6-4,13q15,29 42.5,45.5T153,342q26,0 45-7t43-20q5-3 23-12.5t37-15t39-5.5q22,0 37,10t32,31q6,7 14,2l11-7q8-6 3-14q-18-28-41-43t-56-15Z" />
      <glyph unicode="&#xa0;" glyph-name="uni00A0" horiz-adv-x="200" />
      <glyph unicode="&#xa1;" glyph-name="exclamdown" horiz-adv-x="308" d="M153,708q20,0 33-13t13-33t-13-32.5T153,617q-19,0-32,13t-13,32q0,20 12.5,33T153,708ZM138,480q0,10 10,10h15q10,0 10-10l2-458q0-10-10-10H146q-10,0-10,10l2,458Z" />
      <glyph unicode="&#xa2;" glyph-name="cent" horiz-adv-x="512" d="M417,228q1,10 12,8l17-3q10-2 9-11q-1-2-1-6t-2-10q-12-52-59.5-86.5T278,82q-4,0-4-4V9q0-10-10-10H247Q237-1 237,9l1,71q0,4-4,5q-56,9-94.5,43.5T87,216Q75,260 75,342q0,77 12,125q14,52 52,86.5T233,597q4,1 4,5v70q0,10 10,10h17q10,0 10-10l-1-68q0-4 4-4q67-3 114-37.5T452,476q3-8 5-26v-2q0-7-9-9l-18-2h-2q-7,0-9,9l-3,14q-9,45-49.5,75T268,565t-97-31t-48-82q-9-40-9-111q0-68 8-110q11-51 49.5-82.5T268,117t99,30.5T416,223l1,5Z" />
      <glyph unicode="&#xa3;" glyph-name="sterling" horiz-adv-x="604" d="M193,39q-3-5 2-5H557q10,0 10-10V10q0-10-10-10H148q-10,0-10,10V26q0,8 7,12q25,14 41,50.5T202,171V314q0,4-4,4H119q-10,0-10,10v13q0,10 10,10h79q4,0 4,4V522q0,88 51,137t141,49q119,0 161-120l1-3q0-6-8-9l-19-5l-3-1q-6,0-9,8q-30,96-127,96q-71,0-110-40T241,522V355q0-4 4-4H440q10,0 10-10V328q0-10-10-10H245q-4,0-4-4V173q0-42-13-77T193,39Z" />
      <glyph unicode="&#xa4;" glyph-name="currency" horiz-adv-x="497" d="M434,301q0-67-41-117q-2-3 1-6l64-64q3-3 3-6q0-4-4-8L445,90q-3-3-7-3q-3,0-7,4l-63,62q-3,3-6,1q-50-41-117-41q-64,0-113,38q-3,2-6-1L66,91q-7-7-14-1L40,100q-7,8-1,14l61,60q3,3 0,6Q55,233 55,301q0,65 42,117q2,3-1,6L32,488q-3,3-3,6q0,4 4,8l12,10q3,3 7,3q3,0 7-4l62-62q3-3 6-1q50,41 118,41q67,0 121-44q3-3 6,0l66,66q7,7 14,1l12-10q8-7 1-14l-69-68q-3-2-1-6q39-48 39-113ZM91,301q0-42 20.5-77t56-55.5T245,148q41,0 76.5,20.5t56,55.5T398,301q0,41-20.5,76.5t-56,56T245,454q-42,0-77.5-20.5t-56-56T91,301Z" />
      <glyph unicode="&#xa5;" glyph-name="yen" horiz-adv-x="689" d="M567,700q6,0 8-3.5t-1-8.5L376,347q-1-2 0-3.5t3-1.5H507q10,0 10-10v-9q0-10-10-10H369q-4,0-4-4V215q0-4 4-4H507q10,0 10-10v-9q0-10-10-10H369q-4,0-4-4V10q0-10-10-10H336q-10,0-10,10V178q0,4-4,4H178q-10,0-10,10v9q0,10 10,10H322q4,0 4,4v94q0,4-4,4H178q-10,0-10,10v9q0,10 10,10H312q2,0 3,1.5t0,3.5L116,688q-2,4-2,6q0,6 9,6h19q7,0 12-7L342,372q1-1 3-1t3,1L537,693q5,7 12,7h18Z" />
      <glyph unicode="&#xa6;" glyph-name="brokenbar" horiz-adv-x="149" d="M65,396q-10,0-10,10V750q0,10 10,10H84q10,0 10-10V406q0-10-10-10H65ZM65-80Q55-80 55-70V274q0,10 10,10H84q10,0 10-10V-70q0-10-10-10H65Z" />
      <glyph unicode="&#xa7;" glyph-name="section" horiz-adv-x="434" d="M216-207q-65,0-104,43.5T72-46v15q0,10 10,10h19q10,0 10-10V-43q1-59 30-94.5T218-173t78.5,35.5T327-51q0,41-20,67T260.5,55T197,79q-41,13-70,30.5T81,158q-21,36-21,86q0,57 26,97q32,48 87,61q3,1 3,2t-3,2q-45,17-74.5,57.5T69,555q0,40 18.5,75T140,686t78,21q63,0 103.5-43T363,555V542q0-10-10-10H334q-10,0-10,10v11q0,52-30,86t-76,34q-48,0-79-37t-31-86q0-50 33.5-80.5T237,419q32-11 58-24.5T341,355q31-40 31-101q0-58-24-100q-29-51-81-60q-6-1-1-3q46-18 73.5-55T367-54q0-66-42.5-109.5T216-207Zm-1,325q69,0 100,52q18,33 18,77q0,57-25,86q-35,45-91,45q-31,0-57.5-17.5T117,316q-18-31-18-73q0-45 17-72q36-53 99-53Z" />
      <glyph unicode="&#xa8;" glyph-name="dieresis" horiz-adv-x="317" d="M237,611q-20,0-32.5,13T192,656q0,20 12.5,33T237,702t33-13t13-33t-13-32.5T237,611ZM78,611q-20,0-32.5,13T33,656q0,20 12.5,33T78,702t33-13t13-33t-13-32.5T78,611Z" />
      <glyph unicode="&#xa9;" glyph-name="copyright" horiz-adv-x="892" d="M446-8Q343-8 260,38.5t-129.5,128T84,348q0,102 46.5,184T260,661t186,47t186-47T762,532t47-184q0-100-47-181.5T632,38.5T446-8Zm0,31q94,0 169,42.5t117.5,117T775,348q0,93-42.5,168T615,634T446,677T276.5,634T159,516T117,348q0-91 42.5-165.5T277,65.5T446,23Zm1,146q-48,0-76,27t-28,71V433q0,44 28,70.5T447,530q47,0 75.5-26.5T551,434v-2q0-9-10-9l-10,1q-10,0-10,10v2q0,30-21,48.5T447,503q-34,0-54.5-18.5T372,436V262q0-29 20.5-47.5T447,196q32,0 53,18.5T521,262v3q0,5 3,8t7,3h10q10,0 10-9v-1q0-43-29-70t-75-27Z" />
      <glyph unicode="&#xaa;" glyph-name="ordfeminine" horiz-adv-x="322" d="M241,562q4,0 4,4v30q0,38-22,61.5T157,681q-33,0-55.5-13.5T73,630q-3-9-12-8l-10,2q-11,2-8,11q7,33 38.5,53T159,708q56,0 86.5-30T276,598V381q0-10-10-10H255q-10,0-10,10v25q0,2-1.5,2.5T240,407q-16-20-43-30.5T137,366q-47,0-78,22.5T28,457q0,49 36.5,77T164,562h77ZM140,392q43,0 74,21t31,60v58q0,4-4,4H165q-49,0-78.5-19.5T57,459q0-34 23-50.5T140,392ZM27,280q0,10 10,10H274q10,0 10-10V267q0-10-10-10H37q-10,0-10,10v13Z" />
      <glyph unicode="&#xab;" glyph-name="guillemotleft" horiz-adv-x="554" d="M283,119q3-3 3-6q0-6-8-6H261q-7,0-12,6L111,274q-3,3-3,7t3,7L249,449q5,6 12,6h17q6,0 7.5-3.5T283,443L147,284q-1-3 0-6L283,119Zm152,0q3-3 3-6q0-6-8-6H413q-7,0-12,6L263,274q-3,3-3,7t3,7L401,449q5,6 12,6h17q6,0 7.5-3.5T435,443L299,284q-1-3 0-6L435,119Z" />
      <glyph unicode="&#xac;" glyph-name="logicalnot" horiz-adv-x="507" d="M44,326q0,10 10,10H453q10,0 10-10V188q0-10-10-10H437q-10,0-10,10V298q0,4-4,4H54q-10,0-10,10v14Z" />
      <glyph unicode="&#xad;" glyph-name="uni00AD" horiz-adv-x="388" d="M54,300q-10,0-10,10v15q0,10 10,10H334q10,0 10-10V310q0-10-10-10H54Z" />
      <glyph unicode="&#xae;" glyph-name="registered" horiz-adv-x="454" d="M227,715q53,0 97.5-25.5T395,620t26-96q0-53-26-97t-70.5-69.5T227,332t-97,25.5T60,427T34,524q0,52 26,96t70,69.5T227,715Zm0-357q45,0 83,22.5T370.5,441T393,524t-22.5,83T310,667t-83,22t-83-22T83.5,607T61,524t22.5-83T144,380.5T227,358Zm60,201q0-16-7.5-27.5T259,515q-3-1-2-5l28-64l1-4q0-8-9-8h-5q-8,0-11,8l-28,66q-1,3-4,3H207q-4,0-4-4V444q0-10-10-10h-4q-10,0-10,10V601q0,10 10,10h48q22,0 36-14.5T287,559Zm-80,31q-4,0-4-4V534q0-4 4-4h28q13,0 20.5,8t7.5,21q0,14-7.5,22.5T235,590H207Z" />
      <glyph unicode="&#xaf;" glyph-name="macron" horiz-adv-x="257" d="M10,601Q0,601 0,611v12q0,10 10,10H247q10,0 10-10V611q0-10-10-10H10Z" />
      <glyph unicode="&#xb0;" glyph-name="degree" horiz-adv-x="383" d="M191,494q-43,0-79,21T55,572T34,651t21,79t57,57t79,21q44,0 80-21t57-57t21-79t-21-79t-57-57t-80-21Zm0,31q53,0 89.5,36.5T317,651t-36.5,89.5T191,777t-89.5-36.5T65,651q0-52 37-89t89-37Z" />
      <glyph unicode="&#xb1;" glyph-name="plusminus" horiz-adv-x="507" d="M453,350q10,0 10-10V326q0-10-10-10H274q-4,0-4-4V138q0-10-10-10H246q-10,0-10,10V312q0,4-4,4H54q-10,0-10,10v14q0,10 10,10H232q4,0 4,4V537q0,10 10,10h14q10,0 10-10V354q0-4 4-4H453ZM54,0Q44,0 44,10V24q0,10 10,10H453q10,0 10-10V10q0-10-10-10H54Z" />
      <glyph unicode="&#xb2;" glyph-name="uni00B2" horiz-adv-x="318" d="M48,454q-10,0-10,10v11q0,7 4,12l25,32q72,88 111,140q57,74 57,116q0,34-23,54.5T151,850q-37,0-59.5-21T70,774V758q0-10-10-10H47q-10,0-10,10v20q1,45 32.5,73T151,879q52,0 84-29.5T267,775q0-51-57-126Q162,585 83,487q-3-5 2-5H271q10,0 10-10v-8q0-10-10-10H48Z" />
      <glyph unicode="&#xb3;" glyph-name="uni00B3" horiz-adv-x="321" d="M259,660q17-34 17-81q0-44-15-74q-14-28-40-43t-62-15q-41,0-68.5,22T51,528q-6,16-6,40q0,10 10,10H68q10,0 10-10q0-13 2-29q5-28 26.5-45T159,477q50,0 71,40q13,28 13,62q0,42-15,69q-20,40-69,40q-10,0-15-2h-4q-6,0-9,4l-5,6q-3,3-3,7t3,7L230,839q2,2 1,3.5t-3,1.5H57q-10,0-10,10v8q0,10 10,10H263q10,0 10-10V851q0-7-4-12L173,717q-2-2-1-3.5t4-1.5q57-4 83-52Z" />
      <glyph unicode="&#xb4;" glyph-name="acute" horiz-adv-x="178" d="M47,570q-6,0-8,3.5t1,8.5l61,111q3,7 12,7h17q6,0 8-3.5t-1-8.5L72,577q-5-7-12-7H47Z" />
      <glyph unicode="&#xb5;" glyph-name="uni00B5" horiz-adv-x="543" d="M411,492q0,10 10,10h19q10,0 10-10V10q0-10-10-10H421q-10,0-10,10V61q0,3-2,3.5T406,62q-22-33-59-51T262-7Q183-7 136,42q-5,3-5-2V-190q0-10-10-10H102q-10,0-10,10V492q0,10 10,10h19q10,0 10-10V167q0-63 37.5-101T268,28q65,0 104,38.5T411,167V492Z" />
      <glyph unicode="&#xb6;" glyph-name="paragraph" horiz-adv-x="555" d="M437,700q10,0 10-10V-190q0-10-10-10H425q-10,0-10,10V664q0,4-4,4H270q-4,0-4-4V-190q0-10-10-10H242q-10,0-10,10V246q0,4-4,4q-52,2-94.5,33T66,364.5T41,475q0,62 27,113.5T142,670t104,30H437Z" />
      <glyph unicode="&#xb7;" glyph-name="periodcentered" horiz-adv-x="198" d="M99,228q-20,0-32.5,13T54,273q0,20 12.5,33T99,319t33-13t13-33t-13-32.5T99,228Z" />
      <glyph unicode="&#xb8;" glyph-name="cedilla" horiz-adv-x="127" d="M10-180q-10,1-8,12l2,8q3,9 13,8q12-3 23-3q24,0 39,13t15,41q0,42-51,89q-5,5-5,8q0,4 7,4h9q8,0 13-4q60-46 60-100q0-7-2-21q-7-31-29.5-44.5T42-183q-17,0-32,3Z" />
      <glyph unicode="&#xb9;" glyph-name="uni00B9" horiz-adv-x="180" d="M89,872q5,2 12,2h17q10,0 10-10V464q0-10-10-10H105q-10,0-10,10V836q0,2-1.5,3T91,839L35,827l-3-1q-8,0-8,10v6q0,9 8,12l57,18Z" />
      <glyph unicode="&#xba;" glyph-name="ordmasculine" horiz-adv-x="337" d="M170,367q-45,0-76,23.5T51,455q-7,27-7,83q0,57 6,82q11,40 43,64t77,24t76.5-24T289,620q4-15 5-36.5t1-45.5q0-25-1-46.5T289,455q-11-40-43-64t-76-24Zm0,28q34,0 58,19.5T259,467q4,15 4,71t-3,70q-8,33-32,52.5T169,680t-58-19.5T80,608q-4-20-4-70q0-52 4-71q8-34 31.5-53T170,395ZM47,258q-10,0-10,10v12q0,10 10,10H290q10,0 10-10V268q0-10-10-10H47Z" />
      <glyph unicode="&#xbb;" glyph-name="guillemotright" horiz-adv-x="554" d="M125,107q-6,0-7.5,3.5T120,119L256,278q2,3 0,6L120,443q-3,3-3,6q0,6 8,6h17q7,0 12-6L292,288q3-3 3-7t-3-7L154,113q-4-6-12-6H125Zm152,0q-6,0-7.5,3.5T272,119L408,278q2,3 0,6L272,443q-3,3-3,6q0,6 8,6h17q7,0 12-6L444,288q3-3 3-7t-3-7L306,113q-4-6-12-6H277Z" />
      <glyph unicode="&#xbc;" glyph-name="onequarter" horiz-adv-x="797" d="M89,698q5,2 12,2h17q10,0 10-10V290q0-10-10-10H105q-10,0-10,10V662q0,2-1.5,3T91,665L35,653l-3-1q-8,0-8,10v6q0,9 8,12l57,18ZM113,0q-6,0-7.5,3.5T107,12L545,693q5,7 12,7h14q6,0 7.5-3.5T577,688L138,7q-5-7-12-7H113ZM734,147q10,0 10-10V127q0-10-10-10H715q-4,0-4-4V10q0-10-10-10H688q-10,0-10,10V113q0,4-4,4H502q-10,0-10,10v10q0,5 3,12L619,413q3,7 11,7h12q5,0 7-3.5t0-8.5L529,152q-1-2 0-3.5t3-1.5H674q4,0 4,4v96q0,10 10,10h13q10,0 10-10V151q0-4 4-4h19Z" />
      <glyph unicode="&#xbd;" glyph-name="onehalf" horiz-adv-x="793" d="M89,698q5,2 12,2h17q10,0 10-10V290q0-10-10-10H105q-10,0-10,10V662q0,2-1.5,3T91,665L35,653l-3-1q-8,0-8,10v6q0,9 8,12l57,18ZM113,0q-6,0-7.5,3.5T107,12L545,693q5,7 12,7h14q6,0 7.5-3.5T577,688L138,7q-5-7-12-7H113ZM508,0q-10,0-10,10V21q0,7 4,12l25,32q72,88 111,140q57,74 57,116q0,34-23,54.5T611,396q-37,0-59.5-21T530,320V304q0-10-10-10H507q-10,0-10,10v20q1,45 32.5,73T611,425q52,0 84-29.5T727,321q0-51-57-126Q622,131 543,33q-3-5 2-5H731q10,0 10-10V10q0-10-10-10H508Z" />
      <glyph unicode="&#xbe;" glyph-name="threequarters" horiz-adv-x="895" d="M259,496q17-34 17-81q0-44-15-74q-14-28-40-43t-62-15q-41,0-68.5,22T51,364q-6,16-6,40q0,10 10,10H68q10,0 10-10q0-13 2-29q5-28 26.5-45T159,313q50,0 71,40q13,28 13,62q0,42-15,69q-20,40-69,40q-10,0-15-2h-4q-6,0-9,4l-5,6q-3,3-3,7t3,7L230,675q2,2 1,3.5t-3,1.5H57q-10,0-10,10v8q0,10 10,10H263q10,0 10-10V687q0-7-4-12L173,553q-2-2-1-3.5t4-1.5q57-4 83-52ZM216,0q-6,0-7.5,3.5T210,12L648,693q5,7 12,7h14q6,0 7.5-3.5T680,688L241,7q-5-7-12-7H216ZM837,147q10,0 10-10V127q0-10-10-10H818q-4,0-4-4V10q0-10-10-10H791q-10,0-10,10V113q0,4-4,4H605q-10,0-10,10v10q0,5 3,12L722,413q3,7 11,7h12q5,0 7-3.5t0-8.5L632,152q-1-2 0-3.5t3-1.5H777q4,0 4,4v96q0,10 10,10h13q10,0 10-10V151q0-4 4-4h19Z" />
      <glyph unicode="&#xbf;" glyph-name="questiondown" horiz-adv-x="433" d="M234,496q20,0 33-13t13-33q0-19-13-32t-33-13q-19,0-32,13t-13,32q0,20 12.5,33T234,496Zm11-186q10,0 10-10V230q0-41-19.5-66.5T176,105q-30-24-47.5-42T99,18.5T87-43q0-59 35.5-94.5T217-173t95.5,35.5T349-44V-7q0,10 10,10l19-1q10,0 10-10V-44q0-73-47.5-119T217-209T94.5-163.5T48-42Q48,2 62,34T96,87t51,46q35,28 51,48t16,50v69q0,10 10,10h21Z" />
      <glyph unicode="&#xc0;" glyph-name="Agrave" horiz-adv-x="578" d="M510,0q-9,0-12,8L453,146q-1,3-4,3H127q-3,0-4-3L79,8Q76,0 67,0H48Q37,0 40,11L263,692q3,8 12,8h26q9,0 12-8L538,11l1-4q0-7-9-7H510ZM136,187q-1-2 0.5-3.5T140,182H437q2,0 3.5,1.5T441,187L291,644q-1,2-3,2t-3-2L136,187ZM302,780q2-4 2-6q0-6-9-6H282q-7,0-12,7L205,886q-2,4-2,6q0,6 9,6h17q9,0 12-7l61-111Z" />
      <glyph unicode="&#xc1;" glyph-name="Aacute" horiz-adv-x="578" d="M510,0q-9,0-12,8L453,146q-1,3-4,3H127q-3,0-4-3L79,8Q76,0 67,0H48Q37,0 40,11L263,692q3,8 12,8h26q9,0 12-8L538,11l1-4q0-7-9-7H510ZM136,187q-1-2 0.5-3.5T140,182H437q2,0 3.5,1.5T441,187L291,644q-1,2-3,2t-3-2L136,187ZM266,768q-6,0-8,3.5t1,8.5l61,111q3,7 12,7h17q6,0 8-3.5t-1-8.5L291,775q-5-7-12-7H266Z" />
      <glyph unicode="&#xc2;" glyph-name="Acircumflex" horiz-adv-x="578" d="M510,0q-9,0-12,8L453,146q-1,3-4,3H127q-3,0-4-3L79,8Q76,0 67,0H48Q37,0 40,11L263,692q3,8 12,8h26q9,0 12-8L538,11l1-4q0-7-9-7H510ZM136,187q-1-2 0.5-3.5T140,182H437q2,0 3.5,1.5T441,187L291,644q-1,2-3,2t-3-2L136,187Zm51,586q-6,0-8,4t2,8l82,107q4,6 13,6h23q9,0 13-6l83-107q2-2 2-6q0-2-2-4t-6-2H373q-9,0-13,6l-68,90q-1,2-3,2t-3-2l-70-90q-4-6-13-6H187Z" />
      <glyph unicode="&#xc3;" glyph-name="Atilde" horiz-adv-x="578" d="M510,0q-9,0-12,8L453,146q-1,3-4,3H127q-3,0-4-3L79,8Q76,0 67,0H48Q37,0 40,11L263,692q3,8 12,8h26q9,0 12-8L538,11l1-4q0-7-9-7H510ZM136,187q-1-2 0.5-3.5T140,182H437q2,0 3.5,1.5T441,187L291,644q-1,2-3,2t-3-2L136,187ZM351,815q-28,0-59,23q-18,12-27.5,16.5T242,859q-18,0-30-6t-25-22q-6-8-14-2l-7,6q-6,6-2,14q29,43 77,43q16,0 29-5.5T302,869q18-12 28.5-17t21.5-5q16,0 29,6.5T406,878q6,9 14,3l4-3q3-3 3-3q3-3 3-7t-3-10q-14-22-35-32.5T351,815Z" />
      <glyph unicode="&#xc4;" glyph-name="Adieresis" horiz-adv-x="578" d="M510,0q-9,0-12,8L453,146q-1,3-4,3H127q-3,0-4-3L79,8Q76,0 67,0H48Q37,0 40,11L263,692q3,8 12,8h26q9,0 12-8L538,11l1-4q0-7-9-7H510ZM136,187q-1-2 0.5-3.5T140,182H437q2,0 3.5,1.5T441,187L291,644q-1,2-3,2t-3-2L136,187ZM367,809q-20,0-32.5,13T322,854q0,20 12.5,33T367,900t33-13t13-33t-13-32.5T367,809Zm-159,0q-20,0-32.5,13T163,854q0,20 12.5,33T208,900t33-13t13-33t-13-32.5T208,809Z" />
      <glyph unicode="&#xc5;" glyph-name="Aring" horiz-adv-x="578" d="M510,0q-9,0-12,8L453,146q-1,3-4,3H127q-3,0-4-3L79,8Q76,0 67,0H48Q37,0 40,11L263,692q3,8 12,8h26q9,0 12-8L538,11l1-4q0-7-9-7H510ZM136,187q-1-2 0.5-3.5T140,182H437q2,0 3.5,1.5T441,187L291,644q-1,2-3,2t-3-2L136,187ZM288,784q-43,0-72.5,29.5T186,885t29.5,71.5T288,986t73-29.5T391,885t-30-71.5T288,784Zm0,29q30,0 51.5,20.5T361,885q0,30-21.5,51T288,957t-51.5-21T215,885t21.5-51T288,813Z" />
      <glyph unicode="&#xc6;" glyph-name="AE" horiz-adv-x="903" d="M836,675q0-10-10-10H476q-4,0-4-4V373q0-4 4-4H717q10,0 10-10V343q0-10-10-10H476q-4,0-4-4V39q0-4 4-4H826q10,0 10-10V10q0-10-10-10H443q-10,0-10,10V145q0,4-4,4H162q-3,0-5-3L84,7Q81,0 72,0H50q-6,0-8.5,3.5T42,12L407,693q3,7 12,7H826q10,0 10-10V675ZM180,187q-2-5 2-5H429q4,0 4,4V653q0,3-1.5,3t-3.5-2L180,187Z" />
      <glyph unicode="&#xc7;" glyph-name="Ccedilla" horiz-adv-x="606" d="M531,494q0-2-3-4t-7-2l-19-1q-10,0-10,9v3q0,78-51,126T308,673q-84,0-134.5-48T123,499V201q0-78 50.5-126.5T308,26q82,0 133,48.5T492,201v2q0,9 10,9l19-1q10,0 10-9q0-62-28-110T424.5,17.5T308-9H296q-3,0-3.5-1t1.5-3q54-44 54-96q0-6-2-20q-7-31-29.5-44.5T263-187q-17,0-32,3q-10,1-8,12l2,8q2,9 12,8q12-3 24-3q24,0 39,13t15,41q0,42-51,89Q250-4 251-4L237,0Q166,18 125,72T84,203V498q0,62 28,110t78.5,74T308,708q66,0 116.5-26T503,608.5T531,499v-5Z" />
      <glyph unicode="&#xc8;" glyph-name="Egrave" horiz-adv-x="615" d="M548,675q0-10-10-10H152q-4,0-4-4V373q0-4 4-4H428q10,0 10-10V343q0-10-10-10H152q-4,0-4-4V39q0-4 4-4H538q10,0 10-10V10q0-10-10-10H119q-10,0-10,10V690q0,10 10,10H538q10,0 10-10V675ZM338,780q2-4 2-6q0-6-9-6H318q-7,0-12,7L241,886q-2,4-2,6q0,6 9,6h17q9,0 12-7l61-111Z" />
      <glyph unicode="&#xc9;" glyph-name="Eacute" horiz-adv-x="615" d="M548,675q0-10-10-10H152q-4,0-4-4V373q0-4 4-4H428q10,0 10-10V343q0-10-10-10H152q-4,0-4-4V39q0-4 4-4H538q10,0 10-10V10q0-10-10-10H119q-10,0-10,10V690q0,10 10,10H538q10,0 10-10V675ZM301,768q-6,0-8,3.5t1,8.5l61,111q3,7 12,7h17q6,0 8-3.5t-1-8.5L326,775q-5-7-12-7H301Z" />
      <glyph unicode="&#xca;" glyph-name="Ecircumflex" horiz-adv-x="615" d="M548,675q0-10-10-10H152q-4,0-4-4V373q0-4 4-4H428q10,0 10-10V343q0-10-10-10H152q-4,0-4-4V39q0-4 4-4H538q10,0 10-10V10q0-10-10-10H119q-10,0-10,10V690q0,10 10,10H538q10,0 10-10V675ZM222,773q-6,0-8,4t2,8l82,107q4,6 13,6h23q9,0 13-6l83-107q2-2 2-6q0-2-2-4t-6-2H408q-9,0-13,6l-68,90q-1,2-3,2t-3-2l-70-90q-4-6-13-6H222Z" />
      <glyph unicode="&#xcb;" glyph-name="Edieresis" horiz-adv-x="615" d="M548,675q0-10-10-10H152q-4,0-4-4V373q0-4 4-4H428q10,0 10-10V343q0-10-10-10H152q-4,0-4-4V39q0-4 4-4H538q10,0 10-10V10q0-10-10-10H119q-10,0-10,10V690q0,10 10,10H538q10,0 10-10V675ZM402,809q-20,0-32.5,13T357,854q0,20 12.5,33T402,900t33-13t13-33t-13-32.5T402,809Zm-159,0q-20,0-32.5,13T198,854q0,20 12.5,33T243,900t33-13t13-33t-13-32.5T243,809Z" />
      <glyph unicode="&#xcc;" glyph-name="Igrave" horiz-adv-x="257" d="M119,0q-10,0-10,10V690q0,10 10,10h19q10,0 10-10V10q0-10-10-10H119Zm24,780q2-4 2-6q0-6-9-6H123q-7,0-12,7L46,886q-2,4-2,6q0,6 9,6H70q9,0 12-7l61-111Z" />
      <glyph unicode="&#xcd;" glyph-name="Iacute" horiz-adv-x="257" d="M119,0q-10,0-10,10V690q0,10 10,10h19q10,0 10-10V10q0-10-10-10H119ZM107,768q-6,0-8,3.5t1,8.5l61,111q3,7 12,7h17q6,0 8-3.5t-1-8.5L132,775q-5-7-12-7H107Z" />
      <glyph unicode="&#xce;" glyph-name="Icircumflex" horiz-adv-x="257" d="M119,0q-10,0-10,10V690q0,10 10,10h19q10,0 10-10V10q0-10-10-10H119ZM27,773q-6,0-8,4t2,8l82,107q4,6 13,6h23q9,0 13-6l83-107q2-2 2-6q0-2-2-4t-6-2H213q-9,0-13,6l-68,90q-1,2-3,2t-3-2L56,779q-4-6-13-6H27Z" />
      <glyph unicode="&#xcf;" glyph-name="Idieresis" horiz-adv-x="257" d="M119,0q-10,0-10,10V690q0,10 10,10h19q10,0 10-10V10q0-10-10-10H119Zm88,809q-20,0-32.5,13T162,854q0,20 12.5,33T207,900t33-13t13-33t-13-32.5T207,809ZM48,809q-20,0-32.5,13T3,854q0,20 12.5,33T48,900t33-13t13-33T81,821.5T48,809Z" />
      <glyph unicode="&#xd0;" glyph-name="Eth" horiz-adv-x="690" d="M419,700q93,0 147-49.5T620,515V185q0-86-54-135.5T419,0H191q-10,0-10,10V346q0,4-4,4H119q-10,0-10,10v12q0,10 10,10h58q4,0 4,4V690q0,10 10,10H419ZM581,512q0,71-42.5,112T422,665H224q-4,0-4-4V386q0-4 4-4H359q10,0 10-10V360q0-10-10-10H224q-4,0-4-4V39q0-4 4-4H422q74,0 116.5,41T581,187V512Z" />
      <glyph unicode="&#xd1;" glyph-name="Ntilde" horiz-adv-x="681" d="M533,690q0,10 10,10h19q10,0 10-10V10q0-10-10-10H542q-7,0-12,7L153,620q-1,3-3,2.5t-2-3.5V10q0-10-10-10H119q-10,0-10,10V690q0,10 10,10h20q7,0 12-7L528,82q1-3 3-2.5t2,3.5V690ZM404,815q-28,0-59,23q-18,12-27.5,16.5T295,859q-18,0-30-6t-25-22q-6-8-14-2l-7,6q-6,6-2,14q29,43 77,43q16,0 29-5.5T355,869q18-12 28.5-17t21.5-5q16,0 29,6.5T459,878q6,9 14,3l4-3q3-3 3-3q3-3 3-7t-3-10q-14-22-35-32.5T404,815Z" />
      <glyph unicode="&#xd2;" glyph-name="Ograve" horiz-adv-x="622" d="M310-8Q243-8 191.5,20T112,98.5T84,215V484q0,66 28,117t79.5,79T310,708q68,0 119.5-28t80-79T538,484V215q0-66-28.5-116.5T429.5,20T310-8Zm0,35q85,0 137,51t52,135V485q0,85-52,136.5T310,673q-84,0-135.5-51.5T123,485V213q0-84 51.5-135T310,27Zm14,753q2-4 2-6q0-6-9-6H304q-7,0-12,7L227,886q-2,4-2,6q0,6 9,6h17q9,0 12-7l61-111Z" />
      <glyph unicode="&#xd3;" glyph-name="Oacute" horiz-adv-x="622" d="M310-8Q243-8 191.5,20T112,98.5T84,215V484q0,66 28,117t79.5,79T310,708q68,0 119.5-28t80-79T538,484V215q0-66-28.5-116.5T429.5,20T310-8Zm0,35q85,0 137,51t52,135V485q0,85-52,136.5T310,673q-84,0-135.5-51.5T123,485V213q0-84 51.5-135T310,27ZM288,768q-6,0-8,3.5t1,8.5l61,111q3,7 12,7h17q6,0 8-3.5t-1-8.5L313,775q-5-7-12-7H288Z" />
      <glyph unicode="&#xd4;" glyph-name="Ocircumflex" horiz-adv-x="622" d="M310-8Q243-8 191.5,20T112,98.5T84,215V484q0,66 28,117t79.5,79T310,708q68,0 119.5-28t80-79T538,484V215q0-66-28.5-116.5T429.5,20T310-8Zm0,35q85,0 137,51t52,135V485q0,85-52,136.5T310,673q-84,0-135.5-51.5T123,485V213q0-84 51.5-135T310,27ZM209,773q-6,0-8,4t2,8l82,107q4,6 13,6h23q9,0 13-6l83-107q2-2 2-6q0-2-2-4t-6-2H395q-9,0-13,6l-68,90q-1,2-3,2t-3-2l-70-90q-4-6-13-6H209Z" />
      <glyph unicode="&#xd5;" glyph-name="Otilde" horiz-adv-x="622" d="M310-8Q243-8 191.5,20T112,98.5T84,215V484q0,66 28,117t79.5,79T310,708q68,0 119.5-28t80-79T538,484V215q0-66-28.5-116.5T429.5,20T310-8Zm0,35q85,0 137,51t52,135V485q0,85-52,136.5T310,673q-84,0-135.5-51.5T123,485V213q0-84 51.5-135T310,27Zm63,788q-28,0-59,23q-18,12-27.5,16.5T264,859q-18,0-30-6t-25-22q-6-8-14-2l-7,6q-6,6-2,14q29,43 77,43q16,0 29-5.5T324,869q18-12 28.5-17t21.5-5q16,0 29,6.5T428,878q6,9 14,3l4-3q3-3 3-3q3-3 3-7t-3-10q-14-22-35-32.5T373,815Z" />
      <glyph unicode="&#xd6;" glyph-name="Odieresis" horiz-adv-x="622" d="M310-8Q243-8 191.5,20T112,98.5T84,215V484q0,66 28,117t79.5,79T310,708q68,0 119.5-28t80-79T538,484V215q0-66-28.5-116.5T429.5,20T310-8Zm0,35q85,0 137,51t52,135V485q0,85-52,136.5T310,673q-84,0-135.5-51.5T123,485V213q0-84 51.5-135T310,27Zm79,782q-20,0-32.5,13T344,854q0,20 12.5,33T389,900t33-13t13-33t-13-32.5T389,809Zm-159,0q-20,0-32.5,13T185,854q0,20 12.5,33T230,900t33-13t13-33t-13-32.5T230,809Z" />
      <glyph unicode="&#xd7;" glyph-name="multiply" horiz-adv-x="411" d="M361,464q3-3 3-7t-3-7L235,324q-3-3 0-6L358,195q3-3 3-7t-3-7l-11-10q-7-7-14,0L211,294q-3,3-6,0L78,167q-3-3-7-3t-7,3L54,178q-6,8 0,14L180,318q3,3 0,6L51,453q-3,3-3,7t3,7l10,10q3,3 7,3t7-3L204,348q3-3 6,0L336,474q7,7 14,0l11-10Z" />
      <glyph unicode="&#xd8;" glyph-name="Oslash" horiz-adv-x="622" d="M547,702q8-6 3-14l-46-71q-1-3 0-6q34-54 34-127V215q0-66-28.5-116.5T429.5,20T310-8Q260-8 218.5,7.5T147,52q-3,3-5-1L102-10q-5-9-13-3L74-3q-7,6-3,13l47,73q2,3 0,6Q84,142 84,215V484q0,66 28,117t79.5,79T310,708q101,0 164-61q3-3 5,1l40,61q5,9 13,3l15-10ZM123,213q0-48 18-86q1-4 5,0L454,608q2,3 0,6q-53,59-144,59q-84,0-135.5-51.5T123,485V213ZM499,485q0,50-18,87q-1,4-5,0L167,91q-1-3 0-6q52-58 143-58q85,0 137,51t52,135V485Z" />
      <glyph unicode="&#xd9;" glyph-name="Ugrave" horiz-adv-x="656" d="M328-8Q261-8 209.5,19t-80,76.5T101,209V690q0,10 10,10h19q10,0 10-10V206q0-80 51.5-129.5T328,27T465,76.5T517,206V690q0,10 10,10h19q10,0 10-10V209q0-64-28.5-113.5T447.5,19T328-8Zm14,788q2-4 2-6q0-6-9-6H322q-7,0-12,7L245,886q-2,4-2,6q0,6 9,6h17q9,0 12-7l61-111Z" />
      <glyph unicode="&#xda;" glyph-name="Uacute" horiz-adv-x="656" d="M328-8Q261-8 209.5,19t-80,76.5T101,209V690q0,10 10,10h19q10,0 10-10V206q0-80 51.5-129.5T328,27T465,76.5T517,206V690q0,10 10,10h19q10,0 10-10V209q0-64-28.5-113.5T447.5,19T328-8ZM306,768q-6,0-8,3.5t1,8.5l61,111q3,7 12,7h17q6,0 8-3.5t-1-8.5L331,775q-5-7-12-7H306Z" />
      <glyph unicode="&#xdb;" glyph-name="Ucircumflex" horiz-adv-x="656" d="M328-8Q261-8 209.5,19t-80,76.5T101,209V690q0,10 10,10h19q10,0 10-10V206q0-80 51.5-129.5T328,27T465,76.5T517,206V690q0,10 10,10h19q10,0 10-10V209q0-64-28.5-113.5T447.5,19T328-8ZM227,773q-6,0-8,4t2,8l82,107q4,6 13,6h23q9,0 13-6l83-107q2-2 2-6q0-2-2-4t-6-2H413q-9,0-13,6l-68,90q-1,2-3,2t-3-2l-70-90q-4-6-13-6H227Z" />
      <glyph unicode="&#xdc;" glyph-name="Udieresis" horiz-adv-x="656" d="M328-8Q261-8 209.5,19t-80,76.5T101,209V690q0,10 10,10h19q10,0 10-10V206q0-80 51.5-129.5T328,27T465,76.5T517,206V690q0,10 10,10h19q10,0 10-10V209q0-64-28.5-113.5T447.5,19T328-8Zm79,817q-20,0-32.5,13T362,854q0,20 12.5,33T407,900t33-13t13-33t-13-32.5T407,809Zm-159,0q-20,0-32.5,13T203,854q0,20 12.5,33T248,900t33-13t13-33t-13-32.5T248,809Z" />
      <glyph unicode="&#xdd;" glyph-name="Yacute" horiz-adv-x="544" d="M263,0q-10,0-10,10V326q0,4-1,5L43,688q-2,4-2,6q0,6 9,6H69q7,0 12-7L269,372q1-1 3-1t3,1L463,693q5,7 12,7h19q6,0 8-3.5t-1-8.5L292,331q-1-1-1-5V10q0-10-10-10H263ZM250,767q-6,0-8,3.5t1,8.5l61,111q3,7 12,7h17q6,0 8-3.5t-1-8.5L275,774q-5-7-12-7H250Z" />
      <glyph unicode="&#xde;" glyph-name="Thorn" horiz-adv-x="561" d="M336,535q82,0 133-51.5T520,349q0-84-51-134T335,165H144q-4,0-4-4V10q0-10-10-10H111q-10,0-10,10V690q0,10 10,10h19q10,0 10-10V539q0-4 4-4H336Zm-2-336q66,0 106.5,41T481,348q0,69-40.5,110.5T334,500H144q-4,0-4-4V203q0-4 4-4H334Z" />
      <glyph unicode="&#xdf;" glyph-name="germandbls" horiz-adv-x="549" d="M103,0Q93,0 93,10V522q0,87 51,137t137,50t136.5-50T468,523q0-56-24.5-95T374,373q-3-1-3-2t2-2q47-19 74-65.5T474,192q0-90-53.5-141T270,0H196q-10,0-10,10V24q0,10 10,10h76q79,0 121,41.5T435,195q0,75-38,116.5T290,354H226q-10,0-10,10v13q0,10 10,10h65q66,0 102,35t36,99q0,73-39,113.5T281,675q-67,0-108-40T132,524V10q0-10-10-10H103Z" />
      <glyph unicode="&#xe0;" glyph-name="agrave" horiz-adv-x="502" d="M253,510q86,0 129.5-44.5T426,343V10q0-10-10-10H397q-10,0-10,10V60q0,2-1.5,2.5T382,61Q357,27 313.5,9.5T219-8Q150-8 102.5,25.5T55,131q0,74 54.5,115.5T260,288H383q4,0 4,4v52q0,60-33,95.5T251,475q-54,0-89-22.5T119,392q-3-10-12-9l-21,3q-4,1-7,3.5T77,395q10,52 57.5,83.5T253,510ZM223,27q66,0 115,32t49,90V251q0,4-4,4H262q-75,0-121.5-32.5T94,133q0-52 36-79t93-27Zm42,555q2-4 2-6q0-6-9-6H245q-7,0-12,7L168,688q-2,4-2,6q0,6 9,6h17q9,0 12-7l61-111Z" />
      <glyph unicode="&#xe1;" glyph-name="aacute" horiz-adv-x="502" d="M253,510q86,0 129.5-44.5T426,343V10q0-10-10-10H397q-10,0-10,10V60q0,2-1.5,2.5T382,61Q357,27 313.5,9.5T219-8Q150-8 102.5,25.5T55,131q0,74 54.5,115.5T260,288H383q4,0 4,4v52q0,60-33,95.5T251,475q-54,0-89-22.5T119,392q-3-10-12-9l-21,3q-4,1-7,3.5T77,395q10,52 57.5,83.5T253,510ZM223,27q66,0 115,32t49,90V251q0,4-4,4H262q-75,0-121.5-32.5T94,133q0-52 36-79t93-27Zm6,543q-6,0-8,3.5t1,8.5l61,111q3,7 12,7h17q6,0 8-3.5t-1-8.5L254,577q-5-7-12-7H229Z" />
      <glyph unicode="&#xe2;" glyph-name="acircumflex" horiz-adv-x="502" d="M253,510q86,0 129.5-44.5T426,343V10q0-10-10-10H397q-10,0-10,10V60q0,2-1.5,2.5T382,61Q357,27 313.5,9.5T219-8Q150-8 102.5,25.5T55,131q0,74 54.5,115.5T260,288H383q4,0 4,4v52q0,60-33,95.5T251,475q-54,0-89-22.5T119,392q-3-10-12-9l-21,3q-4,1-7,3.5T77,395q10,52 57.5,83.5T253,510ZM223,27q66,0 115,32t49,90V251q0,4-4,4H262q-75,0-121.5-32.5T94,133q0-52 36-79t93-27ZM150,575q-6,0-8,4t2,8l82,107q4,6 13,6h23q9,0 13-6l83-107q2-2 2-6q0-2-2-4t-6-2H336q-9,0-13,6l-68,90q-1,2-3,2t-3-2l-70-90q-4-6-13-6H150Z" />
      <glyph unicode="&#xe3;" glyph-name="atilde" horiz-adv-x="502" d="M253,510q86,0 129.5-44.5T426,343V10q0-10-10-10H397q-10,0-10,10V60q0,2-1.5,2.5T382,61Q357,27 313.5,9.5T219-8Q150-8 102.5,25.5T55,131q0,74 54.5,115.5T260,288H383q4,0 4,4v52q0,60-33,95.5T251,475q-54,0-89-22.5T119,392q-3-10-12-9l-21,3q-4,1-7,3.5T77,395q10,52 57.5,83.5T253,510ZM223,27q66,0 115,32t49,90V251q0,4-4,4H262q-75,0-121.5-32.5T94,133q0-52 36-79t93-27Zm91,590q-28,0-59,23q-18,12-27.5,16.5T205,661q-18,0-30-6t-25-22q-6-8-14-2l-7,6q-6,6-2,14q29,43 77,43q16,0 29-5.5T265,671q18-12 28.5-17t21.5-5q16,0 29,6.5T369,680q6,9 14,3l4-3q3-3 3-3q3-3 3-7t-3-10q-14-22-35-32.5T314,617Z" />
      <glyph unicode="&#xe4;" glyph-name="adieresis" horiz-adv-x="502" d="M253,510q86,0 129.5-44.5T426,343V10q0-10-10-10H397q-10,0-10,10V60q0,2-1.5,2.5T382,61Q357,27 313.5,9.5T219-8Q150-8 102.5,25.5T55,131q0,74 54.5,115.5T260,288H383q4,0 4,4v52q0,60-33,95.5T251,475q-54,0-89-22.5T119,392q-3-10-12-9l-21,3q-4,1-7,3.5T77,395q10,52 57.5,83.5T253,510ZM223,27q66,0 115,32t49,90V251q0,4-4,4H262q-75,0-121.5-32.5T94,133q0-52 36-79t93-27ZM330,611q-20,0-32.5,13T285,656q0,20 12.5,33T330,702t33-13t13-33t-13-32.5T330,611Zm-159,0q-20,0-32.5,13T126,656q0,20 12.5,33T171,702t33-13t13-33t-13-32.5T171,611Z" />
      <glyph unicode="&#xe5;" glyph-name="aring" horiz-adv-x="502" d="M253,510q86,0 129.5-44.5T426,343V10q0-10-10-10H397q-10,0-10,10V60q0,2-1.5,2.5T382,61Q357,27 313.5,9.5T219-8Q150-8 102.5,25.5T55,131q0,74 54.5,115.5T260,288H383q4,0 4,4v52q0,60-33,95.5T251,475q-54,0-89-22.5T119,392q-3-10-12-9l-21,3q-4,1-7,3.5T77,395q10,52 57.5,83.5T253,510ZM223,27q66,0 115,32t49,90V251q0,4-4,4H262q-75,0-121.5-32.5T94,133q0-52 36-79t93-27Zm28,559q-43,0-72.5,29.5T149,687t29.5,71.5T251,788t73-29.5T354,687t-30-71.5T251,586Zm0,29q30,0 51.5,20.5T324,687q0,30-21.5,51T251,759t-51.5-21T178,687t21.5-51T251,615Z" />
      <glyph unicode="&#xe6;" glyph-name="ae" horiz-adv-x="830" d="M222-8Q151-8 103,25T55,130t54.5,111.5T260,281H383q4,0 4,4v57q0,60-33.5,96.5T250,475q-54,0-89.5-22.5T117,392q-3-10-12-8l-19,3q-5,1-7,4t-1,7q11,51 58,81.5T252,510q62,0 101.5-25.5T409,415q2-5 5,0q19,43 61,69t97,26q67,0 116-36.5T751,377q5-20 6-41t1-79q0-11-10-11H431q-4,0-4-4V149q1-57 43.5-88.5T576,29q51,0 87,23.5T715,117q3,9 12,6l13-4q10-3 7-13q-18-51-64-82.5T573-8Q513-8 469.5,16T410,84q-1,2-2,2.5T406,85q-18-44-69.5-68.5T222-8ZM426,285q0-4 4-4H715q4,0 4,4q0,56-4,76q-9,51-47.5,82.5T572,475q-56,0-94.5-32T431,361q-3-17-5-76ZM224,26q66,0 114.5,31.5T387,148v94q0,4-4,4H262q-76,0-122-29T94,132q0-52 36-79t94-27Z" />
      <glyph unicode="&#xe7;" glyph-name="ccedilla" horiz-adv-x="512" d="M417,138q1,10 12,8l17-3q10-2 9-11q-1-2-1-6t-2-10q-12-52-59-86.5T280-8q-2,0-2.5-1.5T279-13q53-44 53-93q0-43-24.5-61.5T247-186q-17,0-32,3q-10,1-8,12l2,7q2,9 12,8q14-2 22-2q25,0 40.5,13T299-104q0,45-60,96q-1,2-5,2q-56,9-94,44T87,126Q75,170 75,252q0,77 12,125q15,60 63.5,96.5T269,510q69,0 119-35.5T452,386q3-8 5-26v-2q0-7-9-9l-18-2h-2q-7,0-9,9l-3,14q-9,45-49.5,75T268,475t-97-31t-48-82q-9-40-9-111q0-68 8-110q11-51 49.5-82.5T268,27t99,30.5T416,133l1,5Z" />
      <glyph unicode="&#xe8;" glyph-name="egrave" horiz-adv-x="528" d="M268,27q51,0 88,23.5T410,115q4,8 13,5l16-6q9-3 5-12q-20-50-67-80T266-8Q198-8 150.5,27T86,121q-7,23-9,52.5T75,252q0,46 1.5,73.5T83,375q15,61 63.5,98T265,510q76,0 124.5-40T450,363q4-18 5-44t1-68q0-11-10-11H118q-4,0-4-4q0-31 1-57t4-38q10-52 49.5-83T268,27Zm-3,448q-58,0-97-31t-49-81q-5-30-5-85q0-4 4-4H413q4,0 4,4q0,56-5,83q-11,51-50,82.5T265,475Zm13,107q2-4 2-6q0-6-9-6H258q-7,0-12,7L181,688q-2,4-2,6q0,6 9,6h17q9,0 12-7l61-111Z" />
      <glyph unicode="&#xe9;" glyph-name="eacute" horiz-adv-x="528" d="M268,27q51,0 88,23.5T410,115q4,8 13,5l16-6q9-3 5-12q-20-50-67-80T266-8Q198-8 150.5,27T86,121q-7,23-9,52.5T75,252q0,46 1.5,73.5T83,375q15,61 63.5,98T265,510q76,0 124.5-40T450,363q4-18 5-44t1-68q0-11-10-11H118q-4,0-4-4q0-31 1-57t4-38q10-52 49.5-83T268,27Zm-3,448q-58,0-97-31t-49-81q-5-30-5-85q0-4 4-4H413q4,0 4,4q0,56-5,83q-11,51-50,82.5T265,475Zm-24,95q-6,0-8,3.5t1,8.5l61,111q3,7 12,7h17q6,0 8-3.5t-1-8.5L266,577q-5-7-12-7H241Z" />
      <glyph unicode="&#xea;" glyph-name="ecircumflex" horiz-adv-x="528" d="M268,27q51,0 88,23.5T410,115q4,8 13,5l16-6q9-3 5-12q-20-50-67-80T266-8Q198-8 150.5,27T86,121q-7,23-9,52.5T75,252q0,46 1.5,73.5T83,375q15,61 63.5,98T265,510q76,0 124.5-40T450,363q4-18 5-44t1-68q0-11-10-11H118q-4,0-4-4q0-31 1-57t4-38q10-52 49.5-83T268,27Zm-3,448q-58,0-97-31t-49-81q-5-30-5-85q0-4 4-4H413q4,0 4,4q0,56-5,83q-11,51-50,82.5T265,475ZM162,575q-6,0-8,4t2,8l82,107q4,6 13,6h23q9,0 13-6l83-107q2-2 2-6q0-2-2-4t-6-2H348q-9,0-13,6l-68,90q-1,2-3,2t-3-2l-70-90q-4-6-13-6H162Z" />
      <glyph unicode="&#xeb;" glyph-name="edieresis" horiz-adv-x="528" d="M268,27q51,0 88,23.5T410,115q4,8 13,5l16-6q9-3 5-12q-20-50-67-80T266-8Q198-8 150.5,27T86,121q-7,23-9,52.5T75,252q0,46 1.5,73.5T83,375q15,61 63.5,98T265,510q76,0 124.5-40T450,363q4-18 5-44t1-68q0-11-10-11H118q-4,0-4-4q0-31 1-57t4-38q10-52 49.5-83T268,27Zm-3,448q-58,0-97-31t-49-81q-5-30-5-85q0-4 4-4H413q4,0 4,4q0,56-5,83q-11,51-50,82.5T265,475Zm77,136q-20,0-32.5,13T297,656q0,20 12.5,33T342,702t33-13t13-33t-13-32.5T342,611Zm-159,0q-20,0-32.5,13T138,656q0,20 12.5,33T183,702t33-13t13-33t-13-32.5T183,611Z" />
      <glyph unicode="&#xec;" glyph-name="igrave" horiz-adv-x="200" d="M91,0Q81,0 81,10V492q0,10 10,10h19q10,0 10-10V10q0-10-10-10H91Zm23,582q2-4 2-6q0-6-9-6H94q-7,0-12,7L17,688q-2,4-2,6q0,6 9,6H41q9,0 12-7l61-111Z" />
      <glyph unicode="&#xed;" glyph-name="iacute" horiz-adv-x="200" d="M91,0Q81,0 81,10V492q0,10 10,10h19q10,0 10-10V10q0-10-10-10H91ZM78,570q-6,0-8,3.5t1,8.5l61,111q3,7 12,7h17q6,0 8-3.5t-1-8.5L103,577q-5-7-12-7H78Z" />
      <glyph unicode="&#xee;" glyph-name="icircumflex" horiz-adv-x="200" d="M91,0Q81,0 81,10V492q0,10 10,10h19q10,0 10-10V10q0-10-10-10H91ZM-1,575q-6,0-8,4t2,8L75,694q4,6 13,6h23q9,0 13-6l83-107q2-2 2-6q0-2-2-4t-6-2H185q-9,0-13,6l-68,90q-1,2-3,2t-3-2L28,581q-4-6-13-6H-1Z" />
      <glyph unicode="&#xef;" glyph-name="idieresis" horiz-adv-x="200" d="M91,0Q81,0 81,10V492q0,10 10,10h19q10,0 10-10V10q0-10-10-10H91Zm88,611q-20,0-32.5,13T134,656q0,20 12.5,33T179,702t33-13t13-33t-13-32.5T179,611ZM20,611q-20,0-32.5,13T-25,656q0,20 12.5,33T20,702t33-13t13-33T53,623.5T20,611Z" />
      <glyph unicode="&#xf0;" glyph-name="eth" horiz-adv-x="522" d="M446,216q0-63-7-92q-14-59-62.5-95.5T260-8T145,28T83,124q-5,22-6.5,48.5T75,249q0,51 1.5,76T83,372q13,55 56.5,90T244,498q41,2 78-10t62-36q1-2 2.5-1.5T387,453q-20,66-81,136q-2,4-5,2l-83-28l-4-1q-6,0-9,8l-2,8l-1,5q0,5 7,7l69,22q2,1 2,3t-1,3q-41,41-77,70q-4,3-4,6q0,6 9,6h23q7,0 12-5q52-43 76-66q2-2 5-1l70,23l4,1q6,0 9-8l2-8q1-2 1-5q0-4-7-7l-56-18q-4-2-2-6q89-102 99-249q3-29 3-103V216Zm-44-78q4,16 4,70v39v41q0,53-4,68q-9,50-47.5,81.5T260,469t-93.5-31T119,356q-5-27-5-109q0-83 5-109q10-51 47.5-82T260,25t94.5,31.5T402,138Z" />
      <glyph unicode="&#xf1;" glyph-name="ntilde" horiz-adv-x="536" d="M282,509q75,0 122-46.5T451,340V10q0-10-10-10H422q-10,0-10,10V333q0,62-38,101.5T275,474q-65,0-104.5-38.5T131,335V10q0-10-10-10H102Q92,0 92,10V492q0,10 10,10h19q10,0 10-10V438q0-3 1.5-3.5T135,436q22,35 59.5,54T282,509Zm49,108q-28,0-59,23q-18,12-27.5,16.5T222,661q-18,0-30-6t-25-22q-6-8-14-2l-7,6q-6,6-2,14q29,43 77,43q16,0 29-5.5T282,671q18-12 28.5-17t21.5-5q16,0 29,6.5T386,680q6,9 14,3l4-3q3-3 3-3q3-3 3-7t-3-10q-14-22-35-32.5T331,617Z" />
      <glyph unicode="&#xf2;" glyph-name="ograve" horiz-adv-x="530" d="M266-8Q197-8 149,28.5T84,126q-6,23-7.5,51.5T75,252q0,47 1.5,75T84,377q16,60 64.5,96.5T267,510t119.5-36.5T450,377q5-22 6.5-49t1.5-76q0-51-1.5-77.5T450,126q-15-61-64.5-97.5T266-8Zm0,35q58,0 97.5,31.5T414,141q3,15 4,45.5t1,64.5q0,37-1,66.5T414,361q-11,51-50.5,82.5T266,475q-57,0-96-31.5T120,361q-6-26-6-110q0-85 6-110q10-52 49-83t97-31Zm13,555q2-4 2-6q0-6-9-6H259q-7,0-12,7L182,688q-2,4-2,6q0,6 9,6h17q9,0 12-7l61-111Z" />
      <glyph unicode="&#xf3;" glyph-name="oacute" horiz-adv-x="530" d="M266-8Q197-8 149,28.5T84,126q-6,23-7.5,51.5T75,252q0,47 1.5,75T84,377q16,60 64.5,96.5T267,510t119.5-36.5T450,377q5-22 6.5-49t1.5-76q0-51-1.5-77.5T450,126q-15-61-64.5-97.5T266-8Zm0,35q58,0 97.5,31.5T414,141q3,15 4,45.5t1,64.5q0,37-1,66.5T414,361q-11,51-50.5,82.5T266,475q-57,0-96-31.5T120,361q-6-26-6-110q0-85 6-110q10-52 49-83t97-31ZM243,570q-6,0-8,3.5t1,8.5l61,111q3,7 12,7h17q6,0 8-3.5t-1-8.5L268,577q-5-7-12-7H243Z" />
      <glyph unicode="&#xf4;" glyph-name="ocircumflex" horiz-adv-x="530" d="M266-8Q197-8 149,28.5T84,126q-6,23-7.5,51.5T75,252q0,47 1.5,75T84,377q16,60 64.5,96.5T267,510t119.5-36.5T450,377q5-22 6.5-49t1.5-76q0-51-1.5-77.5T450,126q-15-61-64.5-97.5T266-8Zm0,35q58,0 97.5,31.5T414,141q3,15 4,45.5t1,64.5q0,37-1,66.5T414,361q-11,51-50.5,82.5T266,475q-57,0-96-31.5T120,361q-6-26-6-110q0-85 6-110q10-52 49-83t97-31ZM163,575q-6,0-8,4t2,8l82,107q4,6 13,6h23q9,0 13-6l83-107q2-2 2-6q0-2-2-4t-6-2H349q-9,0-13,6l-68,90q-1,2-3,2t-3-2l-70-90q-4-6-13-6H163Z" />
      <glyph unicode="&#xf5;" glyph-name="otilde" horiz-adv-x="530" d="M266-8Q197-8 149,28.5T84,126q-6,23-7.5,51.5T75,252q0,47 1.5,75T84,377q16,60 64.5,96.5T267,510t119.5-36.5T450,377q5-22 6.5-49t1.5-76q0-51-1.5-77.5T450,126q-15-61-64.5-97.5T266-8Zm0,35q58,0 97.5,31.5T414,141q3,15 4,45.5t1,64.5q0,37-1,66.5T414,361q-11,51-50.5,82.5T266,475q-57,0-96-31.5T120,361q-6-26-6-110q0-85 6-110q10-52 49-83t97-31Zm61,590q-28,0-59,23q-18,12-27.5,16.5T218,661q-18,0-30-6t-25-22q-6-8-14-2l-7,6q-6,6-2,14q29,43 77,43q16,0 29-5.5T278,671q18-12 28.5-17t21.5-5q16,0 29,6.5T382,680q6,9 14,3l4-3q3-3 3-3q3-3 3-7t-3-10q-14-22-35-32.5T327,617Z" />
      <glyph unicode="&#xf6;" glyph-name="odieresis" horiz-adv-x="530" d="M266-8Q197-8 149,28.5T84,126q-6,23-7.5,51.5T75,252q0,47 1.5,75T84,377q16,60 64.5,96.5T267,510t119.5-36.5T450,377q5-22 6.5-49t1.5-76q0-51-1.5-77.5T450,126q-15-61-64.5-97.5T266-8Zm0,35q58,0 97.5,31.5T414,141q3,15 4,45.5t1,64.5q0,37-1,66.5T414,361q-11,51-50.5,82.5T266,475q-57,0-96-31.5T120,361q-6-26-6-110q0-85 6-110q10-52 49-83t97-31Zm78,584q-20,0-32.5,13T299,656q0,20 12.5,33T344,702t33-13t13-33t-13-32.5T344,611Zm-159,0q-20,0-32.5,13T140,656q0,20 12.5,33T185,702t33-13t13-33t-13-32.5T185,611Z" />
      <glyph unicode="&#xf7;" glyph-name="divide" horiz-adv-x="507" d="M252,450q-19,0-32,13t-13,32q0,18 13.5,31T252,539q19,0 32.5-12.5T298,495t-13.5-32T252,450ZM54,314q-10,0-10,10v15q0,10 10,10H453q10,0 10-10V324q0-10-10-10H54ZM252,143q-19,0-32,13t-13,32q0,18 13.5,31T252,232q19,0 32.5-13T298,188q0-19-13.5-32T252,143Z" />
      <glyph unicode="&#xf8;" glyph-name="oslash" horiz-adv-x="525" d="M448,377q5-22 6.5-49t1.5-76q0-51-1.5-77.5T448,126q-15-61-64.5-97.5T264-8Q191-8 139,34q-3,3-5-1L104-11q-2-4-6-5t-8,2L76-4q-8,6-3,14l35,53q2,3 0,6Q91,93 82,126q-6,23-7.5,51.5T73,252q0,47 1.5,75T82,377q16,60 64.5,96.5T265,510q67,0 116-34q4-2 5,1l29,44q2,4 6,5t8-2l14-10q7-6 2-14l-32-48q-1-3 0-6q24-28 35-69ZM118,141q5-22 12-37q2-4 6,0L361,440q2,4-1,5q-41,30-96,30q-58,0-97-31.5T118,361q-6-26-6-110q0-85 6-110Zm294,0q3,15 4,45.5t1,64.5q0,37-1,66.5T412,361q-6,26-20,50q-1,1-3,1.5t-3-1.5L158,70q-2-3 1-6q42-37 105-37q58,0 97.5,31.5T412,141Z" />
      <glyph unicode="&#xf9;" glyph-name="ugrave" horiz-adv-x="535" d="M403,492q0,10 10,10h19q10,0 10-10V10q0-10-10-10H413q-10,0-10,10V63q0,3-1.5,3T398,64q-22-35-59-53T253-7Q179-7 131.5,37.5T84,158V492q0,10 10,10h19q10,0 10-10V167q0-64 37.5-101.5T260,28q65,0 104,38.5T403,167V492ZM282,582q2-4 2-6q0-6-9-6H262q-7,0-12,7L185,688q-2,4-2,6q0,6 9,6h17q9,0 12-7l61-111Z" />
      <glyph unicode="&#xfa;" glyph-name="uacute" horiz-adv-x="535" d="M403,492q0,10 10,10h19q10,0 10-10V10q0-10-10-10H413q-10,0-10,10V63q0,3-1.5,3T398,64q-22-35-59-53T253-7Q179-7 131.5,37.5T84,158V492q0,10 10,10h19q10,0 10-10V167q0-64 37.5-101.5T260,28q65,0 104,38.5T403,167V492ZM246,570q-6,0-8,3.5t1,8.5l61,111q3,7 12,7h17q6,0 8-3.5t-1-8.5L271,577q-5-7-12-7H246Z" />
      <glyph unicode="&#xfb;" glyph-name="ucircumflex" horiz-adv-x="535" d="M403,492q0,10 10,10h19q10,0 10-10V10q0-10-10-10H413q-10,0-10,10V63q0,3-1.5,3T398,64q-22-35-59-53T253-7Q179-7 131.5,37.5T84,158V492q0,10 10,10h19q10,0 10-10V167q0-64 37.5-101.5T260,28q65,0 104,38.5T403,167V492ZM167,575q-6,0-8,4t2,8l82,107q4,6 13,6h23q9,0 13-6l83-107q2-2 2-6q0-2-2-4t-6-2H353q-9,0-13,6l-68,90q-1,2-3,2t-3-2l-70-90q-4-6-13-6H167Z" />
      <glyph unicode="&#xfc;" glyph-name="udieresis" horiz-adv-x="535" d="M403,492q0,10 10,10h19q10,0 10-10V10q0-10-10-10H413q-10,0-10,10V63q0,3-1.5,3T398,64q-22-35-59-53T253-7Q179-7 131.5,37.5T84,158V492q0,10 10,10h19q10,0 10-10V167q0-64 37.5-101.5T260,28q65,0 104,38.5T403,167V492ZM347,611q-20,0-32.5,13T302,656q0,20 12.5,33T347,702t33-13t13-33t-13-32.5T347,611Zm-159,0q-20,0-32.5,13T143,656q0,20 12.5,33T188,702t33-13t13-33t-13-32.5T188,611Z" />
      <glyph unicode="&#xfd;" glyph-name="yacute" horiz-adv-x="441" d="M61-200q-7,0-7,10v15q0,10 10,10h4q38,1 58.5,13.5t36,44.5T202-3q2,4 0,6L29,491l-1,4q0,7 9,7H56q9,0 12-8L219,55q1-2 3-2t3,2L373,494q3,8 12,8h19q11,0 8-11L220-56q-22-63-41-93t-43.5-40.5T68-200H61ZM198,571q-6,0-8,3.5t1,8.5l61,111q3,7 12,7h17q6,0 8-3.5t-1-8.5L223,578q-5-7-12-7H198Z" />
      <glyph unicode="&#xfe;" glyph-name="thorn" horiz-adv-x="535" d="M452,378q5-22 6.5-49.5T460,249q0-50-1-75.5T453,126q-14-60-61.5-97T278-8q-49,0-85,20.5T136,70q-1,3-3,2.5T131,69V-190q0-10-10-10H102q-10,0-10,10V690q0,10 10,10h19q10,0 10-10V433q0-3 2-3.5t3,2.5q21,37 56.5,57.5T278,510q67,0 114-36.5T452,378ZM415,140q3,20 4,38.5t1,73.5t-1,73.5T415,362q-9,49-48.5,81T271,475t-92-32t-44-81q-3-12-4-27V165q1-14 4-25q9-48 44.5-80.5T271,27t96,32t48,81Z" />
      <glyph unicode="&#xff;" glyph-name="ydieresis" horiz-adv-x="441" d="M61-200q-7,0-7,10v15q0,10 10,10h4q38,1 58.5,13.5t36,44.5T202-3q2,4 0,6L29,491l-1,4q0,7 9,7H56q9,0 12-8L219,55q1-2 3-2t3,2L373,494q3,8 12,8h19q11,0 8-11L220-56q-22-63-41-93t-43.5-40.5T68-200H61ZM299,612q-20,0-32.5,13T254,657q0,20 12.5,33T299,703t33-13t13-33t-13-32.5T299,612Zm-159,0q-20,0-32.5,13T95,657q0,20 12.5,33T140,703t33-13t13-33t-13-32.5T140,612Z" />
      <glyph unicode="&#x2013;" glyph-name="endash" horiz-adv-x="438" d="M54,264q-10,0-10,10v15q0,10 10,10H385q10,0 10-10V274q0-10-10-10H54Z" />
      <glyph unicode="&#x2014;" glyph-name="emdash" horiz-adv-x="698" d="M54,264q-10,0-10,10v15q0,10 10,10H644q10,0 10-10V274q0-10-10-10H54Z" />
      <glyph unicode="&#x2018;" glyph-name="quoteleft" horiz-adv-x="111" d="M12,505q-5,0-7,3.5T5,517L75,692q3,8 11,8H99q11,0 8-11L46,513q-3-8-12-8H12Z" />
      <glyph unicode="&#x2019;" glyph-name="quoteright" horiz-adv-x="111" d="M99,700q5,0 7-3.5t0-8.5L36,513q-3-8-11-8H12q-11,0-8,11L66,692q3,8 12,8H99Z" />
      <glyph unicode="&#x201a;" glyph-name="quotesinglbase" horiz-adv-x="600" d="M88-71q-5,0-7.5,3T80-60l48,205q2,9 11,9h16q5,0 7.5-3t1.5-8L111-62q-1-9-11-9H88Z" />
      <glyph unicode="&#x201c;" glyph-name="quotedblleft" horiz-adv-x="222" d="M12,505q-5,0-7,3.5T5,517L74,692q3,8 11,8H97q11,0 8-11L45,513q-3-8-12-8H12Zm114,0q-5,0-7,3.5t0,8.5l68,175q3,8 11,8h12q11,0 8-11L158,513q-3-8-12-8H126Z" />
      <glyph unicode="&#x201d;" glyph-name="quotedblright" horiz-adv-x="222" d="M97,700q5,0 7-3.5t0-8.5L35,513q-3-8-11-8H12q-11,0-8,11L64,692q3,8 12,8H97Zm113,0q5,0 7-3.5t0-8.5L149,513q-3-8-11-8H125q-11,0-8,11l61,176q3,8 12,8h20Z" />
      <glyph unicode="&#x201e;" glyph-name="quotedblbase" horiz-adv-x="225" d="M97,127q5,0 7-3.5t0-8.5L35-60q-3-8-11-8H12Q1-68 4-57L64,119q3,8 12,8H97Zm113,0q5,0 7-3.5t0-8.5L149-60q-3-8-11-8H125q-11,0-8,11l61,176q3,8 12,8h20Z" />
      <glyph unicode="&#x2022;" glyph-name="bullet" horiz-adv-x="305" d="M153,154q-45,0-77,32T44,263t32,76.5T153,371q44,0 76-31.5T261,263t-32-77t-76-32Z" />
      <glyph unicode="&#x2039;" glyph-name="guilsinglleft" horiz-adv-x="376" d="M256,119q3-3 3-6q0-6-8-6H234q-7,0-12,6L84,274q-3,3-3,7t3,7L222,449q5,6 12,6h17q6,0 7.5-3.5T256,443L120,284q-1-3 0-6L256,119Z" />
      <glyph unicode="&#x203a;" glyph-name="guilsinglright" horiz-adv-x="406" d="M125,107q-6,0-7.5,3.5T120,119L256,278q2,3 0,6L120,443q-3,3-3,6q0,6 8,6h17q7,0 12-6L292,288q3-3 3-7t-3-7L154,113q-4-6-12-6H125Z" />
    </font>
</defs>
</svg>
