<?xml version="1.0" standalone="no"?>
<!DOCTYPE svg PUBLIC "-//W3C//DTD SVG 1.1//EN" "http://www.w3.org/Graphics/SVG/1.1/DTD/svg11.dtd">
<svg xmlns="http://www.w3.org/2000/svg">
  <defs>
    <font id="Poppins" horiz-adv-x="866">
      <font-face font-family="Poppins SemiBold" units-per-em="1000" panose-1="0 0 7 0 0 0 0 0 0 0" ascent="1050" descent="-350" alphabetic="0" />
      <glyph unicode=" " glyph-name="space" horiz-adv-x="238" />
      <glyph unicode="!" glyph-name="exclam" horiz-adv-x="354" d="M250,710L234,227H116L99,710H250ZM178-7q-38,0-62.5,23.5T91,75t24.5,58.5T178,157q37,0 61-23.5T263,75T239,16.5T178-7Z" />
      <glyph unicode="&quot;" glyph-name="quotedbl" horiz-adv-x="364" d="M157,798L145,586H50L37,798H157Zm170,0L314,586H219L206,798H327Z" />
      <glyph unicode="#" glyph-name="numbersign" horiz-adv-x="887" d="M684,449L651,295H778V170H624L588,0H455l36,170H309L273,0H141l36,170H26V295H204l33,154H87V574H264l35,166H431L396,574H578l35,166H746L711,574H839V449H684Zm-133,0H369L336,295H518l33,154Z" />
      <glyph unicode="$" glyph-name="dollar" horiz-adv-x="654" d="M567,201q0-52-26.5-97.5t-78-75T341-6V-87H277V-5Q177,4 116,55.5T53,195H203q6-72 74-87V299q-72,18-116,36T85,393T53,502q0,87 62.5,142T277,707v81h64V707q96-8 153.5-58T559,511H408q-3,29-20.5,50.5T341,592V403q75-19 118.5-36.5t75.5-57T567,201ZM199,509q0-33 20-53.5T277,422V595q-36-5-57-27t-21-59ZM341,106q38,7 59.5,31T422,195q0,33-21,53t-60,33V106Z" />
      <glyph unicode="%" glyph-name="percent" horiz-adv-x="829" d="M37,550q0,76 44.5,119T196,712t114.5-43T355,550q0-77-44.5-120T196,387T81.5,430T37,550ZM679,700L286,0H150L542,700H679ZM195,628q-55,0-55-78q0-79 55-79q27,0 42,19.5T252,550q0,78-57,78ZM476,151q0,77 44.5,119.5T635,313t113.5-42.5T792,151T748.5,31T635-12q-71,0-115,43T476,151Zm158,78q-57,0-57-78q0-79 57-79q56,0 56,79q0,78-56,78Z" />
      <glyph unicode="&amp;" glyph-name="ampersand" horiz-adv-x="778" d="M606,0L530,75Q433-12 293-12q-77,0-135.5,26.5T67,89.5T35,202q0,69 39,124t115,89q-27,33-39,63.5T138,544q0,48 25,86.5T234.5,691T343,713q63,0 108-24t67-64t19-89H401q1,33-16,50.5T339,604q-28,0-46.5-16.5T274,545q0-25 15-49.5T338,435L514,261q2,2 3,4t2,4l57,95H722L652,241q-20-39-43-74L778,0H606ZM297,104q82,0 145,58L270,332q-97-43-97-122q0-45 34-75.5T297,104Z" />
      <glyph unicode="&apos;" glyph-name="quotesingle" horiz-adv-x="195" d="M157,798L145,586H50L37,798H157Z" />
      <glyph unicode="(" glyph-name="parenleft" horiz-adv-x="485" d="M311-197Q214-103 160.5,43T107,356q0,171 56,321.5T326,924H467V911Q357,806 299.5,659T242,356q0-152 54.5-293.5T452-183v-14H311Z" />
      <glyph unicode=")" glyph-name="parenright" horiz-adv-x="485" d="M33-197v14Q134-79 188.5,62.5T243,356q0,156-57.5,303T18,911v13H159q107-96 163-246.5T378,356q0-167-53.5-313T174-197H33Z" />
      <glyph unicode="*" glyph-name="asterisk" horiz-adv-x="518" d="M399,686l50-90L319,549l130-47l-52-93L289,498l23-138H208l22,138L123,407L68,503l130,47L69,595l51,92l111-88L208,738H313L289,599l110,87Z" />
      <glyph unicode="+" glyph-name="plus" horiz-adv-x="674" d="M592,295H403V101H271V295H82V417H271V611H403V417H592V295Z" />
      <glyph unicode="," glyph-name="comma" horiz-adv-x="254" d="M222,147L105-134H15L80,147H222Z" />
      <glyph unicode="-" glyph-name="hyphen" horiz-adv-x="583" d="M495,416V298H71V416H495Z" />
      <glyph unicode="." glyph-name="period" horiz-adv-x="260" d="M131-7Q93-7 68.5,16.5T44,75t24.5,58.5T131,157q37,0 61-23.5T216,75T192,16.5T131-7Z" />
      <glyph unicode="/" glyph-name="slash" horiz-adv-x="486" d="M444,947L174-181H37L307,947H444Z" />
      <glyph unicode="0" glyph-name="zero" horiz-adv-x="646" d="M53,374q0,173 62.5,271T323,743t207.5-98T593,374q0-174-62.5-273T323,2T115.5,101T53,374Zm402,0q0,74-9.5,124.5t-38,82.5T323,613t-84.5-32t-38-82.5T191,374q0-76 9-127.5t38-83T323,132t85,31.5t38,83T455,374Z" />
      <glyph unicode="1" glyph-name="one" horiz-adv-x="362" d="M36,600V729H277V0H133V600H36Z" />
      <glyph unicode="2" glyph-name="two" horiz-adv-x="574" d="M97,158q96,80 153,133.5T345,403t38,114q0,51-24,80t-74,29t-77-33.5T180,501H44q4,120 71.5,182T287,745q114,0 175-60.5T523,525q0-78-42-149T385,252.5T244,126H539V10H45V114l52,44Z" />
      <glyph unicode="3" glyph-name="three" horiz-adv-x="599" d="M55,537q5,100 70.5,154.5T298,746q73,0 125-25.5t78.5-69T528,553q0-63-32.5-106.5T418,388v-4q58-18 90.5-64T541,202q0-60-27.5-107t-81-73.5T304-5Q191-5 120,52T45,220H181q2-49 33.5-78.5T301,112q51,0 78.5,28.5T407,214q0,60-38,86T251,326H222V441h29q142,0 142,95q0,43-25.5,67T294,627q-47,0-72.5-25.5T192,537H55Z" />
      <glyph unicode="4" glyph-name="four" horiz-adv-x="661" d="M47,142V252L374,720H537V264h88V142H537V0H397V142H47ZM406,570L201,264H406V570Z" />
      <glyph unicode="5" glyph-name="five" horiz-adv-x="644" d="M543,608H219V437q21,26 60,42.5T362,496q80,0 131-35t74-89.5T590,255q0-115-65.5-185T338,0Q224,0 156,57T79,206H215q9-40 40.5-64T336,118q59,0 89,37t30,98q0,62-30.5,94.5T335,380q-42,0-70-21t-40-56H91V731H543V608Z" />
      <glyph unicode="6" glyph-name="six" horiz-adv-x="640" d="M431,547q-10,42-34.5,63T326,631q-69,0-101.5-55.5T191,395q24,40 70,62.5T361,480q65,0 115-28t78-81.5T582,242q0-71-28.5-126.5T470,29T339-2Q235-2 175.5,44t-83,128.5T69,376q0,183 63,276.5T331,746q105,0 163-57t67-142H431ZM329,365q-53,0-89-31t-36-90t33.5-93T332,117q54,0 85.5,33T449,239q0,58-30.5,92T329,365Z" />
      <glyph unicode="7" glyph-name="seven" horiz-adv-x="548" d="M517,623L251,0H109L377,607H35V727H517V623Z" />
      <glyph unicode="8" glyph-name="eight" horiz-adv-x="643" d="M175,386Q75,438 75,547q0,54 27.5,98.5t83,71T321,743t135.5-26.5t83-71T567,547q0-55-27-96.5T468,386q55-24 86-70t31-109q0-68-34.5-118.5T456,11T321-16T186.5,11t-94,77.5T58,207q0,63 31,109.5T175,386ZM431,527q0,49-29.5,76T321,630q-50,0-79.5-27T212,526q0-45 30.5-72T321,427t79,27.5T431,527ZM321,325q-57,0-92.5-29T193,213q0-50 34.5-81.5T321,100t93,32t34,81q0,53-35,82.5T321,325Z" />
      <glyph unicode="9" glyph-name="nine" horiz-adv-x="626" d="M215,205q8-44 36.5-67.5T328,114q62,0 90,51.5T446,339q-23-32-64.5-50T292,271q-64,0-115.5,26.5T95,376.5T65,504q0,111 66,176.5T311,746q142,0 200.5-91T570,381q0-130-22.5-213t-77-126T322-1Q248-1 196,27.5t-79.5,75T85,205H215ZM321,385q52,0 82,32t30,86q0,59-31.5,91.5T316,627t-85.5-33.5T199,505q0-53 30.5-86.5T321,385Z" />
      <glyph unicode=":" glyph-name="colon" horiz-adv-x="263" d="M131-7Q93-7 68.5,16.5T44,75t24.5,58.5T131,157q37,0 61-23.5T216,75T192,16.5T131-7Zm0,414q-38,0-62.5,23.5T44,489t24.5,58.5T131,571q37,0 61-23.5T216,489t-24-58.5T131,407Z" />
      <glyph unicode=";" glyph-name="semicolon" horiz-adv-x="324" d="M156,403q-38,0-62.5,23.5T69,485t24.5,58.5T156,567q37,0 61-23.5T241,485t-24-58.5T156,403Zm92-256L131-134H41l65,281H248Z" />
      <glyph unicode="&lt;" glyph-name="less" horiz-adv-x="584" d="M297,132L79,356L297,580H473L255,356L473,132H297Z" />
      <glyph unicode="=" glyph-name="equal" horiz-adv-x="738" d="M641,537V415H96V537H641Zm0-240V175H96V297H641Z" />
      <glyph unicode="&gt;" glyph-name="greater" horiz-adv-x="567" d="M89,580H266L484,356L266,132H89L308,356L89,580Z" />
      <glyph unicode="?" glyph-name="question" horiz-adv-x="538" d="M264,722q104,0 167.5-56.5T495,510q0-98-63-149.5T265,309l-4-77H138l-5,170h45q87,0 134,23t47,84q0,44-25.5,70T264,605q-46,0-71.5-25T167,511H35q-1,61 26,109t79.5,75T264,722ZM199-7q-38,0-62.5,23.5T112,75t24.5,58.5T199,157q37,0 61-23.5T284,75T260,16.5T199-7Z" />
      <glyph unicode="@" glyph-name="at" horiz-adv-x="1051" d="M602,656q116,0 201-43T933.5,492T979,312q0-82-28.5-155T868,39T740-6q-52,0-84,21.5T615,77q-29-39-75-61.5T443-7Q367-7 324,38.5T281,163q0,75 31,140t86,104.5T522,447q86,0 118-60l9,52H766L719,169q-3-19-3-35q0-24 10-36t34-12q36,0 60.5,34t37,85T870,307q0,121-74,187.5T587,561q-115,0-208-55.5t-145.5-151T181,142q0-124 73.5-191T463-116q97,0 171,35l20-92q-95-40-211-40q-112,0-196,42.5T117-50T71,131q0,147 68.5,267t190,189T602,656ZM487,97q36,0 66,21t47.5,56T618,249q0,42-23,68t-64,26q-37,0-65-22.5T422.5,262T407,186q0-41 20-65t60-24Z" />
      <glyph unicode="A" glyph-name="A" horiz-adv-x="716" d="M497,133H219L173,0H26L277,699H440L691,0H543L497,133ZM459,245L358,537L257,245H459Z" />
      <glyph unicode="B" glyph-name="B" horiz-adv-x="643" d="M465,358q59-11 97-59t38-110q0-56-27.5-98.5T493,24T370,0H69V698H357q71,0 122.5-23t78-64T584,518q0-61-32.5-102T465,358ZM209,410H337q50,0 77,22.5T441,497t-27,65t-77,23H209V410ZM350,114q51,0 79.5,24T458,206q0,45-30,70.5T347,302H209V114H350Z" />
      <glyph unicode="C" glyph-name="C" horiz-adv-x="768" d="M35,350q0,103 46.5,184.5t127,127T389,707q117,0 205-60T717,481H556q-24,50-67.5,75T388,581q-61,0-108.5-28.5t-74-80.5T179,350q0-69 26.5-121.5t74-81T388,119q57,0 100.5,25.5T556,220H717Q682,113 594.5,53.5T389-6Q289-6 208.5,39.5T81.5,166T35,350Z" />
      <glyph unicode="D" glyph-name="D" horiz-adv-x="717" d="M313,698q110,0 193.5-43t129-122.5T681,348T635.5,164.5T506.5,43T313,0H69V698H313Zm-5-579q110,0 170,60t60,169T478,518.5T308,580H209V119h99Z" />
      <glyph unicode="E" glyph-name="E" horiz-adv-x="532" d="M209,585V410H444V299H209V114H474V0H69V699H474V585H209Z" />
      <glyph unicode="F" glyph-name="F" horiz-adv-x="530" d="M500,698V585H209V406H432V295H209V0H69V698H500Z" />
      <glyph unicode="G" glyph-name="G" horiz-adv-x="768" d="M555,488q-24,44-66,67t-98,23q-62,0-110-28t-75-80T179,350q0-70 27.5-122T283,148t114-28q80,0 131,42.5T595,281H355V388H733V266q-14-73-60-135T554.5,31.5T392-6Q291-6 209.5,39.5T81.5,166T35,350T81.5,534.5t128,127T391,707q118,0 205-57.5T716,488H555Z" />
      <glyph unicode="H" glyph-name="H" horiz-adv-x="717" d="M648,698V0H508V297H209V0H69V698H209V411H508V698H648Z" />
      <glyph unicode="I" glyph-name="I" horiz-adv-x="278" d="M209,698V0H69V698H209Z" />
      <glyph unicode="J" glyph-name="J" horiz-adv-x="570" d="M476,698V208q0-102-59-158.5T259-7Q159-7 97.5,51T36,213H176q1-45 21.5-70T257,118q38,0 58,24t20,66V698H476Z" />
      <glyph unicode="K" glyph-name="K" horiz-adv-x="663" d="M463,0L209,311V0H69V698H209V385L463,698H632L344,352L640,0H463Z" />
      <glyph unicode="L" glyph-name="L" horiz-adv-x="459" d="M209,111H439V0H69V698H209V111Z" />
      <glyph unicode="M" glyph-name="M" horiz-adv-x="899" d="M830,698V0H690V454L503,0H397L209,454V0H69V698H228L450,179L672,698H830Z" />
      <glyph unicode="N" glyph-name="N" horiz-adv-x="735" d="M666,0H526L209,479V0H69V699H209L526,219V699H666V0Z" />
      <glyph unicode="O" glyph-name="O" horiz-adv-x="785" d="M393-7Q295-7 213,39T83,166.5T35,351q0,102 48,183.5T213,662t180,46q99,0 180.5-46t129-127.5T750,351q0-103-47.5-184.5T573,39T393-7Zm0,125q63,0 111,28.5T579,228t27,123T579,473.5T504,554T393,582T281.5,554T206,473.5T179,351t27-123t75.5-81.5T393,118Z" />
      <glyph unicode="P" glyph-name="P" horiz-adv-x="608" d="M578,482q0-56-26.5-105t-83-79T326,268H209V0H69V698H326q81,0 138-28t85.5-77T578,482ZM320,381q58,0 86,26.5T434,482q0,102-114,102H209V381H320Z" />
      <glyph unicode="Q" glyph-name="Q" horiz-adv-x="787" d="M589-123L483,4Q439-7 393-7Q295-7 213,39T83,166.5T35,351q0,102 48,183.5T213,662t180,46q99,0 180.5-46t129-127.5T750,351q0-93-39.5-169.5T603,57L763-123H589ZM179,351q0-70 27-123t75.5-81.5T393,118t111,28.5T579,228t27,123T579,473.5T504,554T393,582T281.5,554T206,473.5T179,351Z" />
      <glyph unicode="R" glyph-name="R" horiz-adv-x="641" d="M429,0L275,272H209V0H69V698H331q81,0 138-28.5t85.5-77T583,484q0-69-40-124.5T424,283L591,0H429ZM209,377H326q57,0 85,27.5T439,481q0,48-28,74.5T326,582H209V377Z" />
      <glyph unicode="S" glyph-name="S" horiz-adv-x="609" d="M310-7Q237-7 178.5,18T86,90T51,201H201q3-43 30.5-68T307,108q49,0 77,23.5T412,193q0,31-19,51t-47.5,31.5T267,301q-68,20-110.5,39.5t-73,59T53,505q0,62 31,108t87,70.5T299,708q108,0 175.5-52.5T549,509H395q-2,36-30.5,59.5T289,592q-41,0-65.5-21T199,510q0-28 18.5-46.5t46-30T341,407q68-20 111-40t74-60t31-105q0-56-29-104T443,21.5T310-7Z" />
      <glyph unicode="T" glyph-name="T" horiz-adv-x="577" d="M544,698V585H358V0H218V585H32V698H544Z" />
      <glyph unicode="U" glyph-name="U" horiz-adv-x="697" d="M207,698V266q0-71 37-108.5T348,120q68,0 105,37.5T490,266V698H631V267q0-89-38.5-150.5T489.5,24T346-7Q268-7 204.5,24T104,116.5T67,267V698H207Z" />
      <glyph unicode="V" glyph-name="V" horiz-adv-x="711" d="M696,698L440,0H270L14,698H164L356,143L547,698H696Z" />
      <glyph unicode="W" glyph-name="W" horiz-adv-x="1024" d="M1002,698L807,0H642L511,497L374,0L210-1L22,698H172L295,156L437,698H593L727,159L851,698h151Z" />
      <glyph unicode="X" glyph-name="X" horiz-adv-x="686" d="M487,0L336,235L199,0H41L261,352L38,698H199L350,464L486,698H644L425,347L648,0H487Z" />
      <glyph unicode="Y" glyph-name="Y" horiz-adv-x="636" d="M624,698L388,243V0H248V243L11,698H169L319,379L468,698H624Z" />
      <glyph unicode="Z" glyph-name="Z" horiz-adv-x="576" d="M212,118H526V0H50V108L362,580H50V698H526V590L212,118Z" />
      <glyph unicode="[" glyph-name="bracketleft" horiz-adv-x="497" d="M386,924V810H267V-81H386V-197H135V924H386Z" />
      <glyph unicode="\" glyph-name="backslash" horiz-adv-x="756" d="M458-181L173,947H309L595-181H458Z" />
      <glyph unicode="]" glyph-name="bracketright" horiz-adv-x="496" d="M361-197H110V-81H229V810H110V924H361V-197Z" />
      <glyph unicode="^" glyph-name="asciicircum" horiz-adv-x="680" d="M176,167H33L273,700H407L647,167H503L341,534L176,167Z" />
      <glyph unicode="_" glyph-name="underscore" horiz-adv-x="790" d="M694-40V-173H107V-40H694Z" />
      <glyph unicode="`" glyph-name="grave" horiz-adv-x="271" d="M240,693V593L10,698V812L240,693Z" />
      <glyph unicode="a" glyph-name="a" horiz-adv-x="678" d="M33,279q0,84 33.5,149t91,100T286,563q62,0 108.5-25T469,475v79H610V0H469V81q-27-39-74.5-64.5T285-9Q215-9 157.5,27t-91,101.5T33,279Zm436-2q0,51-20,87.5t-54,56T322,440t-72-19t-53.5-55.5T176,279t20.5-87.5t54-57.5T322,114q39,0 73,19.5t54,56T469,277Z" />
      <glyph unicode="b" glyph-name="b" horiz-adv-x="678" d="M209,473q27,40 74.5,65T392,563q71,0 128.5-35t91-99.5T645,279T611.5,128.5T520.5,27T392-9Q330-9 283.5,15.5T209,79V0H69V740H209V473ZM502,279q0,50-20.5,86.5t-54,55.5T355,440q-38,0-71.5-19.5t-54-56.5T209,277t20.5-87t54-56.5T355,114q39,0 72.5,20t54,57T502,279Z" />
      <glyph unicode="c" glyph-name="c" horiz-adv-x="602" d="M33,277q0,86 35,150.5t97,100T307,563q103,0 170.5-51.5T568,367H417q-12,36-40.5,56.5T306,444q-60,0-95-43.5T176,277q0-79 35-122.5T306,111q85,0 111,76H568Q545,97 477,44T307-9Q227-9 165,26.5t-97,100T33,277Z" />
      <glyph unicode="d" glyph-name="d" horiz-adv-x="678" d="M33,279q0,84 33.5,149T158,528t129,35q54,0 103-23.5T468,477V740H610V0H468V82q-26-41-73-66T286-9Q216-9 158,27T66.5,128.5T33,279Zm436-2q0,51-20,87.5t-54,56T322,440t-72-19t-53.5-55.5T176,279t20.5-87.5t54-57.5T322,114q39,0 73,19.5t54,56T469,277Z" />
      <glyph unicode="e" glyph-name="e" horiz-adv-x="617" d="M584,289q0-30-4-54H175q5-60 42-94t91-34q78,0 111,67H570Q546,94 478,42.5T311-9Q231-9 167.5,26.5T68.5,127T33,277q0,86 35,151t98,100t145,35q79,0 141.5-34t97-96.5T584,289ZM439,329q-1,54-39,86.5T307,448q-52,0-87.5-31.5T176,329H439Z" />
      <glyph unicode="f" glyph-name="f" horiz-adv-x="345" d="M323,439H226V0H84V439H21V554H84v28q0,102 58,150t175,45V659q-51,1-71-17t-20-65V554h97V439Z" />
      <glyph unicode="g" glyph-name="g" horiz-adv-x="678" d="M286,563q62,0 109-24.5T469,475v79H610V-4q0-77-31-137.5t-93-96T336-273q-118,0-193.5,55T57-68H196q11-38 47.5-60.5T332-151q61,0 99,36.5T469-4V82q-27-39-74.5-65T286-9Q216-9 158,27T66.5,128.5T33,279q0,84 33.5,149t91,100T286,563ZM469,277q0,51-20,87.5t-54,56T322,440t-72-19t-53.5-55.5T176,279t20.5-87.5t54-57.5T322,114q39,0 73,19.5t54,56T469,277Z" />
      <glyph unicode="h" glyph-name="h" horiz-adv-x="661" d="M381,562q63,0 112-27.5t76.5-81T597,325V0H457V306q0,66-33,101.5T334,443q-58,0-91.5-35.5T209,306V0H69V740H209V485q27,36 72,56.5T381,562Z" />
      <glyph unicode="i" glyph-name="i" horiz-adv-x="278" d="M140,620q-37,0-61.5,23.5T54,702t24.5,58.5T140,784t61.5-23.5T226,702t-24.5-58.5T140,620Zm69-66V0H69V554H209Z" />
      <glyph unicode="j" glyph-name="j" horiz-adv-x="278" d="M140,620q-38,0-62.5,23.5T53,702t24.5,58.5T140,784q37,0 61-23.5T225,702t-24-58.5T140,620ZM209-91q0-92-45.5-132.5T33-264H-29v119H11q32,0 45,12.5T69-92V554H209V-91Z" />
      <glyph unicode="k" glyph-name="k" horiz-adv-x="584" d="M397,0L209,236V0H69V740H209V319L395,554H577L333,276L579,0H397Z" />
      <glyph unicode="l" glyph-name="l" horiz-adv-x="278" d="M209,740V0H69V740H209Z" />
      <glyph unicode="m" glyph-name="m" horiz-adv-x="1048" d="M757,562q102,0 164.5-62.5T984,325V0H844V306q0,65-33,99.5T721,440t-90.5-34.5T597,306V0H457V306q0,65-33,99.5T334,440q-58,0-91.5-34.5T209,306V0H69V554H209V487q27,35 69.5,55T372,562q65,0 116-27.5T567,456q27,48 78.5,77T757,562Z" />
      <glyph unicode="n" glyph-name="n" horiz-adv-x="661" d="M376,562q99,0 160-62.5T597,325V0H457V306q0,66-33,101.5T334,443q-58,0-91.5-35.5T209,306V0H69V554H209V485q28,36 71.5,56.5T376,562Z" />
      <glyph unicode="o" glyph-name="o" horiz-adv-x="638" d="M315-9Q235-9 171,26.5T70.5,127T34,277T71.5,427T174,527.5T319,563t145-35.5T566.5,427T604,277T565.5,127T461.5,26.5T315-9Zm0,122q38,0 71.5,18.5T440,187t20,90q0,79-41.5,121.5T317,441T216.5,398.5T176,277t39.5-121.5T315,113Z" />
      <glyph unicode="p" glyph-name="p" horiz-adv-x="678" d="M209,474q27,38 74.5,63.5T392,563q71,0 128.5-35t91-99.5T645,279T611.5,128.5T520.5,27T392-9Q331-9 284.5,16T209,79V-264H69V554H209V474ZM502,279q0,50-20.5,86.5t-54,55.5T355,440q-38,0-71.5-19.5t-54-56.5T209,277t20.5-87t54-56.5T355,114q39,0 72.5,20t54,57T502,279Z" />
      <glyph unicode="q" glyph-name="q" horiz-adv-x="678" d="M33,278q0,83 34.5,147.5T161,526t130,36q59,0 104.5-22.5T469,482v72H610V-264H469V76q-28-36-75-60T288-8Q218-8 159.5,28.5T67,130T33,278Zm436-1q0,51-21,88t-54.5,56T322,440q-37,0-70.5-19T197,365.5T176,278t21-88.5T251.5,133T322,114q38,0 71.5,19T448,189t21,88Z" />
      <glyph unicode="r" glyph-name="r" horiz-adv-x="404" d="M209,468q27,44 70.5,69T379,562V415H342q-66,0-99.5-31T209,276V0H69V554H209V468Z" />
      <glyph unicode="s" glyph-name="s" horiz-adv-x="545" d="M281-9Q213-9 159,15.5T73.5,82T39,175H180q4-32 31.5-53T280,101q40,0 62.5,16T365,158q0,27-27.5,40.5T250,228q-62,15-101.5,31t-68,49T52,397q0,46 26.5,84t76,60T271,563q99,0 158-49.5T494,380H360q-3,33-27.5,52.5T267,452q-38,0-58.5-14T188,399q0-28 28-42.5T303,327q60-15 99-31t67.5-49.5T499,158q0-48-26.5-86t-76-59.5T281-9Z" />
      <glyph unicode="t" glyph-name="t" horiz-adv-x="388" d="M232,439V171q0-28 13.5-40.5T291,118h65V0H268Q91,0 91,172V439H25V554H91V691H232V554H356V439H232Z" />
      <glyph unicode="u" glyph-name="u" horiz-adv-x="661" d="M592,554V0H451V70q-27-36-70.5-56.5T286-7Q221-7 171,20.5t-78.5,81T64,229V554H204V249q0-66 33-101.5T327,112q58,0 91,35.5T451,249V554H592Z" />
      <glyph unicode="v" glyph-name="v" horiz-adv-x="599" d="M300,129L440,554H589L384,0H214L10,554H160L300,129Z" />
      <glyph unicode="w" glyph-name="w" horiz-adv-x="844" d="M837,554L675,0H524L423,387L322,0H170L7,554H149l98-422L353,554H501L605,133l98,421H837Z" />
      <glyph unicode="x" glyph-name="x" horiz-adv-x="540" d="M375,0L261,172L160,0H10L191,278L8,554H166L279,383L381,554H531L349,278L533,0H375Z" />
      <glyph unicode="y" glyph-name="y" horiz-adv-x="605" d="M599,554L256-262H107L227,14L5,554H162L305,167L450,554H599Z" />
      <glyph unicode="z" glyph-name="z" horiz-adv-x="483" d="M197,115H444V0H38V113L280,439H39V554H441V441L197,115Z" />
      <glyph unicode="{" glyph-name="braceleft" horiz-adv-x="508" d="M110,418q48,4 72.5,26T207,503q0,42-9,121q-10,94-10,137q0,78 46.5,121.5T358,926h69V808H385q-62,0-62-59q0-28 8-112q1-10 5-56.5t4-82.5q0-53-26-88t-79-45v-2q53-11 79-45.5T340,229q0-34-4-80.5T331,90q-8-84-8-111q0-31 15-45t47-14h42V-199H358q-77,0-123.5,43.5T188-34q0,44 10,138q9,79 9,120q0,37-24.5,59T110,309V418Z" />
      <glyph unicode="|" glyph-name="bar" horiz-adv-x="309" d="M225-121H84V808H225V-121Z" />
      <glyph unicode="}" glyph-name="braceright" horiz-adv-x="508" d="M398,309q-48-4-72.5-26T301,224q0-41 9-120q10-94 10-138q0-78-46.5-121.5T150-199H81V-80h42q32,0 47,14t15,45q0,27-8,111q-1,12-5,58.5T168,229q0,54 26,88.5T273,363v2q-53,10-79,45t-26,88q0,36 4,82.5t5,56.5q8,84 8,112q0,59-62,59H81V926h69q77,0 123.5-43.5T320,761q0-43-10-137q-9-79-9-121q0-37 24.5-59T398,418V309Z" />
      <glyph unicode="~" glyph-name="asciitilde" horiz-adv-x="592" d="M32,224q17,97 63,143t115,46q30,0 54.5-9.5T317,376q23-14 39.5-21t34.5-7q26,0 43.5,16T456,412H560q-17-97-63.5-143T381,223q-30,0-53.5,9.5T275,260q-25,14-40.5,21T201,288q-26,0-44-16.5T134,224H32Z" />
      <glyph unicode="&#xa0;" glyph-name="uni00A0" horiz-adv-x="238" />
      <glyph unicode="&#xa1;" glyph-name="exclamdown" horiz-adv-x="354" d="M178,569q37,0 61-23.5T263,487t-24-58.5T178,405q-38,0-62.5,23.5T91,487t24.5,58.5T178,569ZM116,335H234l16-483H99l17,483Z" />
      <glyph unicode="&#xa2;" glyph-name="cent" horiz-adv-x="663" d="M322,111q45,0 73.5,18.5T434,182H564q-7-76-65.5-126T352-2V-87H288V-2Q177,8 116,79T55,258t61,179t172,81v85h64V518q88-8 146.5-58T564,334H434q-23,71-112,71q-62,0-98-39T188,258t36-108t98-39Z" />
      <glyph unicode="&#xa3;" glyph-name="sterling" horiz-adv-x="654" d="M572,109V-3H87L65,69q45,44 66,89.5T152,272q0,7-2,23H39v96h83q-20,68-20,123q0,68 29.5,117.5T214,707t122,26q111,0 169.5-61.5T567,514H438q-1,48-25,75.5T338,617q-47,0-74.5-28T236,503q0-26 5.5-51.5T258,391H446V295H283q2-16 2-24q0-43-16.5-85.5T218,109H572Z" />
      <glyph unicode="&#xa4;" glyph-name="currency" horiz-adv-x="561" d="M478,377q0-59-33-105l56-56l-57-58l-63,62q-46-22-101-22q-56,0-100,22l-62-62L60,216l57,57Q86,316 86,377t32,106L60,541l58,58l64-64q42,21 99,21t99-21l64,64l57-58l-56-57q33-44 33-107ZM280,282q35,0 59.5,25T364,377q0,46-24,71t-59,25t-59-25t-24-71t23.5-70.5T280,282Z" />
      <glyph unicode="&#xa5;" glyph-name="yen" horiz-adv-x="636" d="M474,409H588V312l-165-2l-35-67v-9H588V137H388V0H248V137H48v97H248v9l-35,68L48,312v97H162L11,698H169L318,372L466,698H624L474,409Z" />
      <glyph unicode="&#xa6;" glyph-name="brokenbar" horiz-adv-x="350" d="M105,808H245V409H105V808ZM245-121H105V278H245V-121Z" />
      <glyph unicode="&#xa7;" glyph-name="section" horiz-adv-x="582" d="M432,89q80-54 80-135q0-48-26.5-87t-77-62T290-218q-97,0-156,47.5T73-42H213q6-78 78-78q38,0 59,16.5T371-56q0,22-13.5,38.5t-46,33T216,57Q125,93 80.5,136.5T36,244q0,52 28,92t86,63Q70,453 70,534q0,48 26.5,87t77,62T292,706q97,0 156-47.5T509,530H369q-2,38-21.5,58T291,608q-38,0-59-16.5T211,544q0-22 13.5-38.5t46-33T366,431q91-36 135.5-79.5T546,244q0-105-114-155ZM183,244q0-39 30-65.5T292,152t78.5,26.5T400,244t-30,65.5T291,336t-78.5-26.5T183,244Z" />
      <glyph unicode="&#xa8;" glyph-name="dieresis" horiz-adv-x="338" d="M76,620q-28,0-47,19T10,686t19,47.5T76,753t47.5-19.5T143,686t-19.5-47T76,620Zm185,0q-28,0-47,19t-19,47t19,47.5T261,753t47.5-19.5T328,686t-19.5-47T261,620Z" />
      <glyph unicode="&#xa9;" glyph-name="copyright" horiz-adv-x="785" d="M393,708q102,0 181.5-45.5t124-127T743,350T698.5,164.5t-124-127T393-8Q290-8 210.5,37.5t-124,127T42,350T86.5,535.5t124,127T393,708Zm0-51q-90,0-157-37.5t-103-107T97,350q0-92 36-161.5t103-108T393,42q89,0 156,38.5t103,108T688,350q0,93-36,162.5t-102.5,107T393,657Zm-1-79q-63,0-113-28t-78.5-79.5T172,351t28.5-120T279,151t113-28q77,0 133,42.5T598,278H475q-11-28-31.5-43T389,220q-46,0-72.5,33.5T290,351t26.5,97T389,481q32,0 54.5-15T475,423H598q-17,72-72.5,113.5T392,578Z" />
      <glyph unicode="&#xaa;" glyph-name="ordfeminine" horiz-adv-x="462" d="M28,530q0,53 22.5,94T111,687.5T195,710q82,0 123-52v46H426V353H318v45q-18-23-48.5-36.5T198,348q-47,0-86,23T50.5,435.5T28,530Zm111-1q0-45 26.5-71T229,432t63,26t26,71t-26,71t-63,26t-63.5-26T139,529Z" />
      <glyph unicode="&#xab;" glyph-name="guillemotleft" horiz-adv-x="521" d="M133,120L45,295l88,175H266L174,295l92-175H133Zm208,0L252,295l89,175H473L381,295l92-175H341Z" />
      <glyph unicode="&#xac;" glyph-name="logicalnot" horiz-adv-x="681" d="M631,438V195H491V330H41V438H631Z" />
      <glyph unicode="&#xad;" glyph-name="uni00AD" horiz-adv-x="583" d="M495,416V298H71V416H495Z" />
      <glyph unicode="&#xae;" glyph-name="registered" horiz-adv-x="516" d="M258,709q61,0 109.5-27T443,606.5T470,496q0-61-27-109t-75.5-75.5T258,284T148.5,311.5T72.5,387T45,496q0,62 27.5,110.5t76,75.5T258,709Zm0-374q72,0 115.5,44.5T417,496q0,73-43.5,117.5T258,658T143,613.5T100,496t43-117t115-44Zm94,201q0-22-10.5-38T312,474l52-82H286l-43,75h-6V392H170V606H275q35,0 56-19.5T352,536ZM236,517h32q7,0 12,4t5,12q0,15-17,15H236V517Z" />
      <glyph unicode="&#xaf;" glyph-name="macron" horiz-adv-x="402" d="M392,732V632H10V732H392Z" />
      <glyph unicode="&#xb0;" glyph-name="degree" horiz-adv-x="444" d="M27,527q0,82 54.5,130T223,705q86,0 140-48.5T417,527q0-82-54.5-131T221,347q-86,0-140,49T27,527Zm280-1q0,49-25,75.5T221,628q-35,0-60-26.5T136,526q0-48 24.5-74T221,426q35,0 60.5,26T307,526Z" />
      <glyph unicode="&#xb1;" glyph-name="plusminus" horiz-adv-x="676" d="M405,365V241H593V119H83V241H272V365H83V487H272V623H405V487H593V365H405Z" />
      <glyph unicode="&#xb2;" glyph-name="twosuperior" horiz-adv-x="360" d="M149,437H321V352H34v80l114,77q31,21 46.5,41.5T210,593q0,18-10,29t-26,11q-31,0-36-37H30q3,52 43,84t109,32q44,0 76-16t48.5-41.5T323,600q0-36-24-63.5T218,476l-69-39Z" />
      <glyph unicode="&#xb3;" glyph-name="threesuperior" horiz-adv-x="357" d="M22,601q2,49 42.5,80T177,712q63,0 104.5-30T323,607q0-30-17-49.5T259,531v-3q32-9 50.5-30T328,447q0-44-43-72T175,347q-74,0-114.5,31T17,463H125q6-38 45-38q19,0 31,10.5T213,464t-13,28.5T165,503H130v57h31q47,0 47,38q0,17-11,26.5T167,634q-37,0-43-33H22Z" />
      <glyph unicode="&#xb4;" glyph-name="acute" horiz-adv-x="250" d="M240,698L10,593V693L240,812V698Z" />
      <glyph unicode="&#xb5;" glyph-name="uni00B5" horiz-adv-x="678" d="M603,554V0H462V85q-26-44-70.5-68T289-7q-44,0-75,19V-264H75V554H214V249q0-65 33.5-100T338,114t90.5,35T462,249V554H603Z" />
      <glyph unicode="&#xb6;" glyph-name="paragraph" horiz-adv-x="666" d="M591,0H472V590H407V0H287V278H269q-118,0-177.5,59.5T32,488q0,58 25.5,105.5t78.5,76T269,698H591V0Z" />
      <glyph unicode="&#xb7;" glyph-name="periodcentered" horiz-adv-x="270" d="M138,244q-38,0-62.5,23.5T51,326t24.5,58.5T138,408q37,0 61-23.5T223,326t-24-58.5T138,244Z" />
      <glyph unicode="&#xb8;" glyph-name="cedilla" horiz-adv-x="295" d="M155-43q55,0 92.5-28T285-152q0-54-38.5-83T152-264H10v82H129q24,0 36.5,7T178-150t-12.5,24.5T129-119H67V7h88V-43Z" />
      <glyph unicode="&#xb9;" glyph-name="onesuperior" horiz-adv-x="228" d="M20,622v82H184V352H77V622H20Z" />
      <glyph unicode="&#xba;" glyph-name="ordmasculine" horiz-adv-x="450" d="M28,528q0,54 25.5,95t70,63.5T225,709t102-22.5T397,623t25-95q0-53-25.5-94T326,370T224,347T122.5,370T53,434T28,528Zm284-1q0,47-25.5,73T224,626q-36,0-60.5-26T139,527q0-45 24.5-70.5T224,431t62,25.5T312,527Z" />
      <glyph unicode="&#xbb;" glyph-name="guillemotright" horiz-adv-x="521" d="M141,295L50,470H182l89-175L182,120H50l91,175Zm208,0L257,470H389l89-175L389,120H257l92,175Z" />
      <glyph unicode="&#xbc;" glyph-name="onequarter" horiz-adv-x="730" d="M37,622v82H201V352H94V622H37Zm555,77L209,0H75L459,699H592ZM695,65H653V0H545V65H355v58L504,353H653V129h42V65ZM549,276L460,130h89V276Z" />
      <glyph unicode="&#xbd;" glyph-name="onehalf" horiz-adv-x="757" d="M94,622H37v82H201V352H94V622Zm493,78L209,0H75L452,700H587ZM531,84H703V-1H416V79l114,77q31,21 46.5,41.5T592,240q0,18-10,29t-26,11q-31,0-36-37H412q3,52 43,84t109,32q44,0 76-16t48.5-41.5T705,247q0-36-24-63.5T600,123L531,84Z" />
      <glyph unicode="&#xbe;" glyph-name="threequarters" horiz-adv-x="811" d="M46,601q2,49 42.5,80T201,712q63,0 104.5-30T347,607q0-30-17-49.5T283,531v-3q32-9 50.5-30T352,447q0-44-43-72T199,347q-74,0-114.5,31T41,463H149q6-38 45-38q19,0 31,10.5T237,464t-13,28.5T189,503H154v57h31q47,0 47,38q0,17-11,26.5T191,634q-37,0-43-33H46Zm651,99L303,0H169L563,700H697ZM788,65H745V0H638V65H448v58L591,353H745V129h43V65ZM642,281L552,129h90V281Z" />
      <glyph unicode="&#xbf;" glyph-name="questiondown" horiz-adv-x="538" d="M339,566q38,0 62.5-23.5T426,484t-24.5-58.5T339,402q-37,0-61,23.5T254,484t24,58.5T339,566ZM274-163q-104,0-167.5,56.5T43,49q0,98 63,149.5T273,250l4,77H400l5-170H360q-88,0-135-23T179,48q0-44 25.5-69T274-46q46,0 71.5,25T371,48H503q1-61-26-109t-79.5-75T274-163Z" />
      <glyph unicode="&#xc0;" glyph-name="Agrave" horiz-adv-x="716" d="M497,133H219L173,0H26L277,699H440L691,0H543L497,133ZM459,245L358,537L257,245H459Zm8,593V738L237,843V957L467,838Z" />
      <glyph unicode="&#xc1;" glyph-name="Aacute" horiz-adv-x="716" d="M497,133H219L173,0H26L277,699H440L691,0H543L497,133ZM459,245L358,537L257,245H459Zm8,598L237,738V838L467,957V843Z" />
      <glyph unicode="&#xc2;" glyph-name="Acircumflex" horiz-adv-x="716" d="M497,133H219L173,0H26L277,699H440L691,0H543L497,133ZM459,245L358,537L257,245H459ZM359,822L210,738V840l149,81l148-81V738L359,822Z" />
      <glyph unicode="&#xc3;" glyph-name="Atilde" horiz-adv-x="716" d="M497,133H219L173,0H26L277,699H440L691,0H543L497,133ZM459,245L358,537L257,245H459ZM178,752q9,66 41.5,98.5T302,883q21,0 37-6.5T375,858q30-19 50-19q37,0 43,43h75q-9-66-41.5-98.5T419,751q-21,0-37,6.5T346,776q-29,20-50,20q-37,0-44-44H178Z" />
      <glyph unicode="&#xc4;" glyph-name="Adieresis" horiz-adv-x="716" d="M497,133H219L173,0H26L277,699H440L691,0H543L497,133ZM459,245L358,537L257,245H459ZM265,765q-28,0-47,19t-19,47t19,47.5T265,898t47.5-19.5T332,831t-19.5-47T265,765Zm185,0q-28,0-47,19t-19,47t19,47.5T450,898t47.5-19.5T517,831t-19.5-47T450,765Z" />
      <glyph unicode="&#xc5;" glyph-name="Aring" horiz-adv-x="716" d="M497,133H219L173,0H26L277,699H440L691,0H543L497,133ZM459,245L358,537L257,245H459Zm17,617q0-52-33.5-83.5T359,747q-49,0-83,31.5T242,862t34,83.5T359,977q50,0 83.5-31.5T476,862Zm-69,0q0,23-14,36.5T359,912t-34-13.5T311,862q0-21 14-35.5T359,812t34,14.5T407,862Z" />
      <glyph unicode="&#xc6;" glyph-name="AE" horiz-adv-x="937" d="M617,589V409H849V301H617V111H879V0H476V131H231L162,0H9L381,699H879V589H617ZM476,239V597L288,239H476Z" />
      <glyph unicode="&#xc7;" glyph-name="Ccedilla" horiz-adv-x="768" d="M388,119q57,0 100.5,25.5T556,220H717Q686,124 610.5,65.5T433-4V-45q55,0 92.5-28T563-154q0-54-38.5-83T430-266H288v82H407q24,0 36.5,7T456-152t-12.5,24.5T407-121H345V-4Q256,6 185.5,53.5T75,178T35,350q0,103 46.5,184.5t127,127T389,707q117,0 205-60T717,481H556q-24,50-67.5,75T388,581q-61,0-108.5-28.5t-74-80.5T179,350q0-69 26.5-121.5t74-81T388,119Z" />
      <glyph unicode="&#xc8;" glyph-name="Egrave" horiz-adv-x="532" d="M209,585V410H444V299H209V114H474V0H69V699H474V585H209ZM376,838V738L146,843V957L376,838Z" />
      <glyph unicode="&#xc9;" glyph-name="Eacute" horiz-adv-x="532" d="M209,585V410H444V299H209V114H474V0H69V699H474V585H209ZM376,843L146,738V838L376,957V843Z" />
      <glyph unicode="&#xca;" glyph-name="Ecircumflex" horiz-adv-x="532" d="M209,585V410H444V299H209V114H474V0H69V699H474V585H209Zm58,237L118,738V840l149,81l148-81V738L267,822Z" />
      <glyph unicode="&#xcb;" glyph-name="Edieresis" horiz-adv-x="532" d="M209,585V410H444V299H209V114H474V0H69V699H474V585H209ZM174,765q-28,0-47,19t-19,47t19,47.5T174,898t47.5-19.5T241,831t-19.5-47T174,765Zm185,0q-28,0-47,19t-19,47t19,47.5T359,898t47.5-19.5T426,831t-19.5-47T359,765Z" />
      <glyph unicode="&#xcc;" glyph-name="Igrave" horiz-adv-x="278" d="M209,698V0H69V698H209Zm39,140V738L18,843V957L248,838Z" />
      <glyph unicode="&#xcd;" glyph-name="Iacute" horiz-adv-x="278" d="M209,698V0H69V698H209Zm39,145L18,738V838L248,957V843Z" />
      <glyph unicode="&#xce;" glyph-name="Icircumflex" horiz-adv-x="278" d="M209,698V0H69V698H209ZM140,822L-9,738V840l149,81l148-81V738L140,822Z" />
      <glyph unicode="&#xcf;" glyph-name="Idieresis" horiz-adv-x="278" d="M209,698V0H69V698H209ZM46,765q-28,0-47,19t-19,47t19,47.5T46,898t47.5-19.5T113,831T93.5,784T46,765Zm185,0q-28,0-47,19t-19,47t19,47.5T231,898t47.5-19.5T298,831t-19.5-47T231,765Z" />
      <glyph unicode="&#xd0;" glyph-name="Eth" horiz-adv-x="726" d="M322,698q110,0 193.5-43t129-122.5T690,348T644.5,164.5T515.5,43T322,0H77V287H7V409H77V698H322Zm-5-584q109,0 169,62t60,172T486,519.5T317,581H218V409H385V287H218V114h99Z" />
      <glyph unicode="&#xd1;" glyph-name="Ntilde" horiz-adv-x="735" d="M666,0H526L209,479V0H69V699H209L526,219V699H666V0ZM188,752q9,66 41.5,98.5T312,883q21,0 37-6.5T385,858q30-19 50-19q37,0 43,43h75q-9-66-41.5-98.5T429,751q-21,0-37,6.5T356,776q-29,20-50,20q-37,0-44-44H188Z" />
      <glyph unicode="&#xd2;" glyph-name="Ograve" horiz-adv-x="785" d="M393-7Q295-7 213,39T83,166.5T35,351q0,102 48,183.5T213,662t180,46q99,0 180.5-46t129-127.5T750,351q0-103-47.5-184.5T573,39T393-7Zm0,125q63,0 111,28.5T579,228t27,123T579,473.5T504,554T393,582T281.5,554T206,473.5T179,351t27-123t75.5-81.5T393,118ZM502,838V738L272,843V957L502,838Z" />
      <glyph unicode="&#xd3;" glyph-name="Oacute" horiz-adv-x="785" d="M393-7Q295-7 213,39T83,166.5T35,351q0,102 48,183.5T213,662t180,46q99,0 180.5-46t129-127.5T750,351q0-103-47.5-184.5T573,39T393-7Zm0,125q63,0 111,28.5T579,228t27,123T579,473.5T504,554T393,582T281.5,554T206,473.5T179,351t27-123t75.5-81.5T393,118ZM502,843L272,738V838L502,957V843Z" />
      <glyph unicode="&#xd4;" glyph-name="Ocircumflex" horiz-adv-x="785" d="M393-7Q295-7 213,39T83,166.5T35,351q0,102 48,183.5T213,662t180,46q99,0 180.5-46t129-127.5T750,351q0-103-47.5-184.5T573,39T393-7Zm0,125q63,0 111,28.5T579,228t27,123T579,473.5T504,554T393,582T281.5,554T206,473.5T179,351t27-123t75.5-81.5T393,118Zm0,704L244,738V840l149,81l148-81V738L393,822Z" />
      <glyph unicode="&#xd5;" glyph-name="Otilde" horiz-adv-x="785" d="M393-7Q295-7 213,39T83,166.5T35,351q0,102 48,183.5T213,662t180,46q99,0 180.5-46t129-127.5T750,351q0-103-47.5-184.5T573,39T393-7Zm0,125q63,0 111,28.5T579,228t27,123T579,473.5T504,554T393,582T281.5,554T206,473.5T179,351t27-123t75.5-81.5T393,118ZM213,752q9,66 41.5,98.5T337,883q21,0 37-6.5T410,858q30-19 50-19q37,0 43,43h75q-9-66-41.5-98.5T454,751q-21,0-37,6.5T381,776q-29,20-50,20q-37,0-44-44H213Z" />
      <glyph unicode="&#xd6;" glyph-name="Odieresis" horiz-adv-x="785" d="M393-7Q295-7 213,39T83,166.5T35,351q0,102 48,183.5T213,662t180,46q99,0 180.5-46t129-127.5T750,351q0-103-47.5-184.5T573,39T393-7Zm0,125q63,0 111,28.5T579,228t27,123T579,473.5T504,554T393,582T281.5,554T206,473.5T179,351t27-123t75.5-81.5T393,118ZM300,765q-28,0-47,19t-19,47t19,47.5T300,898t47.5-19.5T367,831t-19.5-47T300,765Zm185,0q-28,0-47,19t-19,47t19,47.5T485,898t47.5-19.5T552,831t-19.5-47T485,765Z" />
      <glyph unicode="&#xd7;" glyph-name="multiply" horiz-adv-x="670" d="M480,123L334,269L189,124L98,215L243,361L102,502l91,91L334,452L475,593l92-91L426,361L572,214l-92-91Z" />
      <glyph unicode="&#xd8;" glyph-name="Oslash" horiz-adv-x="785" d="M662,591q42-47 65-108t23-132q0-103-47.5-184.5T573,39T393-7Q333-7 277.5,11T177,62L121,0H24L124,110Q82,158 58.5,219.5T35,351q0,102 48,183.5T213,662t180,46q60,0 115-17.5T609,640l55,60h97L662,591ZM179,351q0-82 37-141L520,543q-53,39-127,39q-63,0-111.5-28T206,473.5T179,351Zm427,0q0,82-37,139L265,157q55-39 128-39q63,0 111,28.5T579,228t27,123Z" />
      <glyph unicode="&#xd9;" glyph-name="Ugrave" horiz-adv-x="697" d="M207,698V266q0-71 37-108.5T348,120q68,0 105,37.5T490,266V698H631V267q0-89-38.5-150.5T489.5,24T346-7Q268-7 204.5,24T104,116.5T67,267V698H207ZM457,838V738L227,843V957L457,838Z" />
      <glyph unicode="&#xda;" glyph-name="Uacute" horiz-adv-x="697" d="M207,698V266q0-71 37-108.5T348,120q68,0 105,37.5T490,266V698H631V267q0-89-38.5-150.5T489.5,24T346-7Q268-7 204.5,24T104,116.5T67,267V698H207ZM457,843L227,738V838L457,957V843Z" />
      <glyph unicode="&#xdb;" glyph-name="Ucircumflex" horiz-adv-x="697" d="M207,698V266q0-71 37-108.5T348,120q68,0 105,37.5T490,266V698H631V267q0-89-38.5-150.5T489.5,24T346-7Q268-7 204.5,24T104,116.5T67,267V698H207ZM349,822L200,738V840l149,81l148-81V738L349,822Z" />
      <glyph unicode="&#xdc;" glyph-name="Udieresis" horiz-adv-x="697" d="M207,698V266q0-71 37-108.5T348,120q68,0 105,37.5T490,266V698H631V267q0-89-38.5-150.5T489.5,24T346-7Q268-7 204.5,24T104,116.5T67,267V698H207Zm49,67q-28,0-47,19t-19,47t19,47.5T256,898t47.5-19.5T323,831t-19.5-47T256,765Zm185,0q-28,0-47,19t-19,47t19,47.5T441,898t47.5-19.5T508,831t-19.5-47T441,765Z" />
      <glyph unicode="&#xdd;" glyph-name="Yacute" horiz-adv-x="636" d="M624,698L388,243V0H248V243L11,698H169L319,379L468,698H624ZM427,843L197,738V838L427,957V843Z" />
      <glyph unicode="&#xde;" glyph-name="Thorn" horiz-adv-x="608" d="M578,350q0-56-26.5-104t-83-78T326,138H209V0H69V699H208V563H326q81,0 138-28t85.5-76T578,350ZM320,245q57,0 85.5,28T434,350t-28.5,77T320,455H209V245H320Z" />
      <glyph unicode="&#xdf;" glyph-name="germandbls" horiz-adv-x="727" d="M52,549q0,64 30,114.5t89.5,79T316,771q74,0 129-24.5t83.5-65T557,594q0-49-22-81t-61-68q-21-19-30.5-30.5T434,392q0-17 19.5-30T532,328q76-27 110-66.5T676,161q0-77-56.5-124T467-10q-95,0-153.5,49T245,177H380q3-38 25-59.5T465,96q35,0 53.5,14T537,152t-18.5,45.5T450,232q-84,29-120.5,60T293,370q0,33 17.5,59T361,487q29,29 42.5,48T417,577q0,36-28.5,56.5T311,654q-62,0-90.5-30.5T192,535V0H52V549Z" />
      <glyph unicode="&#xe0;" glyph-name="agrave" horiz-adv-x="678" d="M33,279q0,84 33.5,149t91,100T286,563q62,0 108.5-25T469,475v79H610V0H469V81q-27-39-74.5-64.5T285-9Q215-9 157.5,27t-91,101.5T33,279Zm436-2q0,51-20,87.5t-54,56T322,440t-72-19t-53.5-55.5T176,279t20.5-87.5t54-57.5T322,114q39,0 73,19.5t54,56T469,277ZM450,693V593L220,698V812L450,693Z" />
      <glyph unicode="&#xe1;" glyph-name="aacute" horiz-adv-x="678" d="M33,279q0,84 33.5,149t91,100T286,563q62,0 108.5-25T469,475v79H610V0H469V81q-27-39-74.5-64.5T285-9Q215-9 157.5,27t-91,101.5T33,279Zm436-2q0,51-20,87.5t-54,56T322,440t-72-19t-53.5-55.5T176,279t20.5-87.5t54-57.5T322,114q39,0 73,19.5t54,56T469,277ZM450,698L220,593V693L450,812V698Z" />
      <glyph unicode="&#xe2;" glyph-name="acircumflex" horiz-adv-x="678" d="M33,279q0,84 33.5,149t91,100T286,563q62,0 108.5-25T469,475v79H610V0H469V81q-27-39-74.5-64.5T285-9Q215-9 157.5,27t-91,101.5T33,279Zm436-2q0,51-20,87.5t-54,56T322,440t-72-19t-53.5-55.5T176,279t20.5-87.5t54-57.5T322,114q39,0 73,19.5t54,56T469,277ZM341,677L192,593V695l149,81l148-81V593L341,677Z" />
      <glyph unicode="&#xe3;" glyph-name="atilde" horiz-adv-x="678" d="M33,279q0,84 33.5,149t91,100T286,563q62,0 108.5-25T469,475v79H610V0H469V81q-27-39-74.5-64.5T285-9Q215-9 157.5,27t-91,101.5T33,279Zm436-2q0,51-20,87.5t-54,56T322,440t-72-19t-53.5-55.5T176,279t20.5-87.5t54-57.5T322,114q39,0 73,19.5t54,56T469,277ZM161,607q9,66 41.5,98.5T285,738q21,0 37-6.5T358,713q30-19 50-19q37,0 43,43h75q-9-66-41.5-98.5T402,606q-21,0-37,6.5T329,631q-29,20-50,20q-37,0-44-44H161Z" />
      <glyph unicode="&#xe4;" glyph-name="adieresis" horiz-adv-x="678" d="M33,279q0,84 33.5,149t91,100T286,563q62,0 108.5-25T469,475v79H610V0H469V81q-27-39-74.5-64.5T285-9Q215-9 157.5,27t-91,101.5T33,279Zm436-2q0,51-20,87.5t-54,56T322,440t-72-19t-53.5-55.5T176,279t20.5-87.5t54-57.5T322,114q39,0 73,19.5t54,56T469,277ZM248,620q-28,0-47,19t-19,47t19,47.5T248,753t47.5-19.5T315,686t-19.5-47T248,620Zm185,0q-28,0-47,19t-19,47t19,47.5T433,753t47.5-19.5T500,686t-19.5-47T433,620Z" />
      <glyph unicode="&#xe5;" glyph-name="aring" horiz-adv-x="678" d="M33,279q0,84 33.5,149t91,100T286,563q62,0 108.5-25T469,475v79H610V0H469V81q-27-39-74.5-64.5T285-9Q215-9 157.5,27t-91,101.5T33,279Zm436-2q0,51-20,87.5t-54,56T322,440t-72-19t-53.5-55.5T176,279t20.5-87.5t54-57.5T322,114q39,0 73,19.5t54,56T469,277ZM458,717q0-52-33.5-83.5T341,602q-49,0-83,31.5T224,717t34,83.5T341,832q50,0 83.5-31.5T458,717Zm-69,0q0,23-14,36.5T341,767t-34-13.5T293,717q0-21 14-35.5T341,667t34,14.5T389,717Z" />
      <glyph unicode="&#xe6;" glyph-name="ae" horiz-adv-x="1077" d="M1045,290q0-22-5-52H613q8-63 49.5-97T756,107q48,0 79,18t44,49h151q-23-80-86-131.5T791-9Q730-9 679.5,16T600,82V0H472V82q-31-41-79-66T286-9Q216-9 158,27T66.5,128.5T33,279T66.5,428.5T159,528t132,35q116,0 183-87v78H600V476q36,45 83,66t108,21q74,0 131.5-34.5t90-97T1045,290ZM900,323q-1,57-41,91T759,448q-55,0-95.5-33.5T613,323H900ZM322,114q39,0 73,19.5t54,56T469,277t-20,87.5t-54,56T322,440t-72-19t-53.5-55.5T176,279t20.5-87.5t54-57.5T322,114Z" />
      <glyph unicode="&#xe7;" glyph-name="ccedilla" horiz-adv-x="602" d="M306,111q85,0 111,76H568q-21-81-77.5-132T349-6V-45q55,0 92.5-28T479-154q0-54-38.5-83T346-266H204v82H323q24,0 36.5,7T372-152t-12.5,24.5T323-121H261V-6Q193,4 141.5,41.5t-80,98T33,277q0,86 35,150.5t97,100T307,563q103,0 170.5-51.5T568,367H417q-12,36-40.5,56.5T306,444q-60,0-95-43.5T176,277q0-79 35-122.5T306,111Z" />
      <glyph unicode="&#xe8;" glyph-name="egrave" horiz-adv-x="617" d="M584,289q0-30-4-54H175q5-60 42-94t91-34q78,0 111,67H570Q546,94 478,42.5T311-9Q231-9 167.5,26.5T68.5,127T33,277q0,86 35,151t98,100t145,35q79,0 141.5-34t97-96.5T584,289ZM439,329q-1,54-39,86.5T307,448q-52,0-87.5-31.5T176,329H439ZM418,695V595L188,700V814L418,695Z" />
      <glyph unicode="&#xe9;" glyph-name="eacute" horiz-adv-x="617" d="M584,289q0-30-4-54H175q5-60 42-94t91-34q78,0 111,67H570Q546,94 478,42.5T311-9Q231-9 167.5,26.5T68.5,127T33,277q0,86 35,151t98,100t145,35q79,0 141.5-34t97-96.5T584,289ZM439,329q-1,54-39,86.5T307,448q-52,0-87.5-31.5T176,329H439ZM418,700L188,595V695L418,814V700Z" />
      <glyph unicode="&#xea;" glyph-name="ecircumflex" horiz-adv-x="617" d="M584,289q0-30-4-54H175q5-60 42-94t91-34q78,0 111,67H570Q546,94 478,42.5T311-9Q231-9 167.5,26.5T68.5,127T33,277q0,86 35,151t98,100t145,35q79,0 141.5-34t97-96.5T584,289ZM439,329q-1,54-39,86.5T307,448q-52,0-87.5-31.5T176,329H439ZM309,679L160,595V697l149,81l148-81V595L309,679Z" />
      <glyph unicode="&#xeb;" glyph-name="edieresis" horiz-adv-x="617" d="M584,289q0-30-4-54H175q5-60 42-94t91-34q78,0 111,67H570Q546,94 478,42.5T311-9Q231-9 167.5,26.5T68.5,127T33,277q0,86 35,151t98,100t145,35q79,0 141.5-34t97-96.5T584,289ZM439,329q-1,54-39,86.5T307,448q-52,0-87.5-31.5T176,329H439ZM216,622q-28,0-47,19t-19,47t19,47.5T216,755t47.5-19.5T283,688t-19.5-47T216,622Zm185,0q-28,0-47,19t-19,47t19,47.5T401,755t47.5-19.5T468,688t-19.5-47T401,622Z" />
      <glyph unicode="&#xec;" glyph-name="igrave" horiz-adv-x="290" d="M215,554V0H75V554H215Zm39,139V593L24,698V812L254,693Z" />
      <glyph unicode="&#xed;" glyph-name="iacute" horiz-adv-x="290" d="M215,554V0H75V554H215Zm39,144L24,593V693L254,812V698Z" />
      <glyph unicode="&#xee;" glyph-name="icircumflex" horiz-adv-x="290" d="M215,554V0H75V554H215ZM146,677L-3,593V695l149,81l148-81V593L146,677Z" />
      <glyph unicode="&#xef;" glyph-name="idieresis" horiz-adv-x="290" d="M215,554V0H75V554H215ZM52,620q-28,0-47,19t-19,47T5,733.5T52,753t47.5-19.5T119,686T99.5,639T52,620Zm185,0q-28,0-47,19t-19,47t19,47.5T237,753t47.5-19.5T304,686t-19.5-47T237,620Z" />
      <glyph unicode="&#xf0;" glyph-name="eth" horiz-adv-x="638" d="M479,656q61-76 93.5-161.5T605,317q0-104-37.5-177.5T465,29T317-8Q237-8 172.5,27.5T70.5,128T33,278T69.5,427.5T168,527t138,35q77,0 139-45q-24,55-65,107L264,588v64l71,23q-24,26-71,65H398q13-11 36-34l112,35V677l-67-21ZM317,111q38,0 71,18.5t53,56T461,277t-20,91.5t-53,56T318,443q-38,0-70-18.5t-51.5-56T177,277q0-80 40.5-123T317,111Z" />
      <glyph unicode="&#xf1;" glyph-name="ntilde" horiz-adv-x="661" d="M376,562q99,0 160-62.5T597,325V0H457V306q0,66-33,101.5T334,443q-58,0-91.5-35.5T209,306V0H69V554H209V485q28,36 71.5,56.5T376,562ZM167,607q9,66 41.5,98.5T291,738q21,0 37-6.5T364,713q30-19 50-19q37,0 43,43h75q-9-66-41.5-98.5T408,606q-21,0-37,6.5T335,631q-29,20-50,20q-37,0-44-44H167Z" />
      <glyph unicode="&#xf2;" glyph-name="ograve" horiz-adv-x="638" d="M315-9Q235-9 171,26.5T70.5,127T34,277T71.5,427T174,527.5T319,563t145-35.5T566.5,427T604,277T565.5,127T461.5,26.5T315-9Zm0,122q38,0 71.5,18.5T440,187t20,90q0,79-41.5,121.5T317,441T216.5,398.5T176,277t39.5-121.5T315,113ZM434,700V600L204,705V819L434,700Z" />
      <glyph unicode="&#xf3;" glyph-name="oacute" horiz-adv-x="638" d="M315-9Q235-9 171,26.5T70.5,127T34,277T71.5,427T174,527.5T319,563t145-35.5T566.5,427T604,277T565.5,127T461.5,26.5T315-9Zm0,122q38,0 71.5,18.5T440,187t20,90q0,79-41.5,121.5T317,441T216.5,398.5T176,277t39.5-121.5T315,113ZM434,705L204,600V700L434,819V705Z" />
      <glyph unicode="&#xf4;" glyph-name="ocircumflex" horiz-adv-x="638" d="M315-9Q235-9 171,26.5T70.5,127T34,277T71.5,427T174,527.5T319,563t145-35.5T566.5,427T604,277T565.5,127T461.5,26.5T315-9Zm0,122q38,0 71.5,18.5T440,187t20,90q0,79-41.5,121.5T317,441T216.5,398.5T176,277t39.5-121.5T315,113Zm10,571L176,600V702l149,81l148-81V600L325,684Z" />
      <glyph unicode="&#xf5;" glyph-name="otilde" horiz-adv-x="638" d="M315-9Q235-9 171,26.5T70.5,127T34,277T71.5,427T174,527.5T319,563t145-35.5T566.5,427T604,277T565.5,127T461.5,26.5T315-9Zm0,122q38,0 71.5,18.5T440,187t20,90q0,79-41.5,121.5T317,441T216.5,398.5T176,277t39.5-121.5T315,113ZM145,614q9,66 41.5,98.5T269,745q21,0 37-6.5T342,720q30-19 50-19q37,0 43,43h75q-9-66-41.5-98.5T386,613q-21,0-37,6.5T313,638q-29,20-50,20q-37,0-44-44H145Z" />
      <glyph unicode="&#xf6;" glyph-name="odieresis" horiz-adv-x="638" d="M315-9Q235-9 171,26.5T70.5,127T34,277T71.5,427T174,527.5T319,563t145-35.5T566.5,427T604,277T565.5,127T461.5,26.5T315-9Zm0,122q38,0 71.5,18.5T440,187t20,90q0,79-41.5,121.5T317,441T216.5,398.5T176,277t39.5-121.5T315,113ZM232,627q-28,0-47,19t-19,47t19,47.5T232,760t47.5-19.5T299,693t-19.5-47T232,627Zm185,0q-28,0-47,19t-19,47t19,47.5T417,760t47.5-19.5T484,693t-19.5-47T417,627Z" />
      <glyph unicode="&#xf7;" glyph-name="divide" horiz-adv-x="648" d="M331,496q-38,0-62.5,23.5T244,578t24.5,58.5T331,660q37,0 61-23.5T416,578t-24-58.5T331,496Zm252-78V296H73V418H583ZM331,55q-38,0-62.5,23.5T244,137t24.5,58.5T331,219q37,0 61-23.5T416,137T392,78.5T331,55Z" />
      <glyph unicode="&#xf8;" glyph-name="oslash" horiz-adv-x="634" d="M535,469q32-37 49.5-86T602,277q0-85-38.5-150T459.5,26.5T313-9Q217-9 144,42L106,0H21L98,84q-32,38-49,87T32,277q0,85 37.5,150T172,527.5T317,563q99,0 172-52l39,43h85l-78-85ZM174,277q0-51 18-90L400,414q-37,27-85,27q-60,0-100.5-42.5T174,277Zm284,0q0,49-18,88L233,138q34-25 80-25q38,0 71.5,18.5T438,187t20,90Z" />
      <glyph unicode="&#xf9;" glyph-name="ugrave" horiz-adv-x="661" d="M592,554V0H451V70q-27-36-70.5-56.5T286-7Q221-7 171,20.5t-78.5,81T64,229V554H204V249q0-66 33-101.5T327,112q58,0 91,35.5T451,249V554H592ZM440,693V593L210,698V812L440,693Z" />
      <glyph unicode="&#xfa;" glyph-name="uacute" horiz-adv-x="661" d="M592,554V0H451V70q-27-36-70.5-56.5T286-7Q221-7 171,20.5t-78.5,81T64,229V554H204V249q0-66 33-101.5T327,112q58,0 91,35.5T451,249V554H592ZM440,698L210,593V693L440,812V698Z" />
      <glyph unicode="&#xfb;" glyph-name="ucircumflex" horiz-adv-x="661" d="M592,554V0H451V70q-27-36-70.5-56.5T286-7Q221-7 171,20.5t-78.5,81T64,229V554H204V249q0-66 33-101.5T327,112q58,0 91,35.5T451,249V554H592ZM331,677L182,593V695l149,81l148-81V593L331,677Z" />
      <glyph unicode="&#xfc;" glyph-name="udieresis" horiz-adv-x="661" d="M592,554V0H451V70q-27-36-70.5-56.5T286-7Q221-7 171,20.5t-78.5,81T64,229V554H204V249q0-66 33-101.5T327,112q58,0 91,35.5T451,249V554H592ZM238,620q-28,0-47,19t-19,47t19,47.5T238,753t47.5-19.5T305,686t-19.5-47T238,620Zm185,0q-28,0-47,19t-19,47t19,47.5T423,753t47.5-19.5T490,686t-19.5-47T423,620Z" />
      <glyph unicode="&#xfd;" glyph-name="yacute" horiz-adv-x="605" d="M599,554L256-262H107L227,14L5,554H162L305,167L450,554H599ZM412,698L182,593V693L412,812V698Z" />
      <glyph unicode="&#xfe;" glyph-name="thorn" horiz-adv-x="678" d="M209,468q28,44 73.5,69T388,562q71,0 130-36t93-100.5T645,278T611,129.5T518,28T388-8Q328-8 283,19T209,93V-264H69V740H209V468ZM502,278q0,51-20.5,88t-54,55.5T356,440t-71.5-19T230,365t-21-88t21-88t54.5-56T356,114t71.5,19t54,56.5T502,278Z" />
      <glyph unicode="&#xff;" glyph-name="ydieresis" horiz-adv-x="605" d="M599,554L256-262H107L227,14L5,554H162L305,167L450,554H599ZM210,620q-28,0-47,19t-19,47t19,47.5T210,753t47.5-19.5T277,686t-19.5-47T210,620Zm185,0q-28,0-47,19t-19,47t19,47.5T395,753t47.5-19.5T462,686t-19.5-47T395,620Z" />
      <glyph unicode="&#x2013;" glyph-name="endash" horiz-adv-x="702" d="M623,416V298H79V416H623Z" />
      <glyph unicode="&#x2014;" glyph-name="emdash" horiz-adv-x="927" d="M848,416V298H79V416H848Z" />
      <glyph unicode="&#x2018;" glyph-name="quoteleft" horiz-adv-x="275" d="M179,446H31L139,698h97L179,446Z" />
      <glyph unicode="&#x2019;" glyph-name="quoteright" horiz-adv-x="275" d="M97,698H244L136,446H40L97,698Z" />
      <glyph unicode="&#x201a;" glyph-name="quotesinglbase" horiz-adv-x="251" d="M71,148H219L111-104H14L71,148Z" />
      <glyph unicode="&#x201c;" glyph-name="quotedblleft" horiz-adv-x="477" d="M179,446H31L139,698h97L179,446Zm202,0H233L341,698h97L381,446Z" />
      <glyph unicode="&#x201d;" glyph-name="quotedblright" horiz-adv-x="477" d="M97,698H244L136,446H40L97,698Zm202,0H446L338,446H242l57,252Z" />
      <glyph unicode="&#x201e;" glyph-name="quotedblbase" horiz-adv-x="454" d="M72,148H219L111-104H15L72,148Zm202,0H422L314-104H217l57,252Z" />
      <glyph unicode="&#x2022;" glyph-name="bullet" horiz-adv-x="480" d="M239,194q-38,0-70,18.5T118.5,263T100,333q0,39 18.5,71T169,454.5T239,473q39,0 71.5-18.5t51-50.5T380,333q0-38-18.5-70t-51-50.5T239,194Z" />
      <glyph unicode="&#x2039;" glyph-name="guilsinglleft" horiz-adv-x="316" d="M133,120L45,295l88,175H266L174,295l92-175H133Z" />
      <glyph unicode="&#x203a;" glyph-name="guilsinglright" horiz-adv-x="316" d="M141,295L50,470H182l89-175L182,120H50l91,175Z" />
    </font>
</defs>
</svg>
