<?xml version="1.0" standalone="no"?>
<!DOCTYPE svg PUBLIC "-//W3C//DTD SVG 1.1//EN" "http://www.w3.org/Graphics/SVG/1.1/DTD/svg11.dtd">
<svg xmlns="http://www.w3.org/2000/svg">
  <defs>
    <font id="Lato" horiz-adv-x="994">
      <font-face font-family="Lato" units-per-em="2000" panose-1="2 15 8 2 2 2 4 3 2 3" ascent="1974" descent="-426" alphabetic="0" />
      <glyph unicode=" " glyph-name="space" horiz-adv-x="386" />
      <glyph unicode="!" glyph-name="exclam" horiz-adv-x="668" d="M566,1446L496,873q-11-91-31-178.5T419,508H258q0,20-0.5,39.5T257,586q0,75 3.5,145T273,873l70,573H566ZM154,136q0,31 11.5,59T197,243t48,32t60,12t59.5-12t48-32T445,195t12-59q0-32-12-59.5T412.5,29t-48-31.5T305-14T245-2.5T197,29T165.5,76.5T154,136Z" />
      <glyph unicode="&quot;" glyph-name="quotedbl" horiz-adv-x="784" d="M441,1445l-36-288l-40-157q-11-42-31.5-65T271,912q-35,0-51.5,23T198,1000v157l36,288H441Zm345,0l-36-288l-40-157q-11-42-31.5-65T616,912q-35,0-51.5,23T543,1000v157l36,288H786Z" />
      <glyph unicode="#" glyph-name="numbersign" horiz-adv-x="1160" d="M809,409L682,0H572q-26,0-43,19T512,67q0,14 5,32l97,310H403L304,87q-14-47-47.5-67T186,0H80L208,409H89q-27,0-42,12T32,460q0,17 8,46l21,75H253l88,284H125l30,98q11,38 37.5,55.5T271,1036H387l103,328q12,38 43,59.5t69,21.5H711L582,1036H792l128,409h107q30,0 49-17t19-43q0-13-4-24L988,1036h205l-32-99q-12-37-37-54.5T1048,865H942L854,581h147q28,0 43-11t15-39q0-17-8-46l-22-76H809ZM448,581H659l88,284H537L448,581Z" />
      <glyph unicode="$" glyph-name="dollar" horiz-adv-x="1160" d="M406-9Q291,6 194.5,54T35,174l87,109q11,14 28,23t36,9q21,0 43.5-16t52-37t69-42.5T446,188l94,459q-63,19-124,43.5T307,754t-78,97.5T199,996q0,87 35,168t101,144.5t160,104T707,1458l26,127q5,24 25,42.5t47,18.5h88l-40-196q104-17 175.5-59.5T1149,1293l-68-87q-15-20-29.5-29.5T1017,1167q-15,0-34.5,10t-44,24t-56,28T812,1252L725,828q43-14 86-29t82.5-34.5t73-44T1025,663t39.5-75t14.5-96q0-98-36.5-186.5T938,149T772.5,37.5T553-14L522-165q-5-23-25-41.5T450-225H362L406-9ZM846,434q0,34-12.5,60t-35,46t-53,35T679,603L594,185q122,14 187,80.5T846,434ZM428,1049q0-34 12-60t33-47t50-37t64-30l78,381q-63-7-108-26t-73.5-46.5t-42-62T428,1049Z" />
      <glyph unicode="%" glyph-name="percent" horiz-adv-x="1483" d="M753,1150q0-96-31-172.5t-81.5-130t-115-82T394,737q-60,0-110,21.5T199,820t-54.5,96.5T125,1043q0,95 28,172t76.5,131t114,83.5T483,1459q60,0 110-21.5t85.5-62t55-97.5T753,1150Zm-185-1q0,84-29.5,120T464,1305q-33,0-61.5-14.5t-49.5-46t-32.5-81T309,1043q0-41 7.5-70T338,926t33-26t42-8q32,0 60.5,13.5t49.5,44t33,79.5t12,120Zm657,258q14,14 32.5,26t49.5,12h173L314,36q-13-16-32-26T237,0H61L1225,1407ZM1415,395q0-96-31-172.5t-81-130t-115-82T1056-18Q996-18 946,4T861,65.5t-54.5,96T787,287q0,96 28,173.5T891.5,592t114,83.5T1145,705q60,0 110-22t85.5-62.5t55-97.5T1415,395Zm-184-1q0,84-30,119.5T1126,549q-33,0-61.5-14.5t-49.5-46t-32.5-81T971,287q0-81 29-116t75-35q33,0 61.5,13.5t49.5,44t33,80T1231,394Z" />
      <glyph unicode="&amp;" glyph-name="ampersand" horiz-adv-x="1316" d="M728,1461q76,0 138-23t105.5-65t67.5-101t24-132l-142-28q-14-3-24-3q-36,0-46,40q-7,28-19,51.5t-30,41T760.5,1269T706,1279q-42,0-75.5-17t-57-46.5t-36-69T525,1062q0-48 17.5-99.5T603,855L899,471q33,60 56.5,125T992,730q5,23 16.5,37t36.5,14h167q-17-133-65.5-253T1025,308L1263,0H1056q-29,0-49.5,3.5t-37,12T939.5,37T911,69l-52,68Q766,65 659,24.5T435-16Q343-16 270,9.5t-124,73t-78,115T41,349q0,77 24.5,145.5t68,126T236.5,724T365,802q-32,63-47,125t-15,119q0,85 30,160.5t85,132T551.5,1428T728,1461ZM286,381q0-97 51.5-152T486,174q72,0 138,28.5T748,282L452,673q-89-58-127.5-132.5T286,381Z" />
      <glyph unicode="&apos;" glyph-name="quotesingle" horiz-adv-x="441" d="M441,1445l-36-288l-40-157q-11-42-31.5-65T271,912q-35,0-52.5,23T198,1000v157l36,288H441Z" />
      <glyph unicode="(" glyph-name="parenleft" horiz-adv-x="552" d="M302,433q0-69 5.5-146t17-154.5T353-18.5T394-155q7-18 7-35q0-22-11.5-35.5T361-249L248-312q-41,85-70,177T130.5,50.5T103,236.5T94,415q0,149 18.5,289.5T175,985t118,283.5T478,1567l99-63q11-8 19-18t8-25q0-10-4-22.5T586,1410q-68-114-121-227.5T376,950T321,703T302,433Z" />
      <glyph unicode=")" glyph-name="parenright" horiz-adv-x="552" d="M284,822q0,69-5.5,146t-17,154.5t-28.5,151T192,1410q-7,18-7,35q0,22 11.5,35.5T225,1504l113,63q40-85 69.5-177t48-185.5t27.5-186T492,840q0-149-18.5-289.5T411,270T293-13.5T108-312L9-249q-11,8-19,18t-8,25q0,10 4,22.5T0-155Q68-41 121,72.5T210,305t55,247t19,270Z" />
      <glyph unicode="*" glyph-name="asterisk" horiz-adv-x="736" d="M348,840l23,184q2,20 6.5,37.5T390,1096q-13-13-28-22.5T330,1053L175,959l-44,97l155,93q19,11 37.5,18.5T361,1177q-38,6-68,28l-133,94l68,97l133-95q14-11 27.5-21.5T411,1255q-3,10-4,20t-1,21q0,8 0.5,16t1.5,16l23,186H545l-23-184q-2-20-7-38t-13-34q11,11 25,20.5t29,18.5l162,98l44-97l-155-93q-36-22-73-28q17-3 33.5-10t32.5-18l132-94l-67-96l-133,94q-14,11-27.5,21T482,1096q5-22 5-42q0-7-0.5-14t-1.5-14L461,840H348Z" />
      <glyph unicode="+" glyph-name="plus" horiz-adv-x="1160" d="M759,1172L708,760h392l-22-177H687L636,169H442l51,414H104l22,177H515l51,412H759Z" />
      <glyph unicode="," glyph-name="comma" horiz-adv-x="450" d="M40,152q0,28 10.5,52.5t29.5,43t45.5,29T184,287q38,0 66.5-13.5t47-37t28-54T335,118q0-48-14.5-101T278-89T209-192t-95-92L71-245q-18,15-18,36q0,15 17,34.5t38.5,45T151-71T181,3q-32,0-57.5,11.5T79,46T50,93T40,152Z" />
      <glyph unicode="-" glyph-name="hyphen" horiz-adv-x="664" d="M118,703H599L574,504H94l24,199Z" />
      <glyph unicode="." glyph-name="period" horiz-adv-x="450" d="M34,136q0,31 11.5,59t32,48t48,32T185,287t59.5-12t48-32T325,195t12-59q0-32-12-59.5T292.5,29t-48-31.5T185-14T125.5-2.5T77.5,29t-32,47.5T34,136Z" />
      <glyph unicode="/" glyph-name="slash" horiz-adv-x="724" d="M151-7Q130-51 90.5-74T15-97H-87L616,1371q20,41 54.5,62.5T748,1455H848L151-7Z" />
      <glyph unicode="0" glyph-name="zero" horiz-adv-x="1160" d="M696,1461q98,0 179.5-37t140-110.5t91-184T1139,872q0-225-49-392T956,202.5T757,38T513-16q-98,0-179.5,37t-140,110.5t-91,184T70,573q0,225 49,392t134,277.5T452,1407t244,54ZM545,182q72,0 135,42T789.5,351T863,564.5T890,867q0,112-18.5,188t-50,122.5t-72.5,66T664,1263q-72,0-135-42T419.5,1094T346,880.5T319,578q0-112 18.5-188t50-122T460,202t85-20Z" />
      <glyph unicode="1" glyph-name="one" horiz-adv-x="1160" d="M233,179H528l108,883l19,84L412,960q-14-11-27-15t-25-4q-20,0-35.5,8.5T303,969l-61,104l484,375H923L766,179h264L1008,0H212l21,179Z" />
      <glyph unicode="2" glyph-name="two" horiz-adv-x="1160" d="M714,1461q91,0 165-26t126.5-73t81-114t28.5-148q0-90-27.5-165t-75-142T901,663T764,534L391,194q48,13 94.5,20.5T573,222H958q35,0 55-19t20-50q0-2-0.5-5.5t-2-18t-5.5-45T1014,0H28l9,79q3,23 16,50t38,49L587,621q72,64 124.5,120T799,851t52,108.5T868,1076q0,89-52,136.5T675,1260q-45,0-84.5-12.5T519,1212t-56.5-55T422,1087q-15-37-38.5-53T327,1018q-14,0-32,3l-122,22q28,103 80,181.5t123,131t157,79T714,1461Z" />
      <glyph unicode="3" glyph-name="three" horiz-adv-x="1160" d="M744,1461q92,0 164.5-25.5t123-70.5t77-106t26.5-132q0-79-18.5-138T1063,886.5T977,814T861,767q112-38 167-113.5T1083,472q0-117-45.5-208t-122-153T740,16.5T533-16Q431-16 354,6.5T221.5,76T131,195T77,365l111,43q30,12 57,12q26,0 43.5-10T313,380q16-50 37-86.5t50-61T467,196t88-12q69,0 123,24t91,63.5T825.5,362T845,467q0,41-13,75.5t-48,59t-96,39T531,655l23,169q93,1 158.5,18.5T819,893t59.5,79.5T897,1079q0,89-51.5,135T706,1260q-92,0-157.5-48T451,1087q-15-37-38-53t-55-16q-14,0-32,3l-122,22q27,103 79,181.5t122.5,131t156.5,79T744,1461Z" />
      <glyph unicode="4" glyph-name="four" horiz-adv-x="1160" d="M951,540h181l-19-136q-2-19-16.5-33.5T1058,356H928L885,0H669l43,356H112q-25,0-47.5,15T39,408L30,529l799,918h232L951,540ZM795,1031q8,58 26,130L291,540H735l60,491Z" />
      <glyph unicode="5" glyph-name="five" horiz-adv-x="1160" d="M1093,1344q-6-50-42.5-82T938,1230H534L441,916q94,19 177,19q106,0 185-29t132-80.5T1014.5,704T1041,552q0-84-21.5-159T959,254.5T865,141T743.5,56T600,2.5T440-16Q372-16 313-2.5T204,34T112.5,87.5T39,151l85,103q14,17 31,24t34,7q25,0 49-16t55.5-34.5T369,200t109-16q77,0 137,26t101,72t62.5,107T800,521q0,100-62.5,159.5T548,740q-46,0-99-8.5T333,705L190,747l206,699h709l-12-102Z" />
      <glyph unicode="6" glyph-name="six" horiz-adv-x="1160" d="M718,900q76,0 144.5-24.5T983,804t82.5-117.5T1096,525q0-113-43.5-211.5T932.5,142T751.5,26.5T524-16Q420-16 338,16T199.5,105.5t-86,138T84,420q0,65 14.5,126.5t43,123t71.5,124T313,922l405,466q20,24 56,40.5t78,16.5h212L571,918l-60-65q46,23 97.5,35T718,900ZM310,411q0-51 15-94t44.5-74t73-48T543,178q66,0 123,23.5T765,266t66,98t24,123q0,54-17,97.5t-48.5,74T714,705t-99,16q-66,0-122-23.5t-96.5-65t-63.5-98T310,411Z" />
      <glyph unicode="7" glyph-name="seven" horiz-adv-x="1160" d="M1213,1446l-11-94q-4-33-12.5-62t-19.5-48L446,56q-14-23-40-39.5T351,0H152L854,1117q21,34 43,61t47,52H245q-21,0-35.5,14.5T195,1279l21,167h997Z" />
      <glyph unicode="8" glyph-name="eight" horiz-adv-x="1160" d="M518-16Q415-16 331.5,10.5T188.5,86T97,203.5T65,356q0,149 76.5,251T375,754q-89,40-133,110t-44,164q0,92 38,171.5T341,1337t159,91t199,33q93,0 168-27t128-74t82-110t29-136q0-130-64.5-222.5T851,751q113-39 168-115.5T1074,452t-42-193.5T916,111T740,17T518-16Zm22,187q69,0 122.5,20.5t90.5,57T809,336t19,112q0,51-16,89.5T766,602t-72,39t-94,13q-66,0-118.5-18.5t-90-53.5T334,495T314,377q0-45 14.5-82.5t43-65t70.5-43T540,171Zm82,669q73,0 121,24t76.5,61.5t40,83T871,1097q0,37-11,70t-34.5,58t-60,40T678,1280q-62,0-109-20t-78-53.5T444.5,1128T429,1032q0-37 10-71.5T472,899t60-43t90-16Z" />
      <glyph unicode="9" glyph-name="nine" horiz-adv-x="1160" d="M544,579q-70,0-134,23T297,670.5T219,783T190,939q0,108 42,203t116,166t175,112t219,41q100,0 179-30.5t133.5-85.5t83-131t28.5-167q0-76-15.5-142.5t-44-128.5T1036,653.5T942,530L550,55q-20-23-53.5-39T421,0H202L719,562q20,22 38.5,43T793,647q-55-34-118-51T544,579Zm396,466q0,51-16.5,92t-46,69.5t-71,44T715,1266q-62,0-114-22t-89.5-61T453,1089.5T432,971q0-102 55.5-157T649,759q67,0 121,22t92,61t58,91t20,112Z" />
      <glyph unicode=":" glyph-name="colon" horiz-adv-x="450" d="M34,136q0,31 11.5,59t32,48t48,32T185,287t59.5-12t48-32T325,195t12-59q0-32-12-59.5T292.5,29t-48-31.5T185-14T125.5-2.5T77.5,29t-32,47.5T34,136Zm98,713q0,31 11.5,59t32,48t48,32t59.5,12t59.5-12t48-32T423,908t12-59q0-32-12-59.5T390.5,742t-48-31.5T283,699t-59.5,11.5t-48,31.5t-32,47.5T132,849Z" />
      <glyph unicode=";" glyph-name="semicolon" horiz-adv-x="450" d="M35,152q0,28 10.5,52.5t29.5,43t45.5,29T179,287q38,0 66.5-13.5t47-37t28-54T330,118q0-48-14.5-101T273-89T204-192t-95-92L66-245q-18,15-18,36q0,15 17,34.5t38.5,45T146-71T176,3q-32,0-57.5,11.5T74,46T45,93T35,152Zm99,697q0,31 11.5,59t32,48t48,32t59.5,12t59.5-12t48-32T425,908t12-59q0-32-12-59.5T392.5,742t-48-31.5T285,699t-59.5,11.5t-48,31.5t-32,47.5T134,849Z" />
      <glyph unicode="&lt;" glyph-name="less" horiz-adv-x="1067" d="M159,724l843,413L980,961q-2-20-14-36.5T929,896L543,710q-25-12-51.5-20.5T436,674q27-7 51.5-15.5T534,638L875,451q20-11 28-24.5t8-30.5q0-1-0.5-5t-3-22t-7-55T888,210L147,624l12,100Z" />
      <glyph unicode="=" glyph-name="equal" horiz-adv-x="1160" d="M148,586h883l-22-177H126l22,177Zm44,350h881l-20-178H170l22,178Z" />
      <glyph unicode="&gt;" glyph-name="greater" horiz-adv-x="1067" d="M956,624L113,211l22,176q2,20 14,36.5T186,452L572,638q25,12 51.5,20.5T679,674q-27,7-51.5,15.5T581,710L240,897q-20,11-28,24.5T204,952q0,1 0.5,5t2.5,22t7,55t13,104L968,724L956,624Z" />
      <glyph unicode="?" glyph-name="question" horiz-adv-x="780" d="M135,1314q36,30 76.5,56.5t87,47t99,32T509,1461q78,0 138.5-22.5T749,1377t62-91.5T832,1173q0-63-13-111.5t-35-86T734,909t-58.5-53.5t-61-46t-57-44.5T511,716t-29-60L442,508H278V672q0,50 24.5,89t62,72T445,896.5T525.5,961t62,74t24.5,93q0,65-37,102.5T465,1268q-51,0-88.5-13T312,1226.5T266,1198t-35-13q-15,0-27,7t-18,23l-51,99ZM183,136q0,31 11.5,59T226,243t48,32t60,12t59.5-12t48-32T474,195t12-59q0-32-12-59.5T441.5,29t-48-31.5T334-14T274-2.5T226,29T194.5,76.5T183,136Z" />
      <glyph unicode="@" glyph-name="at" horiz-adv-x="1491" d="M1021,184q-63,0-108,31.5T857,318q-63-72-128-102.5T593,185q-51,0-88,18t-62,50t-37,75.5T394,422q0,61 16,124.5T457.5,670t78,112.5t107.5,92T779.5,937T944,960q37,0 67-3t56-8.5t49-13.5t46-19L1027,546q-17-45-23-78.5T998,410q0-45 21-61.5t54-16.5q45,0 86,34t72.5,94T1282,602t19,178q0,108-30.5,191.5t-87,140t-137,85.5T867,1226q-88,0-169.5-26T546,1126T418.5,1010.5T320,859T256.5,677.5T234,472q0-136 37.5-240T377,57.5t163-107T750-86q71,0 132.5,8t112,21.5t90,30.5T1153,8q14,8 26,11t22,3q21,0 32-12t16-29l18-68q-104-68-237-111T732-241q-152,0-275.5,49.5T245-50.5T109,171T61,463q0,125 30,241.5T175,923t130,185.5T472.5,1252T669,1345t217,33q121,0 227-41.5t185.5-119T1424,1029t46-249q0-126-35.5-234.5t-96.5-189T1195.5,230T1021,184ZM660,339q23,0 47,8.5T754.5,377T800,433.5T842,522L945,806q-27,6-58,6q-60,0-115.5-31t-98-82t-68-116.5T580,448q0-51 20-80t60-29Z" />
      <glyph unicode="A" glyph-name="A" horiz-adv-x="1283" d="M1237,0H1036q-34,0-54,16T957,59L897,361H358L224,59q-11-23-36-41T132,0H-72L627,1446H892L1237,0ZM439,544H860l-98,495q-8,36-16,76t-15,90q-19-50-37.5-92.5T659,1038L439,544Z" />
      <glyph unicode="B" glyph-name="B" horiz-adv-x="1200" d="M70,0L248,1446H712q120,0 205.5-23.5t140-66.5t80.5-104t26-136q0-62-16.5-118.5T1096,893t-89-86T878,744q123-31 183-100.5T1121,467q0-100-37-185.5t-107-148t-170.5-98T579,0H70ZM407,637L354,202H599q70,0 120,19t82.5,53.5t48,83T865,464q0,79-50,126T651,637H407Zm22,179H621q134,0 206.5,63T900,1072q0,91-51.5,132.5T688,1246H482L429,816Z" />
      <glyph unicode="C" glyph-name="C" horiz-adv-x="1207" d="M678,204q61,0 106.5,9.5t79,24.5T921,269.5T963,301t32,24.5t28,9.5q12,0 20-5t13-10l91-113Q1053,99 926,41.5T634-16Q501-16 397,31.5T221,163T111.5,362T74,613q0,125 27,236.5t77,206T298,1225t155,128t183.5,81T842,1462q79,0 144-14.5t118-40.5t95-62.5t76-81.5l-90-108q-10-12-23.5-21t-33.5-9q-22,0-42,18t-50.5,39.5t-79,39.5T829,1240q-104,0-193-42.5T481,1076T377.5,885.5T340,635q0-101 25.5-181T436,318.5t107-85T678,204Z" />
      <glyph unicode="D" glyph-name="D" horiz-adv-x="1374" d="M1354,820q0-180-58-331T1134.5,229.5T889,60.5T579,0H70L248,1446H758q138,0 248.5-47T1194,1269t118.5-198T1354,820Zm-266-6q0,97-24,176t-69.5,134.5T883,1210t-151,30H483L356,207H605q109,0 198,42T955.5,369.5t98,191T1088,814Z" />
      <glyph unicode="E" glyph-name="E" horiz-adv-x="1051" d="M1091,1446l-26-207H483L433,828H890L865,629H408L356,207H940L914,0H70L248,1446h843Z" />
      <glyph unicode="F" glyph-name="F" horiz-adv-x="1032" d="M1065,1239H483L429,799H920L893,592H404L331,0H70L248,1446h843l-26-207Z" />
      <glyph unicode="G" glyph-name="G" horiz-adv-x="1327" d="M707,191q81,0 143,15.5T969,250l34,276H843q-23,0-35.5,11.5T795,567l17,154h450l-72-581Q1080,60 953,22T663-16Q530-16 421.5,32t-186,133.5T116,368.5T74,625q0,122 27,231.5T177.5,1059t119,167.5t156,127T639,1434t210,28q88,0 160-15.5t130-42.5t104-63t82-76l-84-108q-27-35-64-35q-23,0-44,14q-33,22-64,41t-66,33t-76.5,22t-96.5,8q-108,0-198-43.5t-155-123t-101-191T340,634q0-104 26.5-186T441,309t115.5-87.5T707,191Z" />
      <glyph unicode="H" glyph-name="H" horiz-adv-x="1392" d="M1200,0H939l78,635H409L331,0H70L248,1446H509L431,819h609l78,627h261L1200,0Z" />
      <glyph unicode="I" glyph-name="I" horiz-adv-x="580" d="M360,0H99L276,1446H537L360,0Z" />
      <glyph unicode="J" glyph-name="J" horiz-adv-x="802" d="M673,501q-15-120-54-216T517.5,122.5T369,20T174-16Q121-16 72.5-9.5T-27,11L-8,163q2,21 14.5,35T45,212q23,0 53-7t77-7q46,0 85,16t70,51.5t52,92T413,495l116,951H789L673,501Z" />
      <glyph unicode="K" glyph-name="K" horiz-adv-x="1290" d="M438,835h56q35,0 59.5,10.5T598,880l418,510q26,32 55,44t68,12h223L850,841q-23-27-44.5-46T760,765q30-12 51.5-33T851,677L1218,0H990q-23,0-39,3.5t-27.5,10t-19,16T891,51L593,590q-14,26-36,37.5T492,639H414L335,0H77L254,1447H514L438,835Z" />
      <glyph unicode="L" glyph-name="L" horiz-adv-x="952" d="M355,215H881L856,0H70L248,1446H507L355,215Z" />
      <glyph unicode="M" glyph-name="M" horiz-adv-x="1715" d="M825,578q9-26 16-53t14-55q12,28 26,55t30,53l502,826q9,15 18.5,23.5t20,12.5t23.5,5t30,1h197L1524,0H1296l116,942q3,26 9,57t13,63L937,236q-17-28-42.5-42T839,180H803q-30,0-52.5,14T718,236L420,1059q-1-31-2.5-60T413,946L299,0H70L248,1446H443q17,0 30-1t23-5t17-12.5t13-23.5L825,578Z" />
      <glyph unicode="N" glyph-name="N" horiz-adv-x="1392" d="M384,1446q17,0 28.5-1.5t20.5-6t16-12.5t15-22l563-987q2,29 4.5,56.5T1037,525l113,921h229L1200,0H1067q-30,0-51,9.5T981,45L421,1032q-2-24-4-46.5T413,943L299,0H70L248,1446H384Z" />
      <glyph unicode="O" glyph-name="O" horiz-adv-x="1464" d="M1446,820q0-120-26.5-228.5t-76-201.5t-119-168t-156-128T881,12.5T669-16Q531-16 421,33T233.5,168T115,371T74,625q0,120 26.5,228.5t76,201.5t119,168t156,128.5t187.5,82T852,1462q138,0 248-49t187-135t118-203.5T1446,820Zm-266-6q0,98-24.5,178t-71,137T971,1217t-151,31q-108,0-196.5-44T472,1079T374.5,884T340,631q0-98 24-178t70-136.5t112.5-87T698,199q109,0 198,44t152,124t97.5,193.5T1180,814Z" />
      <glyph unicode="P" glyph-name="P" horiz-adv-x="1155" d="M398,512L335,0H77L254,1446H694q123,0 211.5-29.5T1051,1334t84.5-125.5T1163,1049q0-116-36.5-214.5T1017,664.5t-182.5-112T579,512H398Zm91,734L423,714H605q76,0 132,23t93,64.5T884.5,900T902,1026q0,49-14,90t-43,69.5T772.5,1230T669,1246H489Z" />
      <glyph unicode="Q" glyph-name="Q" horiz-adv-x="1464" d="M1446,820q0-115-24.5-220T1351,404.5t-110.5-165T1095,111l289-395H1172q-47,0-82.5,12T1029-225L863,8Q817-3 768.5-9.5T669-16Q531-16 421,33T233.5,168T115,371T74,625q0,120 26.5,228.5t76,201.5t119,168t156,128.5t187.5,82T852,1462q138,0 248-49t187-135t118-203.5T1446,820Zm-266-6q0,98-24.5,178t-71,137T971,1217t-151,31q-108,0-196.5-44T472,1079T374.5,884T340,631q0-98 24-178t70-136.5t112.5-87T698,199q109,0 198,44t152,124t97.5,193.5T1180,814Z" />
      <glyph unicode="R" glyph-name="R" horiz-adv-x="1209" d="M405,570L335,0H77L254,1446H665q125,0 214-26.5t146-74t84-113.5t27-145q0-84-23.5-157.5T1045,796T937,691T792,621q23-14 42-34t33-48L1125,0H892q-33,0-55.5,13.5T803,52L591,521q-12,26-29.5,37.5T507,570H405Zm84,676L428,755H578q78,0 134.5,22.5t93,62T860,932t18,114q0,94-58,147t-179,53H489Z" />
      <glyph unicode="S" glyph-name="S" horiz-adv-x="989" d="M935,1186q-14-20-28-29.5t-34-9.5t-41,16t-50,35.5T713.5,1234T618,1250q-55,0-97-16t-70.5-44t-43-66T393,1042q0-46 23.5-76.5T478,912t87-41t99.5-38T764,787t87-64t61.5-91.5T936,502q0-106-36.5-200t-105-164.5t-166-112T409-16Q346-16 285-2.5T170,36T70,96t-80,78L82,298q11,14 28,23t34,9q16,0 31.5-10t34-24.5t40-32t49.5-32T362,207t81-10q113,0 177,64t64,177q0,50-23,82t-61,54t-86,38.5t-98.5,35t-98.5,43t-86,63T170,848T147,986q0,93 34.5,179T280,1316.5t155.5,105T642,1461q59,0 113.5-12T857,1415t86.5-52.5T1012,1295l-77-109Z" />
      <glyph unicode="T" glyph-name="T" horiz-adv-x="1096" d="M1192,1446l-27-213H769L617,0H359L510,1233H113l26,213H1192Z" />
      <glyph unicode="U" glyph-name="U" horiz-adv-x="1338" d="M635,208q70,0 128.5,26.5t102.5,75T938.5,426T977,577l107,869h259L1237,577q-16-128-68-237T1035.5,152T845.5,28.5T608-16Q491-16 400,20.5T246.5,123t-95,157.5T119,482q0,45 6,95l105,869H490L383,578q-2-19-3-37t-1-35q0-68 16.5-123t49-94T525,229t110-21Z" />
      <glyph unicode="V" glyph-name="V" horiz-adv-x="1316" d="M121,1446H329q34,0 54-16.5t25-42.5L601,486q10-47 19-94.5T637,290q17,54 38,103.5T716,486l411,901q10,22 35.5,40.5T1220,1446h210L716,0H480L121,1446Z" />
      <glyph unicode="W" glyph-name="W" horiz-adv-x="1933" d="M128,1446H332q34,0 54.5-16.5T411,1387L538,500q5-32 6.5-69t3.5-78q26,82 53,147l360,887q9,22 34.5,40.5T1053,1446h60q34,0 55-16.5t26-42.5l144-887q5-32 9.5-68t6.5-75q11,39 22,75.5t23,67.5l343,887q9,23 35.5,41t58.5,18h205L1450,0H1215L1052,1002q-3,19-6.5,41.5T1040,1091q-8-25-16.5-47.5T1007,1002L598,0H364L128,1446Z" />
      <glyph unicode="X" glyph-name="X" horiz-adv-x="1261" d="M485,772L160,1446H395q26,0 37.5-7.5T452,1413L674,914q10,21 24,42l307,454q24,36 59,36h271L843,784L1206,0H974q-26,0-40.5,14T911,45L660,624q-5-8-9.5-16T641,592L267,45q-17-25-37-35T186,0H-73L485,772Z" />
      <glyph unicode="Y" glyph-name="Y" horiz-adv-x="1212" d="M745,563L675,0H415l70,564L109,1446H340q34,0 52-16.5t28-42.5L607,887q14-36 22.5-70.5T644,749q16,33 34.5,67T720,887l311,500q14,23 36.5,41t55.5,18h215L745,563Z" />
      <glyph unicode="Z" glyph-name="Z" horiz-adv-x="1133" d="M1204,1446l-11-81q-2-17-10-32t-19-30L365,207h670L1009,0H-7L3,79q2,17 9.5,32.5T31,141L832,1239H190l25,207h989Z" />
      <glyph unicode="[" glyph-name="bracketleft" horiz-adv-x="552" d="M4-305L231,1545H614l-11-94q-3-24-23-42t-47-18H412L221-152H345q22,0 38-12.5T399-199L387-305H4Z" />
      <glyph unicode="\" glyph-name="backslash" horiz-adv-x="722" d="M104,1455H204q43,0 73-22t39-62L658-97H558q-38,0-71.5,23T442-7L104,1455Z" />
      <glyph unicode="]" glyph-name="bracketright" horiz-adv-x="552" d="M-31-305l12,92q3,26 22.5,43.5T50-152H173L363,1391H240q-25,0-40,15.5T185,1444l12,101H580L352-305H-31Z" />
      <glyph unicode="^" glyph-name="asciicircum" horiz-adv-x="1160" d="M1082,777H901q-23,0-37.5,12T839,818L681,1107q-15,28-27.5,53.5T632,1211q-8-26-19-51.5T587,1107L432,818q-9-17-24.5-29T366,777H176l373,669H709l373-669Z" />
      <glyph unicode="_" glyph-name="underscore" horiz-adv-x="726" d="M648-138L629-293H-97l19,155H648Z" />
      <glyph unicode="`" glyph-name="grave" horiz-adv-x="591" d="M260,1461q38,0 55-13t28-39l100-243H307q-26,0-42.5,7T234,1200L36,1461H260Z" />
      <glyph unicode="a" glyph-name="a" horiz-adv-x="1035" d="M858,0H728q-45,0-63,21T647,74l8,140Q587,108 502,46.5T315-15Q257-15 206.5,8t-88,68.5t-59,114T38,351T61,530t65.5,163.5T229,834T363.5,944t161,71.5T707,1041q69,0 138.5-10T982,995L858,0ZM412,187q41,0 80.5,28T567,292.5T632,409t52,144l39,310q-27,3-50,3q-83,0-154-38T396,725.5t-81.5-150T285,395q0-108 34-158t93-50Z" />
      <glyph unicode="b" glyph-name="b" horiz-adv-x="1076" d="M60,0L241,1486H482L401,823q72,101 160.5,160T750,1042q64,0 116.5-23.5T956,948t57-119t20-169q0-87-18-171T964,330T885.5,192T784,83T664.5,11T533-15q-79,0-140.5,31.5T289,102l-8-34q-8-36-27-52T194,0H60ZM654,848q-41,0-83-28t-81.5-77t-73-115.5T359,485L329,240q34-37 78-52t87-15q66,0 120,41t92.5,107T766,469.5T787,635q0,108-35,160.5T654,848Z" />
      <glyph unicode="c" glyph-name="c" horiz-adv-x="871" d="M838,182q-51-56-97.5-94T646,27T545-5.5T429-15q-89,0-159.5,30.5T150,102T75.5,237T50,413q0,125 40,238.5t112,200t171,138T589,1041q102,0 173.5-36T890,897l-79-94q-9-9-20.5-16.5T765,779q-17,0-31,10.5T701.5,812t-46,22.5T584,845q-57,0-109-31t-91.5-88t-63-137T297,412q0-113 50-174.5T482,176q57,0 94.5,16.5t63.5,36t46.5,36T731,281q12,0 23.5-6.5T775,258l63-76Z" />
      <glyph unicode="d" glyph-name="d" horiz-adv-x="1078" d="M761,0q-45,0-63,21T680,74l8,150Q614,114 522,49.5T326-15Q262-15 209.5,8.5T120,79T63,198T43,368q0,87 18,170.5T112,697t78.5,138T292,944t119.5,72T543,1042q69,0 125-25t98-68l67,537h242L892,0H761ZM422,179q40,0 82,27.5t81,76t72.5,114T715,538l31,249q-34,37-78,52t-86,15q-66,0-120-41T369.5,706T310,557.5T289,392q0-108 35-160.5T422,179Z" />
      <glyph unicode="e" glyph-name="e" horiz-adv-x="946" d="M918,788q0-69-27.5-126T792,560T599.5,482.5T290,431V418q0-242 205-242q44,0 78,8.5T632.5,205t46,27t38,27T751,279.5t37,8.5q12,0 24-5.5T832,266l63-76q-53-53-104-92T687,34T575-3T446-15q-90,0-163,30.5t-125,86t-80.5,134T49,411q0,81 17.5,159T117,718t81,129T306.5,949t133,67T595,1040q81,0 141.5-23t101-59.5T898,876t20-88ZM581,868q-50,0-93-20.5T410.5,790t-60-88.5T310,589q124,17 199.5,37t117,44t55,51T695,779q0,15-6.5,31t-20,28.5t-35,21T581,868Z" />
      <glyph unicode="f" glyph-name="f" horiz-adv-x="636" d="M432,841L335,42L284-146q-14-49-43.5-75T157-247H58L189,841l-79,14q-22,4-36,16.5T60,907q0,1 0.5,4T62,924.5t3.5,32T73,1017H211l9,76q11,88 46.5,158t90,119T482,1445t153,26q64,0 118-19l-22-128q-2-11-9.5-17.5T703,1297t-24.5-4t-27.5-1q-40,0-73.5-11t-59-35.5t-42-64T453,1085l-8-68H675L652,841H432Z" />
      <glyph unicode="g" glyph-name="g" horiz-adv-x="970" d="M860,729q0-46-10-82.5T825.5,579T794,520.5t-32-56t-24.5-60T728,335q0-41 17-75.5T782,189t37-77t17-95q0-76-34-144.5t-98-120T548-329T340-359q-95,0-170.5,19.5T40.5-285t-82,82.5T-70-98q0,85 43,143T84,138.5t152.5,51T405,205q41,0 80-3.5t74-9.5q-4,16-6.5,32T550,258q0,58 32,128q-38-26-86-40T380,332q-58,0-110.5,19T177,409t-63.5,97.5T90,643q0,75 28,146.5t83,128T337,1008t188,34q57,0 108.5-13.5T728,989h287l-11-80q-4-24-15.5-41T955,845L850,817q5-20 7.5-42t2.5-46ZM450,481q45,0 79,21t57.5,55T622,633.5T634,720q0,75-35,115T497,875q-45,0-79-19.5t-57-52T326.5,729T315,642q0-77 34.5-119T450,481ZM611-4q0,14-1.5,27.5T606,49q-54,9-99.5,13T421,66q-68,0-116.5-11t-80-29t-46-42T164-67q0-60 48-91t148-31q56,0 102,14t79,39t51.5,59T611-4Z" />
      <glyph unicode="h" glyph-name="h" horiz-adv-x="1085" d="M60,0L241,1486H487L410,851q75,97 162.5,144T751,1042q58,0 105-20.5t80-60t51-97T1005,732q0-19-1.5-38.5T1000,653L923,0H676l77,653q2,18 3.5,34t1.5,30q0,66-25,95t-76,29q-38,0-79-21.5t-79-61T428,663T372,538L307,0H60Z" />
      <glyph unicode="i" glyph-name="i" horiz-adv-x="515" d="M441,1026L318,0H74L197,1026H441Zm62,299q0-32-13.5-60t-35-49T405,1182.5T347,1170q-29,0-56.5,12.5T242,1216t-33.5,49T196,1325t13,61t34,50.5t48.5,34T348,1483q30,0 58-12.5t49.5-33.5t34.5-50t13-62Z" />
      <glyph unicode="j" glyph-name="j" horiz-adv-x="506" d="M441,1026L311-35q-8-67-33.5-126t-68-103.5t-103-70T-33-360q-39,0-67.5,4.5T-157-341l24,133q6,20 19,25.5t47,5.5t57.5,7.5t39.5,24T55-102T69-35L199,1026H441Zm54,299q0-32-13.5-60t-35-49T397,1182.5T339,1170q-29,0-56.5,12.5T234,1216t-33.5,49T188,1325t13,61t34,50.5t48.5,34T340,1483q30,0 58-12.5t49.5-33.5t34.5-50t13-62Z" />
      <glyph unicode="k" glyph-name="k" horiz-adv-x="1019" d="M488,1486L384,635h25q23,0 37.5,7T477,668L749,983q18,20 37,31.5t48,11.5h220L716,645q-19-21-38-38.5T638,576q19-14 31.5-34.5T694,498L948,0H734q-27,0-44.5,10T660,44L461,433q-12,23-24.5,30T396,470H363L306,0H62L244,1486H488Z" />
      <glyph unicode="l" glyph-name="l" horiz-adv-x="499" d="M65,0L245,1486H488L308,0H65Z" />
      <glyph unicode="m" glyph-name="m" horiz-adv-x="1581" d="M52,0L177,1027H302q38,0 60-18t22-57q0-1 0-3t-0.5-13.5t-1.5-35T379,834q69,105 150,156.5T698,1042q95,0 149.5-63T911,797q72,126 159.5,185.5T1261,1042q115,0 177.5-77.5T1501,741q0-20-1-42.5t-4-45.5L1419,0H1175q20,170 34,288.5t23,198T1246,611t7.5,69.5t3,33T1257,727q0,60-20,86.5T1172,840q-38,0-74-20t-68.5-58t-60-93T921,545L857,0H614l77,653q2,21 3.5,39.5T696,727q0,60-19.5,86.5T612,840q-39,0-76-21t-69.5-60.5t-60-96T358,536L294,0H52Z" />
      <glyph unicode="n" glyph-name="n" horiz-adv-x="1077" d="M52,0L175,1027H301q39,0 60.5-19T383,947l-7-133q78,115 173,171.5T745,1042q57,0 103.5-20.5t79.5-60t51-97T997,732q0-19-1.5-38.5T992,653L915,0H668q20,169 34,286.5T725,482t14,122.5t7.5,67.5t3,30.5T750,715q0,66-24,95.5T651,840q-41,0-85-24t-84-68T409,642T355,504L299,0H52Z" />
      <glyph unicode="o" glyph-name="o" horiz-adv-x="1020" d="M460,175q62,0 112,35.5t85.5,95T712,444t19,166q0,125-42.5,184T560,853q-62,0-112-35t-85-95T309,584T290,417q0-125 42-183.5T460,175ZM438-15q-85,0-157.5,28.5T155.5,97T73,232T43,415q0,133 42.5,248t116,199T373,994t209,48q85,0 157.5-28.5T865,930t83-135t30-183q0-132-43-246.5t-116.5-199T647,33.5T438-15Z" />
      <glyph unicode="p" glyph-name="p" horiz-adv-x="1060" d="M11-335L177,1027H302q34,0 58-14.5T384,965q0,0 0-3t-1-18.5t-2-49T377,800q74,111 167.5,176.5T742,1042q64,0 116.5-23.5T948,948t57-119t20-169q0-87-18-171T956,330T877.5,192T776,83T656.5,11T525-15Q456-15 399.5,9.5T302,78L251-335H11ZM646,848q-41,0-83-27.5t-81-76T409.5,630T352,488L322,239q34-36 77.5-51T486,173q66,0 120,41t92.5,107T758,469.5T779,635q0,108-35,160.5T646,848Z" />
      <glyph unicode="q" glyph-name="q" horiz-adv-x="1035" d="M816-335H656q-21,0-35.5,7t-23,18T585-285t-4,28q0,1 0.5,4.5t2,16.5t4.5,40t9,75.5t15.5,123T636,186Q570,92 490,38.5T315-15Q257-15 206.5,8t-88,68.5t-59,114T38,351T61,530t65.5,163.5T229,834T363.5,944t161,71.5T707,1041q69,0 138.5-10T982,995L816-335ZM412,187q40,0 79.5,27.5t74.5,76T630.5,405T682,547l41,317q-14,1-26,1.5T673,866q-83,0-154-38T396,725.5t-81.5-150T285,395q0-108 34-158t93-50Z" />
      <glyph unicode="r" glyph-name="r" horiz-adv-x="727" d="M52,0L177,1027H302q36,0 59-16t23-51q0,0 0-3.5T383,936t-2-53.5T377,780q63,121 138,187t156,66q41,0 83-18L709,779q-50,21-95,21q-89,0-156-85T348,449L294,0H52Z" />
      <glyph unicode="s" glyph-name="s" horiz-adv-x="785" d="M733,833q-11-16-21-22.5T686,804q-17,0-35,10t-41.5,22.5t-54,22.5T482,869q-79,0-121-35.5T319,745q0-31 17.5-52.5T382,655t64-29.5t74-29t74-35T658,514t45.5-67.5T721,352q0-74-29.5-141T607,93.5t-133-80T300-16q-49,0-94.5,9.5T120,20T47.5,60T-8,110l60,94q11,17 26.5,26t36.5,9t38-13t40-28.5T248.5,169T332,156q41,0 72.5,11t53,30T490,241t11,53q0,34-17,56.5t-45.5,39t-64.5,29T300.5,445t-73,32t-64,45.5t-45.5,67T101,686q0,68 26,132.5t76.5,114t124,79.5T496,1042q98,0 173.5-33.5T797,923l-64-90Z" />
      <glyph unicode="t" glyph-name="t" horiz-adv-x="709" d="M147,209q0,7 0,16.5t1.5,28t5,49T163,381l57,460H123q-17,0-27.5,10.5T85,883q0,1 0.5,4T87,900.5T90.5,932T97,991l156,27l82,280q6,20 20.5,31t35.5,11H523l-40-323H731L710,841H461L406,394q-5-41-7.5-65t-4-37.5t-2-19T392,265q0-38 18.5-60T463,183q21,0 36,5.5T525,200t19.5,11.5T561,217q11,0 17.5-5.5T590,195L643,75Q588,30 521,7T386-16Q277-16 213.5,43T147,209Z" />
      <glyph unicode="u" glyph-name="u" horiz-adv-x="1075" d="M409,1026q-20-169-34-286T352,545T338,422t-7.5-68t-3-31T327,310q0-66 24.5-94.5T426,187q39,0 80.5,21.5t80,61.5T658,367t56,127l64,532h247L901,0H776q-17,0-32.5,4.5T715.5,18t-20,23T688,74v4l6,125Q616,93 523.5,39T332-15Q275-15 228.5,5.5T149,65T98,161.5T80,293q0,20 1,40t4,42l77,651H409Z" />
      <glyph unicode="v" glyph-name="v" horiz-adv-x="994" d="M69,1026H271q26,0 41.5-13T332,980L440,432q10-49 14-97.5t7-96.5q14,48 30.5,95.5T531,432L776,980q9,20 27.5,33t40.5,13h195L533,0H325L69,1026Z" />
      <glyph unicode="w" glyph-name="w" horiz-adv-x="1467" d="M77,1026H264q26,0 43-13t19-33l60-548q5-45 5.5-87t2.5-84q15,42 31.5,84T460,432L683,982q8,20 26,33t40,13H855q26,0 41-13t18-33l86-550q7-45 12-87t9-84q11,42 23.5,84t29.5,87l199,548q7,20 25,33t41,13h180L1096,0H905q-31,0-38,44L769,637q-6,40-9,77q-7-20-14-39.5T731,635L487,44Q469,0 434,0H251L77,1026Z" />
      <glyph unicode="x" glyph-name="x" horiz-adv-x="1006" d="M353,555L115,1026H339q25,0 36-7t19-24L535,689q6,12 13,24.5T564,739L744,991q12,17 25,26t30,9h224L662,554L926,0H701q-25,0-39.5,13.5T639,45L482,405q-5-11-11-22t-12-20L231,45q-13-17-29-31T163,0H-54L353,555Z" />
      <glyph unicode="y" glyph-name="y" horiz-adv-x="994" d="M371-284q-26-51-80-51H108L336,78L77,1026H284q27,0 40.5-13.5T343,980L469,448q6-26 9.5-51t5.5-51q11,26 22.5,51.5T530,449L783,981q10,20 29,32.5t39,12.5h198L371-284Z" />
      <glyph unicode="z" glyph-name="z" horiz-adv-x="876" d="M869,924q-3-26-13.5-51T829,832L316,190H767L745,0H-1L12,103q2,17 12.5,41T52,188L569,837H128l23,189H882L869,924Z" />
      <glyph unicode="{" glyph-name="braceleft" horiz-adv-x="552" d="M125,441q0,48-22.5,79T31,551L48,689q74,0 103,61.5T180,939q0,16-1,37t-1.5,43.5t-1.5,44t-1,38.5q0,106 24,188.5t72.5,139t122.5,86T569,1545h47l-13-107q-2-12-8-21t-14.5-15t-17.5-8.5t-16-2.5h-7q-66,0-104-47.5T390,1208q-5-51-6-98t-1-91.5t-1-87T377,846q-4-42-17.5-78.5t-36-66t-52.5-51T205,619q58-20 89-69.5T325,437q0-58-13-113.5t-29-111t-29-112T241-17q0-60 27.5-97.5T350-152h8q14,0 29-9.5T402-194q0-1 0-3.5t-1.5-13t-4-32.5T389-305H341q-80,0-138,21t-95.5,58.5T51.5-136T33-21q0,65 14.5,124T79,218t31.5,111T125,441Z" />
      <glyph unicode="|" glyph-name="bar" horiz-adv-x="600" d="M144,1547H336V-335H144V1547Z" />
      <glyph unicode="}" glyph-name="braceright" horiz-adv-x="552" d="M458,799q0-48 22.5-79T552,689L535,551q-74,0-103-61.5T403,301q0-16 1-37t1.5-43.5T407,176t1-38q0-106-24-188.5t-72.5-139t-123-86T14-305H-33l13,107q1,12 7.5,21t15,15T20-153.5T36-151h7q66,0 104,47.5T193,32q5,51 6,98t1,91.5t1,87t5,85.5q4,42 17.5,78.5t36,66T312,589t66,32q-58,20-89,69.5T258,803q0,58 13,113.5t29,111t29,112T342,1257q0,60-27.5,97.5T233,1392h-8q-14,0-29,9.5T181,1434q0,1 0,3.5t1.5,13t4,32.5t7.5,62h48q79,0 137.5-21t96-58.5t56-89.5T550,1261q0-65-14.5-124T504,1022T472.5,911T458,799Z" />
      <glyph unicode="~" glyph-name="asciitilde" horiz-adv-x="1160" d="M685,648q56,0 87,36t31,101h199q0-77-20.5-139.5t-59-107T828,470T700,446q-53,0-101.5,14t-92,30.5T425,521t-70,14q-56,0-87-36T237,398H38q0,77 20.5,139.5t59,107T212,713t128,24q53,0 101.5-14t92-30.5T615,662t70-14Z" />
      <glyph unicode="&#xa0;" glyph-name="uni00A0" horiz-adv-x="386" />
      <glyph unicode="&#xa1;" glyph-name="exclamdown" horiz-adv-x="668" d="M128-337l66,535q11,91 30,178t44,186H424q0-17 0.5-34t0.5-34q0-78-4-149.5T408,198L343-337H128ZM232,891q0,31 11.5,59t32,48t48,32t59.5,12t59.5-12t48-32T523,950t12-59q0-32-12-59.5T490.5,784t-48-31.5T383,741t-59.5,11.5t-48,31.5t-32,47.5T232,891Z" />
      <glyph unicode="&#xa2;" glyph-name="cent" horiz-adv-x="1160" d="M481-9Q402,3 336,39T223,132.5T149.5,267T123,439q0,124 39,231.5T274.5,858T455,985.5T697,1038l33,160q5,23 25,42t47,19h88l-48-230q78-14 138.5-47T1089,899l-72-83q-12-14-22.5-21T965,788q-14,0-28,7t-32.5,16.5t-42.5,20T806,850L665,166q55,5 93,19.5T823.5,215t48,27T912,254q30,0 42-20l55-84q-39-40-84-69T831.5,32.5t-100-30T628-12L597-163q-5-23-25-41.5T525-223H437L481-9ZM358,451q0-107 41.5-176.5T519,179L659,857q-76-8-132.5-40.5t-94-85T376.5,608T358,451Z" />
      <glyph unicode="&#xa3;" glyph-name="sterling" horiz-adv-x="1160" d="M910,662q-2-23-23-41.5T837,602H455L431,396q-8-68-31.5-119T334,183q39,9 78,14t78,5h598l-13-99q-2-18-11.5-36.5t-24.5-33t-35-24T961,0H1L20,150q69,16 108,57.5T178,332l33,270H56l12,96q3,22 23.5,40.5T142,757h88l29,241q11,94 52.5,178.5t109,147.5T581,1424t208,37q86,0 150-19.5t110.5-54t77.5-82t51-103.5l-104-62q-29-15-56-15q-17,0-33,7t-28,24q-18,24-34.5,43.5t-37.5,33T835.5,1253t-69.5,7q-53,0-98-18t-79.5-51.5T532,1109t-29-109L474,757H921l-11-95Z" />
      <glyph unicode="&#xa4;" glyph-name="currency" horiz-adv-x="1160" d="M249,673q0,53 13.5,100.5T301,863L149,1015l124,122L424,987q42,26 91,40.5T618,1042q52,0 100-13.5T808,990l152,152l124-123L932,868q26-42 41-91.5T988,673q0-53-13.5-100T936,484l152-152L963,209L812,359q-42-26-91-40T618,305q-52,0-99.5,13T429,356L277,204L153,328L304,478q-26,42-40.5,91.5T249,673Zm183,0q0-38 14.5-72.5t40-60T546,500t72-15q39,0 73.5,15t60,40.5t40.5,60T807,673q0,40-15,74.5t-40.5,60t-60,40.5T618,863q-38,0-72-15t-59.5-40.5t-40-60T432,673Z" />
      <glyph unicode="&#xa5;" glyph-name="yen" horiz-adv-x="1160" d="M152,631H432L132,1445H332q32,0 51.5-16.5T411,1386L576,887q14-42 21-79t12-73q12,36 27.5,73T676,887l286,499q13,23 36.5,41t55.5,18h201L754,631h281l-16-132H697l-12-96h321L990,270H668L635,0H397l33,270H107l18,133H446l11,96H136l16,132Z" />
      <glyph unicode="&#xa6;" glyph-name="brokenbar" horiz-adv-x="600" d="M144,1547H336V738H144v809Zm0-1074H336V-335H144V473Z" />
      <glyph unicode="&#xa7;" glyph-name="section" horiz-adv-x="930" d="M855,1248q-11-15-22.5-22t-27.5-7q-18,0-36,10.5T728,1252t-53.5,22.5T602,1285q-40,0-71.5-11t-53-29.5t-33-43.5T433,1149q0-29 19.5-52t51-43.5T575,1014t82.5-40T740,927.5T811.5,870t51-73.5T882,702q0-89-43-163T701,421q33-32 53.5-74T775,249q0-78-28.5-145.5T663.5-14T530-92.5T349-121q-49,0-95,9.5t-87,26T92-46T34,4l67,90q12,17 27,25.5t38,8.5q22,0 39.5-13T246,87t56.5-28T390,46q81,0 126,40.5T561,193q0,37-19.5,63.5t-51.5,48T417,344t-84,37.5t-84,43T176,480t-51.5,74T105,653q0,91 47,162T294,926q-33,34-53.5,79T220,1111q0,70 26.5,133T324,1355t125.5,76T620,1459q100,0 176.5-34.5T918,1334l-63-86ZM322,713q0-39 24-67.5t62-52T493,548t94-47q43,24 61.5,57.5T667,633q0,40-23,69t-60,52t-83,44t-92,46q-48-27-67.5-58.5T322,713Z" />
      <glyph unicode="&#xa8;" glyph-name="dieresis" horiz-adv-x="591" d="M349,1314q0-28-11-52.5T307.5,1219t-45-28.5T208,1180q-27,0-51.5,10.5t-43,28.5T84,1261.5T73,1314q0,29 11,54.5t29.5,44.5t43,30t51.5,11q29,0 54.5-11t45-30t30.5-44.5t11-54.5Zm373,0q0-28-11-52.5T681.5,1219t-44-28.5T583,1180q-28,0-53,10.5T486.5,1219T457,1261.5T446,1314q0,29 11,54.5t29.5,44.5t43.5,30t53,11q29,0 54.5-11t44-30t29.5-44.5t11-54.5Z" />
      <glyph unicode="&#xa9;" glyph-name="copyright" horiz-adv-x="1583" d="M1045,512q11,0 20-4.5t15-12.5l82-87q-56-71-141-108.5T821,262q-100,0-181,35.5t-138.5,98T413,542.5T382,726q0,102 35,187t97,146.5T659.5,1155T841,1189q111,0 191-37.5t134-95.5l-65-89q-6-8-16.5-16t-26.5-8q-17,0-32,10t-36,22t-53.5,22T853,1007q-60,0-106.5-19.5t-79-56T618,843T601,726q0-68 17.5-120t48-87.5t73-54T833,446q49,0 80.5,8T967,473t39,22t39,17ZM81,723q0,102 26.5,196.5T182,1096t115.5,149.5t149,115.5T622,1435.5T818,1462t196.5-26.5T1191,1361t149.5-115.5T1456,1096t74.5-176.5T1557,723q0-101-26.5-195.5t-74.5-176t-115.5-149T1191,87T1014.5,12.5T818-14Q717-14 622.5,12.5T446.5,87t-149,115.5T182,351.5T107.5,527T81,723Zm135,0q0-130 46.5-243T390,283.5T581,152t237-48q85,0 163,22t145.5,62t123,96T1344,409t60.5,148T1426,723t-21.5,167T1344,1039.5t-94.5,126t-123,97T981,1325t-163,22q-84,0-161.5-22T512,1262.5t-121.5-97t-93.5-126T237,890T216,723Z" />
      <glyph unicode="&#xaa;" glyph-name="ordfeminine" horiz-adv-x="642" d="M539,841q-23,0-34,7t-19,28l-7,36q-24-20-46-35t-44.5-24.5t-47-14.5T287,833q-71,0-112.5,37T133,976q0,38 16.5,76.5t58,70t111.5,52T497,1198l3,42q0,19-3,35t-11,27.5t-21,18t-34,6.5q-30,0-50.5-7.5t-37-16t-32-16T277,1280q-18,0-28.5,9.5T232,1311l-24,56q58,51 123.5,74T469,1464q46,0 83-16.5t63-44.5t40-65.5t14-80.5q0-2 0-7.5t-1.5-20.5t-4.5-42t-8.5-72.5T640,1002T619,841H539ZM356,950q34,0 61,13.5t57,41.5l10,88q-53-2-88.5-9.5t-57-20T308,1034t-9-37q0-26 15-36.5T356,950Z" />
      <glyph unicode="&#xab;" glyph-name="guillemotleft" horiz-adv-x="921" d="M121,522l5,30L411,947l73-37q32-13 32-44q0-11-5.5-23T497,817L344,578q-17-25-37-42q8-7 14-17.5T333,496l95-239q8-19 8-35q0-41-43-60l-83-36L121,522Zm309,0l5,30L720,947l73-37q32-13 32-44q0-11-5.5-23T806,817L653,578q-17-25-37-42q8-7 14-17.5T642,496l95-239q8-19 8-35q0-41-43-60l-83-36L430,522Z" />
      <glyph unicode="&#xac;" glyph-name="logicalnot" horiz-adv-x="1160" d="M171,760h883L997,300H795l35,283H150l21,177Z" />
      <glyph unicode="&#xad;" glyph-name="uni00AD" horiz-adv-x="664" d="M118,703H599L574,504H94l24,199Z" />
      <glyph unicode="&#xae;" glyph-name="registered" horiz-adv-x="1583" d="M79,723q0,153 58,287.5t158,235T529,1404t287,58q102,0 196.5-26.5T1189,1361t149.5-115.5T1454,1096t74.5-176.5T1555,723q0-101-26.5-195.5t-74.5-176t-115.5-149T1189,87T1012.5,12.5T816-14T620,12.5T444,87T295,202.5t-115,149T105.5,527T79,723Zm134,0q0-130 46.5-243t128-196.5T579,152t237-48q85,0 163,22t145.5,62t123,96T1342,409t60.5,148T1424,723t-21.5,167T1342,1039.5t-94.5,126t-123,97T979,1325t-163,22t-162.5-22T509,1262.5t-121.5-97t-93.5-126T234,890T213,723ZM704,602V277H490v897H811q187,0 274-67t87-192q0-89-46-155.5T983,663q23-13 38-33t30-46l181-307H1026q-44,0-62,33L819,573q-8,15-21,22t-39,7H704Zm0,153h89q52,0 84.5,8.5t51,25.5T954,831t7,57q0,31-6,54.5t-22.5,39t-46,23T811,1012H704V755Z" />
      <glyph unicode="&#xaf;" glyph-name="macron" horiz-adv-x="591" d="M129,1369H682l-19-153H110l19,153Z" />
      <glyph unicode="&#xb0;" glyph-name="degree" horiz-adv-x="784" d="M127,1123q0,71 26.5,133.5t73,108.5T336,1437.5T472,1464t136.5-26.5t110-72.5T792,1256.5T819,1123q0-69-27-131T718.5,883.5T608.5,810T472,783T336,810T226.5,883.5T153.5,992T127,1123Zm171-2q0-37 13-69t36.5-55.5t55-37T472,946q37,0 68.5,13.5t55,37T632,1052t13,69q0,38-13,70.5T595.5,1248t-55,38T472,1300q-38,0-69.5-14t-55-38T311,1191.5T298,1121Z" />
      <glyph unicode="&#xb1;" glyph-name="plusminus" horiz-adv-x="1160" d="M767,1236L723,879h391l-22-177H701L659,358H466l42,344H120l20,177H530l44,357H767ZM64,257h973L1015,80H43L64,257Z" />
      <glyph unicode="&#xb2;" glyph-name="twosuperior" horiz-adv-x="666" d="M488,1647q53,0 93.5-14.5t68-40T691,1532t14-76q0-46-15-84t-40.5-71.5T591,1236t-69-63L371,1036q29,8 57,13t51,5H617q51,0 51-44q0-1-1.5-13.5t-3-26.5T661,943.5T660,930l-4-30H117l8,56q2,16 10.5,34t25.5,33l236,208q28,24 52.5,50t42.5,52.5t28.5,53T531,1438q0,32-18.5,52T462,1510q-34,0-56.5-18T364,1443q-11-19-24.5-27.5T304,1407q-5,0-11.5,0.5T279,1409l-92,15q15,57 43.5,98.5T298,1592t87,41.5T488,1647Z" />
      <glyph unicode="&#xb3;" glyph-name="threesuperior" horiz-adv-x="666" d="M508,1647q52,0 92.5-14.5t68-38.5t41.5-56t14-67q0-68-29.5-112.5T597,1290q51-18 75.5-50.5T697,1155q0-67-26-116.5t-68-82T509,908T405,892q-54,0-95.5,10.5t-71.5,34T188,998t-32,93l79,32q18,7 38,7q37,0 48-27q4-11 10.5-23.5t17-23t26.5-17t39-6.5q51,0 80.5,31t29.5,76q0,43-30.5,60.5T386,1218l15,119q85,1 119.5,24t34.5,77q0,32-18.5,50.5T482,1507q-38,0-61-16.5T384,1445q-13-20-25-29t-32-9q-5,0-11,0.5t-13,1.5l-87,15q15,57 43.5,98.5t67,69.5t84.5,41.5t97,13.5Z" />
      <glyph unicode="&#xb4;" glyph-name="acute" horiz-adv-x="591" d="M742,1461L480,1200q-20-20-38-27t-45-7H255l160,243q17,26 37.5,39t58.5,13H742Z" />
      <glyph unicode="&#xb5;" glyph-name="mu" horiz-adv-x="1050" d="M405,1025q-21-171-36-289T344.5,541T330,421.5t-7.5-63t-3-25.5t-0.5-7q0-74 33.5-114.5T453,171q56,0 108.5,27.5T665,275l94,750H996L870,0H724q-45,0-54,44l-7,81q-32-30-61-51.5t-58.5-35T483,19t-65-6q-51,0-91.5,16.5T257,77q2-14 2-27t0-27q0-29-2-58t-5-55L222-337H104q-45,0-69.5,21.5T10-254q0,4 0,8t1,9L167,1025H405Z" />
      <glyph unicode="&#xb6;" glyph-name="paragraph" horiz-adv-x="1401" d="M1486,1446l-25-207H1246L1068-209H853l177,1448H795L618-209H402L505,630q-94,0-170,26.5T206,731T124,845T95,990q0,93 37,176t104,145.5T397,1410t208,36h881Z" />
      <glyph unicode="&#xb7;" glyph-name="periodcentered" horiz-adv-x="559" d="M111,595q0,39 15,73.5t40.5,60t59.5,40T299,783q40,0 74.5-14.5t60-40t40.5-60T489,595t-15-72.5t-40.5-59t-60-40T299,409q-39,0-73,14.5t-59.5,40t-40.5,59T111,595Z" />
      <glyph unicode="&#xb8;" glyph-name="cedilla" horiz-adv-x="591" d="M83-230q7,0 13.5-2.5T111-238t18-5.5t24-2.5q31,0 47,15.5T216-194q0,26-30,38.5T91-134L150,14H299L271-58q73-19 103-52.5T404-187q0-38-18.5-68T334-306t-78.5-32T156-349q-38,0-70,6T22-325l33,74q8,21 28,21Z" />
      <glyph unicode="&#xb9;" glyph-name="onesuperior" horiz-adv-x="666" d="M233,1024H372l43,357l11,49l-88-64q-10-7-19-9.5t-17-2.5q-14,0-24,6t-15,13l-44,74l255,193H618l-76-616H645L630,900H217l16,124Z" />
      <glyph unicode="&#xba;" glyph-name="ordmasculine" horiz-adv-x="717" d="M479,1463q61,0 110-19t83.5-54.5T726,1304t19-111q0-84-26-151T647.5,927.5T539,854.5T402,829q-62,0-112,19t-85,54.5t-54,86T132,1102q0,83 26,149.5T230.5,1365t110,72.5T479,1463ZM419,968q75,0 108,59.5T560,1193q0,63-24.5,97T462,1324q-43,0-71-16.5t-44.5-46t-23-71T317,1099q0-64 25-97.5T419,968Z" />
      <glyph unicode="&#xbb;" glyph-name="guillemotright" horiz-adv-x="921" d="M504,552l-3-30L216,126l-73,36q-31,15-31,45q0,22 17,50L284,496q8,12 17,22.5T319,536q-17,16-25,42L197,817q-6,16-6,32q0,41 44,61l82,37L504,552Zm309,0l-3-30L525,126l-73,36q-31,15-31,45q0,22 17,50L593,496q8,12 17,22.5T628,536q-17,16-25,42L506,817q-6,16-6,32q0,41 44,61l82,37L813,552Z" />
      <glyph unicode="&#xbc;" glyph-name="onequarter" horiz-adv-x="1475" d="M460,71q-29-42-60.5-56.5T330,0H232l938,1363q28,40 61,61t77,21h98L460,71Zm841,224h95l-11-100q-2-12-11.5-22T1348,163h-63L1265,0H1121l20,163H851q-23,0-35,10.5T803,199l-7,85l395,455h165l-55-444ZM196,830H335l42,351q2,17 4.5,29t7.5,26l-88-64q-16-12-35-12q-14,0-25,7t-18,18l-41,68l255,193H581L505,830H608L593,706H180l16,124Zm982-372q3,24 8,52.5t13,58.5L967,295h191l20,163Z" />
      <glyph unicode="&#xbd;" glyph-name="onehalf" horiz-adv-x="1475" d="M427,71q-29-42-60.5-56.5T297,0H199l938,1363q28,40 61,61t77,21h98L427,71Zm743,676q53,0 93.5-14.5t68-40T1373,632t14-76q0-46-15-84t-40.5-71.5T1273,336t-69-63L1053,136q29,8 57,13t51,5h138q51,0 51-44q0-2-3-29l-9-81H799l8,56q2,16 10.5,34T843,123l236,208q28,24 52.5,50t42.5,52.5t28.5,53T1213,538q0,32-18.5,52T1144,610q-34,0-57.5-18T1046,543q-10-19-23.5-27.5T987,507q-10,0-31,3l-87,14q15,57 43.5,98.5T980,692t87,41.5T1170,747ZM203,830H342l42,351q2,17 4.5,29t7.5,26l-88-64q-16-12-35-12q-14,0-25,7t-18,18l-41,68l255,193H588L512,830H615L600,706H187l16,124Z" />
      <glyph unicode="&#xbe;" glyph-name="threequarters" horiz-adv-x="1475" d="M476,71q-29-42-60.5-56.5T346,0H248l938,1363q28,40 61,61t77,21h98L476,71Zm837,224h95l-11-100q-2-12-11.5-22T1360,163h-63L1277,0H1133l20,163H863q-23,0-35,10.5T815,199l-7,85l395,455h165l-55-444ZM485,1453q52,0 92.5-14.5t68-38.5t41.5-56t14-67q0-68-29.5-112.5T574,1096q51-18 75.5-50.5T674,961q0-67-26-116.5t-68-82T486,714T382,698q-54,0-95.5,10.5t-71.5,34T165,804t-32,93l79,32q21,8 38,8q37,0 48-28q11-29 31.5-49.5T391,839q51,0 80.5,31T501,946q0,43-30.5,60.5T363,1024l15,119q85,1 119.5,24t34.5,77q0,32-18.5,50.5T459,1313q-38,0-61-17t-37-45q-10-20-23-29t-33-9q-5,0-13,0.5t-24,3.5l-75,13q15,57 43.5,98.5t67,69.5t84.5,41.5t97,13.5Zm705-995q3,24 8,52.5t13,58.5L979,295h191l20,163Z" />
      <glyph unicode="&#xbf;" glyph-name="questiondown" horiz-adv-x="780" d="M676-205q-36-29-76.5-55.5t-87-46.5T414-339T302-351q-74,0-133.5,20T67-273.5T2.5-182T-20-61Q-20,19 3,76t57.5,98T137,245t80.5,56T285,353.5T324,415l41,147H527V398q0-45-23-79t-57.5-63.5t-74.5-57T297.5,140T240,71T217-17q0-35 10.5-61.5t28-44.5t41-27t50.5-9q51,0 88.5,13T500-117.5T546-89t34,13q33,0 45-28l51-101ZM328,892q0,31 11.5,59T371,999t48,32t60,12t59.5-12t48-32T619,951t12-59q0-32-12-59.5T586.5,785t-48-31.5T479,742t-60,11.5T371,785t-31.5,47.5T328,892Z" />
      <glyph unicode="&#xc0;" glyph-name="Agrave" horiz-adv-x="1283" d="M1237,0H1036q-34,0-54,16T957,59L897,361H358L224,59q-11-23-36-41T132,0H-72L627,1446H892L1237,0ZM439,544H860l-98,495q-8,36-16,76t-15,90q-19-50-37.5-92.5T659,1038L439,544ZM665,1789q19,0 32-1.5t23-6t18.5-11.5t19.5-19l153-202H709q-27,0-41.5,8.5T634,1583L400,1789H665Z" />
      <glyph unicode="&#xc1;" glyph-name="Aacute" horiz-adv-x="1283" d="M1237,0H1036q-34,0-54,16T957,59L897,361H358L224,59q-11-23-36-41T132,0H-72L627,1446H892L1237,0ZM439,544H860l-98,495q-8,36-16,76t-15,90q-19-50-37.5-92.5T659,1038L439,544Zm763,1245L918,1583q-23-17-45-25.5t-48-8.5H632l204,202q12,12 22.5,19.5t22,11.5t25,5.5T939,1789h263Z" />
      <glyph unicode="&#xc2;" glyph-name="Acircumflex" horiz-adv-x="1283" d="M1237,0H1036q-34,0-54,16T957,59L897,361H358L224,59q-11-23-36-41T132,0H-72L627,1446H892L1237,0ZM439,544H860l-98,495q-8,36-16,76t-15,90q-19-50-37.5-92.5T659,1038L439,544Zm670,1005H928q-14,0-29.5,5T872,1565l-79,70q-3,3-7,6.5t-7,7.5l-16-14l-97-70q-11-8-28.5-12t-32.5-4H426l249,218H913l196-218Z" />
      <glyph unicode="&#xc3;" glyph-name="Atilde" horiz-adv-x="1283" d="M1237,0H1036q-34,0-54,16T957,59L897,361H358L224,59q-11-23-36-41T132,0H-72L627,1446H892L1237,0ZM439,544H860l-98,495q-8,36-16,76t-15,90q-19-50-37.5-92.5T659,1038L439,544ZM903,1695q24,0 41,16t21,48h130q-6-48-23-88.5t-43.5-70T967,1555t-77-16q-33,0-63,11.5t-56.5,25t-49,25T680,1612q-24,0-40.5-17.5T619,1544H487q6,49 23.5,90t44,70t61.5,45.5t76,16.5q34,0 64-11t56.5-24.5t49-24.5t41.5-11Z" />
      <glyph unicode="&#xc4;" glyph-name="Adieresis" horiz-adv-x="1283" d="M1237,0H1036q-34,0-54,16T957,59L897,361H358L224,59q-11-23-36-41T132,0H-72L627,1446H892L1237,0ZM439,544H860l-98,495q-8,36-16,76t-15,90q-19-50-37.5-92.5T659,1038L439,544ZM706,1666q0-24-10-45.5T669.5,1583t-39-25.5T583,1548q-24,0-45.5,9.5t-38,25.5t-26,37.5T464,1666q0,25 9.5,47.5t26,39t38,26T583,1788q25,0 47.5-9.5t39-26t26.5-39t10-47.5Zm351,0q0-24-9.5-45.5t-26-37.5T983,1557.5t-47-9.5t-46.5,9.5t-38,25.5t-26,37.5T816,1666q0,25 9.5,47.5t26,39t38,26T936,1788t47-9.5t38.5-26t26-39t9.5-47.5Z" />
      <glyph unicode="&#xc5;" glyph-name="Aring" horiz-adv-x="1283" d="M1237,0H1036q-34,0-54,16T957,59L897,361H358L224,59q-11-23-36-41T132,0H-72L627,1446H892L1237,0ZM439,544H860l-98,495q-8,36-16,76t-15,90q-19-50-37.5-92.5T659,1038L439,544ZM562,1683q0,43 17,78t45.5,60t65.5,39t78,14q42,0 80.5-14t67-39t45.5-60t17-78q0-42-17-76.5T915.5,1547t-67-38.5T768,1495q-41,0-78,13.5T624.5,1547T579,1606.5T562,1683Zm119,0q0-39 23-64t67-25q40,0 64.5,25t24.5,64q0,42-24.5,66T771,1773q-44,0-67-24t-23-66Z" />
      <glyph unicode="&#xc6;" glyph-name="AE" horiz-adv-x="1711" d="M743,1446H1750l-25-207H1082V827h467l-25-199H1082V207h516L1572,0H837V361H370L205,59q-13-23-39.5-41T107,0H-95L743,1446ZM470,544H837v690q-18-45-36-83.5T763,1078L470,544Z" />
      <glyph unicode="&#xc7;" glyph-name="Ccedilla" horiz-adv-x="1207" d="M496-230q7,0 13.5-2.5T524-238t18-5.5t24-2.5q31,0 47,15.5T629-194q0,26-30,38.5T504-134L553-11Q439,3 349.5,55T199,189.5T106,380T74,613t27,236.5t77,206T298,1225t155,128t183.5,81T842,1462q79,0 144-14.5t118-40.5t95-62.5t76-81.5l-90-108q-10-12-23.5-21t-33.5-9q-22,0-42,18t-50.5,39.5t-79,39.5T829,1240q-104,0-193-42.5T481,1076T377.5,885.5T340,635q0-101 25.5-181T436,318.5t107-85T678,204q61,0 106.5,9.5t79,24.5T921,269.5T963,301t32,24.5t28,9.5q12,0 20-5t13-10l91-113q-85-97-195-153T701-13L684-58q73-19 103-52.5T817-187q0-38-18.5-68T747-306t-78.5-32T569-349q-38,0-70,6t-64,18l33,74q8,21 28,21Z" />
      <glyph unicode="&#xc8;" glyph-name="Egrave" horiz-adv-x="1051" d="M1091,1446l-26-207H483L433,828H890L865,629H408L356,207H940L914,0H70L248,1446h843ZM581,1789q19,0 32-1.5t23-6t18.5-11.5t19.5-19l153-202H625q-27,0-41.5,8.5T550,1583L316,1789H581Z" />
      <glyph unicode="&#xc9;" glyph-name="Eacute" horiz-adv-x="1051" d="M1091,1446l-26-207H483L433,828H890L865,629H408L356,207H940L914,0H70L248,1446h843Zm4,343L811,1583q-23-17-45-25.5t-48-8.5H525l204,202q12,12 22.5,19.5t22,11.5t25,5.5T832,1789h263Z" />
      <glyph unicode="&#xca;" glyph-name="Ecircumflex" horiz-adv-x="1051" d="M1091,1446l-26-207H483L433,828H890L865,629H408L356,207H940L914,0H70L248,1446h843Zm-66,103H844q-14,0-29.5,5T788,1565l-79,70q-3,3-7,6.5t-7,7.5l-16-14l-97-70q-11-8-28.5-12t-32.5-4H342l249,218H829l196-218Z" />
      <glyph unicode="&#xcb;" glyph-name="Edieresis" horiz-adv-x="1051" d="M1091,1446l-26-207H483L433,828H890L865,629H408L356,207H940L914,0H70L248,1446h843ZM622,1666q0-24-10-45.5T585.5,1583t-39-25.5T499,1548q-24,0-45.5,9.5t-38,25.5t-26,37.5T380,1666q0,25 9.5,47.5t26,39t38,26T499,1788q25,0 47.5-9.5t39-26t26.5-39t10-47.5Zm351,0q0-24-9.5-45.5t-26-37.5T899,1557.5t-47-9.5t-46.5,9.5t-38,25.5t-26,37.5T732,1666q0,25 9.5,47.5t26,39t38,26T852,1788t47-9.5t38.5-26t26-39T973,1666Z" />
      <glyph unicode="&#xcc;" glyph-name="Igrave" horiz-adv-x="580" d="M360,0H99L276,1446H537L360,0ZM317,1789q19,0 32-1.5t23-6t18.5-11.5t19.5-19l153-202H361q-27,0-41.5,8.5T286,1583L52,1789H317Z" />
      <glyph unicode="&#xcd;" glyph-name="Iacute" horiz-adv-x="580" d="M360,0H99L276,1446H537L360,0ZM831,1789L547,1583q-23-17-45-25.5t-48-8.5H261l204,202q12,12 22.5,19.5t22,11.5t25,5.5T568,1789H831Z" />
      <glyph unicode="&#xce;" glyph-name="Icircumflex" horiz-adv-x="580" d="M360,0H99L276,1446H537L360,0ZM761,1549H580q-14,0-29.5,5T524,1565l-79,70q-3,3-7,6.5t-7,7.5l-16-14l-97-70q-11-8-28.5-12t-32.5-4H78l249,218H565l196-218Z" />
      <glyph unicode="&#xcf;" glyph-name="Idieresis" horiz-adv-x="580" d="M360,0H99L276,1446H537L360,0Zm-2,1666q0-24-10-45.5T321.5,1583t-39-25.5T235,1548q-24,0-45.5,9.5t-38,25.5t-26,37.5T116,1666q0,25 9.5,47.5t26,39t38,26T235,1788q25,0 47.5-9.5t39-26t26.5-39t10-47.5Zm351,0q0-24-9.5-45.5t-26-37.5T635,1557.5t-47-9.5t-46.5,9.5t-38,25.5t-26,37.5T468,1666q0,25 9.5,47.5t26,39t38,26T588,1788t47-9.5t38.5-26t26-39T709,1666Z" />
      <glyph unicode="&#xd0;" glyph-name="Eth" horiz-adv-x="1455" d="M88,801H250l79,645H839q138,0 248.5-47t188-130T1394,1071t41-251q0-180-58-331T1216,229.5T971.5,60.5T663,0H153l79,653H68L88,801Zm1081,13q0,97-24,176t-69.5,134.5T964,1210t-150,30H565L511,801H840L823,653H493L439,207H688q109,0 198,42t152,120.5t97,191T1169,814Z" />
      <glyph unicode="&#xd1;" glyph-name="Ntilde" horiz-adv-x="1392" d="M384,1446q17,0 28.5-1.5t20.5-6t16-12.5t15-22l563-987q2,29 4.5,56.5T1037,525l113,921h229L1200,0H1067q-30,0-51,9.5T981,45L421,1032q-2-24-4-46.5T413,943L299,0H70L248,1446H384Zm568,249q24,0 41,16t21,48h130q-6-48-23-88.5t-43.5-70T1016,1555t-77-16q-33,0-63,11.5t-56.5,25t-49,25T729,1612q-24,0-40.5-17.5T668,1544H536q6,49 23.5,90t44,70t61.5,45.5t76,16.5q34,0 64-11t56.5-24.5t49-24.5t41.5-11Z" />
      <glyph unicode="&#xd2;" glyph-name="Ograve" horiz-adv-x="1464" d="M1446,820q0-120-26.5-228.5t-76-201.5t-119-168t-156-128T881,12.5T669-16Q531-16 421,33T233.5,168T115,371T74,625q0,120 26.5,228.5t76,201.5t119,168t156,128.5t187.5,82T852,1462q138,0 248-49t187-135t118-203.5T1446,820Zm-266-6q0,98-24.5,178t-71,137T971,1217t-151,31q-108,0-196.5-44T472,1079T374.5,884T340,631q0-98 24-178t70-136.5t112.5-87T698,199q109,0 198,44t152,124t97.5,193.5T1180,814ZM753,1789q19,0 32-1.5t23-6t18.5-11.5t19.5-19l153-202H797q-27,0-41.5,8.5T722,1583L488,1789H753Z" />
      <glyph unicode="&#xd3;" glyph-name="Oacute" horiz-adv-x="1464" d="M1446,820q0-120-26.5-228.5t-76-201.5t-119-168t-156-128T881,12.5T669-16Q531-16 421,33T233.5,168T115,371T74,625q0,120 26.5,228.5t76,201.5t119,168t156,128.5t187.5,82T852,1462q138,0 248-49t187-135t118-203.5T1446,820Zm-266-6q0,98-24.5,178t-71,137T971,1217t-151,31q-108,0-196.5-44T472,1079T374.5,884T340,631q0-98 24-178t70-136.5t112.5-87T698,199q109,0 198,44t152,124t97.5,193.5T1180,814Zm87,975L983,1583q-23-17-45-25.5t-48-8.5H697l204,202q12,12 22.5,19.5t22,11.5t25,5.5t33.5,1.5h263Z" />
      <glyph unicode="&#xd4;" glyph-name="Ocircumflex" horiz-adv-x="1464" d="M1446,820q0-120-26.5-228.5t-76-201.5t-119-168t-156-128T881,12.5T669-16Q531-16 421,33T233.5,168T115,371T74,625q0,120 26.5,228.5t76,201.5t119,168t156,128.5t187.5,82T852,1462q138,0 248-49t187-135t118-203.5T1446,820Zm-266-6q0,98-24.5,178t-71,137T971,1217t-151,31q-108,0-196.5-44T472,1079T374.5,884T340,631q0-98 24-178t70-136.5t112.5-87T698,199q109,0 198,44t152,124t97.5,193.5T1180,814Zm17,735H1016q-14,0-29.5,5T960,1565l-79,70q-3,3-7,6.5t-7,7.5l-16-14l-97-70q-11-8-28.5-12t-32.5-4H514l249,218h238l196-218Z" />
      <glyph unicode="&#xd5;" glyph-name="Otilde" horiz-adv-x="1464" d="M1446,820q0-120-26.5-228.5t-76-201.5t-119-168t-156-128T881,12.5T669-16Q531-16 421,33T233.5,168T115,371T74,625q0,120 26.5,228.5t76,201.5t119,168t156,128.5t187.5,82T852,1462q138,0 248-49t187-135t118-203.5T1446,820Zm-266-6q0,98-24.5,178t-71,137T971,1217t-151,31q-108,0-196.5-44T472,1079T374.5,884T340,631q0-98 24-178t70-136.5t112.5-87T698,199q109,0 198,44t152,124t97.5,193.5T1180,814ZM991,1695q24,0 41,16t21,48h130q-6-48-23-88.5t-43.5-70T1055,1555t-77-16q-33,0-63,11.5t-56.5,25t-49,25T768,1612q-24,0-40.5-17.5T707,1544H575q6,49 23.5,90t44,70t61.5,45.5t76,16.5q34,0 64-11t56.5-24.5t49-24.5t41.5-11Z" />
      <glyph unicode="&#xd6;" glyph-name="Odieresis" horiz-adv-x="1464" d="M1446,820q0-120-26.5-228.5t-76-201.5t-119-168t-156-128T881,12.5T669-16Q531-16 421,33T233.5,168T115,371T74,625q0,120 26.5,228.5t76,201.5t119,168t156,128.5t187.5,82T852,1462q138,0 248-49t187-135t118-203.5T1446,820Zm-266-6q0,98-24.5,178t-71,137T971,1217t-151,31q-108,0-196.5-44T472,1079T374.5,884T340,631q0-98 24-178t70-136.5t112.5-87T698,199q109,0 198,44t152,124t97.5,193.5T1180,814ZM794,1666q0-24-10-45.5T757.5,1583t-39-25.5T671,1548q-24,0-45.5,9.5t-38,25.5t-26,37.5T552,1666q0,25 9.5,47.5t26,39t38,26T671,1788q25,0 47.5-9.5t39-26t26.5-39t10-47.5Zm351,0q0-24-9.5-45.5t-26-37.5t-38.5-25.5t-47-9.5t-46.5,9.5t-38,25.5t-26,37.5T904,1666q0,25 9.5,47.5t26,39t38,26t46.5,9.5t47-9.5t38.5-26t26-39t9.5-47.5Z" />
      <glyph unicode="&#xd7;" glyph-name="multiply" horiz-adv-x="1160" d="M1094,999L726,672l300-342L886,205L585,547L199,203L89,328L475,672L187,1001l141,125L616,797l367,327l111-125Z" />
      <glyph unicode="&#xd8;" glyph-name="Oslash" horiz-adv-x="1464" d="M1446,820q0-120-26.5-228.5t-76-201.5t-119-168t-156-128T881,12.5T669-16Q578-16 501,5T358,64L275-41q-32-40-73-55t-78-15H22L238,162q-80,87-122,205T74,625q0,120 26.5,228.5t76,201.5t119,168t156,128.5t187.5,82T852,1462q99,0 183-25.5t153-72.5l65,82q14,18 26,30t24.5,19.5t28,11t36.5,3.5h133l-199-251q70-86 107-197.5T1446,820ZM340,631q0-79 15.5-145T400,367l639,808q-44,35-98.5,54T820,1248q-108,0-196.5-44T472,1079T374.5,884T340,631Zm840,183q0,67-11.5,125.5T1135,1047L506,251q81-52 192-52q109,0 198,44t152,124t97.5,193.5T1180,814Z" />
      <glyph unicode="&#xd9;" glyph-name="Ugrave" horiz-adv-x="1338" d="M635,208q70,0 128.5,26.5t102.5,75T938.5,426T977,577l107,869h259L1237,577q-16-128-68-237T1035.5,152T845.5,28.5T608-16Q491-16 400,20.5T246.5,123t-95,157.5T119,482q0,45 6,95l105,869H490L383,578q-2-19-3-37t-1-35q0-68 16.5-123t49-94T525,229t110-21Zm59,1580q19,0 32-1.5t23-6t18.5-11.5t19.5-19l153-202H738q-27,0-41.5,8.5T663,1582L429,1788H694Z" />
      <glyph unicode="&#xda;" glyph-name="Uacute" horiz-adv-x="1338" d="M635,208q70,0 128.5,26.5t102.5,75T938.5,426T977,577l107,869h259L1237,577q-16-128-68-237T1035.5,152T845.5,28.5T608-16Q491-16 400,20.5T246.5,123t-95,157.5T119,482q0,45 6,95l105,869H490L383,578q-2-19-3-37t-1-35q0-68 16.5-123t49-94T525,229t110-21Zm573,1580L924,1582q-23-17-45-25.5t-48-8.5H638l204,202q12,12 22.5,19.5t22,11.5t25,5.5T945,1788h263Z" />
      <glyph unicode="&#xdb;" glyph-name="Ucircumflex" horiz-adv-x="1338" d="M635,208q70,0 128.5,26.5t102.5,75T938.5,426T977,577l107,869h259L1237,577q-16-128-68-237T1035.5,152T845.5,28.5T608-16Q491-16 400,20.5T246.5,123t-95,157.5T119,482q0,45 6,95l105,869H490L383,578q-2-19-3-37t-1-35q0-68 16.5-123t49-94T525,229t110-21Zm503,1340H957q-14,0-29.5,5T901,1564l-79,70q-3,3-7,6.5t-7,7.5l-16-14l-97-70q-11-8-28.5-12t-32.5-4H455l249,218H942l196-218Z" />
      <glyph unicode="&#xdc;" glyph-name="Udieresis" horiz-adv-x="1338" d="M635,208q70,0 128.5,26.5t102.5,75T938.5,426T977,577l107,869h259L1237,577q-16-128-68-237T1035.5,152T845.5,28.5T608-16Q491-16 400,20.5T246.5,123t-95,157.5T119,482q0,45 6,95l105,869H490L383,578q-2-19-3-37t-1-35q0-68 16.5-123t49-94T525,229t110-21ZM735,1665q0-24-10-45.5T698.5,1582t-39-25.5T612,1547q-24,0-45.5,9.5t-38,25.5t-26,37.5T493,1665q0,25 9.5,47.5t26,39t38,26T612,1787q25,0 47.5-9.5t39-26t26.5-39t10-47.5Zm351,0q0-24-9.5-45.5t-26-37.5t-38.5-25.5t-47-9.5t-46.5,9.5t-38,25.5t-26,37.5T845,1665q0,25 9.5,47.5t26,39t38,26T965,1787t47-9.5t38.5-26t26-39t9.5-47.5Z" />
      <glyph unicode="&#xdd;" glyph-name="Yacute" horiz-adv-x="1212" d="M745,563L675,0H415l70,564L109,1446H340q34,0 52-16.5t28-42.5L607,887q14-36 22.5-70.5T644,749q16,33 34.5,67T720,887l311,500q14,23 36.5,41t55.5,18h215L745,563Zm421,1224L882,1581q-23-17-45-25.5t-48-8.5H596l204,202q12,12 22.5,19.5t22,11.5t25,5.5T903,1787h263Z" />
      <glyph unicode="&#xde;" glyph-name="Thorn" horiz-adv-x="1155" d="M543,1194H725q121,0 209.5-29.5t146-82t85-125T1193,799q0-117-36.5-215t-110-169.5T863.5,303T609,263H427L395,0H137L314,1446H574l-31-252ZM518,993L452,464H635q77,0 133,23t92.5,64.5t54,99T932,777q0,49-14,89t-43,68t-72.5,43.5T699,993H518Z" />
      <glyph unicode="&#xdf;" glyph-name="germandbls" horiz-adv-x="1158" d="M758,1470q102,0 171.5-30.5t113-76t62.5-100t19-102.5q0-66-21.5-112.5t-53-80.5t-69-58.5t-69-47.5t-53-47.5T837,757q0-30 20-52.5T907,661t65.5-44.5T1038,560t50-78.5T1108,372q0-95-34.5-167T982,83.5T851,9T698-16q-42,0-82.5,9.5T538.5,20t-68,40T414,110l67,91q11,15 27,24t38,9q21,0 39-13t39-29t48-29t67-13q29,0 55,12t45,33.5T869,246t11,62q0,41-22,69.5T802.5,429t-72,44.5t-72,50t-55.5,67T581,687q0,67 23,113.5t58,81T737,944t75,57.5t58,65t23,86.5q0,28-9.5,54.5t-29.5,46T802.5,1285T726,1297q-60,0-109-34t-85.5-90.5T471,1043T438,892L335,42L284-146q-14-49-43.5-75T157-247H58L190,841L99,857q-26,5-40,17T45,908l11,106H222q27,90 77.5,172.5T419,1332t154.5,100.5T758,1470Z" />
      <glyph unicode="&#xe0;" glyph-name="agrave" horiz-adv-x="1035" d="M858,0H728q-45,0-63,21T647,74l8,140Q587,108 502,46.5T315-15Q257-15 206.5,8t-88,68.5t-59,114T38,351T61,530t65.5,163.5T229,834T363.5,944t161,71.5T707,1041q69,0 138.5-10T982,995L858,0ZM412,187q41,0 80.5,28T567,292.5T632,409t52,144l39,310q-27,3-50,3q-83,0-154-38T396,725.5t-81.5-150T285,395q0-108 34-158t93-50ZM639,1461q38,0 55-13t28-39l100-243H686q-26,0-42.5,7T613,1200L415,1461H639Z" />
      <glyph unicode="&#xe1;" glyph-name="aacute" horiz-adv-x="1035" d="M858,0H728q-45,0-63,21T647,74l8,140Q587,108 502,46.5T315-15Q257-15 206.5,8t-88,68.5t-59,114T38,351T61,530t65.5,163.5T229,834T363.5,944t161,71.5T707,1041q69,0 138.5-10T982,995L858,0ZM412,187q41,0 80.5,28T567,292.5T632,409t52,144l39,310q-27,3-50,3q-83,0-154-38T396,725.5t-81.5-150T285,395q0-108 34-158t93-50Zm628,1274L778,1200q-20-20-38-27t-45-7H553l160,243q17,26 37.5,39t58.5,13h231Z" />
      <glyph unicode="&#xe2;" glyph-name="acircumflex" horiz-adv-x="1035" d="M858,0H728q-45,0-63,21T647,74l8,140Q587,108 502,46.5T315-15Q257-15 206.5,8t-88,68.5t-59,114T38,351T61,530t65.5,163.5T229,834T363.5,944t161,71.5T707,1041q69,0 138.5-10T982,995L858,0ZM412,187q41,0 80.5,28T567,292.5T632,409t52,144l39,310q-27,3-50,3q-83,0-154-38T396,725.5t-81.5-150T285,395q0-108 34-158t93-50Zm584,981H838q-14,0-27,5.5T792,1186l-81,99q-8,8-17,20q-6-6-11.5-11t-10.5-9l-108-99q-8-7-21.5-12.5T514,1168H349l246,277H819l177-277Z" />
      <glyph unicode="&#xe3;" glyph-name="atilde" horiz-adv-x="1035" d="M858,0H728q-45,0-63,21T647,74l8,140Q587,108 502,46.5T315-15Q257-15 206.5,8t-88,68.5t-59,114T38,351T61,530t65.5,163.5T229,834T363.5,944t161,71.5T707,1041q69,0 138.5-10T982,995L858,0ZM412,187q41,0 80.5,28T567,292.5T632,409t52,144l39,310q-27,3-50,3q-83,0-154-38T396,725.5t-81.5-150T285,395q0-108 34-158t93-50ZM796,1355q26,0 43,17t24,60h144q-7-55-27-99.5t-49.5-76t-67-49T784,1190q-33,0-60.5,13T673,1231.5T630,1260t-38,13q-26,0-43-18t-22-60H381q7,55 27,99.5t50,76.5t67.5,49.5T604,1438q33,0 60.5-13t51-28.5t43-28.5t37.5-13Z" />
      <glyph unicode="&#xe4;" glyph-name="adieresis" horiz-adv-x="1035" d="M858,0H728q-45,0-63,21T647,74l8,140Q587,108 502,46.5T315-15Q257-15 206.5,8t-88,68.5t-59,114T38,351T61,530t65.5,163.5T229,834T363.5,944t161,71.5T707,1041q69,0 138.5-10T982,995L858,0ZM412,187q41,0 80.5,28T567,292.5T632,409t52,144l39,310q-27,3-50,3q-83,0-154-38T396,725.5t-81.5-150T285,395q0-108 34-158t93-50ZM643,1314q0-28-11-52.5T601.5,1219t-45-28.5T502,1180q-27,0-51.5,10.5t-43,28.5T378,1261.5T367,1314q0,29 11,54.5t29.5,44.5t43,30t51.5,11q29,0 54.5-11t45-30t30.5-44.5t11-54.5Zm373,0q0-28-11-52.5T975.5,1219t-44-28.5T877,1180q-28,0-53,10.5T780.5,1219T751,1261.5T740,1314q0,29 11,54.5t29.5,44.5t43.5,30t53,11q29,0 54.5-11t44-30t29.5-44.5t11-54.5Z" />
      <glyph unicode="&#xe5;" glyph-name="aring" horiz-adv-x="1035" d="M858,0H728q-45,0-63,21T647,74l8,140Q587,108 502,46.5T315-15Q257-15 206.5,8t-88,68.5t-59,114T38,351T61,530t65.5,163.5T229,834T363.5,944t161,71.5T707,1041q69,0 138.5-10T982,995L858,0ZM412,187q41,0 80.5,28T567,292.5T632,409t52,144l39,310q-27,3-50,3q-83,0-154-38T396,725.5t-81.5-150T285,395q0-108 34-158t93-50Zm76,1138q0,46 18,84t48.5,65t70.5,42t84,15q45,0 86-15t72-42t49.5-65t18.5-84q0-45-18.5-82T867,1179.5t-72-41T709,1124q-44,0-84,14.5t-70.5,41T506,1243t-18,82Zm134,0q0-38 23.5-63.5T713,1236q40,0 64,25.5t24,63.5q0,42-24,66.5T713,1416q-44,0-67.5-24.5T622,1325Z" />
      <glyph unicode="&#xe6;" glyph-name="ae" horiz-adv-x="1460" d="M1119,1041q64,0 119-20.5t95.5-56.5t63.5-84t23-102q0-37-10.5-74.5t-36-72t-68.5-65t-108.5-54T1040,474T829,456q0-146 54-213t151-67q67,0 110,17.5t74,38.5t55.5,38.5T1327,288q12,0 24-5.5t20-16.5l63-76q-53-53-103.5-92t-104-64T1114-3T985-15q-97,0-177,49T682,185q-34-53-77.5-91t-92-62.5t-100-36T312-16Q164-16 89.5,47.5T15,231q0,67 29,132t99,117.5t187,87T622,607q5,45 6.5,63.5T630,701q0,78-33,115.5T500,854q-54,0-91.5-14.5t-67-31.5t-54-31.5T234,762q-24,0-40,12t-24,31l-33,77q91,81 186,121.5T527,1044q105,0 167.5-41.5T785,888q62,72 145.5,112.5T1119,1041ZM603,461q-105-5-174-21.5t-110-43t-57.5-61T245,261q0-57 29.5-85.5T358,147q44,0 84,15.5T513.5,211T567,294.5T598,415l5,46Zm485,408q-52,0-93-19.5t-72-55T871.5,709T840,597q112,9 183,25.5T1134.5,661t55.5,49t15,56q0,45-28.5,74T1088,869Z" />
      <glyph unicode="&#xe7;" glyph-name="ccedilla" horiz-adv-x="871" d="M287-230q7,0 13.5-2.5T315-238t18-5.5t24-2.5q31,0 47,15.5T420-194q0,26-30,38.5T295-134L345-7Q275,6 220,41.5T127.5,131T70,256.5T50,413q0,125 40,238.5t112,200t171,138T589,1041q102,0 173.5-36T890,897l-79-94q-8-10-20-17t-26-7q-17,0-31,10.5T701.5,812t-46,22.5T584,845q-57,0-109-31t-91.5-88t-63-137T297,412q0-113 50-174.5T482,176q57,0 94.5,16.5t63.5,36t46.5,36T731,281q26,0 44-23l63-76q-44-49-84.5-83.5T671.5,41t-85-36T493-12L475-58q73-19 103-52.5T608-187q0-38-18.5-68T538-306t-78.5-32T360-349q-38,0-70,6t-64,18l33,74q8,21 28,21Z" />
      <glyph unicode="&#xe8;" glyph-name="egrave" horiz-adv-x="946" d="M918,788q0-69-27.5-126T792,560T599.5,482.5T290,431V418q0-242 205-242q44,0 78,8.5T632.5,205t46,27t38,27T751,279.5t37,8.5q12,0 24-5.5T832,266l63-76q-53-53-104-92T687,34T575-3T446-15q-90,0-163,30.5t-125,86t-80.5,134T49,411q0,81 17.5,159T117,718t81,129T306.5,949t133,67T595,1040q81,0 141.5-23t101-59.5T898,876t20-88ZM581,868q-50,0-93-20.5T410.5,790t-60-88.5T310,589q124,17 199.5,37t117,44t55,51T695,779q0,15-6.5,31t-20,28.5t-35,21T581,868Zm-57,593q38,0 55-13t28-39l100-243H571q-26,0-42.5,7T498,1200L300,1461H524Z" />
      <glyph unicode="&#xe9;" glyph-name="eacute" horiz-adv-x="946" d="M918,788q0-69-27.5-126T792,560T599.5,482.5T290,431V418q0-242 205-242q44,0 78,8.5T632.5,205t46,27t38,27T751,279.5t37,8.5q12,0 24-5.5T832,266l63-76q-53-53-104-92T687,34T575-3T446-15q-90,0-163,30.5t-125,86t-80.5,134T49,411q0,81 17.5,159T117,718t81,129T306.5,949t133,67T595,1040q81,0 141.5-23t101-59.5T898,876t20-88ZM581,868q-50,0-93-20.5T410.5,790t-60-88.5T310,589q124,17 199.5,37t117,44t55,51T695,779q0,15-6.5,31t-20,28.5t-35,21T581,868Zm380,593L699,1200q-20-20-38-27t-45-7H474l160,243q17,26 37.5,39t58.5,13H961Z" />
      <glyph unicode="&#xea;" glyph-name="ecircumflex" horiz-adv-x="946" d="M918,788q0-69-27.5-126T792,560T599.5,482.5T290,431V418q0-242 205-242q44,0 78,8.5T632.5,205t46,27t38,27T751,279.5t37,8.5q12,0 24-5.5T832,266l63-76q-53-53-104-92T687,34T575-3T446-15q-90,0-163,30.5t-125,86t-80.5,134T49,411q0,81 17.5,159T117,718t81,129T306.5,949t133,67T595,1040q81,0 141.5-23t101-59.5T898,876t20-88ZM581,868q-50,0-93-20.5T410.5,790t-60-88.5T310,589q124,17 199.5,37t117,44t55,51T695,779q0,15-6.5,31t-20,28.5t-35,21T581,868Zm340,300H763q-14,0-27,5.5T717,1186l-81,99q-8,8-17,20q-6-6-11.5-11t-10.5-9l-108-99q-8-7-21.5-12.5T439,1168H274l246,277H744l177-277Z" />
      <glyph unicode="&#xeb;" glyph-name="edieresis" horiz-adv-x="946" d="M918,788q0-69-27.5-126T792,560T599.5,482.5T290,431V418q0-242 205-242q44,0 78,8.5T632.5,205t46,27t38,27T751,279.5t37,8.5q12,0 24-5.5T832,266l63-76q-53-53-104-92T687,34T575-3T446-15q-90,0-163,30.5t-125,86t-80.5,134T49,411q0,81 17.5,159T117,718t81,129T306.5,949t133,67T595,1040q81,0 141.5-23t101-59.5T898,876t20-88ZM581,868q-50,0-93-20.5T410.5,790t-60-88.5T310,589q124,17 199.5,37t117,44t55,51T695,779q0,15-6.5,31t-20,28.5t-35,21T581,868Zm-13,446q0-28-11-52.5T526.5,1219t-45-28.5T427,1180q-27,0-51.5,10.5t-43,28.5T303,1261.5T292,1314q0,29 11,54.5t29.5,44.5t43,30t51.5,11q29,0 54.5-11t45-30t30.5-44.5t11-54.5Zm373,0q0-28-11-52.5T900.5,1219t-44-28.5T802,1180q-28,0-53,10.5T705.5,1219T676,1261.5T665,1314q0,29 11,54.5t29.5,44.5t43.5,30t53,11q29,0 54.5-11t44-30t29.5-44.5t11-54.5Z" />
      <glyph unicode="&#xec;" glyph-name="igrave" horiz-adv-x="515" d="M441,1026L318,0H74L197,1026H441ZM257,1461q38,0 55-13t28-39l100-243H304q-26,0-42.5,7T231,1200L33,1461H257Z" />
      <glyph unicode="&#xed;" glyph-name="iacute" horiz-adv-x="515" d="M441,1026L318,0H74L197,1026H441Zm252,435L431,1200q-20-20-38-27t-45-7H206l160,243q17,26 37.5,39t58.5,13H693Z" />
      <glyph unicode="&#xee;" glyph-name="icircumflex" horiz-adv-x="515" d="M441,1026L318,0H74L197,1026H441Zm212,142H495q-14,0-27,5.5T449,1186l-81,99q-8,8-17,20q-6-6-11.5-11t-10.5-9l-108-99q-8-7-21.5-12.5T171,1168H6l246,277H476l177-277Z" />
      <glyph unicode="&#xef;" glyph-name="idieresis" horiz-adv-x="515" d="M441,1026L318,0H74L197,1026H441ZM300,1314q0-28-11-52.5T258.5,1219t-45-28.5T159,1180q-27,0-51.5,10.5t-43,28.5T35,1261.5T24,1314q0,29 11,54.5T64.5,1413t43,30t51.5,11q29,0 54.5-11t45-30t30.5-44.5t11-54.5Zm373,0q0-28-11-52.5T632.5,1219t-44-28.5T534,1180q-28,0-53,10.5T437.5,1219T408,1261.5T397,1314q0,29 11,54.5t29.5,44.5t43.5,30t53,11q29,0 54.5-11t44-30t29.5-44.5t11-54.5Z" />
      <glyph unicode="&#xf0;" glyph-name="eth" horiz-adv-x="1045" d="M430,1060q-7,11-7,24q0,24 21,37l116,75q-67,35-151,60q-49,16-49,53q0,20 12,44l36,76q94-17 179-50t157-85l184,114l40-78q7-14 7-26q0-24-25-41l-102-65q75-85 117-202t42-270q0-170-37.5-307t-109-233.5T684.5,37T447-15q-87,0-160,29T161.5,97.5T79.5,230T50,405q0,107 36.5,202.5T187.5,775T340,889t192,42q94,0 165.5-38T817,780q-5,109-37,190.5T682,1114L475,981l-45,79Zm46-893q51,0 97.5,20.5t85,67.5T726,378t45,187q-10,37-27,71t-42.5,59t-61,40T558,750q-63,0-113.5-26T359,653T305.5,547T287,416q0-59 14-105.5T340,232t60-48.5T476,167Z" />
      <glyph unicode="&#xf1;" glyph-name="ntilde" horiz-adv-x="1077" d="M52,0L175,1027H301q39,0 60.5-19T383,947l-7-133q78,115 173,171.5T745,1042q57,0 103.5-20.5t79.5-60t51-97T997,732q0-19-1.5-38.5T992,653L915,0H668q20,169 34,286.5T725,482t14,122.5t7.5,67.5t3,30.5T750,715q0,66-24,95.5T651,840q-41,0-85-24t-84-68T409,642T355,504L299,0H52ZM759,1357q26,0 43,17t24,60H970q-7-55-27-99.5t-49.5-76t-67-49T747,1192q-33,0-60.5,13T636,1233.5T593,1262t-38,13q-26,0-43-18t-22-60H344q7,55 27,99.5t50,76.5t67.5,49.5T567,1440q33,0 60.5-13t51-28.5t43-28.5t37.5-13Z" />
      <glyph unicode="&#xf2;" glyph-name="ograve" horiz-adv-x="1020" d="M460,175q62,0 112,35.5t85.5,95T712,444t19,166q0,125-42.5,184T560,853q-62,0-112-35t-85-95T309,584T290,417q0-125 42-183.5T460,175ZM438-15q-85,0-157.5,28.5T155.5,97T73,232T43,415q0,133 42.5,248t116,199T373,994t209,48q85,0 157.5-28.5T865,930t83-135t30-183q0-132-43-246.5t-116.5-199T647,33.5T438-15Zm75,1478q38,0 55-13t28-39l100-243H560q-26,0-42.5,7T487,1202L289,1463H513Z" />
      <glyph unicode="&#xf3;" glyph-name="oacute" horiz-adv-x="1020" d="M460,175q62,0 112,35.5t85.5,95T712,444t19,166q0,125-42.5,184T560,853q-62,0-112-35t-85-95T309,584T290,417q0-125 42-183.5T460,175ZM438-15q-85,0-157.5,28.5T155.5,97T73,232T43,415q0,133 42.5,248t116,199T373,994t209,48q85,0 157.5-28.5T865,930t83-135t30-183q0-132-43-246.5t-116.5-199T647,33.5T438-15ZM950,1463L688,1202q-20-20-38-27t-45-7H463l160,243q17,26 37.5,39t58.5,13H950Z" />
      <glyph unicode="&#xf4;" glyph-name="ocircumflex" horiz-adv-x="1020" d="M460,175q62,0 112,35.5t85.5,95T712,444t19,166q0,125-42.5,184T560,853q-62,0-112-35t-85-95T309,584T290,417q0-125 42-183.5T460,175ZM438-15q-85,0-157.5,28.5T155.5,97T73,232T43,415q0,133 42.5,248t116,199T373,994t209,48q85,0 157.5-28.5T865,930t83-135t30-183q0-132-43-246.5t-116.5-199T647,33.5T438-15ZM910,1170H752q-14,0-27,5.5T706,1188l-81,99q-8,8-17,20q-6-6-11.5-11t-10.5-9l-108-99q-8-7-21.5-12.5T428,1170H263l246,277H733l177-277Z" />
      <glyph unicode="&#xf5;" glyph-name="otilde" horiz-adv-x="1020" d="M460,175q62,0 112,35.5t85.5,95T712,444t19,166q0,125-42.5,184T560,853q-62,0-112-35t-85-95T309,584T290,417q0-125 42-183.5T460,175ZM438-15q-85,0-157.5,28.5T155.5,97T73,232T43,415q0,133 42.5,248t116,199T373,994t209,48q85,0 157.5-28.5T865,930t83-135t30-183q0-132-43-246.5t-116.5-199T647,33.5T438-15ZM710,1357q26,0 43,17t24,60H921q-7-55-27-99.5t-49.5-76t-67-49T698,1192q-33,0-60.5,13T587,1233.5T544,1262t-38,13q-26,0-43-18t-22-60H295q7,55 27,99.5t50,76.5t67.5,49.5T518,1440q33,0 60.5-13t51-28.5t43-28.5t37.5-13Z" />
      <glyph unicode="&#xf6;" glyph-name="odieresis" horiz-adv-x="1020" d="M460,175q62,0 112,35.5t85.5,95T712,444t19,166q0,125-42.5,184T560,853q-62,0-112-35t-85-95T309,584T290,417q0-125 42-183.5T460,175ZM438-15q-85,0-157.5,28.5T155.5,97T73,232T43,415q0,133 42.5,248t116,199T373,994t209,48q85,0 157.5-28.5T865,930t83-135t30-183q0-132-43-246.5t-116.5-199T647,33.5T438-15ZM557,1316q0-28-11-52.5T515.5,1221t-45-28.5T416,1182q-27,0-51.5,10.5t-43,28.5T292,1263.5T281,1316q0,29 11,54.5t29.5,44.5t43,30t51.5,11q29,0 54.5-11t45-30t30.5-44.5t11-54.5Zm373,0q0-28-11-52.5T889.5,1221t-44-28.5T791,1182q-28,0-53,10.5T694.5,1221T665,1263.5T654,1316q0,29 11,54.5t29.5,44.5t43.5,30t53,11q29,0 54.5-11t44-30t29.5-44.5t11-54.5Z" />
      <glyph unicode="&#xf7;" glyph-name="divide" horiz-adv-x="1160" d="M126,760h974l-22-177H104l22,177Zm370,250q0,34 13.5,64t36,52.5t53,35.5t64.5,13q28,0 52.5-10.5T757,1136t27-42t10-52q0-35-13.5-64.5t-37-51t-53.5-34T627,880q-29,0-53.5,10T532,917.5T505.5,959t-9.5,51ZM408,298q0,34 13.5,64t36,52.5t53,35.5T575,463q28,0 52.5-10.5T669,424t27-42t10-52q0-35-13.5-64.5t-37-51t-53.5-34T539,168q-29,0-53.5,10T444,205.5T417.5,247T408,298Z" />
      <glyph unicode="&#xf8;" glyph-name="oslash" horiz-adv-x="1020" d="M438-15Q321-15 233,36L223,23q-29-40-69-56T75-49H-16L121,138Q83,191 63,260T43,415q0,133 42.5,248t116,199T373,994t209,48q116,0 206-52l13,18q13,18 24.5,30.5T849,1059t27,11.5t37,3.5h122L899,888q38-53 58.5-122T978,612q0-132-43-246.5t-116.5-199T647,33.5T438-15ZM274,417q0-48 8-91L655,840q-42,28-95,28q-62,0-114.5-33T355,742.5T295.5,600T274,417ZM460,159q62,0 114.5,33.5T665,286t59.5,142.5T746,610q0,24-2,46t-6,42L365,186q40-27 95-27Z" />
      <glyph unicode="&#xf9;" glyph-name="ugrave" horiz-adv-x="1075" d="M409,1026q-20-169-34-286T352,545T338,422t-7.5-68t-3-31T327,310q0-66 24.5-94.5T426,187q39,0 80.5,21.5t80,61.5T658,367t56,127l64,532h247L901,0H776q-17,0-32.5,4.5T715.5,18t-20,23T688,74v4l6,125Q616,93 523.5,39T332-15Q275-15 228.5,5.5T149,65T98,161.5T80,293q0,20 1,40t4,42l77,651H409Zm121,437q38,0 55-13t28-39l100-243H577q-26,0-42.5,7T504,1202L306,1463H530Z" />
      <glyph unicode="&#xfa;" glyph-name="uacute" horiz-adv-x="1075" d="M409,1026q-20-169-34-286T352,545T338,422t-7.5-68t-3-31T327,310q0-66 24.5-94.5T426,187q39,0 80.5,21.5t80,61.5T658,367t56,127l64,532h247L901,0H776q-17,0-32.5,4.5T715.5,18t-20,23T688,74v4l6,125Q616,93 523.5,39T332-15Q275-15 228.5,5.5T149,65T98,161.5T80,293q0,20 1,40t4,42l77,651H409Zm558,437L705,1202q-20-20-38-27t-45-7H480l160,243q17,26 37.5,39t58.5,13H967Z" />
      <glyph unicode="&#xfb;" glyph-name="ucircumflex" horiz-adv-x="1075" d="M409,1026q-20-169-34-286T352,545T338,422t-7.5-68t-3-31T327,310q0-66 24.5-94.5T426,187q39,0 80.5,21.5t80,61.5T658,367t56,127l64,532h247L901,0H776q-17,0-32.5,4.5T715.5,18t-20,23T688,74v4l6,125Q616,93 523.5,39T332-15Q275-15 228.5,5.5T149,65T98,161.5T80,293q0,20 1,40t4,42l77,651H409Zm518,144H769q-14,0-27,5.5T723,1188l-81,99q-8,8-17,20q-6-6-11.5-11t-10.5-9l-108-99q-8-7-21.5-12.5T445,1170H280l246,277H750l177-277Z" />
      <glyph unicode="&#xfc;" glyph-name="udieresis" horiz-adv-x="1075" d="M409,1026q-20-169-34-286T352,545T338,422t-7.5-68t-3-31T327,310q0-66 24.5-94.5T426,187q39,0 80.5,21.5t80,61.5T658,367t56,127l64,532h247L901,0H776q-17,0-32.5,4.5T715.5,18t-20,23T688,74v4l6,125Q616,93 523.5,39T332-15Q275-15 228.5,5.5T149,65T98,161.5T80,293q0,20 1,40t4,42l77,651H409Zm165,290q0-28-11-52.5T532.5,1221t-45-28.5T433,1182q-27,0-51.5,10.5t-43,28.5T309,1263.5T298,1316q0,29 11,54.5t29.5,44.5t43,30t51.5,11q29,0 54.5-11t45-30t30.5-44.5t11-54.5Zm373,0q0-28-11-52.5T906.5,1221t-44-28.5T808,1182q-28,0-53,10.5T711.5,1221T682,1263.5T671,1316q0,29 11,54.5t29.5,44.5t43.5,30t53,11q29,0 54.5-11t44-30t29.5-44.5t11-54.5Z" />
      <glyph unicode="&#xfd;" glyph-name="yacute" horiz-adv-x="994" d="M371-284q-26-51-80-51H108L336,78L77,1026H284q27,0 40.5-13.5T343,980L469,448q6-26 9.5-51t5.5-51q11,26 22.5,51.5T530,449L783,981q10,20 29,32.5t39,12.5h198L371-284ZM937,1463L675,1202q-20-20-38-27t-45-7H450l160,243q17,26 37.5,39t58.5,13H937Z" />
      <glyph unicode="&#xfe;" glyph-name="thorn" horiz-adv-x="1069" d="M19-335L241,1486H484L402,824q72,101 160.5,159.5T751,1042q64,0 116-23.5T956,948t57-119t20-169q0-87-18-171T964,330T885.5,192T784,83T664.5,11T533-15Q464-15 408,9.5T310,78L270-253q-4-32-30-57t-68-25H19ZM654,848q-40,0-81.5-27.5T492,745T419,631.5T361,491L330,239q34-36 78-51t87-15q66,0 120,41t92.5,107T767,469.5T788,635q0,108-35.5,160.5T654,848Z" />
      <glyph unicode="&#xff;" glyph-name="ydieresis" horiz-adv-x="994" d="M371-284q-26-51-80-51H108L336,78L77,1026H284q27,0 40.5-13.5T343,980L469,448q6-26 9.5-51t5.5-51q11,26 22.5,51.5T530,449L783,981q10,20 29,32.5t39,12.5h198L371-284ZM544,1316q0-28-11-52.5T502.5,1221t-45-28.5T403,1182q-27,0-51.5,10.5t-43,28.5T279,1263.5T268,1316q0,29 11,54.5t29.5,44.5t43,30t51.5,11q29,0 54.5-11t45-30t30.5-44.5t11-54.5Zm373,0q0-28-11-52.5T876.5,1221t-44-28.5T778,1182q-28,0-53,10.5T681.5,1221T652,1263.5T641,1316q0,29 11,54.5t29.5,44.5t43.5,30t53,11q29,0 54.5-11t44-30t29.5-44.5t11-54.5Z" />
      <glyph unicode="&#x2013;" glyph-name="endash" horiz-adv-x="1050" d="M176,683H923L902,513H155l21,170Z" />
      <glyph unicode="&#x2014;" glyph-name="emdash" horiz-adv-x="1555" d="M176,683H1428l-21-170H155l21,170Z" />
      <glyph unicode="&#x2018;" glyph-name="quoteleft" horiz-adv-x="417" d="M212,982q-40,86-40,174q0,111 60,213.5T403,1557l67-44q15-9 15-28q0-11-5.5-20.5T461,1441q-12-14-27.5-35.5t-28.5-49T383,1296t-9-70q0-29 6.5-60t21.5-64q3-8 3-16q0-15-11-27.5T363,1038L212,982Z" />
      <glyph unicode="&#x2019;" glyph-name="quoteright" horiz-adv-x="417" d="M404,1526q40-86 40-174q0-111-60-213.5T212,951l-67,44q-15,10-15,28q0,11 6,20t19,23q12,14 27.5,35.5T211,1151t22,61t9,70q0,29-6.5,60T214,1405q-3,9-3,16q0,16 11,28.5t31,20.5l151,56Z" />
      <glyph unicode="&#x201a;" glyph-name="quotesinglbase" horiz-adv-x="459" d="M265,285q40-86 40-174q0-111-60-213.5T73-290L6-246Q-9-236-9-218q0,11 6,20t19,23q12,14 27.5,35.5T72-90T94-29t9,70q0,29-6.5,60T75,164q-3,9-3,16q0,16 11,28.5T114,229l151,56Z" />
      <glyph unicode="&#x201c;" glyph-name="quotedblleft" horiz-adv-x="727" d="M212,982q-40,86-40,174q0,111 60,213.5T403,1557l67-44q15-9 15-28q0-11-5.5-20.5T461,1441q-12-14-27.5-35.5t-28.5-49T383,1296t-9-70q0-29 6.5-60t21.5-64q3-8 3-16q0-15-11-27.5T363,1038L212,982Zm311,0q-40,86-40,174q0,111 60,213.5T714,1557l67-44q15-9 15-28q0-11-5.5-20.5T772,1441q-12-14-27.5-35.5t-28.5-49T694,1296t-9-70q0-29 6.5-60t21.5-64q3-8 3-16q0-15-11-27.5T674,1038L523,982Z" />
      <glyph unicode="&#x201d;" glyph-name="quotedblright" horiz-adv-x="727" d="M408,1526q40-86 40-174q0-111-60-213.5T216,951l-67,44q-15,10-15,28q0,11 6,20t19,23q12,14 27.5,35.5T215,1151t22,61t9,70q0,29-6.5,60T218,1405q-3,9-3,16q0,16 11,28.5t31,20.5l151,56Zm310,0q40-86 40-174q0-111-60-213.5T526,951l-67,44q-15,10-15,28q0,11 6,20t19,23q12,14 27.5,35.5T525,1151t22,61t9,70q0,29-6.5,60T528,1405q-3,9-3,16q0,16 11,28.5t31,20.5l151,56Z" />
      <glyph unicode="&#x201e;" glyph-name="quotedblbase" horiz-adv-x="727" d="M247,285q40-86 40-174q0-111-60-213.5T55-290l-67,44q-15,10-15,28q0,11 6,20t19,23q12,14 27.5,35.5T54-90T76-29t9,70q0,29-6.5,60T57,164q-3,9-3,16q0,16 11,28.5T96,229l151,56Zm311,0q40-86 40-174q0-111-60-213.5T366-290l-67,44q-15,10-15,28q0,11 6,20t19,23q12,14 27.5,35.5T365-90t22,61t9,70q0,29-6.5,60T368,164q-3,9-3,16q0,16 11,28.5T407,229l151,56Z" />
      <glyph unicode="&#x2022;" glyph-name="bullet" horiz-adv-x="1160" d="M162,593q0,90 34.5,169T290,900.5T428,994t169,34q91,0 170.5-34T906,900.5T999.5,762T1034,593q0-89-34.5-167.5T906,288T767.5,195T597,161q-90,0-169,34T290,288T196.5,425.5T162,593Z" />
      <glyph unicode="&#x2039;" glyph-name="guilsinglleft" horiz-adv-x="613" d="M121,522l5,30L411,947l73-37q32-13 32-44q0-11-5.5-23T497,817L344,578q-17-25-37-42q8-7 14-17.5T333,496l95-239q8-19 8-35q0-41-43-60l-83-36L121,522Z" />
      <glyph unicode="&#x203a;" glyph-name="guilsinglright" horiz-adv-x="613" d="M504,552l-3-30L216,126l-73,36q-31,15-31,45q0,22 17,50L284,496q8,12 17,22.5T319,536q-17,16-25,42L197,817q-6,16-6,32q0,41 44,61l82,37L504,552Z" />
    </font>
</defs>
</svg>
