<?xml version="1.0" standalone="no"?>
<!DOCTYPE svg PUBLIC "-//W3C//DTD SVG 1.1//EN" "http://www.w3.org/Graphics/SVG/1.1/DTD/svg11.dtd">
<svg xmlns="http://www.w3.org/2000/svg">
  <defs>
    <font id="DancingScript" horiz-adv-x="497">
      <font-face font-family="Dancing Script" units-per-em="1000" panose-1="0 0 0 0 0 0 0 0 0 0" ascent="920" descent="-280" alphabetic="0" />
      <glyph unicode=" " glyph-name="space" horiz-adv-x="260" />
      <glyph unicode="!" glyph-name="exclam" horiz-adv-x="260" d="M93,291q17,42 38,97.5T176,502t48.5,107.5t47.5,80T314,720q8,0 14-6.5t6-16.5q0-14-14.5-51.5t-39-91T225.5,440T162,316.5t-64.5-118T40,102q-1,1-1.5,1.5T37,105q10,45 20.5,82T78,250.5T93,291ZM11-10Q-2-10-11.5-3.5T-21,17q0,17 19.5,29T37,58q12,0 19-5t7-19Q63,19 47,4.5T11-10Z" />
      <glyph unicode="&quot;" glyph-name="quotedbl" horiz-adv-x="245" d="M268,576q-9,5-13,15t-4,22q0,21 9,46t23,43t29,18q10,0 17.5-8.5T337,692q-28-29-41.5-58T268,576Zm-120,0q-9,5-13,15t-4,22q0,21 9,46t23,43t29,18q10,0 17.5-8.5T217,692q-28-29-41.5-58T148,576Z" />
      <glyph unicode="#" glyph-name="numbersign" horiz-adv-x="668" d="M102-162q17,21 35.5,70T175,25t37,145q-34-1-68.5-3.5T65,160L9,155q2,26 31,40.5T117.5,217T225,225q2,11 6.5,32t7.5,32q-31-2-63.5-4T103,279l-57-5q2,25 29.5,39.5T149,335t102,8q23,106 39,191.5T318,675q3,14 10,26t35,19q-3-17-13.5-73T324,511.5T292,344q35,0 66.5-1t61.5-3q23,107 39.5,193T488,675q3,14 10,26t35,19q-3-13-9.5-49T507,583T485,468T460,338q57-3 108-7t94-4q-27-23-52.5-27.5T561,295q-31,0-58-0.5T452,294q-3-15-8-38.5T437,218q53-3 100-6.5t87-3.5q-27-23-52-27.5T524,176q-27,0-50.5,0T428,175Q406,64 385.5-11T339-124t-67-38q18,22 36.5,71.5T346,27.5T383,172H257Q234,62 214.5-12.5T169-124.5T102-162ZM394,221l16,72q-39,0-70-0.5T281,291l-13-66q32,0 64-1t62-3Z" />
      <glyph unicode="$" glyph-name="dollar" horiz-adv-x="531" d="M135-162q11,14 23.5,41.5T184-56q-49,3-90.5,20.5t-67,50T1,95q0,45 20.5,74T72,212t57,14q-27-29-41-64T74,93q0-51 31-81t89-36q18,60 36.5,134.5T266,263q-33,20-64.5,41.5t-52,52.5T129,433q0,55 30,101.5T238.5,612T346,652q3,12 6,25.5t12.5,25T396,720q-1-7-4.5-24.5T384,655q67,0 90-29t23-75q0-39-12.5-81T449,390q-18,4-26.5,16.5T414,432q0,17 9.5,44T442,532t9,50q0,23-16,36t-56,13q-15-78-29.5-156T320,319q35-18 67-40.5T440,224t21-81q0-60-32-102.5t-83.5-67T235-56q-19-52-43.5-79T135-162ZM245-24q68,7 107.5,44.5T392,113q0,47-25.5,76.5T304,241Q284,139 269.5,72T245-24Zm38,363q17,82 32,157.5T341,627q-45-9-78.5-36t-52-62.5T192,458q0-44 27-71t64-48Z" />
      <glyph unicode="%" glyph-name="percent" horiz-adv-x="698" d="M78-87q23,23 58.5,75t78,122.5T301,260t84.5,157T458,562t50,113q4,10 18,20t32,17.5t34,7.5q-5-14-25.5-55.5T516,564T451.5,438.5t-70-132t-66-120T263,97Q211,15 166-36T78-87ZM180,347q-43,0-62.5,32.5T98,455q0,33 10.5,70.5t30,70t46,53T243,669q38,0 61-28.5T327,565q0-32-11-69.5T285.5,424T239,368.5T180,347Zm6,38q18,0 34,18.5t28.5,47T268,512t7,61q0,26-7.5,43T243,633q-22,0-39-19.5T176,564t-17-61.5T153,447q0-28 8.5-45T186,385ZM503,0q-43,0-62.5,32.5T421,108q0,33 10.5,70.5t30,70t46,53T566,322q38,0 61-28.5T650,218q0-31-11-69T608.5,77.5T562,22T503,0Zm6,38q18,0 34,18.5t28.5,47T591,165t7,61q0,26-7.5,43T566,286q-22,0-39-19.5T499,217t-17-61.5T476,101q0-28 8.5-45.5T509,38Z" />
      <glyph unicode="&amp;" glyph-name="ampersand" horiz-adv-x="616" d="M192-87Q132-87 88-62T20.5,4.5T-3,95q0,46 20,90t55.5,80.5t82.5,60T256,354q-39,32-57.5,74T180,512q0,53 27,100.5t73.5,77T387,719q54,0 81.5-27T496,613q0-37-12-72.5t-29.5-58T420,460q-11,0-21,9.5T383,492q35,31 58.5,64.5T465,629q0,31-16.5,50.5T397,699q-47,0-79-28.5t-48.5-75T253,495q0-24 4.5-51t17-53T311,344q-67-11-116.5-51t-77-94T90,92q0-33 12.5-66.5t40.5-56T218-53q53,0 102.5,27t90,72T477,147.5T510,264q-21-1-38.5-3T433,255.5T379,245q2,42 32,56t72,14q30,0 57-4t51.5-8t44.5-5q-11-23-21.5-27.5T594,266q-17,0-31.5-0.5T536,265q-7-69-37.5-132t-78-112.5T314.5-58T192-87Z" />
      <glyph unicode="&apos;" glyph-name="quotesingle" horiz-adv-x="125" d="M148,576q-9,5-13,15t-4,22q0,21 9,46t23,43t29,18q10,0 17.5-8.5T217,692q-28-29-43.5-59.5T148,576Z" />
      <glyph unicode="(" glyph-name="parenleft" horiz-adv-x="258" d="M142-87Q118-72 98.5-31.5T68,66.5T57,189q0,96 23,177.5t59.5,147T218,625t80.5,70.5T364,720q-66-47-113.5-111.5T173,469T129,315.5T115,162T127.5,28.5T162-66q-4-8-9-13t-11-8Z" />
      <glyph unicode=")" glyph-name="parenright" horiz-adv-x="268" d="M-39-87q-7,2-12.5,9T-61-63Q9-14 67,64t93.5,181.5T196,475q0,62-13.5,123.5T125,720q27-7 55.5-42.5T228,581t19-146q0-90-22.5-169.5t-58-144T91.5,10T17-62T-39-87Z" />
      <glyph unicode="*" glyph-name="asterisk" horiz-adv-x="391" d="M355,404q-13,15-38,52.5T266,532q-25-49-51-86.5T163,408q17,25 27.5,44.5t19.5,40T231,539q-45,0-77.5,5.5T116,572q25,2 52,3t65,2q-21,35-34.5,65.5T185,692q0,9 5,15t9,11q18-38 32.5-68T267,588q23,49 42,85.5T362,718q-9-25-28.5-62.5T295,577q20,1 46,2t50.5-4.5T433,551L303,539q12-18 24-35.5t20-41t8-58.5Z" />
      <glyph unicode="+" glyph-name="plus" horiz-adv-x="408" d="M151-11q5,32 7.5,57t3,50.5T162,155q-31,0-55.5-0.5t-48.5-3T3,144q10,27 54,37.5T162,193v50q0,21 5.5,49.5T191,346q2-20 5-62t4-91q51-1 95-4t65-5q-25-18-53.5-23.5T257,155H200q-1-43-5.5-78T180,19T151-11Z" />
      <glyph unicode="," glyph-name="comma" horiz-adv-x="196" d="M7-88Q-2-83-6-73t-4,22q0,20 9,45.5T22,38T51,56q10,0 17.5-8.5T76,28Q48-1 34.5-30T7-88Z" />
      <glyph unicode="-" glyph-name="hyphen" horiz-adv-x="484" d="M36,144q6,15 22.5,24.5t41.5,15t57,7.5t68,2q27,0 52-1t47.5-2.5t40-3T393,184q-39-25-73.5-27T250,155q-27,0-53.5,0T149,155q-17,0-35-1.5T77,150t-41-6Z" />
      <glyph unicode="." glyph-name="period" horiz-adv-x="214" d="M40-10Q27-10 17.5-3.5T8,17q0,11 9,20.5t22.5,15T66,58q12,0 19-5t7-19q0-10-7.5-20T65-3T40-10Z" />
      <glyph unicode="/" glyph-name="slash" horiz-adv-x="330" d="M-68-162q20,20 46.5,65.5T35.5,12T98,148.5T161.5,298t60,147.5t52,131T312,675q4,10 18,20t32,17.5t34,7.5q-5-12-20-49t-37-90T291,465T238,336.5t-52.5-126T139.5,101T107,22Q70-67 22.5-114.5T-68-162Z" />
      <glyph unicode="0" glyph-name="zero" horiz-adv-x="630" d="M244-87q-66,0-108,36.5t-62.5,96T53,174q0,68 17,143.5t49,147t76.5,129t100,92T415,720q61,0 105-30.5T588.5,604T613,474q0-81-18-162T543.5,159.5t-79-127T363-55T244-87Zm14,34q45,0 86.5,35T421,76t61,131t40.5,147T537,495q0,57-12,101.5T486.5,667T416,693q-45,0-83.5-27T263,593.5t-54.5-102T169,374T145,256t-8-103q0-93 32.5-149.5T258-53Z" />
      <glyph unicode="1" glyph-name="one" horiz-adv-x="365" d="M30-87Q12-87-10-76.5T-46-46q8-1 16-1.5T-14-48q26,0 54,3.5T94-37Q112,5 128.5,66.5T160,199t28.5,142.5t26,134.5T238,584q-57-40-81.5-53T123,518q-12,0-18.5,5.5T98,547q19,10 54.5,36T230,645t78,75q5-4 7-13.5t2-17.5q0-25-9-53.5T294,577q-10-69-25-151T234.5,260.5T192,101.5T142-30q11,2 21,2.5T182-27q38,0 64-10.5T279-83q-20,2-39.5,3.5T200-78q-31,0-60-2T84-84.5T30-87Z" />
      <glyph unicode="2" glyph-name="two" horiz-adv-x="559" d="M398-87q-29,0-67,11T250.5-47.5T163-11q-31-20-59.5-31.5T49-54Q19-54 0-39T-19,0q0,23 18,35.5T56,48q22,0 48.5-4T161,34q46,41 93,101t86.5,131.5t64,145T429,551q0,75-30,108.5T323,693q-44,0-74.5-26.5T202,594T186,491q0-20 2.5-34.5T198,423q-1,0-2,0t-3,0q-34,9-52,28.5T123,512q0,54 27.5,101.5t76,77T339,720q50,0 85.5-24.5t55-65.5T499,538q0-50-13-100t-34-97q-26-58-65-116.5T302.5,114T209,23Q283,7 335.5-3.5T424-14q19,0 35.5,5.5T500,11q-13-51-37.5-74.5T398-87ZM48-27q16,0 35,8.5T123,4q-23,8-42.5,13T47,22q-20,0-27.5-8.5T12-2q0-11 11.5-18T48-27Z" />
      <glyph unicode="3" glyph-name="three" horiz-adv-x="510" d="M170-87q-61,0-97,22.5T21.5-9T6,55q0,26 9,50.5t27,41T87,163q5,0 9.5,0t8.5-1q-14-12-23-39.5T73,69Q73,38 86,9.5T123-37t56-18q40,0 77,28t61,78.5T341,168q0,39-10.5,77T296,311.5T230,351q49,22 85.5,63.5T372,505t20,91q0,53-27.5,75T302,693q-28,0-54-12.5T205,644t-17-59q0-15 4-32.5T204,518q-5-10-17-19t-23-9q-12,0-20.5,12.5t-12.5,31T127,569q0,49 28,82.5t71,51T314,720q40,0 75-14t57-42.5T468,591q0-33-13.5-69T417,453t-55.5-57.5T293,361q58-14 90.5-47t46-72T443,168q0-47-20.5-92.5T365-6.5T278.5-65T170-87Z" />
      <glyph unicode="4" glyph-name="four" horiz-adv-x="478" d="M297-87q-34,3-55.5,14T220-40q0,0 2,15t8,52t18,103q1,6 7,35t15,71q-22,0-44,0.5T187,237q-26,0-49-0.5t-43.5-2T56,231t-34-4.5T-8,221q0,14 4.5,24.5T10,263q40,47 97,101T226,477T342.5,597.5T432,720q4-1 7.5-7.5T443,694q0-23-19-55q-5-23-16.5-74.5T382,442T352,288q10,0 20.5,0t21.5,0q19,0 33,1t27,5q-19-26-45-42.5T364,235q-5,0-11,0t-11,0q-3-15-6-30t-5-30q-4-23-10-60.5t-11.5-78t-9-74.5T297-87ZM80,288q22,3 47.5,4t53.5,1q29,0 54-0.5t47-1.5q14,64 30.5,133T345,545q-37-37-80-76.5t-84-78T107,317q-8-8-14.5-15.5T80,288Z" />
      <glyph unicode="5" glyph-name="five" horiz-adv-x="483" d="M166-87Q101-87 64-64.5T12-9.5T-3,54q0,26 9,51t27.5,41.5T78,163q5,0 9.5,0t8.5-1q-14-12-23-39T64,65Q64,35 74,7.5t32.5-45T166-55q40,0 71,20.5t52.5,54t33,74T334,174q0,41-13.5,76.5T278,308t-78,22q-17,0-41.5-3T108,319q4,28 14,69.5t23,89t26.5,94T196,655t16,58q30-7 56.5-10t49.5-3q41,0 78,6t77,14q2-8 3-15t1-12q0-29-19-45.5t-47-23T354,618q-37,0-63.5,6.5T245,631q-9,0-13-3.5T222,611q-8-19-18-50t-19.5-66t-18-67.5t-14-54T146,348q21,5 43,7.5t44,2.5q68,0 111.5-24.5t65-67.5T431,169q0-72-34-130T303-53T166-87Z" />
      <glyph unicode="6" glyph-name="six" horiz-adv-x="561" d="M253-87q-74,0-119,33T69,35.5T49,160T66.5,305t51,150.5t81,133.5T305,684.5T434,720q41,0 67.5-14T528,662q0-14-9-27t-37-21q0,8 1,13t1,15q0,22-10.5,38.5T429,697q-48,0-90-34.5T262.5,571T202,445.5T160,309q33,31 78,48t91,17q50,0 91.5-20.5t66.5-63T512,180q0-76-33-136T387.5-51.5T253-87Zm5,32q38,0 69,21.5T380,23t33.5,77.5T425,186q0,54-17.5,88t-46,50T300,340q-60,0-95.5-28.5t-51-74T138,140q0-28 5-61.5t17.5-64t36.5-50T258-55Z" />
      <glyph unicode="7" glyph-name="seven" horiz-adv-x="403" d="M95-87Q82-87 71.5-75.5T61-42q0,29 18.5,81t49,119.5T195,299q-18,0-43.5-1.5T101,294t-42-5q1,30 22.5,43.5t54,17.5t64.5,4q6,0 12,0t12,0q40,75 85.5,148T389,635q-18,0-47.5-1.5t-60-3T228,629q-58,0-80,13.5T126,676q0,18 13,42q28-4 52.5-9t55-8t75.5-3q47,0 92,5t76,15q-7-12-23-35t-31-40q-37-55-78-129T276,351q28-1 51-3t48-2q14,0 20,1t12,2q-16-24-35.5-37.5T328,298q-14,0-32.5,0T252,299q-17-41-38-91.5T178,106T163,11q0-13 2.5-23T175-27q-16-34-41-47T95-87Z" />
      <glyph unicode="8" glyph-name="eight" horiz-adv-x="527" d="M204-87q-51,0-84.5,15.5T66-30.5t-28.5,54T29,77q0,43 19,78t50.5,65.5T168,279t77,57q-28,31-54,64t-42,71t-16,83q0,60 28,96t71,52.5T318,719q68,0 109.5-36.5T469,575q0-49-19.5-88.5t-52-73T326,349q31-33 60-68t47.5-74T452,122q0-64-36-111T323-61.5T204-87Zm10,39q37,0 72.5,20.5t59.5,58T370,118q0,56-30,101t-69,88q-46-33-87.5-67.5t-67.5-73T90,80q0-39 18-68t46.5-44.5T214-48Zm86,427q47,40 79,87.5T411,576q0,59-27.5,87.5T319,692q-22,0-47.5-12t-43-39.5T211,567q0-56 26.5-101.5T300,379Z" />
      <glyph unicode="9" glyph-name="nine" horiz-adv-x="566" d="M183-87q-41,0-68.5,14.5T87-27q0,14 9,26t35,20q0-7-0.5-12T130-6q0-22 11-40t46-18q48,0 88.5,34.5T349,62t56.5,125.5T442,324q-31-31-75.5-48T276,259q-51,0-94.5,21.5T112,347T86,462q0,73 31.5,131.5t88,92.5T336,720q78,0 125-35.5t67.5-95T549,458q0-68-16.5-143T485,168.5t-75.5-129T308-52.5T183-87ZM304,293q80,0 116.5,49T457,469q0,37-5.5,75.5t-19,71t-38,52.5T332,688q-37,0-66.5-20.5t-50-54T184,539t-11-83q0-57 18.5-93T240,310t64-17Z" />
      <glyph unicode=":" glyph-name="colon" horiz-adv-x="216" d="M102,240q-13,0-22.5,6.5T70,267q0,17 19.5,29T128,308q12,0 19-5t7-19q0-15-16-29.5T102,240ZM42-10Q29-10 19.5-3.5T10,17q0,17 19.5,29T68,58q12,0 19-5t7-19Q94,19 78,4.5T42-10Z" />
      <glyph unicode=";" glyph-name="semicolon" horiz-adv-x="213" d="M18-88Q9-83 5-73T1-51Q1-31 10-5.5T33,38T62,56q10,0 17.5-8.5T87,28Q59-1 45.5-30T18-88Zm84,328q-13,0-22.5,6.5T70,267q0,17 19.5,29T128,308q12,0 19-5t7-19q0-15-16-29.5T102,240Z" />
      <glyph unicode="&lt;" glyph-name="less" horiz-adv-x="310" d="M180,44q-18,0-43.5,12T86,86T43,123.5T21,158q33,15 69,41t68,57t53,60q2-2 3.5-9.5T216,294q0-20-16.5-40.5t-42.5-40T101.5,177T47,147q23-16 42.5-29.5t47-26.5T209,60q-4-5-11.5-10.5T180,44Z" />
      <glyph unicode="=" glyph-name="equal" horiz-adv-x="503" d="M52,206q8,20 34.5,30.5T153,251t88,4q36,0 69-1.5t59-3.5t40-4q-25-18-53.5-23.5T306,217H205q-30,0-53-0.5t-46-3T52,206Zm0-100q8,20 34.5,30.5T153,151t88,4q36,0 69-1.5t59-3.5t40-4q-25-18-53.5-23.5T306,117H205q-30,0-53-0.5t-46-3T52,106Z" />
      <glyph unicode="&gt;" glyph-name="greater" horiz-adv-x="324" d="M97,44q-10,0-17,5.5T68,60q46,18 73,31t47,26.5T230,147q-25,13-54.5,30T120,213.5t-42.5,40T61,294q0,5 2,12.5t3,9.5q21-29 53-60t68-57t69-41q-4-15-22-34.5T191,86T140.5,56T97,44Z" />
      <glyph unicode="?" glyph-name="question" horiz-adv-x="437" d="M233,124q-19,10-25,19t-6,28q0,48 19.5,87t48,74.5t56.5,72t47.5,79T393,579q0,56-22.5,84.5T314,692q-35,0-70-28.5T186,587T163,480q0-17 2-30t5-27q-38,6-50,26.5T108,500q0,57 26.5,107t74,81.5T318,720t98.5-34T453,587q0-44-15.5-78t-40-63.5t-52-60t-51-66T258,237q-10-34-12-61t-13-52ZM192-10q-13,0-22.5,6.5T160,16q0,18 19.5,30T218,58q12,0 19-5.5T244,36q0-17-16-31.5T192-10Z" />
      <glyph unicode="@" glyph-name="at" horiz-adv-x="583" d="M216-121q-75,0-122,30T25-13T3,88q0,57 23,112t65.5,99t101,70T322,395q73,0 119.5-26.5t69-68T533,214q0-37-13.5-73T482,75T426.5,27T359,9q-33,0-48.5,16T295,68q0,6 0.5,10.5T297,88q-34-46-67.5-69.5T166-5q-25,0-42,16.5T107,61q0,36 19.5,78.5T179,220t72,62.5T329,307q31,0 52-16.5T402,247q0-13-5-20.5T383,216t-21-3q2,6 3,13.5t1,13.5q0,19-8.5,32T328,285q-28,0-57.5-24t-54-60T177,127T162,60q0-17 6-24.5T184,28q19,0 42,18.5t46.5,47t44,58T352,202q8-1 20-6t12-14t-11.5-28t-23-41.5T338,69q0-10 6-21.5T372,36q32,0 61.5,25.5t48.5,65T501,208q0,38-18.5,74T425,341.5T322,365T206,340.5T116.5,275T59,184.5T39,84Q39,39 57-2t58.5-67.5T222-96q53,0 108.5,20.5T436-11l6-8q-38-43-95-72.5T216-121Z" />
      <glyph unicode="A" glyph-name="A" horiz-adv-x="592" d="M17-87Q-5-74-11-59.5T-17-35Q-17-7 3.5,41t55,109.5T135,278q-37,3-63,4t-45,1H-8q11,29 38.5,40.5T96,335q17,0 35-2t37-5q51,77 104.5,149.5t100,129T450,692q29,28 48,28q11,0 24.5-8.5T551,688q-10-8-25.5-42.5t-33-86.5T458,445T426.5,318.5T403.5,196T395,94q0-38 8.5-59T432,14q26,0 59,36t72,112l10-10Q543,72 496.5,21T400-30q-41,0-59.5,36.5T322,104q0,32 4.5,70T339,253q-44,7-80.5,11.5T191,273Q144,186 99.5,94T17-87ZM346,288q15,66 35,133.5T423.5,550T466,657q-31-19-71.5-67.5T309,471.5T217,319q34-7 67.5-15.5T346,288Z" />
      <glyph unicode="B" glyph-name="B" horiz-adv-x="608" d="M130-87Q75-87 47-68.5T19-7q0,3 5,3q7,0 25-5t69-5q86,0 159,19.5T403.5,59t83,76.5T516,223q0,41-23,66t-60.5,38T351,344.5T264,349q-19,0-38.5-0.5T189,348q-23-81-45-163T99,26Q74,26 57,40T40,74q0,12 5,28t9,29q6,20 21,67t36.5,110T159,440t53.5,135T266,692q-42-7-70.5-20T151,648.5T128,638q-5,0-12.5,4.5t-13.5,11T96,665q50,21 104.5,38T333,720q33,0 73-5.5t76-22t59-48T564,561q0-49-21-83.5t-55-57T414,385t-79-19q74-4 119.5-21t69-40.5T555,255t8-50q0-58-30-105T454,18T347-40.5t-115-35T130-87Zm65,458q55,2 109.5,12.5T404,417t72.5,60T504,569q0,52-24.5,80t-63,39T335,699q-5,0-9.5,0t-9.5-1q-36-70-65.5-154T195,371Z" />
      <glyph unicode="C" glyph-name="C" horiz-adv-x="534" d="M219-87q-71,0-114.5,35.5T41.5,40T22,157q0,79 24,159t65.5,152.5t94.5,129t111.5,89T433,719q41,0 66.5-19.5T525,633q0-29-10-65.5t-27-70T450.5,442T409,420q-8,0-16.5,5T378,443q15,17 33.5,42.5t35.5,54t27.5,56T485,644q0,20-11.5,32.5T436,689q-43,0-89.5-35t-90-93.5T178,430T122.5,283T102,140q0-49 14-93.5t45.5-72T243-53q53,0 105.5,30T445,56t70,106l14-10Q496,87 449,32.5t-105-87T219-87Z" />
      <glyph unicode="D" glyph-name="D" horiz-adv-x="653" d="M163-87q-31,0-59,8.5T56-42Q66,6 80.5,61.5t31.5,114t34.5,115T180,396t29,86t20,56q3,8 10,23.5T256,593t23,27.5T307,632q14,0 28-10q-31-72-62.5-159T212,283.5T159,103T119-57q14-2 23.5-3T162-61q64,0 123.5,29.5t111,81t90.5,118t60.5,141T569,457q0,81-26,133.5T471,668T364,693q-65,0-117-26t-82-70t-30-99q0-12 1.5-21t3.5-16q-33,0-46.5,16.5T80,517q0,35 24.5,70.5t68,65.5T273,701.5T394,720q90,0 144.5-36.5T618,585t25-139q0-87-27-166.5t-74.5-146T433,17.5t-130.5-77T163-87Z" />
      <glyph unicode="E" glyph-name="E" horiz-adv-x="498" d="M180-87Q120-87 76-62T8.5,4.5T-15,95q0,46 20,90t55.5,80.5t82.5,60T244,354q-39,32-57.5,74T168,512q0,53 26.5,100.5t73.5,77T374,719q56,0 85-28t29-80q0-37-13-72t-31.5-57T408,460q-11,0-21,9.5T371,492q35,31 59.5,65.5T455,631q0,31-18,48t-53,17q-46,0-78-27.5t-48.5-73T241,495q0-36 11-78t47-73q-67-11-116.5-51t-77-94T78,92q0-33 12.5-66.5t40.5-56T206-53q53,0 105.5,30T408,56t70,106l14-10Q457,84 410,30T305-55.5T180-87Z" />
      <glyph unicode="F" glyph-name="F" horiz-adv-x="482" d="M152-87q-46,4-57,25T84-8q0,36 15,88.5T136.5,195T182,319q-12-1-25.5-2.5t-33.5-4T71,305q2,26 19.5,40.5T137,367t65,8q28,77 57.5,150.5T318,660q-10,1-19.5,1.5T279,662q-64,0-99-13t-48-40t-13-69q0-22 3-40.5T132,461q-34,6-50,26.5T66,539q0,52 37,91.5t99.5,62T341,715q53,0 102.5-7.5T540,700q21,0 38.5,2.5T614,710q-37-42-62-56t-51-14q-23,0-59.5,6.5T359,657q-13-33-29-79.5t-33-99T263,374q50-3 94.5-9t80.5-7q-8-12-18.5-18.5T390,330t-52.5-4.5T248,323q-6-21-15-50t-16-55t-11-38q-22-77-37.5-144T152-87Z" />
      <glyph unicode="G" glyph-name="G" horiz-adv-x="554" d="M209-87q-52,0-94.5,29.5T47,27.5T22,161q0,77 24,156t65.5,151T206,596.5T317.5,686T433,719q38,0 61-16t33-41.5T537,606q0-35-12-68.5T493,482t-44-22q-8,0-16.5,5T418,483q14,10 32.5,36t32,58T496,636q0,23-13.5,38T436,689q-43,0-89.5-35t-90-93.5T178,430T122.5,283T102,141q0-91 38-142.5T236-53q39,0 74,28.5t62,74T415.5,148T436,250q-37,8-60,10.5T333,263q-13,0-27.5-0.5T272,262q7,29 24.5,40.5T340,314q28,0 58.5-9.5T458,284t51-17l-7-32q-19-50-31-87.5t-18.5-66t-9-50.5T441-9q0-20 1.5-39T445-87q-16,7-28.5,16.5T397.5-47T391-15q0,11 1.5,22T398,31q-36-50-83-84T209-87Z" />
      <glyph unicode="H" glyph-name="H" horiz-adv-x="617" d="M55-87q6,35 14,71.5t20.5,82T120,172t45,142q-16-1-32.5-3T99,307q1,25 23.5,39.5T182,368q7,21 14.5,43.5t15.5,47t17,50T247.5,562T267,619q4,11 9,27.5t5,31.5q0,8-2.5,11T267,692q-24,0-46.5-19.5t-40-49.5T153,561t-10-57q0-9 1.5-18t3.5-16q-33,0-46.5,16.5T88,527q0,34 20,68t51.5,62.5t66,45.5T288,720q27,0 36.5-15t9.5-33q0-11-2.5-22T326,629L248,375q14,1 28.5,1.5T306,377q47,0 89.5-2.5T476,368q20,64 39.5,126t36,108.5T577,668q4,8 11,20t18.5,22T632,720q-14-37-32-94.5T563.5,500T527,364q20-1 38.5-2.5T602,360q-22-23-43-27.5T518,328q-9-37-17-71.5T487,191q-18-85-25.5-145T454-51q0-12 0.5-20.5T456-87q-39,4-54,22T387-9q0,26 6,65.5T411,142q8,30 22,79.5T464,327q-61,0-102-1t-71-2t-60-4q-18-58-36-115T162,100.5T137,20T124-23Q114-57 92.5-72T55-87Z" />
      <glyph unicode="I" glyph-name="I" horiz-adv-x="459" d="M-38-88q4,37 26.5,53.5T47-13t78,5q18,39 36,95.5T195.5,209T228,341.5T258,471t26.5,111.5T307,661q-52-1-88.5-3t-68-6T82,641q7,38 55,57.5T286,718q50,0 101.5-4t94.5-8.5t66-8.5q-24-24-50.5-29.5T451,662q-31,0-58.5,0T342,661q-4-21-12-65.5t-19-102t-23-119t-23.5-117T243,162Q227,98 207,54T159-9q52-3 111-10.5T376-28q-29-29-60.5-36T263-71q-40,0-78.5-0.5t-76-1.5t-74-4.5T-38-88Z" />
      <glyph unicode="J" glyph-name="J" horiz-adv-x="411" d="M77-86q-23,0-48.5,9T-14-40T-31,44q0,39 9,77.5T4.5,186T45,212q12,0 28-8q-18-46-27-86T37,44Q37-1 53-26t47-25q26,0 46.5,22T189,54q16,44 33.5,106.5t35,134t33.5,142T320,567t20,100q-49,0-82.5-2T197,659t-59-12q5,34 43.5,52.5T301,718q40,0 81-4t75.5-8.5T510,697q-11-19-36-24t-41-5q-20,0-37.5-0.5T362,667q11-8 16-22t5-25q0-13-7-57.5T356,455T325,321T286,182T241,61Q215,1 188.5-30.5T134.5-74T77-86Z" />
      <glyph unicode="K" glyph-name="K" horiz-adv-x="590" d="M495-87q-22,0-51,26T382.5,8t-64,93.5T260.5,202T216,291L119-23q-7-23-22-32.5T64.5-67T30-69Q43-41 56.5-5t32,87T132,206t59.5,174.5T273,619q3,8 8,22.5t5,26.5q0,11-5,17.5T262,692q-24,0-46.5-19.5t-40-49.5T148,561t-10-57q0-19 5-34q-33,0-46.5,16.5T83,527q0,34 20,68t51.5,62.5t66,45.5T283,720q27,0 36.5-15t9.5-33q0-11-2.5-22T321,629L237,357q14,20 36.5,37T323,433q45,36 96.5,84T518,618t78,102q5-6 7-21t2-23q0-31-25.5-68T513,531.5t-90-78T326.5,381T241,322q30-51 58.5-97t62-90T440,45T549-54q-7-13-22-23T495-87Z" />
      <glyph unicode="L" glyph-name="L" horiz-adv-x="570" d="M397-87q-36,0-79.5,15T228-35.5T137,6Q112-22 85-37.5T26-53T-28.5-38t-34,35.5T-74,34q0,18 16.5,31T-1,78q26,0 57.5-6T122,57q24,42 44.5,98T207,274t40,126q-46,15-72.5,44T148,507q0,18 7.5,36T177,573.5T210,586q-7-10-10-29t-3-33q0-38 16-63.5T254,421q20,60 41.5,113.5T343,630t57,66t69,24q20,0 42.5-9T550,680t16-62q0-34-14-73.5t-43-75t-74-58T329,388q-1,0-4.5,0T310,388q-20-61-42.5-124T220,144.5T166,44q46-14 93-28.5t91-24T431-18q21,0 38,4T502-2q-16-46-42.5-65.5T397-87ZM22-24q22,0 41.5,12T99,22Q68,35 38.5,43.5T-15,52q-19,0-26-5t-7-14q0-17 19.5-37T22-24ZM316,407q45,0 81.5,25.5t62,64t39,78.5T512,645q0,29-11,39.5T476,695q-31,0-58-40T366.5,549.5T316,407Z" />
      <glyph unicode="M" glyph-name="M" horiz-adv-x="763" d="M-17-87q6,14 33,73.5t70.5,155t98,217T300,616q3,7 6.5,18.5T310,657t-6.5,18.5T276,683q-42,0-69.5-28.5t-41-70.5T152,501q0-10 0.5-17t1.5-14q-19,0-30.5,13.5t-17,33T101,552q0,33 18,63t46.5,54t63,37.5T296,720t55.5-18.5t34-66.5T397,496q0-62-4.5-132T383,226t-7-124q16,61 45.5,130t65,137.5T557,498t63,104t41,64q14,20 24,30.5T711,707q14,0 32-7q-7-18-19.5-53.5T698,560q-16-61-32-138.5T636.5,264T615,113.5T607-5q0-22 2-34t5.5-21.5T622-87q-34,0-52,11T546-40.5T540,25q0,119 30.5,255.5T640,564q-29-37-60.5-93.5t-63-122t-60-131T406,96T372,3q-6-2-8-3t-7-1q-27,0-35.5,32T313,121q0,41 2.5,97.5T321,335t5.5,115.5T329,546q0,20-0.5,33T327,602Q247,416 193,284.5T102.5,71T38-49T-17-87Z" />
      <glyph unicode="N" glyph-name="N" horiz-adv-x="640" d="M46-87Q58-39 76,20t43.5,140.5T179,354t79,265q2,5 4.5,17.5T265,660q0,10-3.5,16.5T250,683q-24,0-45.5-18.5t-37-46.5T143,559.5T134,505q0-20 5-35q-33,0-46.5,16.5T79,527q0,34 20,68t51,62.5T215.5,703T279,720q30,0 49.5-25.5t31.5-70T380,524t15-116q6-50 12-99.5t12-94T430,133t9-61q7,47 20.5,106.5t30,124t34.5,126t33.5,113t27,86T600,671q5,13 23,31t40,18q-17-46-38.5-112.5T581,463.5t-43-158T500.5,150t-26-136.5T464-87q-31,0-50.5,18T386-6q-5,26-12.5,71.5T357.5,167T340,283.5T322.5,402T307,508.5T295,589q-48-173-82-292.5t-57.5-195T114-15T80-71.5T46-87Z" />
      <glyph unicode="O" glyph-name="O" horiz-adv-x="623" d="M213-87q-57,0-100,30.5T45.5,30T21,161q0,77 24.5,156T112,468t95,128.5T319,686t116,33q19,0 34-3t26-9q-8,0-9.5,0t-2.5,0q-52,0-105-34.5t-101-93t-86-131T131,298T109,147q0-53 13.5-99T166-25.5T243-53q56,0 105,34.5T436.5,75t68,131.5t44,150T564,505q0,28-4,60t-14,55t-27,23q-18,0-39-22.5T439.5,564T405,493.5T384,429q-25,6-36.5,19.5T336,478q0,27 18.5,59.5t47,63t59.5,50T517,670q26,0 42.5-19t26-48.5t13-63T602,477q0-109-24.5-198.5T511.5,121T419,6.5t-104.5-70T213-87Z" />
      <glyph unicode="P" glyph-name="P" horiz-adv-x="527" d="M87-87Q62-87 40-73T18-37q0,11 5,26.5T32,18q32,98 60,183t56,165t59.5,160T278,693q-38-7-67.5-20.5t-47.5-24T139,638q-4,0-11.5,4.5t-13.5,11T108,665q26,11 61.5,24T246,711t83,9q44,0 89.5-12T502,671.5T563,611t23-84q0-52-23-89.5t-61-63t-82-41t-87.5-24t-77.5-11T205,296H195Q165,193 137.5,93T87-87ZM199,312q55,3 111.5,18T414,373.5t76,71T519,544q0,54-25.5,88t-67,50.5T338,699q-37-73-72-175T199,312Z" />
      <glyph unicode="Q" glyph-name="Q" horiz-adv-x="693" d="M516-119q-46,0-85,25.5T356-37q-24-12-49-19t-51-7q-34,0-56,10.5T166.5-27t-16,29.5T146,25q0,17 16.5,34.5T219,77q41,0 80-19.5T378,13q45,40 79.5,102t58,133t36,139.5T564,509q0,82-31,133T432,693q-58,0-108-34.5T233.5,566T164,436.5T119.5,289T104,144q0-21 2-42t6-42Q81,60 64.5,80t-23,51.5T35,199q0,75 20,149.5T111.5,490t86,118.5t109,81.5T431,720q96,0 149.5-65.5T634,477q0-63-17-131.5t-47.5-134T498,90T408-4q34-19 70.5-32.5T556-50q22,0 32.5,4T614-38q-10-35-27.5-52.5t-36-23T516-119ZM256-38q21,0 40.5,5.5T334-17q-31,27-61.5,47.5T209,51q-23,0-30-9.5T172,24q0-9 7-23.5T204-26t52-12Z" />
      <glyph unicode="R" glyph-name="R" horiz-adv-x="577" d="M464-121q-22,0-51.5,27.5T351-21.5T287.5,76t-58,106T185,277q-28-98-54-192.5T82-87Q57-87 36.5-73T16-37q0,11 5,26.5T30,18Q55,97 79,167t47,135t47.5,129T225,560t58,135q-42-7-73-20.5t-50-25T134,638q-4,0-11.5,4.5t-13.5,11T103,665q26,11 61,24t77,22t87,9q43,0 87.5-10.5t82-33t60.5-58T581,533q0-49-22.5-84.5t-59-59.5T420,350.5t-85-22t-76-10T208,316q31-53 59-103t61-99.5T406,14T515-88q-6-13-21.5-23T464-121ZM201,332q54,3 109.5,17.5t101.5,41t74,67T514,554q0,55-26,86.5t-67,45T335,699q-34-69-68-165.5T201,332Z" />
      <glyph unicode="S" glyph-name="S" horiz-adv-x="536" d="M203-87q-54,0-102,19.5T23.5-8T-6,92q0,52 20.5,81T65,214t57,12q-27-29-41-64T67,92q0-37 16.5-69T134-28.5T220-48q45,0 88,16.5t70.5,49T406,98q0,43-22,74t-56.5,55T254,273t-73.5,46.5T124,376t-22,77q0,42 20,88t57.5,87t90,66.5T387,720q59,0 82-28.5T492,620q0-36-12.5-77.5t-30.5-79T415,400q-18,4-25.5,15.5T382,443q0,21 9,48t20.5,56T432,603.5t9,49.5q0,20-12,31.5T385,696q-47,0-87-22t-70-56.5T181.5,545T165,476q0-37 21.5-63.5t55.5-48t72.5-43T387,274t55.5-61.5T464,126q0-52-23-91.5T379.5-32T295-73T203-87Z" />
      <glyph unicode="T" glyph-name="T" horiz-adv-x="490" d="M187-87q-45,0-62,20T108-16q0,29 12,69t25,77q17,49 41,115t51.5,138t56,142T349,652q-69-1-115.5-3T150,643.5T69,632q3,34 35,53t86,27t123,8t123.5-5.5T539,704t96-6q-34-31-78-39t-93-8q-11,0-23,0.5T417,652t-24,0q-32-80-73.5-202T236,175q-14-53-25.5-95t-18-77T186-65q0-5 0-11t1-11Z" />
      <glyph unicode="U" glyph-name="U" horiz-adv-x="706" d="M541-99q-37,0-59,31.5T460,7q0,14 2.5,37.5T469,98Q432,16 379-35.5T253-87q-64,0-97,39T123,49q0,39 12.5,92.5t31.5,115T204.5,381t31,120.5T248,604q0,88-56,88q-27,0-47-17.5T112,630T92.5,573T86,519q0-14 2-27t6-22q-38,0-53.5,20.5T25,539q0,31 15,63t41.5,58.5t61,43T216,720q55,0 79-33t24-88q0-37-9-81.5t-23-93T257,327q-23-73-42-141.5T196,65q0-46 19.5-79T280-47q41,0 75,26.5T415,48t44,89t28,87q14,60 31,127.5t35.5,133t37,118.5T627,688t34,32q8,0 22-8.5T711,688q-8-6-25-42.5T648,552T606,426.5t-39-139T538,153T527,42q0-69 18.5-93T607-75q-19-13-35.5-18.5T541-99Z" />
      <glyph unicode="V" glyph-name="V" horiz-adv-x="632" d="M210-87q-14,0-34.5,6.5T139.5-57T124-7q0,29 12.5,76T168,174.5t38,123T237.5,427T250,552q0,37-2.5,69t-15,51.5T190,692q-28,0-47.5-16.5t-32-42.5t-18-55T87,524q0-16 2.5-29.5T96,470q-39,0-55,21.5T25,542q0,31 14.5,62t40,57.5T138,704t70,16q62,0 92.5-48.5T331,542q0-58-13-121.5T286,294T247.5,173T215,66T202-17q0-17 5.5-28T230-56q28,0 65,28.5t76.5,78t77,111.5T516,291.5T564,424t18,120q0,50-15,73.5T527,648q14,24 29.5,35T585,694q21,0 41-27t20-84q0-55-20.5-125T570,312.5T490,166T396,38T299-53T210-87Z" />
      <glyph unicode="W" glyph-name="W" horiz-adv-x="906" d="M210-87q-11,0-25.5,3.5T156-71.5t-23,24T124-7q0,35 17,92.5T180,213q17,54 33,112t26.5,116T250,552q0,37-2.5,69t-15,51.5T190,692q-28,0-47.5-16.5t-32-42.5t-18-55T87,524q0-33 9-54q-39,0-55,21.5T25,542q0,31 14.5,62t40,57.5T138,704t70,16q62,0 92.5-48.5T331,542q0-73-20.5-154.5T265,229q-16-50-30.5-95.5T211,50t-9-67q0-19 6-29t24-10q25,0 55.5,23.5t62,63.5t61,88.5t54,99.5t41,97T526,395q33,0 46.5-17T586,346q0-16-13-49t-31-74q-15-36-30.5-77t-26-82T475-14q0-19 5-30.5T503-56q28,0 65,28.5t76.5,78t77,111.5T789,291.5T837,424t18,120q0,50-15,73.5T800,648q14,24 29.5,35T858,694q21,0 41-27t20-84q0-55-20.5-125T843,312.5T763,166T669,38T572-53T483-87q-19,0-39,8T410.5-54.5T397-12q0,15 5.5,38.5T417,78Q366,6 312.5-40.5T210-87Z" />
      <glyph unicode="X" glyph-name="X" horiz-adv-x="662" d="M25-112q3,22 8.5,36T49-49.5T74-21q32,35 62,69t58.5,67.5t55,66T301,246q-2,33-3.5,56.5t-3,45.5t-2,50T291,468q-1,77-4,126.5T272,668t-40,24q-25,0-44.5-17T155,631.5T135,575t-7-56q0-30 8-49q-38,0-53.5,20.5T67,539q0,31 15,63t41.5,58.5t60.5,43T255,720q39,0 62.5-19.5T353,646t16-82t4.5-103T375,344q80,111 136,207t86,171q8-5 15.5-19.5T620,674q0-20-19.5-59T547,523.5T469,411T376,289q2-64 7.5-124.5t16-109t28-77T470-50q30,0 73,58t97,154l12-10Q614,75 581.5,21.5T516-59.5T443-87q-42,0-68,27T334.5,10t-21,93T304,198Q245,125 189.5,61.5T90.5-48T25-112Z" />
      <glyph unicode="Y" glyph-name="Y" horiz-adv-x="666" d="M255-187q-57,0-97.5,24T117-93q0,26 14.5,45.5T177-18q-4-15-6-29t-2-25q0-41 22-65.5T256-162q40,0 71.5,20T382-89.5T421-19t27,75t17,65q8,34 18.5,88.5T507,326q-40-76-92.5-125.5T290,151q-59,0-84,33.5T181,270q0,39 10.5,85T215,447.5T238.5,537T249,614q0,32-12.5,55T192,692q-28,0-48-17.5T110.5,630t-20-56.5T84,519q0-14 2-27t6-22q-38,0-53.5,20.5T23,539q0,31 15,63t41.5,58.5t61,43T214,720q38,0 61-15.5T308,666t10-47q0-28-10.5-69.5T284,462q-13-45-23-90t-10-85q0-43 16.5-69.5T321,191q35,0 66,22t58,59t49,81t39,87q13,54 27.5,104.5t29.5,90T621,697t32,23q10,0 26-8.5T709,688q-21-33-36-62.5T644.5,561T617,478.5T585.5,362T544,194q-13-51-28-105T479.5-14T428-102t-72.5-62T255-187Z" />
      <glyph unicode="Z" glyph-name="Z" horiz-adv-x="631" d="M447-87q-35,0-77,14T283.5-38.5T195,2q-34-26-66-41T67-54Q38-54 17.5-41.5T-14-10.5T-25,26q0,21 17.5,36.5T52,78q29,0 63.5-7.5T188,52q48,50 98.5,121.5T383,321q-37-1-64.5-3.5T253,310l-34-5q2,28 22,43t53.5,21t73.5,6q11,0 22.5-0.5T413,373q39,69 70,131.5T530,610q-16,4-36,11.5T452,637q-48,19-101.5,37T252,692q-32,0-57.5-13T154,634.5T139,548q0-8 0.5-14t1.5-11t2-10q-29,5-41.5,23.5T89,585q0,67 52,101t141,34q53,0 98.5-9.5T468,688t81.5-22.5T628,656q10,0 17.5,0.5T660,658q-14-12-26.5-20.5T610,623q-22-52-55.5-118.5T480,367q30-3 56.5-6t49.5-3q-11-16-24.5-23t-38-9T454,323q-49-81-105.5-156T236,38Q301,18 365.5,0T481-18q21,0 38,4T552-2q-16-46-42.5-65.5T447-87ZM62-27q20,0 43.5,12.5T154,20Q121,34 91,43T38,52Q16,52 8.5,45T1,28Q1,12 17.5-7.5T62-27Z" />
      <glyph unicode="[" glyph-name="bracketleft" horiz-adv-x="393" d="M196-87q-31,0-64.5,3.5T71-75T29-67q2,4 4.5,10T40-34T51,18.5t18.5,96T98.5,269T141,498q16,85 38.5,129T226,687t45,16q13,0 32-1.5t40-1.5q26,0 52.5,4T443,720q-2-36-17-53t-38-22t-50-5q-26,0-53,6.5T231,657q-14-42-28.5-101t-28-127t-26-137T125,159.5t-21-113T86-32q54,0 89.5,1T236-28t45.5,6T326-11q-4-38-34.5-57T196-87Z" />
      <glyph unicode="\" glyph-name="backslash" horiz-adv-x="560" d="M435-162q-43,8-72,49.5T308,22q-9,35-22,95T258.5,251T230,401.5T203,545T180,659t-16,61q24,0 40-15.5T225,675q15-39 31-101.5T288.5,435T321,279t31.5-155.5T382.5-14t28-101.5T435-162Z" />
      <glyph unicode="]" glyph-name="bracketright" horiz-adv-x="410" d="M-14-88q2,27 17,42T41-24.5T91-18q26,0 59.5-3T215-26q17,48 34,120.5T283,250t32,164.5T343.5,564T367,674H304q-49,0-99-3.5T105,653q0,43 34.5,55T234,720q37,0 80-5.5T401,699q-2-14-8-51.5t-14.5-90t-18-112T341,327T322,217.5T306,132q-4-23-12.5-57T271,7.5t-36.5-56T178-71q-52,0-103.5-2.5T-14-88Z" />
      <glyph unicode="^" glyph-name="asciicircum" horiz-adv-x="203" d="M187,406q-14,29-32,49.5T113,498q-31-11-55.5-24T10,441q-6,4-8,9.5T0,460q0,15 13.5,30t33,28.5T85,540t29,8q12,0 27.5-11T171,508.5T194.5,472t9.5-35q0-10-4-18t-13-13Z" />
      <glyph unicode="_" glyph-name="underscore" horiz-adv-x="845" d="M-20-66q4,34 50,51.5t124.5,24T332,16q74,0 124.5-2.5t89.5-6T624.5,1T716-2q-41-28-86-36.5T553-47q-98,0-167-0.5T268.5-48T184-49q-28-1-51.5-2T86-54T37.5-59T-20-66Z" />
      <glyph unicode="`" glyph-name="grave" horiz-adv-x="125" d="M112,404q-22,29-49,57T0,520q2,18 8,24.5T22,551q15,0 33-15t34-36.5t26.5-41T126,430q0-4-3-13t-11-13Z" />
      <glyph unicode="a" glyph-name="a" horiz-adv-x="436" d="M48-47Q17-47-4.5-26.5T-26,36q0,36 16,77.5t44,82t63.5,74t75,53.5T251,343t65-20.5T342,268q0-25-13.5-34T293,225q2,8 3.5,17.5T298,260q0,23-11,39.5T249,316q-28,0-57-19.5t-56-52T88,174T55,99T43,33Q43-6 70-6q23,0 50,21.5t55.5,55T230,140t46,66q4,6 5,6q6-1 15.5-4t16.5-8t7-13q0-9-9-24.5T291,127T271,86.5T262,48q0-15 8-29.5T296,4q27,0 71,39.5T456,162l10-10q-21-54-54-95T341.5-7T268-30q-37,0-54.5,22T196,40q0,6 1,13.5T199,69q-43-58-78.5-87T48-47Z" />
      <glyph unicode="b" glyph-name="b" horiz-adv-x="394" d="M93-73Q41-73 15.5-39T-10,53q0,50 17,118T52,313.5T114.5,459T184,587.5t66,92T301,714q17,0 24.5-21t7.5-42q0-28-12-68t-34-85.5T236,408t-62.5-80.5T105,270q-6-11-17.5-45.5t-21-79T57,59Q57,18 69.5-8.5T112-35q29,0 60,23.5T222,49q-37,19-55,55.5T149,178q0,48 25,77t59,29q29,0 46-23.5T296,192q0-33-9-68T261,56q6-1 12.5-2T287,53q36,0 60,17.5t40.5,43T415,162l12-13q-28-69-66.5-91.5T284,35q-8,0-16,1t-16,2Q225-8 185.5-40.5T93-73ZM232,69q11,23 17,48.5t6,52.5q0,35-9.5,55T222,245q-15,0-26.5-20.5T184,173q0-27 11-57t37-47ZM116,309q28,22 54.5,56T220,437.5T261,513t28,67t10,45q0,5-1,6.5t-3,1.5q-8,0-30.5-28.5t-50-76T160,423.5T116,309Z" />
      <glyph unicode="c" glyph-name="c" horiz-adv-x="323" d="M107-56Q59-56 27-24T-5,72q0,50 19.5,97.5T66,255t71,60.5T214,338q41,0 56-24t15-50q0-29-13.5-51T235,191q-17,0-29,15q15,8 26,32.5T243,285q0,12-4.5,18.5T221,310q-27,0-55.5-24t-53-62t-40-80T57,65Q57,34 72,8t58-26q40,0 80.5,22T286,67t56,96l13-10Q332,93 292,45.5T204-29T107-56Z" />
      <glyph unicode="d" glyph-name="d" horiz-adv-x="473" d="M59-30q-17,0-34.5,8.5T-4.5,6T-16,54q0,33 16,74t43,81.5t62,75t73,55T253,360q21,0 32.5-7.5T297,329q0-4-0.5-7t-1.5-7q-5,8-14.5,11.5T257,330q-32,0-62.5-19.5t-56-51T94,192T64.5,122.5T54,66q0-22 10-35T90,18q27,0 65.5,34T234,148t72,145q22,58 45.5,118T399,526.5t46.5,99t43,69T525,720q8,0 14-6.5t6-16.5q0-16-16.5-54.5t-43-92T430,434T374.5,306t-43-125.5T315,70q0-28 3-42t20-14q21,0 49,18t56,51t49,79l12-9q-19-51-52-91.5t-70.5-64T310-26q-37,0-51.5,24.5T244,49q0,17 5,45t14,62q-32-53-68-95.5T124.5-6T59-30Z" />
      <glyph unicode="e" glyph-name="e" horiz-adv-x="333" d="M108-44Q47-44 16.5-10.5T-14,72q0,45 22.5,95t60,94T151,332.5T240,360q23,0 42.5-12T302,299q0-38-22.5-71.5t-59-59.5t-80-42.5T54,105q-2-10-3-19T50,69q0-15 3.5-30T66,11.5T90.5-8T129-15q43,0 85,24.5T292,74t61,88l12-9Q338,93 296.5,49t-90-68.5T108-44ZM59,124q27,9 61,26.5T185.5,192t52,53T258,306q0,11-4,17t-17,6q-24,0-51-18.5T134,262T89,196T59,124Z" />
      <glyph unicode="f" glyph-name="f" horiz-adv-x="312" d="M-13-280q-10,0-23,6.5T-58.5-248T-68-192q0,44 15,114.5T-12,78T48,252.5t73.5,173t81,150T284,681t76,39q21,0 27.5-13t6.5-31q0-43-23.5-94T308,479.5t-86-98T127,302q-5-12-9.5-24.5T108,252q11-2 17.5-11.5T133,220q7-45 15-80.5T172.5,84T220,64q35,0 59,25.5T331,162l15-10q-25-60-63.5-87T215,38q-18,0-37.5,9T141,71q0-63-13.5-125T92-167T43-249t-56-31Zm26,48q11,0 25,20t27.5,52.5T90-88t18,78t7,70t-8,56.5T81,177Q56,102 36,32T5-94T-6-184q0-48 19-48ZM143,343q65,60 112.5,120.5t73.5,108T355,639q0,14-14,14q-26,0-59-42.5T213,498T143,343Z" />
      <glyph unicode="g" glyph-name="g" horiz-adv-x="389" d="M38-280q-22,0-40,13.5T-20-222q0,30 18.5,55.5t47.5,47T109.5-80T175-46q14,35 26.5,75.5T226,119q-38-55-79.5-91.5T63-9Q27-9 7.5,18T-12,88q0,52 25.5,99T80,270t87,56.5T253,347q29,0 41.5-9.5T307,315q0-9-5-14t-7-6q-5,8-15,11.5T255,310q-39,0-75.5-23T115,228T70.5,153.5T54,83q0-24 9.5-36.5T89,34q29,0 69.5,38.5T237,166q3,14 5.5,25t6.5,28q3,14 14.5,32.5T300,270q5,0 10-0.5t11-2.5q0-16-9.5-58.5t-27-99T244-7q33,16 64.5,41T366,91.5T407,162l13-10q-15-45-48-82T301.5,6T233-36q-28-67-59-122.5T109.5-247T38-280Zm-3,32q20,0 54.5,39.5T164-73q-40-20-74.5-41.5T33-160T11-213q0-16 7-25.5T35-248Z" />
      <glyph unicode="h" glyph-name="h" horiz-adv-x="476" d="M47-38Q28-38 17-6T6,66q0,48 16,114T64,319t58.5,143T189,589t64,91t52,34q18,0 25.5-21.5T338,651q0-28-12.5-68T291,497.5T240,408t-63-80.5T108,270q-12-29-20.5-65T75,134.5T71,73q0-11 0.5-19T73,39q14,41 30.5,79.5t35.5,71t40.5,57t45.5,38T276,298q28,0 44.5-13.5t24-34T352,208q0-31-10.5-60T320,92T309,40q0-20 8.5-29T339,2q23,0 51.5,22T447,82.5T495,162l13-12q-21-49-51-88.5T391-1T316-24q-34,0-51.5,18T247,39q0,21 8,47t15.5,53t7.5,51q0,26-11,37t-27,11q-25,0-45-20t-36.5-51.5t-31-66.5T100,33.5T74-18T47-38Zm74,347q28,22 54.5,56T225,437.5T266,513t28,67t10,45q0,5-1,6.5t-3,1.5q-7,0-28.5-27.5T222,532T167,428T121,309Z" />
      <glyph unicode="i" glyph-name="i" horiz-adv-x="241" d="M72-26Q33-26 14-1.5T-5,58q0,23 8.5,58T26,189.5T58.5,262T98,317.5T139,339q9,0 15.5-5.5T161,317q0-12-15.5-39T109,216T72.5,142.5T57,69q0-36 12-48T106,9q34,0 72.5,34T260,162l9-10Q240,66 185.5,20T72-26ZM192,432q-16,0-28.5,8T151,465q0,21 24.5,36.5T224,517q15,0 24-7t9-24q0-19-20.5-36.5T192,432Z" />
      <glyph unicode="j" glyph-name="j" horiz-adv-x="218" d="M-140-280q-25,0-38.5,14.5T-192-229q0,37 35.5,81T-66-73q14,8 29.5,15T-2-41Q18,7 35,68.5T65,205q-15-27-27.5-47T18,126L9,141q17,31 30.5,66.5t26,67.5T91,327t28,20q11,0 17.5-8.5T143,317q0-11-5.5-42.5t-16-77T96,99T63-8Q92,9 121,27t58.5,48T237,157l13-7q-25-59-59.5-93.5T120,2T53-36Q31-98 1.5-154t-65-91T-140-280Zm-9,34q20,0 57.5,43.5T-15-73q-76-37-113.5-77T-166-222q0-13 5-18.5t12-5.5ZM135,437q-16,0-28,8T95,469q0,15 11.5,27T135,515t33,7q14,0 23.5-7t9.5-21q0-22-20.5-39.5T135,437Z" />
      <glyph unicode="k" glyph-name="k" horiz-adv-x="446" d="M297-38q-28,0-48,19T217.5,29t-17,59.5T195,142q11,0 32,5.5t43,17t37.5,30T323,238q0,21-15,33t-35,12q-31,0-58-21.5t-48.5-56T128,132T99,58T79,0Q73-18 62-24.5T39-31Q22-31 14.5-17t-9,35.5T4,63q0,52 17,120T66.5,324.5T129,467t68,125t63,89t47,33q14,0 22.5-19t8.5-46q0-34-15-76.5T280.5,487t-65-81T134,341q-33-81-49.5-157.5T68,55q16,40 38.5,88T158,235t63,72t71,28t63-26t26-63q0-32-16.5-54.5t-40-36t-47-20T239,129q1-8 6-29t14.5-44T283,16.5T317,0q29,0 55,22t49.5,58.5T465,163l10-10q-14-49-43-92.5t-64.5-71T297-38ZM151,381q46,37 80.5,84T285,555.5T304,624q0,5-0.5,7t-2.5,2q-10,0-34.5-35T211,505.5T151,381Z" />
      <glyph unicode="l" glyph-name="l" horiz-adv-x="236" d="M83-30Q40-30 21.5-0.5T3,73q0,48 18,114T68.5,326T133,468.5T203,595t64.5,91T314,720q11,0 18-12.5t11-30t4-31.5q0-27-13.5-70.5t-38-97t-58-108T164.5,266T81,180q-6-27-9.5-52.5T68,79q0-39 11-58T112,2q27,0 53.5,24t50,60.5T256,162l15-8Q231,69 184,19.5T83-30Zm7,244q35,35 68,80.5T219.5,389T270,484t34,82.5T316,623q0,10-2.5,13t-4.5,3q-8,0-27.5-25.5T236,545t-53-98T131.5,332T90,214Z" />
      <glyph unicode="m" glyph-name="m" horiz-adv-x="646" d="M504-31q-35,0-51,21.5T437,42q0,25 7.5,50t15,49t7.5,43q0,20-9,28t-20,8q-25,0-54.5-39T307,71q-16-24-27-48.5T259-22q-8,0-20,2t-21.5,6.5T208-2t9.5,33.5t22,62t22,72T271,228q0,17-5.5,27.5T246,266q-22,0-53-26.5T129,170T66.5,75.5T19-27q-9,0-22,3t-22.5,8T-35-6q0,6 10.5,35.5t24,71t24,84.5T34,261q6,7 19,14t27,7t20.5-7t6.5-19q0-13-7.5-44.5T81,142q20,32 45.5,65.5T180,269t56.5,45.5T292,332q31,0 42.5-22.5T346,256q0-25-5.5-52.5t-12.5-51T315,115q21,38 46.5,73.5t55.5,58T481,269q32,0 44.5-19T538,205t-9-57T510.5,88T501,38q0-13 6.5-23.5T531,4q28,0 52.5,25.5t45.5,62T665,162l12-14q-16-42-41-83.5T577.5-4T504-31Z" />
      <glyph unicode="n" glyph-name="n" horiz-adv-x="466" d="M323-20q-35,0-52.5,18T253,44q0,21 7.5,44T275,135.5t7,47.5q0,28-11.5,38.5T242,232q-31,0-63-25.5t-62-65T61,60T15-15Q-1-15-15.5-9.5T-38,7q0,5 10.5,31T-3,102t25,78t11,73q6,7 19,14t27,7q27,0 27-26q0-16-9-53.5T74,116q27,41 60.5,81.5T206,265t76,27q39,0 56.5-28T356,202q0-31-10-57.5t-20.5-51T315,44q0-21 8.5-29.5T345,6q25,0 50,23.5T443.5,89T485,162l11-13q-21-49-47-87T392,2T323-20Z" />
      <glyph unicode="o" glyph-name="o" horiz-adv-x="365" d="M69-32Q26-32 8-5.5T-10,59q0,31 10,64t26.5,62t37,47T105,250q5,0 10.5-1.5T126,245q-9-8-21.5-29.5T81,166.5T62.5,112T55,66q0-30 10-43.5T91,9q21,0 50,22.5T198,89q-28,23-43.5,60.5T139,226q0,33 11.5,62T184,334.5T237,352q41,0 55-22t14-55q0-39-19-86.5T239,97q18-10 38-10q16,0 36,6.5T352.5,116T384,159l12-10q-20-47-56.5-66.5T270,63q-13,0-25,2.5T222,73Q188,28 147.5-2T69-32ZM216,115q25,37 41.5,77.5T274,269q0,29-8.5,42.5T244,325q-20,0-41-29t-21-73q0-29 8.5-58.5T216,115Z" />
      <glyph unicode="p" glyph-name="p" horiz-adv-x="391" d="M-63-280q-8,0-15.5,8.5t-11.5,18T-94-242q14,49 27.5,87.5t27,79t26.5,95T14,155T42,356q1,9 4,13t15,4q26,0 37-14.5T109,327q0-14-6-50T86,192q17,33 42.5,67T187,316t72,23q44,0 72.5-31.5T360,225q0-39-17.5-82.5t-49-82T219-2T124-26q-26,0-42,6T66-8q0,4 7.5,4.5T91-3q40,0 76.5,19.5T233,68t45.5,71T295,216q0,32-13.5,54.5T238,293q-26,0-51.5-16.5t-48-42t-40-53T72,132Q54,57 36-12.5T1.5-138.5t-30-92.5T-51-275q-5-5-12-5Z" />
      <glyph unicode="q" glyph-name="q" horiz-adv-x="401" d="M194-280q-14,0-24.5,15T159-207q0,35 7.5,87T187-10.5T218,98Q178,41 137.5,5.5T60-30q-17,0-34.5,8.5T-3.5,6T-15,56q0,35 16,75.5T45,212t64,72.5T185,337t80,20q34,0 56.5-14T344,308q0-9-4.5-18.5T326,275q-5-4-15-4q0,22-13,38.5T254,326q-33,0-63-19.5t-54.5-50t-43-66T65,122T55,66q0-22 9.5-35T90,18q20,0 43,19t47.5,50t49,68.5T277,230q7,11 13.5,17T304,257q11,5 19.5,4t12.5-5q5-5 5-13q0-16-16.5-43t-37-68.5T253,29q43,4 86,31.5T420,161l12-11Q399,74 348.5,42T251,5q8-26 12.5-54t4.5-59q0-47-9.5-86T232-256.5T194-280Zm27,55q8,0 13.5,19t8.5,48.5T246-99q0,20-1.5,38.5T239-24q-13-53-19.5-99.5T213-197q0-13 2-20.5t6-7.5Z" />
      <glyph unicode="r" glyph-name="r" horiz-adv-x="348" d="M173-26q-34,0-53.5,18T100,39q0,30 14,63t27.5,65.5T155,226q0,32-18.5,47.5T99,302Q76,243 51,190T10,110L1,127q14,26 36.5,76T82,317q-10,10-10,24q0,30 17,49t25,19q11,0 12.5-9.5T128,385t-5.5-19.5T117,348q0-14 15.5-25.5t35.5-26t35.5-35T219,209q0-30-12.5-61t-25-59T169,40q0-18 9-24t21-6q24,0 49.5,15T298,63t43,48.5T369,159l13-10q-19-42-52-82.5T256.5,0T173-26Z" />
      <glyph unicode="s" glyph-name="s" horiz-adv-x="345" d="M105-51Q58-51 30.5-30.5T-8.5,20T-20,80t8,46T7.5,150t22,12T44,170q30,33 55,69t44,76v12q0,37 12.5,52.5T182,395q8,0 12-4t4-9t-3-16t-3-28q0-33 13-71.5t26-81T244,97q0-13-1.5-25.5T238,48q35,6 66,31.5T364,161l9-10q-19-55-57-83.5T233,32q-16-43-50.5-63T105-51Zm2,35q12,0 32,8t31,41q-42,8-74.5,33T47,116q-22-1-22-35q0-36 21.5-66.5T107-16Zm68,65q2,10 3,21t1,26q0,47-11.5,93.5T148,277q-23-38-48.5-72.5T51,147q15-32 46.5-60T175,49Z" />
      <glyph unicode="t" glyph-name="t" horiz-adv-x="285" d="M85-46Q42-46 19-21T-4,53q0,44 16.5,108.5T54,294q-10,2-19,3.5T18,302v18q8-1 19-2t25-2q21,54 45,104.5t47.5,90t45,63T236,597q8,0 14.5-5.5T257,575q0-17-21-55.5T184,428T124,313q9,0 18.5,0t18.5,0q33,0 69.5,1t73.5,5V301q-55-6-98.5-9T128,289q-4,0-7.5,0t-7.5,0Q90,236 74,180T58,71Q58,28 71,9.5T114-9q52,0 102,46t88,125l13-10Q293,96 256.5,51T176-20T85-46Z" />
      <glyph unicode="u" glyph-name="u" horiz-adv-x="438" d="M75-30Q41-30 20.5,0.5T0,71q0,29 9.5,67T33,213t29,61t26,24q5,0 17-5.5T125,278q-11-17-27-52T70,151T58,77q0-8 2-24.5T70,23T94,10q19,0 39,19.5T173.5,80T213,147t35.5,69T276,271q6-1 17.5-4t21-8t9.5-14q0-4-10-26.5t-23.5-55T267,98T257,40q0-18 7.5-29T290,0q21,0 51,19t61,55.5T457,162l13-9q-21-54-55-95.5T343-7T269-30q-26,0-41.5,10t-22,27T199,44q0,12 2,24.5T206,94q-18-33-39-61.5T123-13T75-30Z" />
      <glyph unicode="v" glyph-name="v" horiz-adv-x="407" d="M65-39Q34-39 22-8.5T10,71q0,2 1,31.5T16,202q2,27 6,37t26,10q17,0 21.5-6.5T74,217q0-33-4.5-77.5T65,56q0-29 5-42.5T88,0q18,0 40,20.5t45,54T216.5,146T253,219q2,68 14.5,90.5T299,332t27.5-13.5T335,294q0-13-8.5-27T309,229t-9-69q0-16 3-34t13-30t31-12t40.5,16.5T426,158l13-10q-22-50-48.5-67T340,64q-33,0-55,24t-29,73q-24-49-56.5-94.5T132-9T65-39Z" />
      <glyph unicode="w" glyph-name="w" horiz-adv-x="617" d="M282-39q-31,0-42.5,28.5T228,58q0,20 2,43.5t5,46.5q-22-44-47.5-85T134-4T75-30Q42-30 21,0T0,71q0,29 9.5,67T33,213t29,61t26,24q5,0 21-5.5T125,278q-11-17-27-52T70,150.5T58,77q0-8 2-24.5T69.5,23T93,10q23,0 49,29t52,73t49,89q8,41 13.5,60T268,285.5t15,5.5q13,0 21-5.5t8-16.5q0-2-0.5-5t-1.5-6q-7-24-13.5-60.5T286,122t-4-73q0-23 5-36T304,0q15,0 35,18.5t41.5,49t42,66.5T459,205q0,52 7.5,79.5t19,37.5T509,332q19,0 27.5-13.5T545,294q0-7-3-14.5T534,263q-8-15-16-38.5T510,160q0-16 3-34t13-30t31-12t40.5,16.5T636,158l13-10q-22-50-48.5-67T550,64q-31,0-52.5,21T466,148q-25-46-56-89T346-11.5T282-39Z" />
      <glyph unicode="x" glyph-name="x" horiz-adv-x="418" d="M44-59q-4,0-7,4T34-44Q34-32 55-1.5T109.5,71T182,156q-5,47-13,81.5T138,272q-24,0-43-20.5t-37-53T19,129l-9,16q14,27 26.5,56T64,255t36.5,40.5T154,311q39,0 57.5-27.5T237,216q47,49 85,82.5T373,332q5,0 15-3t10-8q-11,0-35-19.5T308,249t-65-72q3-30 5-60t6.5-54T269,24.5T297,10t38.5,15t40,38.5t36,49.5T438,161l10-10q-14-43-42.5-83.5T342,0.5T272-26q-29,0-46,19.5t-25.5,51T187,111q-42-50-77.5-95T56-52q-6-7-12-7Z" />
      <glyph unicode="y" glyph-name="y" horiz-adv-x="389" d="M43-280q-25,0-44,13.5T-20-227q0,32 16,57t43,46t62,40t73,38q14,37 28.5,82.5T230,137q-32-52-68.5-89.5T84,10q-19,0-37.5,8.5T16,45T4,91t9.5,65T37,228t29,58t26,23q4,0 14.5-3t20-8.5T136,286q-9-13-20-37T94.5,195.5T77,138T70,90q0-18 8-29t28-11q19,0 42.5,18.5t47,47.5T239,178q3,11 5.5,22.5T249,224q3,14 14.5,32.5T300,275q5,0 10-0.5t11-2.5q0-16-9.5-59.5T284.5,111T243-8q47,18 92,59.5T408,162l13-10q-15-48-45.5-83.5T307,7.5T232-35q-26-64-56.5-120t-64-90.5T43-280Zm-5,32q15,0 50.5,39.5T164-70q-41-22-76-43.5T32-160T11-218q0-8 6-19t21-11Z" />
      <glyph unicode="z" glyph-name="z" horiz-adv-x="317" d="M-5-280q-31,0-48.5,11.5T-71-229q0,32 21.5,59.5T8-117T87.5-66.5T174-12q0,36-15,66t-54,61q35,10 59.5,35t37,55.5T214,262q0,23-9.5,38T175,315q-33,0-59-25T68,224T23,134L11,144q22,60 45.5,107T112,325.5T189,353q34,0 58.5-22T272,271q0-36-17-67t-44-54.5T154,111q26-20 43.5-42.5T224,21q38,29 67.5,63.5T335,162l11-12q-14-45-45-81.5T230,2q2-7 3-16t1-17q0-45-20-89.5T160-201T83.5-258.5T-5-280Zm-7,29q18,0 47,14.5t59,42T146-127t27,92Q133-60 94.5-82.5T25-126.5t-49.5-44T-43-218q0-17 9-25t22-8Z" />
      <glyph unicode="{" glyph-name="braceleft" horiz-adv-x="260" d="M102-87Q65-87 51-66.5T37-21Q37,5 48,36.5T74,102t26,67.5T111,233t-6.5,55T75,331q35,4 52,31.5t24,69T161,518q3,38 7,73.5t13,65T207.5,703T255,720q13,0 24.5-4.5t20-16T310,667q-8,5-16.5,9.5T277,681q-22,0-34-27.5t-18.5-70T212,495q-5-42-12.5-80t-21-62.5T141,325q14-14 20-30t6-39q0-46-11.5-85.5T129,96.5T102.5,31T91-30q0-13 7-22.5T124-62q15,0 25,8q-1-19-15.5-26T102-87Z" />
      <glyph unicode="|" glyph-name="bar" horiz-adv-x="259" d="M55-132Q67-99 77-43.5T95.5,82T111,228t13,150t12,139t11.5,112T159,697q12-5 18-15.5t8-21.5t2-20q0-35-2-93.5T179.5,418t-8-140t-9-129.5T154,52q-9-86-31.5-135T55-132Z" />
      <glyph unicode="}" glyph-name="braceright" horiz-adv-x="256" d="M36-87q-13,0-25.5,4.5T-10.5-66T-21-34Q-3-46 13-46q21,0 33,26T65.5,46T78,129q5,44 13,89t23,80t42,49q-14,16-19.5,34.5T131,419q0,32 10.5,67.5t25,70.5t25,64.5T202,672q0,6-2,10.5T190,687q-4,0-13.5-3.5T154,670q2,21 22,35.5T222,720q20,0 30-10.5T262,686q0-17-11-45.5T225,577t-26-72t-11-71q0-26 6-52.5T223,339q-36-9-54.5-40t-26-75.5T131,131q-3-40-7.5-79t-13-70.5T84-68.5T36-87Z" />
      <glyph unicode="~" glyph-name="asciitilde" horiz-adv-x="435" d="M269,129q-28,0-58.5,10T149,158.5T86,168q-12,0-23.5-1.5T40,160q20,26 40.5,36T123,206q21,0 43.5-6.5T213,184t50-15.5t54-6.5q8,0 15.5,1t14.5,2q-18-20-37.5-28T269,129Z" />
      <glyph unicode="&#xa0;" glyph-name="uni00A0" horiz-adv-x="260" />
      <glyph unicode="&#xa1;" glyph-name="exclamdown" horiz-adv-x="264" d="M-59-251q-8,0-14,6.5T-79-228q0,14 14.5,51.5t39,91T29.5,29T93,152.5t64.5,118T215,367q1-1 1.5-1.5T218,364q-9-45-20-82t-20.5-63.5T162,178q-16-42-37.5-97.5T79-33T30.5-140.5t-47.5-80T-59-251ZM218,412q-12,0-19,5t-7,18q0,15 16.5,29.5T244,479q13,0 22.5-6.5T276,452q0-16-19-28t-39-12Z" />
      <glyph unicode="&#xa2;" glyph-name="cent" horiz-adv-x="403" d="M68-162q12,14 27.5,53.5t33,97T163,114q-48,0-79.5,32T52,242q0,44 17.5,86t47,78T181,467t71,35q11,53 19.5,97.5T284,675q2,15 11,27t34,18L289,508q43,0 58-24t15-50q0-29-13.5-51T312,361q-17,0-29,15q15,8 26,32.5T320,455q0,16-10,21.5T283,479q-15-80-31.5-166T220,155q31,5 62,19.5T341,214l17-16q-30-28-68.5-48.5T213,120Q194,33 175-30.5T131.5-128T68-162ZM173,152q20,77 38,158.5T245,465q-36-20-65.5-59.5t-47.5-85T114,235q0-28 12.5-53T173,152Z" />
      <glyph unicode="&#xa3;" glyph-name="sterling" horiz-adv-x="650" d="M450-87q-36,0-79.5,15T281-35.5T190,6q-25-28-52-43.5T79-53T24.5-38T-9.5-2.5T-21,34q0,18 16.5,31T52,78q26,0 57.5-6T175,57q28,47 56.5,131T300,400q-46,15-72.5,44T201,507q0,18 7.5,36T230,573.5T263,586q-7-10-10-29t-3-33q0-38 16-63.5T307,421q26,80 56.5,148T433,678.5T522,720q20,0 42.5-9T603,680t16-62q0-34-14-74.5T560.5,467T481,409T363,388q-24-71-46.5-134t-46-115.5T219,44q46-14 93-28.5t91-24T484-18q21,0 38,4T555-2q-16-46-42.5-65.5T450-87ZM75-24q22,0 41.5,12T152,22Q121,35 91.5,43.5T38,52q-19,0-26-5T5,33Q5,22 14,8.5t25-23T75-24Zm49,245q6,23 31,37t63,20.5t82,6.5q56,0 106-7.5t85-9.5q-12-17-33.5-24T394,235.5T277,234q-38,0-78-3.5T124,221ZM369,407q45,0 81.5,25.5t62,64t39,78.5T565,645q0,29-11,39.5T529,695q-31,0-58-40T419.5,549.5T369,407Z" />
      <glyph unicode="&#xa4;" glyph-name="currency" horiz-adv-x="697" d="M599,24q-14,26-53,60.5T459,169q-25-32-56.5-52.5T335,96q-28,0-48.5,10.5T252,136q-46-51-89-72T83,43q16,16 39,31.5t51,40T229,180q-5,16-7,32.5T220,247q0,41 12,88t34,89q-34,38-64.5,68.5T148,544q-7,7-12.5,24T130,604q0,9 1.5,18t4.5,16q14-13 57-59.5T293,469q26,34 59,55.5T423,546q36,0 62.5-18T526,478q27,32 45,60t41,45.5T676,601q5,0 9.5-0.5T694,599q-11-16-54-66T540,417q0-4 0.5-8t0.5-8q0-43-14-93.5T487,212q49-46 81.5-90T601,42q0-4 0-8.5T599,24ZM343,149q26,0 51.5,25.5t46.5,66t34,86T488,412q0,37-20.5,60.5T423,496q-31,0-57.5-27.5T319,399t-31-85.5T277,237q0-40 22-64t44-24Z" />
      <glyph unicode="&#xa5;" glyph-name="yen" horiz-adv-x="810" d="M342-187q-38,0-69.5,11t-50,32T204-93q0,26 14.5,45.5T264-18q-4-15-6-29t-2-25q0-41 22-65.5T343-162q40,0 70.5,19.5T467-91t39,68q-36,0-73-2t-78-9Q366-6 411.5,4T521,15q6,16 11,31.5T541,77q-47-1-92-2t-94-9q8,20 34.5,30.5t68,14.5t92.5,4q12,37 21.5,93T594,326q-26-51-58.5-90.5t-71.5-62T377,151q-59,0-84,33.5T268,270q0,39 10.5,85T302,447.5T325.5,537T336,614q0,32-12.5,55T279,692q-28,0-48-17.5T197.5,630t-20-56.5T171,519q0-30 8-49q-38,0-53.5,20.5T110,539q0,31 15,63t41.5,58.5t61,43T301,720q38,0 61-15.5T395,666t10-47q0-28-10-68t-23.5-86T348,373t-10-86q0-43 16.5-69.5T408,191q35,0 66,22t58,59t49,81t39,87q18,73 37.5,136.5T698,680t42,40q10,0 26-8.5T796,688q-21-33-36-62.5T731.5,561T704,478.5T672.5,362T631,194q-5-20-10-40.5T610,113q34-1 60.5-3t41.5-4q-25-18-54.5-23.5T600,77q-5-16-10.5-31.5T578,14q44-1 80-3.5T712,6q-25-18-53.5-23.5T609-23H562q-21-46-51-83.5t-71.5-59T342-187Z" />
      <glyph unicode="&#xa6;" glyph-name="brokenbar" horiz-adv-x="260" d="M55-132q12,31 21,81.5t17,114T108,197q7,7 19.5,13.5T154,217q8,0 10-8t2-15Q159,92 149,19T118-93T55-132Zm62,428q8,90 15,172t13.5,143T159,697q12-5 18-15.5t8-21.5t2-20q0-39-5-109t-5-149q0-9-6-30.5T145,316l-28-20Z" />
      <glyph unicode="&#xa7;" glyph-name="section" horiz-adv-x="416" d="M140-87q-34,0-64.5,12.5T26-36.5T7,28Q7,61 20,79.5t32,26T88,113Q71,95 62,72.5T53,28Q53-7 77-34.5T151-62q29,0 56.5,10.5t45,31T270,31q0,33-20,56.5t-49.5,43t-59,41T92,221.5T72,290q0,45 22.5,79T158,419.5t98,9.5q-25,15-49,31t-39.5,37.5T152,549q0,26 13,55.5T201.5,660T258,702.5T330,719q41,0 56-17.5T401,656q0-24-8-50.5T373.5,555T352,515q-13,2-17,10t-4,17q0,19 9.5,43T359,633.5t9,43.5q0,13-7.5,20T333,704q-40,0-72-24t-50.5-57T192,562q0-29 18-47.5t44.5-34T308,446t45-49t18-77q0-43-20-72t-51-43t-66-14q-16,0-26,2t-20,5q8-7 28-17.5t43-27t39-42T314,50q0-42-27-73T220-70.5T140-87Zm79,318q47,0 71,22t24,63q0,38-21,61.5T227,401q-38,0-68.5-20.5T128,310q0-12 5.5-31T158,245.5T219,231Z" />
      <glyph unicode="&#xa8;" glyph-name="dieresis" horiz-adv-x="239" d="M181,409q-15,0-26,7t-11,23q0,19 22,33t44,14q14,0 22-6t8-22q0-17-18.5-33T181,409ZM37,430q-15,0-26,7T0,460q0,19 22,33t44,14q14,0 22-6t8-22q0-17-18.5-33T37,430Z" />
      <glyph unicode="&#xa9;" glyph-name="copyright" horiz-adv-x="592" d="M323,100q-42,0-85,16t-79,48t-58,80.5T79,358q0,67 22.5,116.5T161,556t80.5,48T327,620t85-16t79-48t58-80.5T571,362q0-67-22.5-116.5T489,164t-80.5-48T323,100Zm0,28q64,0 113.5,29.5t78,82.5T543,362q0,67-27,118.5T440.5,562T327,592q-63,0-113-29.5t-78.5-82T107,358q0-66 27-118t76-82t113-30Zm3,81q-34,0-57.5,20.5T245,299V431q0,50 23.5,70.5T326,522q31,0 49-13t25.5-29.5T408,451q0-11-5-14t-10-3q-10,0-12,4t-3,8q-1,10-5.5,21t-15,19.5T327,495q-24,0-38-15.5T275,431V299q0-33 14-48.5T329,235q19,0 29.5,10t15,21.5T378,284q0,7 5,9.5t8,2.5q17,0 17-14q-1-30-22-51.5T326,209Z" />
      <glyph unicode="&#xaa;" glyph-name="ordfeminine" horiz-adv-x="383" d="M157,447q-22,0-37,14.5T105,506q0,31 17,68t45.5,70t63,54.5T299,720q27,0 45-14.5T362,668q0-17-9.5-23.5T328,638q2,6 3,12.5t1,11.5q0,16-8,28t-27,12q-25,0-50-21t-46.5-53T166,562.5T153,503q0-27 19-27q16,0 36,16.5t41,41T288,584t31,45q6-1 17-5.5T347,611t-10-24.5t-20.5-36T306,514q0-10 5.5-20.5T330,483q19,0 50,28t62,83l7-7q-22-57-61.5-92.5T311,459q-26,0-38.5,15.5T260,508q0,5 0.5,10t1.5,11q-30-40-54.5-61T157,447Z" />
      <glyph unicode="&#xab;" glyph-name="guillemotleft" horiz-adv-x="436" d="M315,44q-18,0-43.5,12T221,86t-43,37.5T156,158q33,15 69,41t68,57t53,60q2-2 3.5-9.5T351,294q0-20-16.5-40.5t-42.5-40T236.5,177T182,147q23-16 42.5-29.5t47-26.5T344,60q-4-5-11.5-10.5T315,44ZM165,44q-18,0-43.5,12T71,86T28,123.5T6,158q33,15 69,41t68,57t53,60q2-2 3.5-9.5T201,294q0-20-16.5-40.5t-42.5-40T86.5,177T32,147q23-16 42.5-29.5t47-26.5T194,60q-4-5-11.5-10.5T165,44Z" />
      <glyph unicode="&#xac;" glyph-name="logicalnot" horiz-adv-x="667" d="M489,33q7,28 9,49t2,47t0,68q-13-1-26-1.5T450,195q-67-1-115.5-1t-85,0T182,193.5t-63.5-3T44,184q12,20 54.5,30.5t107,14.5T346,233q41,0 81-0.5t74-2.5q2,13 8.5,26.5T529,282q1-8 3-22t3-32q26-1 46.5-2t33.5-2q-18-8-38-13.5T537,201q0-30-1-58t-5.5-51.5t-14-39T489,33Z" />
      <glyph unicode="&#xad;" glyph-name="uni00AD" horiz-adv-x="485" d="M35,144q6,15 22.5,24.5t41.5,15t57,7.5t68,2q27,0 52-1t47.5-2.5t40-3T392,184q-16-11-38-17.5T288,157q-29-1-73.5-1T134,154q-16,0-31-1t-31.5-3T35,144Z" />
      <glyph unicode="&#xae;" glyph-name="registered" horiz-adv-x="592" d="M323,100q-42,0-85,16t-79,48t-58,80.5T79,358q0,67 22.5,116.5T161,556t80.5,48T327,620t85-16t79-48t58-80.5T571,362q0-67-22.5-116.5T489,164t-80.5-48T323,100Zm0,28q64,0 113.5,29.5t78,82.5T543,362q0,67-27,118.5T440.5,562T327,592q-63,0-113-29.5t-78.5-82T107,358q0-66 27-118t76-82t113-30Zm-56,82q-6,0-11,3.5T251,224V508q0,5 4,9t11,4h63q23,0 42.5-7.5t31.5-26T415,437q0-38-17.5-57.5T355,355q10-20 19.5-41T394,272.5T413,231q1-1 1.5-3t0.5-4q0-6-3.5-10T401,210q-9,0-16,12.5T376,239L323,353H282V224q0-7-5-10.5T267,210Zm15,169h47q25,0 40,13.5T384,437t-15,44t-40,13H282V379Z" />
      <glyph unicode="&#xaf;" glyph-name="macron" horiz-adv-x="407" d="M309,418q-22,0-55,5.5t-69.5,13t-69,14T60,459q10,26 46,26q37,0 79-7.5t84.5-18T347,438q-14-20-38-20Z" />
      <glyph unicode="&#xb0;" glyph-name="degree" horiz-adv-x="265" d="M164,396q-39,0-55.5,16T92,450q0,24 16.5,50t44,44T214,562q41,0 58.5-15.5T290,508q0-24-17.5-50t-46-44T164,396Zm5,17q22,0 42.5,16T246,467.5T260,509q0,16-10.5,26T214,545q-22,0-43-15.5T137,492t-13-42q0-16 10.5-26.5T169,413Z" />
      <glyph unicode="&#xb1;" glyph-name="plusminus" horiz-adv-x="449" d="M187,115q7,37 8.5,65t1.5,67q-29,0-50.5-0.5t-43-2T54,239q8,21 48,29.5t95,9.5v40q0,17 5,40t21,42q2-16 4.5-49.5T231,278q31,0 59-1.5t50.5-3T375,271q-22-15-47.5-19.5T282,247H231q-1-51-10-87.5T187,115ZM54,34q7,16 31,24.5T145,70t79,3q48,0 90-2.5T375,66q-14-8-32-13.5T296.5,45T222,43q-21,0-41.5-0.5t-41.5-1T97,39T54,34Z" />
      <glyph unicode="&#xb2;" glyph-name="uni00B2" horiz-adv-x="355" d="M282,304q-13,0-30.5,4.5t-38.5,13T166,341q-31-21-56-21q-16,0-27,8T72,349q0,26 41,26q11,0 23.5-2t27.5-5q30,27 60,70t50,92t20,93q0,36-14,52t-35,16q-30,0-47-28.5T181,593q0-10 1.5-17.5T188,557h-8q-19,5-28.5,15T142,603q0,27 14,51t39.5,39T253,708q38,0 61-27t23-65q0-44-20-91.5t-52.5-90T196,362q31-8 56.5-13t42.5-5q8,0 18,4t26,14q-7-30-20.5-44T282,304ZM109,338q7,0 14,3.5t17,9.5q-10,4-18,5.5T109,358q-8,0-11-3.5T95,348q0-4 4.5-7t9.5-3Z" />
      <glyph unicode="&#xb3;" glyph-name="uni00B3" horiz-adv-x="295" d="M166,314q-47,0-66,24.5T81,387q0,19 11.5,37T126,442q3,0 6.5,0t7.5-2q-8-7-12.5-20.5T123,393q0-22 13-40.5T171,334q28,0 52.5,30T248,442q0,29-13,56t-46,35q26,12 44.5,32.5t29,44.5T273,654q0,26-12.5,36.5T232,701q-19,0-36-13.5T179,649q0-7 2-15.5t6-17.5q-3-6-10.5-11T163,600q-10,0-15.5,14T142,641q0,37 30.5,57T238,718q31,0 55.5-16.5T318,652q0-21-10.5-44.5t-29-42.5T236,538q39-13 54.5-42T306,442q0-31-18.5-60.5t-50-48.5T166,314Z" />
      <glyph unicode="&#xb4;" glyph-name="acute" horiz-adv-x="125" d="M102,404q-7,4-10.5,13T88,430q0,9 10.5,28.5t26.5,41T159,536t33,15q8,0 14.5-6.5T214,520q-36-31-63-59t-49-57Z" />
      <glyph unicode="&#xb5;" glyph-name="uni00B5" horiz-adv-x="585" d="M-9-280q-9,0-16,8.5t-11,18T-40-242q14,49 28.5,87.5t29,79t29,95T76,155t29,201q1,9 4,13t15,4q26,0 37-14.5T172,327q-22-97-35-163.5T124,60q0-50 29-50q19,0 39,19.5T232.5,80T272,147t35.5,69T335,271q6-1 17.5-4t21-8t9.5-14q0-4-10-26.5t-23.5-55T326,98T316,40q0-18 7.5-29T349,0q21,0 51,19t61,55.5T516,162l13-9q-22-54-55.5-95.5T402-7T328-30q-40,0-55,21.5T258,44q0,12 2,24.5T265,94Q237,45 204.5,7.5T134-30q-12,0-23,4.5T92-13Q55-143 30-211.5T-9-280Z" />
      <glyph unicode="&#xb6;" glyph-name="paragraph" horiz-adv-x="644" d="M329-87q4,53 10,115t11,128q-24,1-60.5,6t-76,16.5t-74,31.5T83,261T61,336q0,56 29,99t75.5,73.5t101,48.5T372,579q-2,74-9,129q9,5 16,6.5t13,1.5q17,0 24.5-14.5t10-37T429,619t1-41q11-1 21.5-2.5T472,572q-1,42-2.5,77T466,708q7,5 13.5,6.5T492,716q12,0 19-22t11-58t6-78q26-8 47-16.5T611,525q-2-5-10.5-11.5t-17.5-11T570,498t-14.5,6.5T529,519q1-13 1-26t0-25q0-234-6-361.5T514-37q-8-23-27-36.5T446-87q1,3 3.5,27.5T455,8t6,101t5.5,127.5t4,147.5T472,545q-10,3-20,5.5T431,555q1-25 1.5-66t1-83t0.5-72q0-84-2-150.5T427.5,70T422-4t-5-33q-5-14-19.5-25.5t-33-18T329-87Z" />
      <glyph unicode="&#xb7;" glyph-name="periodcentered" horiz-adv-x="209" d="M70,124q-13,0-22.5,6.5T38,151q0,11 9,20.5t22.5,15T96,192q12,0 19-5t7-19q0-10-7.5-20T95,131t-25-7Z" />
      <glyph unicode="&#xb8;" glyph-name="cedilla" horiz-adv-x="217" d="M81-211q-29,0-45,11T20-175q0,8 5.5,16.5T42-142q5-24 17-34.5T84-187q19,0 38,14.5t32,35T167-100q0,8-3.5,16.5T150-75q-13,0-31-10T86-105.5T65-116q-7,0-10.5,6.5T51-98q0,2 8.5,14T80-55.5t24.5,32T126,0h13L86-81q11,8 27,16t40,8q23,0 34-10.5T198-99q0-28-16.5-54t-43-42T81-211Z" />
      <glyph unicode="&#xb9;" glyph-name="uni00B9" horiz-adv-x="260" d="M109,314q-10,0-22.5,6T66,338q23,0 39.5,0.5T137,342q12,26 21.5,66.5t17.5,85T191,577t14,63q-24-16-35-21t-16-5q-7,0-11,4t-4,14q9,4 27,17t39,31t39,37h6q3-3 4-7.5t1-8.5q0-8-2-16.5T249,668q-4-15-10-45.5t-13-66T212,488l-13-62q-6-28-12-47.5T171,347q25,1 43-3.5T236,316q-10,1-21.5,1.5T193,318q-25,0-44-2t-40-2Z" />
      <glyph unicode="&#xba;" glyph-name="ordmasculine" horiz-adv-x="279" d="M163,452q-26,0-41,17t-15,43q0,28 14.5,63.5t39,68.5t55,54.5T277,720q13,0 20-4t10-10q16,0 22.5-9.5T336,679t-7-22t-14-30.5T308,591q0-10 6-13t14-3q7,0 14,1t13,2q-4-8-16-14t-25-6q-19,0-26,13q-22-52-55-85.5T163,452Zm16,30q16,0 34.5,14.5t36,38.5T279,589q-2,9-3,18.5T275,629q0,24 3.5,39.5T288,693q-30,0-54.5-19.5t-43-48.5T162,566.5T152,517q0-16 7-25.5t20-9.5Z" />
      <glyph unicode="&#xbb;" glyph-name="guillemotright" horiz-adv-x="455" d="M237,44q-10,0-17,5.5T208,60q46,18 73,31t47,26.5T370,147q-25,13-54.5,30T260,213.5t-42.5,40T201,294q0,5 2,12.5t3,9.5q21-29 53-60t68-57t69-41q-4-15-22-34.5T331,86T280.5,56T237,44ZM87,44q-10,0-17,5.5T58,60q46,18 73,31t47,26.5T220,147q-25,13-54.5,30T110,213.5t-42.5,40T51,294q0,5 2,12.5t3,9.5q21-29 53-60t68-57t69-41q-4-15-22-34.5T181,86T130.5,56T87,44Z" />
      <glyph unicode="&#xbc;" glyph-name="onequarter" horiz-adv-x="642" d="M45-87q23,23 58.5,75t78,122.5T268,260t84.5,157T425,562t50,113q4,10 18,20t32,17.5t34,7.5q-5-14-25.5-55.5T483,564T418.5,438.5t-70-132t-66-120T230,97Q178,15 133-36T45-87ZM510-26q-22,2-35,8T462,0q0,3 4.5,30.5T487,134q-5,0-12,0.5T451,135q-32,0-56.5-2T350,126q0,9 3,15t7,10q31,27 71.5,64.5t78,79.5T569,377q13-2 13-14q0-7-13-51T536,164h17q8,0 16.5,1.5T589,169q-11-16-25-26t-33-9q-1-7-4.5-27T519,62t-6.5-49T510-26ZM405,165q14,2 38,1.5t52-0.5q6,29 10.5,49t8.5,35t8,29l-44-43q-11-11-24-23t-25.5-24T405,165ZM109,314q-10,0-22.5,6T66,338q23,0 39.5,0.5T137,342q12,26 21.5,66.5t17.5,85T191,577t14,63q-24-16-35-21t-16-5q-7,0-11,4t-4,14q9,4 27,17t39,31t39,37h6q3-3 4-7.5t1-8.5q0-8-2-16.5T249,668q-6-23-18-85T199,426q-6-28-12-47.5T171,347q24,1 42.5-3.5T236,316q-10,1-21.5,1.5T193,318q-25,0-44-2t-40-2Z" />
      <glyph unicode="&#xbd;" glyph-name="onehalf" horiz-adv-x="698" d="M51-87q23,23 58.5,75t78,122.5T274,260t84.5,157T431,562t50,113q4,10 18,20t32,17.5t34,7.5q-5-14-25.5-55.5T489,564T424.5,438.5t-70-132t-66-120T236,97Q184,15 139-36T51-87ZM382,8q7,0 14,3.5T413,21q-10,4-18,5.5T382,28q-8,0-11-3.5T368,18q0-4 4.5-7T382,8ZM555-26q-13,0-30.5,4.5T486-8.5T439,11q-31-21-56-21q-16,0-27,8T345,19q0,26 41,26q11,0 23.5-2T437,38q30,27 60,70t50,92t20,93q0,36-14,52t-35,16q-30,0-47-28.5T454,263q0-10 1.5-17.5T461,227h-8q-19,5-28.5,15T415,273q0,27 14,51t39.5,39T526,378q38,0 61-27t23-65q0-44-20-91.5t-52.5-90T469,32q31-8 56.5-13T568,14q8,0 18,4t26,14q-7-30-20.5-44T555-26ZM115,314q-10,0-22.5,6T72,338q23,0 39.5,0.5T143,342q12,26 21.5,66.5t17.5,85T197,577t14,63q-24-16-35-21t-16-5q-7,0-11,4t-4,14q9,4 27,17t39,31t39,37h6q3-3 4-7.5t1-8.5q0-8-2-16.5T255,668q-6-23-18-85T205,426q-6-28-12-47.5T177,347q24,1 42.5-3.5T242,316q-10,1-21.5,1.5T199,318q-25,0-44-2t-40-2Z" />
      <glyph unicode="&#xbe;" glyph-name="threequarters" horiz-adv-x="685" d="M88-87q23,23 58.5,75t78,122.5T311,260t84.5,157T468,562t50,113q4,10 18,20t32,17.5t34,7.5q-5-14-25.5-55.5T526,564T461.5,438.5t-70-132t-66-120T273,97Q221,15 176-36T88-87Zm80,401q-31,0-50,11.5T91,354t-8,33q0,19 11.5,37T128,442q3,0 6.5,0t7.5-2q-8-7-12.5-20.5T125,393q0-22 13-40.5T173,334q28,0 52.5,30T250,442q0,29-13,56t-46,35q26,12 44.5,32.5t29,44.5T275,654q0,26-12.5,36.5T234,701q-19,0-36-13.5T181,649q0-7 2-15.5t6-17.5q-3-6-10.5-11T165,600q-10,0-15.5,14T144,641q0,25 14,42t36.5,26t45.5,9q31,0 55.5-16.5T320,652q0-21-10.5-44.5t-29-42.5T238,538q39-13 54.5-42T308,442q0-31-18.5-60.5t-50-48.5T168,314ZM553-26q-22,2-35,8T505,0q0,3 4.5,30.5T530,134q-5,0-12,0.5T494,135q-32,0-56.5-2T393,126q0,9 3,15t7,10q31,27 71.5,64.5t78,79.5T612,377q13-2 13-14q0-7-13-51T579,164h17q8,0 16.5,1.5T632,169q-11-16-25-26t-33-9q-1-7-4.5-27T562,62t-6.5-49T553-26ZM448,165q14,2 38,1.5t52-0.5q6,29 10.5,49t8.5,35t8,29l-44-43q-11-11-24-23t-25.5-24T448,165Z" />
      <glyph unicode="&#xbf;" glyph-name="questiondown" horiz-adv-x="415" d="M85-280q-62,0-98.5,30.5T-50-161q0,40 15.5,70.5T5.5-33t52,54t51,59T145,154q10,31 12.5,55.5T170,256q20-9 25.5-17t5.5-25q0-43-19.5-78T134,69T77.5,4t-48-71T10-153q0-51 22.5-76.5T89-255q35,0 70,25.5t58,69T240-64q0,15-2,26.5T233-13q38-5 50-23.5T295-82q0-51-26.5-96t-74-73.5T85-280Zm97,602q-12,0-19,5.5T156,344q0,17 16.5,31.5T208,390q13,0 22.5-6.5T240,364q0-18-19-30t-39-12Z" />
      <glyph unicode="&#xc0;" glyph-name="Agrave" horiz-adv-x="592" d="M17-87Q-5-74-11-59.5T-17-35Q-17-7 3.5,41t55,109.5T135,278q-37,3-63,4t-45,1H-8q11,29 38.5,40.5T96,335q17,0 35-2t37-5q51,77 104.5,149.5t100,129T450,692q29,28 48,28q11,0 24.5-8.5T551,688q-10-8-25.5-42.5t-33-86.5T458,445T426.5,318.5T403.5,196T395,94q0-38 8.5-59T432,14q26,0 59,36t72,112l10-10Q543,72 496.5,21T400-30q-41,0-59.5,36.5T322,104q0,32 4.5,70T339,253q-44,7-80.5,11.5T191,273Q144,186 99.5,94T17-87ZM346,288q15,66 35,133.5T423.5,550T466,657q-31-19-71.5-67.5T309,471.5T217,319q34-7 67.5-15.5T346,288ZM533,748q-22,29-49,57t-63,59q2,18 8,24.5t14,6.5q15,0 33-15t34-36.5t26.5-41T547,774q0-4-3-13t-11-13Z" />
      <glyph unicode="&#xc1;" glyph-name="Aacute" horiz-adv-x="592" d="M17-87Q-5-74-11-59.5T-17-35Q-17-7 3.5,41t55,109.5T135,278q-37,3-63,4t-45,1H-8q11,29 38.5,40.5T96,335q17,0 35-2t37-5q51,77 104.5,149.5t100,129T450,692q29,28 48,28q11,0 24.5-8.5T551,688q-10-8-25.5-42.5t-33-86.5T458,445T426.5,318.5T403.5,196T395,94q0-38 8.5-59T432,14q26,0 59,36t72,112l10-10Q543,72 496.5,21T400-30q-41,0-59.5,36.5T322,104q0,32 4.5,70T339,253q-44,7-80.5,11.5T191,273Q144,186 99.5,94T17-87ZM346,288q15,66 35,133.5T423.5,550T466,657q-31-19-71.5-67.5T309,471.5T217,319q34-7 67.5-15.5T346,288ZM535,748q-7,4-10.5,13T521,774q0,9 10.5,28.5t26.5,41T592,880t33,15q8,0 14.5-6.5T647,864q-36-31-63-59t-49-57Z" />
      <glyph unicode="&#xc2;" glyph-name="Acircumflex" horiz-adv-x="592" d="M17-87Q-5-74-11-59.5T-17-35Q-17-7 3.5,41t55,109.5T135,278q-37,3-63,4t-45,1H-8q11,29 38.5,40.5T96,335q17,0 35-2t37-5q51,77 104.5,149.5t100,129T450,692q29,28 48,28q11,0 24.5-8.5T551,688q-10-8-25.5-42.5t-33-86.5T458,445T426.5,318.5T403.5,196T395,94q0-38 8.5-59T432,14q26,0 59,36t72,112l10-10Q543,72 496.5,21T400-30q-41,0-59.5,36.5T322,104q0,32 4.5,70T339,253q-44,7-80.5,11.5T191,273Q144,186 99.5,94T17-87ZM346,288q15,66 35,133.5T423.5,550T466,657q-31-19-71.5-67.5T309,471.5T217,319q34-7 67.5-15.5T346,288ZM627,744q-14,29-32,49.5T553,836q-31-11-55.5-24T450,779q-6,4-8,9.5t-2,9.5q0,15 13.5,30t33,28.5T525,878t29,8q12,0 27.5-11T611,846.5T634.5,810t9.5-35q0-10-4-18t-13-13Z" />
      <glyph unicode="&#xc3;" glyph-name="Atilde" horiz-adv-x="592" d="M17-87Q-5-74-11-59.5T-17-35Q-17-7 3.5,41t55,109.5T135,278q-37,3-63,4t-45,1H-8q11,29 38.5,40.5T96,335q17,0 35-2t37-5q51,77 104.5,149.5t100,129T450,692q29,28 48,28q11,0 24.5-8.5T551,688q-10-8-25.5-42.5t-33-86.5T458,445T426.5,318.5T403.5,196T395,94q0-38 8.5-59T432,14q26,0 59,36t72,112l10-10Q543,72 496.5,21T400-30q-41,0-59.5,36.5T322,104q0,32 4.5,70T339,253q-44,7-80.5,11.5T191,273Q144,186 99.5,94T17-87ZM346,288q15,66 35,133.5T423.5,550T466,657q-31-19-71.5-67.5T309,471.5T217,319q34-7 67.5-15.5T346,288ZM621,761q-27,0-56,11.5t-58.5,23T446,807q-13,0-27-3.5T392,792q20,28 42,39t45,11q28,0 58-12t63-24t69-12q16,0 34,8q-19-23-39.5-32T621,761Z" />
      <glyph unicode="&#xc4;" glyph-name="Adieresis" horiz-adv-x="592" d="M17-87Q-5-74-11-59.5T-17-35Q-17-7 3.5,41t55,109.5T135,278q-37,3-63,4t-45,1H-8q11,29 38.5,40.5T96,335q17,0 35-2t37-5q51,77 104.5,149.5t100,129T450,692q29,28 48,28q11,0 24.5-8.5T551,688q-10-8-25.5-42.5t-33-86.5T458,445T426.5,318.5T403.5,196T395,94q0-38 8.5-59T432,14q26,0 59,36t72,112l10-10Q543,72 496.5,21T400-30q-41,0-59.5,36.5T322,104q0,32 4.5,70T339,253q-44,7-80.5,11.5T191,273Q144,186 99.5,94T17-87ZM346,288q15,66 35,133.5T423.5,550T466,657q-31-19-71.5-67.5T309,471.5T217,319q34-7 67.5-15.5T346,288ZM609,753q-15,0-26,7t-11,23q0,19 22,33t44,14q14,0 22-6t8-22q0-17-18.5-33T609,753ZM465,774q-15,0-26,7t-11,23q0,19 22,33t44,14q14,0 22-6t8-22q0-17-18.5-33T465,774Z" />
      <glyph unicode="&#xc5;" glyph-name="Aring" horiz-adv-x="592" d="M17-87Q-5-74-11-59.5T-17-35Q-17-7 3.5,41t55,109.5T135,278q-37,3-63,4t-45,1H-8q11,29 38.5,40.5T96,335q17,0 35-2t37-5q51,77 104.5,149.5t100,129T450,692q29,28 48,28q11,0 24.5-8.5T551,688q-10-8-25.5-42.5t-33-86.5T458,445T426.5,318.5T403.5,196T395,94q0-38 8.5-59T432,14q26,0 59,36t72,112l10-10Q543,72 496.5,21T400-30q-41,0-59.5,36.5T322,104q0,32 4.5,70T339,253q-44,7-80.5,11.5T191,273Q144,186 99.5,94T17-87ZM346,288q15,66 35,133.5T423.5,550T466,657q-31-19-71.5-67.5T309,471.5T217,319q34-7 67.5-15.5T346,288ZM534,754q-39,0-55.5,16T462,808q0,24 16.5,50t44,44T584,920q41,0 58.5-15.5T660,866q0-24-17.5-50t-46-44T534,754Zm9,20q20,0 38,14t30,34.5T623,860q0,14-10.5,25.5T579,897q-20,0-38-13t-29-32t-11-37q0-13 10-27t32-14Z" />
      <glyph unicode="&#xc6;" glyph-name="AE" horiz-adv-x="747" d="M17-87Q-5-74-11-59.5T-17-35Q-17-7 3.5,41t55,109.5T135,278q-37,3-63,4t-45,1H-8q11,29 38.5,40.5T96,335q17,0 35-2t37-5q51,77 102.5,147.5t97,125.5t80,87T498,720q40,0 85-2.5t88.5-6t79-7.5t56.5-7q-5-15-30.5-22.5t-62-10.5T637,661q-27,0-53.5,0.5T534,663q-17-34-40-101T450,415q69-1 121.5-9.5T658,392q-5-15-30.5-22.5t-62-10.5T488,356q-17,0-29.5,0T435,357q-17-73-28.5-143T395,94q0-12 1-22.5T398,53q32-5 71.5-8.5t79-7t72-7T670,23Q665,8 639.5,0.5T577.5-10T500-13t-80.5,0.5T351-9Q336,6 329,36.5T322,104q0,32 4.5,70T339,253q-44,7-80.5,11.5T191,273Q144,186 99.5,94T17-87ZM346,288q15,66 35,133.5T423.5,550T466,657q-31-19-71.5-67.5T309,471.5T217,319q34-7 67.5-15.5T346,288Z" />
      <glyph unicode="&#xc7;" glyph-name="Ccedilla" horiz-adv-x="534" d="M219-87q-71,0-114.5,35.5T41.5,40T22,157q0,79 24,159t65.5,152.5t94.5,129t111.5,89T433,719q41,0 66.5-19.5T525,633q0-29-10-65.5t-27-70T450.5,442T409,420q-8,0-16.5,5T378,443q15,17 33.5,42.5t35.5,54t27.5,56T485,644q0,20-11.5,32.5T436,689q-43,0-89.5-35t-90-93.5T178,430T122.5,283T102,140q0-49 14-93.5t45.5-72T243-53q53,0 105.5,30T445,56t70,106l14-10Q496,87 449,32.5t-105-87T219-87ZM360-211q-29,0-45,11t-16,25q0,8 5.5,16.5T321-142q5-24 17-34.5T363-187q19,0 38,14.5t32,35T446-100q0,8-3.5,16.5T429-75q-13,0-31-10t-33-20.5T344-116q-7,0-10.5,6.5T330-98q0,2 8.5,14T359-55.5t24.5,32T405,0h13L365-81q11,8 27,16t40,8q23,0 34-10.5T477-99q0-28-16.5-54t-43-42T360-211Z" />
      <glyph unicode="&#xc8;" glyph-name="Egrave" horiz-adv-x="498" d="M180-87Q120-87 76-62T8.5,4.5T-15,95q0,46 20,90t55.5,80.5t82.5,60T244,354q-39,32-57.5,74T168,512q0,53 26.5,100.5t73.5,77T374,719q56,0 85-28t29-80q0-37-13-72t-31.5-57T408,460q-11,0-21,9.5T371,492q35,31 59.5,65.5T455,631q0,31-18,48t-53,17q-46,0-78-27.5t-48.5-73T241,495q0-36 11-78t47-73q-67-11-116.5-51t-77-94T78,92q0-33 12.5-66.5t40.5-56T206-53q53,0 105.5,30T408,56t70,106l14-10Q457,84 410,30T305-55.5T180-87ZM420,748q-22,29-49,57t-63,59q2,18 8,24.5t14,6.5q15,0 33-15t34-36.5t26.5-41T434,774q0-4-3-13t-11-13Z" />
      <glyph unicode="&#xc9;" glyph-name="Eacute" horiz-adv-x="498" d="M180-87Q120-87 76-62T8.5,4.5T-15,95q0,46 20,90t55.5,80.5t82.5,60T244,354q-39,32-57.5,74T168,512q0,53 26.5,100.5t73.5,77T374,719q56,0 85-28t29-80q0-37-13-72t-31.5-57T408,460q-11,0-21,9.5T371,492q35,31 59.5,65.5T455,631q0,31-18,48t-53,17q-46,0-78-27.5t-48.5-73T241,495q0-36 11-78t47-73q-67-11-116.5-51t-77-94T78,92q0-33 12.5-66.5t40.5-56T206-53q53,0 105.5,30T408,56t70,106l14-10Q457,84 410,30T305-55.5T180-87ZM422,748q-7,4-10.5,13T408,774q0,9 10.5,28.5t26.5,41T479,880t33,15q8,0 14.5-6.5T534,864q-36-31-63-59t-49-57Z" />
      <glyph unicode="&#xca;" glyph-name="Ecircumflex" horiz-adv-x="498" d="M180-87Q120-87 76-62T8.5,4.5T-15,95q0,46 20,90t55.5,80.5t82.5,60T244,354q-39,32-57.5,74T168,512q0,53 26.5,100.5t73.5,77T374,719q56,0 85-28t29-80q0-37-13-72t-31.5-57T408,460q-11,0-21,9.5T371,492q35,31 59.5,65.5T455,631q0,31-18,48t-53,17q-46,0-78-27.5t-48.5-73T241,495q0-36 11-78t47-73q-67-11-116.5-51t-77-94T78,92q0-33 12.5-66.5t40.5-56T206-53q53,0 105.5,30T408,56t70,106l14-10Q457,84 410,30T305-55.5T180-87ZM514,744q-14,29-32,49.5T440,836q-31-11-55.5-24T337,779q-6,4-8,9.5t-2,9.5q0,15 13.5,30t33,28.5T412,878t29,8q12,0 27.5-11T498,846.5T521.5,810t9.5-35q0-10-4-18t-13-13Z" />
      <glyph unicode="&#xcb;" glyph-name="Edieresis" horiz-adv-x="498" d="M180-87Q120-87 76-62T8.5,4.5T-15,95q0,46 20,90t55.5,80.5t82.5,60T244,354q-39,32-57.5,74T168,512q0,53 26.5,100.5t73.5,77T374,719q56,0 85-28t29-80q0-37-13-72t-31.5-57T408,460q-11,0-21,9.5T371,492q35,31 59.5,65.5T455,631q0,31-18,48t-53,17q-46,0-78-27.5t-48.5-73T241,495q0-36 11-78t47-73q-67-11-116.5-51t-77-94T78,92q0-33 12.5-66.5t40.5-56T206-53q53,0 105.5,30T408,56t70,106l14-10Q457,84 410,30T305-55.5T180-87ZM496,753q-15,0-26,7t-11,23q0,19 22,33t44,14q14,0 22-6t8-22q0-17-18.5-33T496,753ZM352,774q-15,0-26,7t-11,23q0,19 22,33t44,14q14,0 22-6t8-22q0-17-18.5-33T352,774Z" />
      <glyph unicode="&#xcc;" glyph-name="Igrave" horiz-adv-x="459" d="M-38-88q4,37 26.5,53.5T47-13t78,5q18,39 36,95.5T195.5,209T228,341.5T258,471t26.5,111.5T307,661q-52-1-88.5-3t-68-6T82,641q7,38 55,57.5T286,718q50,0 101.5-4t94.5-8.5t66-8.5q-24-24-50.5-29.5T451,662q-31,0-58.5,0T342,661q-4-21-12-65.5t-19-102t-23-119t-23.5-117T243,162Q227,98 207,54T159-9q52-3 111-10.5T376-28q-29-29-60.5-36T263-71q-40,0-78.5-0.5t-76-1.5t-74-4.5T-38-88ZM346,748q-22,29-49,57t-63,59q2,18 8,24.5t14,6.5q15,0 33-15t34-36.5t26.5-41T360,774q0-4-3-13t-11-13Z" />
      <glyph unicode="&#xcd;" glyph-name="Iacute" horiz-adv-x="459" d="M-38-88q4,37 26.5,53.5T47-13t78,5q18,39 36,95.5T195.5,209T228,341.5T258,471t26.5,111.5T307,661q-52-1-88.5-3t-68-6T82,641q7,38 55,57.5T286,718q50,0 101.5-4t94.5-8.5t66-8.5q-24-24-50.5-29.5T451,662q-31,0-58.5,0T342,661q-4-21-12-65.5t-19-102t-23-119t-23.5-117T243,162Q227,98 207,54T159-9q52-3 111-10.5T376-28q-29-29-60.5-36T263-71q-40,0-78.5-0.5t-76-1.5t-74-4.5T-38-88ZM348,748q-7,4-10.5,13T334,774q0,9 10.5,28.5t26.5,41T405,880t33,15q8,0 14.5-6.5T460,864q-36-31-63-59t-49-57Z" />
      <glyph unicode="&#xce;" glyph-name="Icircumflex" horiz-adv-x="459" d="M-38-88q4,37 26.5,53.5T47-13t78,5q18,39 36,95.5T195.5,209T228,341.5T258,471t26.5,111.5T307,661q-52-1-88.5-3t-68-6T82,641q7,38 55,57.5T286,718q50,0 101.5-4t94.5-8.5t66-8.5q-24-24-50.5-29.5T451,662q-31,0-58.5,0T342,661q-4-21-12-65.5t-19-102t-23-119t-23.5-117T243,162Q227,98 207,54T159-9q52-3 111-10.5T376-28q-29-29-60.5-36T263-71q-40,0-78.5-0.5t-76-1.5t-74-4.5T-38-88ZM440,744q-14,29-32,49.5T366,836q-31-11-55.5-24T263,779q-6,4-8,9.5t-2,9.5q0,15 13.5,30t33,28.5T338,878t29,8q12,0 27.5-11T424,846.5T447.5,810t9.5-35q0-10-4-18t-13-13Z" />
      <glyph unicode="&#xcf;" glyph-name="Idieresis" horiz-adv-x="459" d="M-38-88q4,37 26.5,53.5T47-13t78,5q18,39 36,95.5T195.5,209T228,341.5T258,471t26.5,111.5T307,661q-52-1-88.5-3t-68-6T82,641q7,38 55,57.5T286,718q50,0 101.5-4t94.5-8.5t66-8.5q-24-24-50.5-29.5T451,662q-31,0-58.5,0T342,661q-4-21-12-65.5t-19-102t-23-119t-23.5-117T243,162Q227,98 207,54T159-9q52-3 111-10.5T376-28q-29-29-60.5-36T263-71q-40,0-78.5-0.5t-76-1.5t-74-4.5T-38-88ZM422,753q-15,0-26,7t-11,23q0,19 22,33t44,14q14,0 22-6t8-22q0-17-18.5-33T422,753ZM278,774q-15,0-26,7t-11,23q0,19 22,33t44,14q14,0 22-6t8-22q0-17-18.5-33T278,774Z" />
      <glyph unicode="&#xd0;" glyph-name="Eth" horiz-adv-x="654" d="M164-87q-31,0-59,8.5T57-42Q71,28 95.5,115T145,284q-28,0-53-2.5T32,274q8,23 42,33.5T157,321q23,74 43,132.5T230,538q3,8 10,23.5T257,593t23,27.5T308,632q14,0 28-10q-28-64-56.5-141T225,323q52,0 97-3.5t67-5.5q-25-18-53.5-23.5T286,285H213q-29-92-53-180.5T120-57q14-2 23.5-3T163-61q64,0 123.5,29.5t111,81t90.5,118t60.5,141T570,457q0,122-57,179T365,693q-65,0-117-26t-82-70t-30-99q0-12 1.5-21t3.5-16q-33,0-46.5,16.5T81,517q0,35 24.5,70.5t68,65.5T274,701.5T395,720q90,0 144.5-36.5T619,585t25-139q0-87-27-166.5t-74.5-146T434,17.5t-130.5-77T164-87Z" />
      <glyph unicode="&#xd1;" glyph-name="Ntilde" horiz-adv-x="640" d="M46-87Q58-39 76,20t43.5,140.5T179,354t79,265q2,5 4.5,17.5T265,660q0,10-3.5,16.5T250,683q-24,0-45.5-18.5t-37-46.5T143,559.5T134,505q0-20 5-35q-33,0-46.5,16.5T79,527q0,34 20,68t51,62.5T215.5,703T279,720q30,0 49.5-25.5t31.5-70T380,524t15-116q6-50 12-99.5t12-94T430,133t9-61q7,47 20.5,106.5t30,124t34.5,126t33.5,113t27,86T600,671q5,13 23,31t40,18q-17-46-38.5-112.5T581,463.5t-43-158T500.5,150t-26-136.5T464-87q-31,0-50.5,18T386-6q-5,26-12.5,71.5T357.5,167T340,283.5T322.5,402T307,508.5T295,589q-48-173-82-292.5t-57.5-195T114-15T80-71.5T46-87ZM563,761q-27,0-56,11.5t-58.5,23T388,807q-13,0-27-3.5T334,792q20,28 42,39t45,11q28,0 58-12t63-24t69-12q16,0 34,8q-19-23-39.5-32T563,761Z" />
      <glyph unicode="&#xd2;" glyph-name="Ograve" horiz-adv-x="623" d="M213-87q-57,0-100,30.5T45.5,30T21,161q0,77 24.5,156T112,468t95,128.5T319,686t116,33q19,0 34-3t26-9q-8,0-9.5,0t-2.5,0q-52,0-105-34.5t-101-93t-86-131T131,298T109,147q0-53 13.5-99T166-25.5T243-53q56,0 105,34.5T436.5,75t68,131.5t44,150T564,505q0,28-4,60t-14,55t-27,23q-18,0-39-22.5T439.5,564T405,493.5T384,429q-25,6-36.5,19.5T336,478q0,27 18.5,59.5t47,63t59.5,50T517,670q26,0 42.5-19t26-48.5t13-63T602,477q0-109-24.5-198.5T511.5,121T419,6.5t-104.5-70T213-87ZM512,748q-22,29-49,57t-63,59q2,18 8,24.5t14,6.5q15,0 33-15t34-36.5t26.5-41T526,774q0-4-3-13t-11-13Z" />
      <glyph unicode="&#xd3;" glyph-name="Oacute" horiz-adv-x="623" d="M213-87q-57,0-100,30.5T45.5,30T21,161q0,77 24.5,156T112,468t95,128.5T319,686t116,33q19,0 34-3t26-9q-8,0-9.5,0t-2.5,0q-52,0-105-34.5t-101-93t-86-131T131,298T109,147q0-53 13.5-99T166-25.5T243-53q56,0 105,34.5T436.5,75t68,131.5t44,150T564,505q0,28-4,60t-14,55t-27,23q-18,0-39-22.5T439.5,564T405,493.5T384,429q-25,6-36.5,19.5T336,478q0,27 18.5,59.5t47,63t59.5,50T517,670q26,0 42.5-19t26-48.5t13-63T602,477q0-109-24.5-198.5T511.5,121T419,6.5t-104.5-70T213-87ZM514,748q-7,4-10.5,13T500,774q0,9 10.5,28.5t26.5,41T571,880t33,15q8,0 14.5-6.5T626,864q-36-31-63-59t-49-57Z" />
      <glyph unicode="&#xd4;" glyph-name="Ocircumflex" horiz-adv-x="623" d="M213-87q-57,0-100,30.5T45.5,30T21,161q0,77 24.5,156T112,468t95,128.5T319,686t116,33q19,0 34-3t26-9q-8,0-9.5,0t-2.5,0q-52,0-105-34.5t-101-93t-86-131T131,298T109,147q0-53 13.5-99T166-25.5T243-53q56,0 105,34.5T436.5,75t68,131.5t44,150T564,505q0,28-4,60t-14,55t-27,23q-18,0-39-22.5T439.5,564T405,493.5T384,429q-25,6-36.5,19.5T336,478q0,27 18.5,59.5t47,63t59.5,50T517,670q26,0 42.5-19t26-48.5t13-63T602,477q0-109-24.5-198.5T511.5,121T419,6.5t-104.5-70T213-87ZM606,744q-14,29-32,49.5T532,836q-31-11-55.5-24T429,779q-6,4-8,9.5t-2,9.5q0,15 13.5,30t33,28.5T504,878t29,8q12,0 27.5-11T590,846.5T613.5,810t9.5-35q0-10-4-18t-13-13Z" />
      <glyph unicode="&#xd5;" glyph-name="Otilde" horiz-adv-x="623" d="M213-87q-57,0-100,30.5T45.5,30T21,161q0,77 24.5,156T112,468t95,128.5T319,686t116,33q19,0 34-3t26-9q-8,0-9.5,0t-2.5,0q-52,0-105-34.5t-101-93t-86-131T131,298T109,147q0-53 13.5-99T166-25.5T243-53q56,0 105,34.5T436.5,75t68,131.5t44,150T564,505q0,28-4,60t-14,55t-27,23q-18,0-39-22.5T439.5,564T405,493.5T384,429q-25,6-36.5,19.5T336,478q0,27 18.5,59.5t47,63t59.5,50T517,670q26,0 42.5-19t26-48.5t13-63T602,477q0-109-24.5-198.5T511.5,121T419,6.5t-104.5-70T213-87ZM600,761q-27,0-56,11.5t-58.5,23T425,807q-13,0-27-3.5T371,792q20,28 42,39t45,11q28,0 58-12t63-24t69-12q16,0 34,8q-19-23-39.5-32T600,761Z" />
      <glyph unicode="&#xd6;" glyph-name="Odieresis" horiz-adv-x="623" d="M213-87q-57,0-100,30.5T45.5,30T21,161q0,77 24.5,156T112,468t95,128.5T319,686t116,33q19,0 34-3t26-9q-8,0-9.5,0t-2.5,0q-52,0-105-34.5t-101-93t-86-131T131,298T109,147q0-53 13.5-99T166-25.5T243-53q56,0 105,34.5T436.5,75t68,131.5t44,150T564,505q0,28-4,60t-14,55t-27,23q-18,0-39-22.5T439.5,564T405,493.5T384,429q-25,6-36.5,19.5T336,478q0,27 18.5,59.5t47,63t59.5,50T517,670q26,0 42.5-19t26-48.5t13-63T602,477q0-109-24.5-198.5T511.5,121T419,6.5t-104.5-70T213-87ZM588,753q-15,0-26,7t-11,23q0,19 22,33t44,14q14,0 22-6t8-22q0-17-18.5-33T588,753ZM444,774q-15,0-26,7t-11,23q0,19 22,33t44,14q14,0 22-6t8-22q0-17-18.5-33T444,774Z" />
      <glyph unicode="&#xd7;" glyph-name="multiply" horiz-adv-x="377" d="M284,20q-17,14-52,46.5T151,139q-21-21-36.5-37.5t-30-34T52,25q-4,8-4,18q0,25 21.5,56T125,167q-31,33-50,62.5T56,282q0,5 1,9.5t3,8.5q25-34 44-56t47-51q38,38 73,68.5T276,305q-4-30-20.5-54T224,212l-45-46l53-53q14-15 30.5-39.5T284,20Z" />
      <glyph unicode="&#xd8;" glyph-name="Oslash" horiz-adv-x="623" d="M46-101q-4,0-8,0.5T30-99q12,8 27.5,23.5T92-39Q58-7 39.5,44T21,161q0,77 24.5,156T112,468t95,128.5T319,686t116,33q19,0 34-3t26-9H484q-52,0-105-34.5T277.5,580T191,449T131,298T109,147q0-38 6.5-73T137,12q40,49 84.5,110.5t91,128.5t90,132.5T484,507t66,101q-5,15-12.5,25T519,643q-18,0-39-22.5T439.5,564T405,493.5T384,429q-25,6-36.5,19.5T336,478q0,27 18.5,59.5t47,63t59.5,50T517,670q17,0 30-9t22-23q11,13 34,23t45,10q5,0 8.5,0t7.5-1q-7-10-25-37.5T594,566q5-22 6.5-45.5T602,477q0-109-24.5-198.5T511.5,121T419,6.5t-104.5-70T213-87q-22,0-42.5,5T132-68Q109-84 87-92.5T46-101ZM243-53q56,0 105,35t88.5,94t68,133.5t44,155T564,521q-32-47-69-101.5t-75-110t-72.5-106t-63-91.5T239,46Q223,23 207,3.5T174-32q14-10 31-15.5T243-53Z" />
      <glyph unicode="&#xd9;" glyph-name="Ugrave" horiz-adv-x="706" d="M541-99q-37,0-59,31.5T460,7q0,14 2.5,37.5T469,98Q432,16 379-35.5T253-87q-64,0-97,39T123,49q0,39 12.5,92.5t31.5,115T204.5,381t31,120.5T248,604q0,88-56,88q-27,0-47-17.5T112,630T92.5,573T86,519q0-14 2-27t6-22q-38,0-53.5,20.5T25,539q0,31 15,63t41.5,58.5t61,43T216,720q55,0 79-33t24-88q0-37-9-81.5t-23-93T257,327q-23-73-42-141.5T196,65q0-46 19.5-79T280-47q41,0 75,26.5T415,48t44,89t28,87q14,60 31,127.5t35.5,133t37,118.5T627,688t34,32q8,0 22-8.5T711,688q-8-6-25-42.5T648,552T606,426.5t-39-139T538,153T527,42q0-69 18.5-93T607-75q-19-13-35.5-18.5T541-99ZM477,748q-22,29-49,57t-63,59q2,18 8,24.5t14,6.5q15,0 33-15t34-36.5t26.5-41T491,774q0-4-3-13t-11-13Z" />
      <glyph unicode="&#xda;" glyph-name="Uacute" horiz-adv-x="706" d="M541-99q-37,0-59,31.5T460,7q0,14 2.5,37.5T469,98Q432,16 379-35.5T253-87q-64,0-97,39T123,49q0,39 12.5,92.5t31.5,115T204.5,381t31,120.5T248,604q0,88-56,88q-27,0-47-17.5T112,630T92.5,573T86,519q0-14 2-27t6-22q-38,0-53.5,20.5T25,539q0,31 15,63t41.5,58.5t61,43T216,720q55,0 79-33t24-88q0-37-9-81.5t-23-93T257,327q-23-73-42-141.5T196,65q0-46 19.5-79T280-47q41,0 75,26.5T415,48t44,89t28,87q14,60 31,127.5t35.5,133t37,118.5T627,688t34,32q8,0 22-8.5T711,688q-8-6-25-42.5T648,552T606,426.5t-39-139T538,153T527,42q0-69 18.5-93T607-75q-19-13-35.5-18.5T541-99ZM479,748q-7,4-10.5,13T465,774q0,9 10.5,28.5t26.5,41T536,880t33,15q8,0 14.5-6.5T591,864q-36-31-63-59t-49-57Z" />
      <glyph unicode="&#xdb;" glyph-name="Ucircumflex" horiz-adv-x="706" d="M541-99q-37,0-59,31.5T460,7q0,14 2.5,37.5T469,98Q432,16 379-35.5T253-87q-64,0-97,39T123,49q0,39 12.5,92.5t31.5,115T204.5,381t31,120.5T248,604q0,88-56,88q-27,0-47-17.5T112,630T92.5,573T86,519q0-14 2-27t6-22q-38,0-53.5,20.5T25,539q0,31 15,63t41.5,58.5t61,43T216,720q55,0 79-33t24-88q0-37-9-81.5t-23-93T257,327q-23-73-42-141.5T196,65q0-46 19.5-79T280-47q41,0 75,26.5T415,48t44,89t28,87q14,60 31,127.5t35.5,133t37,118.5T627,688t34,32q8,0 22-8.5T711,688q-8-6-25-42.5T648,552T606,426.5t-39-139T538,153T527,42q0-69 18.5-93T607-75q-19-13-35.5-18.5T541-99Zm30,843q-14,29-32,49.5T497,836q-31-11-55.5-24T394,779q-6,4-8,9.5t-2,9.5q0,15 13.5,30t33,28.5T469,878t29,8q12,0 27.5-11T555,846.5T578.5,810t9.5-35q0-10-4-18t-13-13Z" />
      <glyph unicode="&#xdc;" glyph-name="Udieresis" horiz-adv-x="706" d="M541-99q-37,0-59,31.5T460,7q0,14 2.5,37.5T469,98Q432,16 379-35.5T253-87q-64,0-97,39T123,49q0,39 12.5,92.5t31.5,115T204.5,381t31,120.5T248,604q0,88-56,88q-27,0-47-17.5T112,630T92.5,573T86,519q0-14 2-27t6-22q-38,0-53.5,20.5T25,539q0,31 15,63t41.5,58.5t61,43T216,720q55,0 79-33t24-88q0-37-9-81.5t-23-93T257,327q-23-73-42-141.5T196,65q0-46 19.5-79T280-47q41,0 75,26.5T415,48t44,89t28,87q14,60 31,127.5t35.5,133t37,118.5T627,688t34,32q8,0 22-8.5T711,688q-8-6-25-42.5T648,552T606,426.5t-39-139T538,153T527,42q0-69 18.5-93T607-75q-19-13-35.5-18.5T541-99Zm12,852q-15,0-26,7t-11,23q0,19 22,33t44,14q14,0 22-6t8-22q0-17-18.5-33T553,753ZM409,774q-15,0-26,7t-11,23q0,19 22,33t44,14q14,0 22-6t8-22q0-17-18.5-33T409,774Z" />
      <glyph unicode="&#xdd;" glyph-name="Yacute" horiz-adv-x="666" d="M255-187q-57,0-97.5,24T117-93q0,26 14.5,45.5T177-18q-4-15-6-29t-2-25q0-41 22-65.5T256-162q40,0 71.5,20T382-89.5T421-19t27,75t17,65q8,34 18.5,88.5T507,326q-40-76-92.5-125.5T290,151q-59,0-84,33.5T181,270q0,39 10.5,85T215,447.5T238.5,537T249,614q0,32-12.5,55T192,692q-28,0-48-17.5T110.5,630t-20-56.5T84,519q0-14 2-27t6-22q-38,0-53.5,20.5T23,539q0,31 15,63t41.5,58.5t61,43T214,720q38,0 61-15.5T308,666t10-47q0-28-10.5-69.5T284,462q-13-45-23-90t-10-85q0-43 16.5-69.5T321,191q35,0 66,22t58,59t49,81t39,87q13,54 27.5,104.5t29.5,90T621,697t32,23q10,0 26-8.5T709,688q-21-33-36-62.5T644.5,561T617,478.5T585.5,362T544,194q-13-51-28-105T479.5-14T428-102t-72.5-62T255-187ZM466,748q-7,4-10.5,13T452,774q0,9 10.5,28.5t26.5,41T523,880t33,15q8,0 14.5-6.5T578,864q-36-31-63-59t-49-57Z" />
      <glyph unicode="&#xde;" glyph-name="Thorn" horiz-adv-x="508" d="M100-87Q75-87 53-73T31-37q0,11 5,26.5T45,18q43,134 88,268.5T232,555q-41-6-73-20t-51.5-25.5T82,498q-4,0-11.5,4.5T57,513.5T51,525q34,14 84.5,31.5T241,578q8,18 16.5,41t19,45.5t23.5,37T330,716q6,0 12.5-1.5T356,708q-14-28-28-60.5T300,579q42-4 82.5-17.5T456,524t53-58.5T529,387q0-58-28-98t-72-65.5t-94-40T240.5,163T168,156Q149,90 132.5,28T100-87Zm73,262q52,6 103.5,22.5T370,242t67,68.5T462,404q0,52-23.5,85.5t-62.5,50T292,558q-31-86-61-185.5T173,175Z" />
      <glyph unicode="&#xdf;" glyph-name="germandbls" horiz-adv-x="427" d="M-43-115q11,14 20,57T-5,47T15.5,182t27,149t36,145.5t49,124.5t66,87T280,720q45,0 75-29t30-81q0-56-27.5-99.5t-67-77.5T214,371q43-17 76-54.5T342,233t19-86T345,66T301.5-9.5T241-65.5T173-87q-23,0-39,19T110.5-18.5T103,44q0,30 7,57.5T130.5,146T164,163q4,0 8,0t8-1q-10-5-18.5-28t-13-54T144,19q0-35 7-60.5T174-67q20,0 40,20.5t37.5,54t28,73.5T290,161q0,55-21.5,106.5T212,346q-9,7-14.5,13T192,372q0,8 6.5,16T216,406q28,26 54,56t43.5,66.5T331,611q0,20-5,39t-17.5,31T272,693q-37,0-64.5-32t-48-87T124,450T96,306.5T70,161T41.5,30.5t-36-98T-43-115Z" />
      <glyph unicode="&#xe0;" glyph-name="agrave" horiz-adv-x="436" d="M48-47Q17-47-4.5-26.5T-26,36q0,36 16,77.5t44,82t63.5,74t75,53.5T251,343t65-20.5T342,268q0-25-13.5-34T293,225q2,8 3.5,17.5T298,260q0,23-11,39.5T249,316q-28,0-57-19.5t-56-52T88,174T55,99T43,33Q43-6 70-6q23,0 50,21.5t55.5,55T230,140t46,66q4,6 5,6q6-1 15.5-4t16.5-8t7-13q0-9-9-24.5T291,127T271,86.5T262,48q0-15 8-29.5T296,4q27,0 71,39.5T456,162l10-10q-21-54-54-95T341.5-7T268-30q-37,0-54.5,22T196,40q0,6 1,13.5T199,69q-43-58-78.5-87T48-47ZM325,410q-22,29-49,57t-63,59q2,18 8,24.5t14,6.5q15,0 33-15t34-36.5t26.5-41T339,436q0-4-3-13t-11-13Z" />
      <glyph unicode="&#xe1;" glyph-name="aacute" horiz-adv-x="436" d="M48-47Q17-47-4.5-26.5T-26,36q0,36 16,77.5t44,82t63.5,74t75,53.5T251,343t65-20.5T342,268q0-25-13.5-34T293,225q2,8 3.5,17.5T298,260q0,23-11,39.5T249,316q-28,0-57-19.5t-56-52T88,174T55,99T43,33Q43-6 70-6q23,0 50,21.5t55.5,55T230,140t46,66q4,6 5,6q6-1 15.5-4t16.5-8t7-13q0-9-9-24.5T291,127T271,86.5T262,48q0-15 8-29.5T296,4q27,0 71,39.5T456,162l10-10q-21-54-54-95T341.5-7T268-30q-37,0-54.5,22T196,40q0,6 1,13.5T199,69q-43-58-78.5-87T48-47ZM294,410q-7,4-10.5,13T280,436q0,9 10.5,28.5t26.5,41T351,542t33,15q8,0 14.5-6.5T406,526q-36-31-63-59t-49-57Z" />
      <glyph unicode="&#xe2;" glyph-name="acircumflex" horiz-adv-x="436" d="M48-47Q17-47-4.5-26.5T-26,36q0,36 16,77.5t44,82t63.5,74t75,53.5T251,343t65-20.5T342,268q0-25-13.5-34T293,225q2,8 3.5,17.5T298,260q0,23-11,39.5T249,316q-28,0-57-19.5t-56-52T88,174T55,99T43,33Q43-6 70-6q23,0 50,21.5t55.5,55T230,140t46,66q4,6 5,6q6-1 15.5-4t16.5-8t7-13q0-9-9-24.5T291,127T271,86.5T262,48q0-15 8-29.5T296,4q27,0 71,39.5T456,162l10-10q-21-54-54-95T341.5-7T268-30q-37,0-54.5,22T196,40q0,6 1,13.5T199,69q-43-58-78.5-87T48-47ZM391,402q-14,29-32,49.5T317,494q-31-11-55.5-24T214,437q-6,4-8,9.5t-2,9.5q0,15 13.5,30t33,28.5T289,536t29,8q12,0 27.5-11T375,504.5T398.5,468t9.5-35q0-10-4-18t-13-13Z" />
      <glyph unicode="&#xe3;" glyph-name="atilde" horiz-adv-x="436" d="M48-47Q17-47-4.5-26.5T-26,36q0,36 16,77.5t44,82t63.5,74t75,53.5T251,343t65-20.5T342,268q0-25-13.5-34T293,225q2,8 3.5,17.5T298,260q0,23-11,39.5T249,316q-28,0-57-19.5t-56-52T88,174T55,99T43,33Q43-6 70-6q23,0 50,21.5t55.5,55T230,140t46,66q4,6 5,6q6-1 15.5-4t16.5-8t7-13q0-9-9-24.5T291,127T271,86.5T262,48q0-15 8-29.5T296,4q27,0 71,39.5T456,162l10-10q-21-54-54-95T341.5-7T268-30q-37,0-54.5,22T196,40q0,6 1,13.5T199,69q-43-58-78.5-87T48-47ZM389,402q-27,0-56,11.5t-58.5,23T214,448q-13,0-27-3.5T160,433q20,28 42,39t45,11q28,0 58-12t63-24t69-12q16,0 34,8q-19-23-39.5-32T389,402Z" />
      <glyph unicode="&#xe4;" glyph-name="adieresis" horiz-adv-x="436" d="M48-47Q17-47-4.5-26.5T-26,36q0,36 16,77.5t44,82t63.5,74t75,53.5T251,343t65-20.5T342,268q0-25-13.5-34T293,225q2,8 3.5,17.5T298,260q0,23-11,39.5T249,316q-28,0-57-19.5t-56-52T88,174T55,99T43,33Q43-6 70-6q23,0 50,21.5t55.5,55T230,140t46,66q4,6 5,6q6-1 15.5-4t16.5-8t7-13q0-9-9-24.5T291,127T271,86.5T262,48q0-15 8-29.5T296,4q27,0 71,39.5T456,162l10-10q-21-54-54-95T341.5-7T268-30q-37,0-54.5,22T196,40q0,6 1,13.5T199,69q-43-58-78.5-87T48-47ZM365,415q-15,0-26,7t-11,23q0,19 22,33t44,14q14,0 22-6t8-22q0-17-18.5-33T365,415ZM221,436q-15,0-26,7t-11,23q0,19 22,33t44,14q14,0 22-6t8-22q0-17-18.5-33T221,436Z" />
      <glyph unicode="&#xe5;" glyph-name="aring" horiz-adv-x="436" d="M48-47Q17-47-4.5-26.5T-26,36q0,36 16,77.5t44,82t63.5,74t75,53.5T251,343t65-20.5T342,268q0-25-13.5-34T293,225q2,8 3.5,17.5T298,260q0,23-11,39.5T249,316q-28,0-57-19.5t-56-52T88,174T55,99T43,33Q43-6 70-6q23,0 50,21.5t55.5,55T230,140t46,66q4,6 5,6q6-1 15.5-4t16.5-8t7-13q0-9-9-24.5T291,127T271,86.5T262,48q0-15 8-29.5T296,4q27,0 71,39.5T456,162l10-10q-21-54-54-95T341.5-7T268-30q-37,0-54.5,22T196,40q0,6 1,13.5T199,69q-43-58-78.5-87T48-47ZM298,397q-39,0-55.5,16T226,451q0,24 16.5,50t44,44T348,563q41,0 58.5-15.5T424,509q0-24-17.5-50t-46-44T298,397Zm9,20q20,0 38,14t30,34.5T387,503q0,14-10.5,25.5T343,540q-20,0-38-13t-29-32t-11-37q0-13 10-27t32-14Z" />
      <glyph unicode="&#xe6;" glyph-name="ae" horiz-adv-x="543" d="M48-47Q17-47-4.5-26.5T-26,36q0,36 16,77.5t44,82t63.5,74t75,53.5T251,343q28,0 45-11t24-31q31,27 64.5,43T451,360q23,0 42.5-12T513,299q0-38-22.5-71.5t-59-59.5t-80-42.5T265,105q-2-10-3-19t-1-17q0-31 16.5-57.5T340-15q43,0 85,24.5T503,74t61,88l12-9Q549,93 507.5,49t-90-68.5T319-44q-59,0-89.5,32T197,66q-43-56-78-84.5T48-47ZM70-6q27,0 61.5,31.5T199,99q7,45 33.5,93T296,278q-4,17-15,27.5T249,316q-28,0-57-19.5t-56-52T88,174T55,99T43,33Q43-6 70-6ZM270,124q27,9 61,26.5T396.5,192t52,53T469,306q0,11-4,17t-17,6q-24,0-51-18.5T345,262t-45-66t-30-72Z" />
      <glyph unicode="&#xe7;" glyph-name="ccedilla" horiz-adv-x="323" d="M107-56Q59-56 27-24T-5,72q0,50 19.5,97.5T66,255t71,60.5T214,338q41,0 56-24t15-50q0-29-13.5-51T235,191q-17,0-29,15q15,8 26,32.5T243,285q0,12-4.5,18.5T221,310q-27,0-55.5-24t-53-62t-40-80T57,65Q57,34 72,8t58-26q40,0 80.5,22T286,67t56,96l13-10Q332,93 292,45.5T204-29T107-56Zm81-155q-29,0-45,11t-16,25q0,8 5.5,16.5T149-142q5-24 17-34.5T191-187q19,0 38,14.5t32,35T274-100q0,8-3.5,16.5T257-75q-13,0-31-10t-33-20.5T172-116q-7,0-10.5,6.5T158-98q0,2 8.5,14T187-55.5t24.5,32T233,0h13L193-81q11,8 27,16t40,8q23,0 34-10.5T305-99q0-28-16.5-54t-43-42T188-211Z" />
      <glyph unicode="&#xe8;" glyph-name="egrave" horiz-adv-x="333" d="M108-44Q47-44 16.5-10.5T-14,72q0,45 22.5,95t60,94T151,332.5T240,360q23,0 42.5-12T302,299q0-38-22.5-71.5t-59-59.5t-80-42.5T54,105q-2-10-3-19T50,69q0-15 3.5-30T66,11.5T90.5-8T129-15q43,0 85,24.5T292,74t61,88l12-9Q338,93 296.5,49t-90-68.5T108-44ZM59,124q27,9 61,26.5T185.5,192t52,53T258,306q0,11-4,17t-17,6q-24,0-51-18.5T134,262T89,196T59,124ZM294,418q-22,29-49,57t-63,59q2,18 8,24.5t14,6.5q15,0 33-15t34-36.5t26.5-41T308,444q0-4-3-13t-11-13Z" />
      <glyph unicode="&#xe9;" glyph-name="eacute" horiz-adv-x="333" d="M108-44Q47-44 16.5-10.5T-14,72q0,45 22.5,95t60,94T151,332.5T240,360q23,0 42.5-12T302,299q0-38-22.5-71.5t-59-59.5t-80-42.5T54,105q-2-10-3-19T50,69q0-15 3.5-30T66,11.5T90.5-8T129-15q43,0 85,24.5T292,74t61,88l12-9Q338,93 296.5,49t-90-68.5T108-44ZM59,124q27,9 61,26.5T185.5,192t52,53T258,306q0,11-4,17t-17,6q-24,0-51-18.5T134,262T89,196T59,124ZM263,418q-7,4-10.5,13T249,444q0,9 10.5,28.5t26.5,41T320,550t33,15q8,0 14.5-6.5T375,534q-36-31-63-59t-49-57Z" />
      <glyph unicode="&#xea;" glyph-name="ecircumflex" horiz-adv-x="333" d="M108-44Q47-44 16.5-10.5T-14,72q0,45 22.5,95t60,94T151,332.5T240,360q23,0 42.5-12T302,299q0-38-22.5-71.5t-59-59.5t-80-42.5T54,105q-2-10-3-19T50,69q0-15 3.5-30T66,11.5T90.5-8T129-15q43,0 85,24.5T292,74t61,88l12-9Q338,93 296.5,49t-90-68.5T108-44ZM59,124q27,9 61,26.5T185.5,192t52,53T258,306q0,11-4,17t-17,6q-24,0-51-18.5T134,262T89,196T59,124ZM360,410q-14,29-32,49.5T286,502q-31-11-55.5-24T183,445q-6,4-8,9.5t-2,9.5q0,15 13.5,30t33,28.5T258,544t29,8q12,0 27.5-11T344,512.5T367.5,476t9.5-35q0-10-4-18t-13-13Z" />
      <glyph unicode="&#xeb;" glyph-name="edieresis" horiz-adv-x="333" d="M108-44Q47-44 16.5-10.5T-14,72q0,45 22.5,95t60,94T151,332.5T240,360q23,0 42.5-12T302,299q0-38-22.5-71.5t-59-59.5t-80-42.5T54,105q-2-10-3-19T50,69q0-15 3.5-30T66,11.5T90.5-8T129-15q43,0 85,24.5T292,74t61,88l12-9Q338,93 296.5,49t-90-68.5T108-44ZM59,124q27,9 61,26.5T185.5,192t52,53T258,306q0,11-4,17t-17,6q-24,0-51-18.5T134,262T89,196T59,124ZM334,423q-15,0-26,7t-11,23q0,19 22,33t44,14q14,0 22-6t8-22q0-17-18.5-33T334,423ZM190,444q-15,0-26,7t-11,23q0,19 22,33t44,14q14,0 22-6t8-22q0-17-18.5-33T190,444Z" />
      <glyph unicode="&#xec;" glyph-name="igrave" horiz-adv-x="241" d="M72-26Q33-26 14-1.5T-5,58q0,23 8.5,58T26,189.5T58.5,262T98,317.5T139,339q9,0 15.5-5.5T161,317q0-12-15.5-39T109,216T72.5,142.5T57,69q0-36 12-48T106,9q34,0 72.5,34T260,162l9-10Q240,66 185.5,20T72-26ZM202,411q-22,29-49,57T90,527q2,18 8,24.5t14,6.5q15,0 33-15t34-36.5t26.5-41T216,437q0-4-3-13t-11-13Z" />
      <glyph unicode="&#xed;" glyph-name="iacute" horiz-adv-x="241" d="M72-26Q33-26 14-1.5T-5,58q0,23 8.5,58T26,189.5T58.5,262T98,317.5T139,339q9,0 15.5-5.5T161,317q0-12-15.5-39T109,216T72.5,142.5T57,69q0-36 12-48T106,9q34,0 72.5,34T260,162l9-10Q240,66 185.5,20T72-26ZM178,411q-7,4-10.5,13T164,437q0,9 10.5,28.5t26.5,41T235,543t33,15q8,0 14.5-6.5T290,527q-36-31-63-59t-49-57Z" />
      <glyph unicode="&#xee;" glyph-name="icircumflex" horiz-adv-x="240" d="M72-26Q33-26 14-1.5T-5,58q0,23 8.5,58T26,189.5T58.5,262T98,317.5T139,339q9,0 15.5-5.5T161,317q0-12-15.5-39T109,216T72.5,142.5T57,69q0-36 12-48T106,9q34,0 72.5,34T260,162l9-10Q240,66 185.5,20T72-26ZM286,403q-14,29-32,49.5T212,495q-31-11-55.5-24T109,438q-6,4-8,9.5T99,457q0,15 13.5,30t33,28.5T184,537t29,8q12,0 27.5-11T270,505.5T293.5,469t9.5-35q0-10-4-18t-13-13Z" />
      <glyph unicode="&#xef;" glyph-name="idieresis" horiz-adv-x="242" d="M72-26Q33-26 14-1.5T-5,58q0,23 8.5,58T26,189.5T58.5,262T98,317.5T139,339q9,0 15.5-5.5T161,317q0-12-15.5-39T109,216T72.5,142.5T57,69q0-36 12-48T106,9q34,0 72.5,34T260,162l9-10Q240,66 185.5,20T72-26ZM241,416q-15,0-26,7t-11,23q0,19 22,33t44,14q14,0 22-6t8-22q0-17-18.5-33T241,416ZM97,437q-15,0-26,7T60,467q0,19 22,33t44,14q14,0 22-6t8-22q0-17-18.5-33T97,437Z" />
      <glyph unicode="&#xf0;" glyph-name="eth" horiz-adv-x="473" d="M59-30Q34-30 9-10T-16,54q0,33 16,74t43,81.5t62,75t73,55T253,360q21,0 32.5-7.5T297,329q0-4-0.5-7t-1.5-7q-10,15-38,15q-32,0-62.5-19.5t-56-51T94,192T64.5,122.5T54,66q0-22 10-35T90,18q22,0 50.5,21.5t58.5,60t58.5,88T307,293q15,39 30,91.5T352,489q0,11-1,21.5T348,532q-14-2-36-6t-43.5-8.5T233,509q0,20 15.5,31t40,16.5T341,566q-10,36-31,70t-56,64q15,19 39,19q31,0 54-21t39.5-54.5T412,574q23,2 51,5t40,7q-10-17-21-25.5t-26-12T418,542q2-13 3-24.5t1-22.5q0-51-17-110T366,266T327,152T310,57q0-20 6-31.5T338,14q21,0 49,18t56,51t49,79l12-9q-19-51-52-91.5t-70.5-64T310-26q-37,0-51.5,24.5T244,49q0,17 5,45t14,62q-32-53-68-95.5T124.5-6T59-30Z" />
      <glyph unicode="&#xf1;" glyph-name="ntilde" horiz-adv-x="466" d="M323-20q-35,0-52.5,18T253,44q0,21 7.5,44T275,135.5t7,47.5q0,28-11.5,38.5T242,232q-31,0-63-25.5t-62-65T61,60T15-15Q-1-15-15.5-9.5T-38,7q0,5 10.5,31T-3,102t25,78t11,73q6,7 19,14t27,7q27,0 27-26q0-16-9-53.5T74,116q27,41 60.5,81.5T206,265t76,27q39,0 56.5-28T356,202q0-31-10-57.5t-20.5-51T315,44q0-21 8.5-29.5T345,6q25,0 50,23.5T443.5,89T485,162l11-13q-21-49-47-87T392,2T323-20Zm31,376q-27,0-56,11.5t-58.5,23T179,402q-13,0-27-3.5T125,387q20,28 42,39t45,11q28,0 58-12t63-24t69-12q16,0 34,8q-19-23-39.5-32T354,356Z" />
      <glyph unicode="&#xf2;" glyph-name="ograve" horiz-adv-x="365" d="M69-32Q26-32 8-5.5T-10,59q0,31 10,64t26.5,62t37,47T105,250q5,0 10.5-1.5T126,245q-9-8-21.5-29.5T81,166.5T62.5,112T55,66q0-30 10-43.5T91,9q21,0 50,22.5T198,89q-28,23-43.5,60.5T139,226q0,33 11.5,62T184,334.5T237,352q41,0 55-22t14-55q0-39-19-86.5T239,97q18-10 38-10q16,0 36,6.5T352.5,116T384,159l12-10q-20-47-56.5-66.5T270,63q-13,0-25,2.5T222,73Q188,28 147.5-2T69-32ZM216,115q25,37 41.5,77.5T274,269q0,29-8.5,42.5T244,325q-20,0-41-29t-21-73q0-29 8.5-58.5T216,115Zm86,309q-22,29-49,57t-63,59q2,18 8,24.5t14,6.5q15,0 33-15t34-36.5t26.5-41T316,450q0-4-3-13t-11-13Z" />
      <glyph unicode="&#xf3;" glyph-name="oacute" horiz-adv-x="365" d="M69-32Q26-32 8-5.5T-10,59q0,31 10,64t26.5,62t37,47T105,250q5,0 10.5-1.5T126,245q-9-8-21.5-29.5T81,166.5T62.5,112T55,66q0-30 10-43.5T91,9q21,0 50,22.5T198,89q-28,23-43.5,60.5T139,226q0,33 11.5,62T184,334.5T237,352q41,0 55-22t14-55q0-39-19-86.5T239,97q18-10 38-10q16,0 36,6.5T352.5,116T384,159l12-10q-20-47-56.5-66.5T270,63q-13,0-25,2.5T222,73Q188,28 147.5-2T69-32ZM216,115q25,37 41.5,77.5T274,269q0,29-8.5,42.5T244,325q-20,0-41-29t-21-73q0-29 8.5-58.5T216,115Zm55,309q-7,4-10.5,13T257,450q0,9 10.5,28.5t26.5,41T328,556t33,15q8,0 14.5-6.5T383,540q-36-31-63-59t-49-57Z" />
      <glyph unicode="&#xf4;" glyph-name="ocircumflex" horiz-adv-x="365" d="M69-32Q26-32 8-5.5T-10,59q0,31 10,64t26.5,62t37,47T105,250q5,0 10.5-1.5T126,245q-9-8-21.5-29.5T81,166.5T62.5,112T55,66q0-30 10-43.5T91,9q21,0 50,22.5T198,89q-28,23-43.5,60.5T139,226q0,33 11.5,62T184,334.5T237,352q41,0 55-22t14-55q0-39-19-86.5T239,97q18-10 38-10q16,0 36,6.5T352.5,116T384,159l12-10q-20-47-56.5-66.5T270,63q-13,0-25,2.5T222,73Q188,28 147.5-2T69-32ZM216,115q25,37 41.5,77.5T274,269q0,29-8.5,42.5T244,325q-20,0-41-29t-21-73q0-29 8.5-58.5T216,115ZM368,416q-14,29-32,49.5T294,508q-31-11-55.5-24T191,451q-6,4-8,9.5t-2,9.5q0,15 13.5,30t33,28.5T266,550t29,8q12,0 27.5-11T352,518.5T375.5,482t9.5-35q0-10-4-18t-13-13Z" />
      <glyph unicode="&#xf5;" glyph-name="otilde" horiz-adv-x="365" d="M69-32Q26-32 8-5.5T-10,59q0,31 10,64t26.5,62t37,47T105,250q5,0 10.5-1.5T126,245q-9-8-21.5-29.5T81,166.5T62.5,112T55,66q0-30 10-43.5T91,9q21,0 50,22.5T198,89q-28,23-43.5,60.5T139,226q0,33 11.5,62T184,334.5T237,352q41,0 55-22t14-55q0-39-19-86.5T239,97q18-10 38-10q16,0 36,6.5T352.5,116T384,159l12-10q-20-47-56.5-66.5T270,63q-13,0-25,2.5T222,73Q188,28 147.5-2T69-32ZM216,115q25,37 41.5,77.5T274,269q0,29-8.5,42.5T244,325q-20,0-41-29t-21-73q0-29 8.5-58.5T216,115ZM366,416q-27,0-56,11.5t-58.5,23T191,462q-13,0-27-3.5T137,447q20,28 42,39t45,11q28,0 58-12t63-24t69-12q16,0 34,8q-19-23-39.5-32T366,416Z" />
      <glyph unicode="&#xf6;" glyph-name="odieresis" horiz-adv-x="369" d="M69-32Q26-32 8-5.5T-10,59q0,31 10,64t26.5,62t37,47T105,250q5,0 10.5-1.5T126,245q-9-8-21.5-29.5T81,166.5T62.5,112T55,66q0-30 10-43.5T91,9q21,0 50,22.5T198,89q-28,23-43.5,60.5T139,226q0,33 11.5,62T184,334.5T237,352q41,0 55-22t14-55q0-39-19-86.5T239,97q18-10 38-10q16,0 36,6.5T352.5,116T384,159l12-10q-20-47-56.5-66.5T270,63q-13,0-25,2.5T222,73Q188,28 147.5-2T69-32ZM216,115q25,37 41.5,77.5T274,269q0,29-8.5,42.5T244,325q-20,0-41-29t-21-73q0-29 8.5-58.5T216,115ZM341,414q-15,0-26,7t-11,23q0,19 22,33t44,14q14,0 22-6t8-22q0-17-18.5-33T341,414ZM197,435q-15,0-26,7t-11,23q0,19 22,33t44,14q14,0 22-6t8-22q0-17-18.5-33T197,435Z" />
      <glyph unicode="&#xf7;" glyph-name="divide" horiz-adv-x="460" d="M25,124q8,20 34.5,30.5T126,169t88,4q36,0 69-1.5t59-3.5t40-4q-15-10-35-16.5T294,138t-88-3q-43,0-87.5-1.5T25,124ZM171-10q-13,0-22.5,6.5T139,17q0,17 19.5,29T197,58q12,0 19-5t7-19q0-15-16-29.5T171-10Zm60,250q-13,0-22.5,6.5T199,267q0,17 19.5,29T257,308q12,0 19-5t7-19q0-15-16-29.5T231,240Z" />
      <glyph unicode="&#xf8;" glyph-name="oslash" horiz-adv-x="363" d="M69-32q-21,0-37,8Q10-43-11-53.5T-52-64q-3,0-6.5,0T-65-63q14,8 32.5,23.5T6-2Q-2,10-6,25.5T-10,59q0,31 10,64t26.5,62t37,47T105,250q5,0 10.5-1.5T126,245q-10-9-22.5-30.5t-24-50T61,107T55,55q29,35 55,69t36,50q-4,13-5.5,26T139,226q0,33 11.5,62T184,334.5T237,352q15,0 25-3q3,5 6.5,11t7.5,12t18,10.5t27,4.5q3,0 6.5-0.5T334,386q0,0-11-17.5T295,325q11-18 11-50q0-39-19-86.5T239,97q18-10 38-10q23,0 56,15.5T384,159l12-10q-20-47-56.5-66.5T270,63q-13,0-25,2.5T222,73Q188,28 147.5-2T69-32ZM198,89q-10,8-18,18t-15,21q-20-29-43.5-58.5T73,14q8-5 18-5q21,0 50,22.5T198,89Zm18,26q29,43 46,91.5T272,290q-22-34-45-69t-37-57q5-13 11.5-26T216,115Zm30,210q-1,0-1,0t-1,0q-13,0-27.5-13.5T192,276t-10-50q15,23 31,47t33,52Z" />
      <glyph unicode="&#xf9;" glyph-name="ugrave" horiz-adv-x="438" d="M75-30Q41-30 20.5,0.5T0,71q0,29 9.5,67T33,213t29,61t26,24q5,0 17-5.5T125,278q-11-17-27-52T70,151T58,77q0-8 2-24.5T70,23T94,10q19,0 39,19.5T173.5,80T213,147t35.5,69T276,271q6-1 17.5-4t21-8t9.5-14q0-4-10-26.5t-23.5-55T267,98T257,40q0-18 7.5-29T290,0q21,0 51,19t61,55.5T457,162l13-9q-21-54-55-95.5T343-7T269-30q-26,0-41.5,10t-22,27T199,44q0,12 2,24.5T206,94q-18-33-39-61.5T123-13T75-30ZM255,370q-22,29-49,57t-63,59q2,18 8,24.5t14,6.5q15,0 33-15t34-36.5t26.5-41T269,396q0-4-3-13t-11-13Z" />
      <glyph unicode="&#xfa;" glyph-name="uacute" horiz-adv-x="438" d="M75-30Q41-30 20.5,0.5T0,71q0,29 9.5,67T33,213t29,61t26,24q5,0 17-5.5T125,278q-11-17-27-52T70,151T58,77q0-8 2-24.5T70,23T94,10q19,0 39,19.5T173.5,80T213,147t35.5,69T276,271q6-1 17.5-4t21-8t9.5-14q0-4-10-26.5t-23.5-55T267,98T257,40q0-18 7.5-29T290,0q21,0 51,19t61,55.5T457,162l13-9q-21-54-55-95.5T343-7T269-30q-26,0-41.5,10t-22,27T199,44q0,12 2,24.5T206,94q-18-33-39-61.5T123-13T75-30ZM224,370q-7,4-10.5,13T210,396q0,9 10.5,28.5t26.5,41T281,502t33,15q8,0 14.5-6.5T336,486q-36-31-63-59t-49-57Z" />
      <glyph unicode="&#xfb;" glyph-name="ucircumflex" horiz-adv-x="438" d="M75-30Q41-30 20.5,0.5T0,71q0,29 9.5,67T33,213t29,61t26,24q5,0 17-5.5T125,278q-11-17-27-52T70,151T58,77q0-8 2-24.5T70,23T94,10q19,0 39,19.5T173.5,80T213,147t35.5,69T276,271q6-1 17.5-4t21-8t9.5-14q0-4-10-26.5t-23.5-55T267,98T257,40q0-18 7.5-29T290,0q21,0 51,19t61,55.5T457,162l13-9q-21-54-55-95.5T343-7T269-30q-26,0-41.5,10t-22,27T199,44q0,12 2,24.5T206,94q-18-33-39-61.5T123-13T75-30ZM321,362q-14,29-32,49.5T247,454q-31-11-55.5-24T144,397q-6,4-8,9.5t-2,9.5q0,15 13.5,30t33,28.5T219,496t29,8q12,0 27.5-11T305,464.5T328.5,428t9.5-35q0-10-4-18t-13-13Z" />
      <glyph unicode="&#xfc;" glyph-name="udieresis" horiz-adv-x="438" d="M75-30Q41-30 20.5,0.5T0,71q0,29 9.5,67T33,213t29,61t26,24q5,0 17-5.5T125,278q-11-17-27-52T70,151T58,77q0-8 2-24.5T70,23T94,10q19,0 39,19.5T173.5,80T213,147t35.5,69T276,271q6-1 17.5-4t21-8t9.5-14q0-4-10-26.5t-23.5-55T267,98T257,40q0-18 7.5-29T290,0q21,0 51,19t61,55.5T457,162l13-9q-21-54-55-95.5T343-7T269-30q-26,0-41.5,10t-22,27T199,44q0,12 2,24.5T206,94q-18-33-39-61.5T123-13T75-30ZM295,375q-15,0-26,7t-11,23q0,19 22,33t44,14q14,0 22-6t8-22q0-17-18.5-33T295,375ZM151,396q-15,0-26,7t-11,23q0,19 22,33t44,14q14,0 22-6t8-22q0-17-18.5-33T151,396Z" />
      <glyph unicode="&#xfd;" glyph-name="yacute" horiz-adv-x="389" d="M43-280q-25,0-44,13.5T-20-227q0,32 16,57t43,46t62,40t73,38q14,37 28.5,82.5T230,137q-32-52-68.5-89.5T84,10q-19,0-37.5,8.5T16,45T4,91t9.5,65T37,228t29,58t26,23q4,0 14.5-3t20-8.5T136,286q-9-13-20-37T94.5,195.5T77,138T70,90q0-18 8-29t28-11q19,0 42.5,18.5t47,47.5T239,178q3,11 5.5,22.5T249,224q3,14 14.5,32.5T300,275q5,0 10-0.5t11-2.5q0-16-9.5-59.5T284.5,111T243-8q47,18 92,59.5T408,162l13-10q-15-48-45.5-83.5T307,7.5T232-35q-26-64-56.5-120t-64-90.5T43-280Zm-5,32q15,0 50.5,39.5T164-70q-41-22-76-43.5T32-160T11-218q0-8 6-19t21-11ZM225,381q-7,4-10.5,13T211,407q0,9 10.5,28.5t26.5,41T282,513t33,15q8,0 14.5-6.5T337,497q-36-31-63-59t-49-57Z" />
      <glyph unicode="&#xfe;" glyph-name="thorn" horiz-adv-x="391" d="M-63-280q-8,0-15.5,8.5t-11.5,18T-94-242q18,62 38,130.5t41,155T26,243T64,506q1,9 4,13t15,4q26,0 37-14.5T131,477q0-6-3.5-30.5T119,387t-11-72.5t-12-70T86,192q17,33 42.5,67T187,316t72,23q44,0 72.5-31.5T360,225q0-39-17.5-82.5t-49-82T219-2T124-26q-26,0-42,6T66-8q0,4 7.5,4.5T91-3q40,0 76.5,19.5T233,68t45.5,71T295,216q0,32-13.5,54.5T238,293q-26,0-51.5-16.5t-48-42t-40-53T72,132Q54,57 36-12.5T1.5-138.5t-30-92.5T-51-275q-5-5-12-5Z" />
      <glyph unicode="&#xff;" glyph-name="ydieresis" horiz-adv-x="389" d="M43-280q-25,0-44,13.5T-20-227q0,32 16,57t43,46t62,40t73,38q14,37 28.5,82.5T230,137q-32-52-68.5-89.5T84,10q-19,0-37.5,8.5T16,45T4,91t9.5,65T37,228t29,58t26,23q4,0 14.5-3t20-8.5T136,286q-9-13-20-37T94.5,195.5T77,138T70,90q0-18 8-29t28-11q19,0 42.5,18.5t47,47.5T239,178q3,11 5.5,22.5T249,224q3,14 14.5,32.5T300,275q5,0 10-0.5t11-2.5q0-16-9.5-59.5T284.5,111T243-8q47,18 92,59.5T408,162l13-10q-15-48-45.5-83.5T307,7.5T232-35q-26-64-56.5-120t-64-90.5T43-280Zm-5,32q15,0 50.5,39.5T164-70q-41-22-76-43.5T32-160T11-218q0-8 6-19t21-11ZM296,386q-15,0-26,7t-11,23q0,19 22,33t44,14q14,0 22-6t8-22q0-17-18.5-33T296,386ZM152,407q-15,0-26,7t-11,23q0,19 22,33t44,14q14,0 22-6t8-22q0-17-18.5-33T152,407Z" />
      <glyph unicode="&#x2013;" glyph-name="endash" horiz-adv-x="677" d="M25,114q3,34 40,51.5t100,24T307,196q59,0 99.5-2.5t71.5-6t62.5-6.5t73.5-3q-33-28-69-36.5T483,133q-58,0-103-0.5T300.5,132T239,131.5T191,131q-31-1-55.5-3t-50-5T25,114Z" />
      <glyph unicode="&#x2014;" glyph-name="emdash" horiz-adv-x="838" d="M35,114q4,34 50,51.5t124.5,24T387,196q74,0 124.5-2.5t89.5-6t78.5-6.5t91.5-3q-41-28-86-36.5T608,133q-88,0-153-0.5T343.5,132T261,131q-34,0-60.5-1t-51-3t-52-5T35,114Z" />
      <glyph unicode="&#x2018;" glyph-name="quoteleft" horiz-adv-x="144" d="M195,576q-12,19-28.5,41T138,659t-12,33q0,11 7.5,19.5T151,720q5-18 20-41t29-43t14-32q0-9-5.5-16T195,576Z" />
      <glyph unicode="&#x2019;" glyph-name="quoteright" horiz-adv-x="125" d="M143,576q-7,5-13,12t-6,16q0,13 14,33.5T167,680t20,40q10,0 17.5-8.5T212,692q0-13-12-33t-28.5-42T143,576Z" />
      <glyph unicode="&#x201a;" glyph-name="quotesinglbase" horiz-adv-x="196" d="M7-88Q-2-83-6-73t-4,22q0,20 9,45.5T22,38T51,56q10,0 17.5-8.5T76,28Q48-1 34.5-30T7-88Z" />
      <glyph unicode="&#x201c;" glyph-name="quotedblleft" horiz-adv-x="254" d="M305,576q-12,19-28,41t-28.5,42T236,692q0,11 7.5,19.5T261,720q5-18 20-40.5T310,637t14-33q0-9-5.5-16T305,576Zm-110,0q-12,19-28.5,41T138,659t-12,33q0,11 7.5,19.5T151,720q5-18 20-40.5T200,637t14-33q0-9-5.5-16T195,576Z" />
      <glyph unicode="&#x201d;" glyph-name="quotedblright" horiz-adv-x="235" d="M253,576q-7,5-13,12t-6,16q0,13 14,33t29,42.5T297,720q10,0 17.5-8.5T322,692q0-13-12-33t-28.5-42T253,576Zm-110,0q-7,5-13,12t-6,16q0,13 14,33t29,42.5T187,720q10,0 17.5-8.5T212,692q0-13-12-33t-28.5-42T143,576Z" />
      <glyph unicode="&#x201e;" glyph-name="quotedblbase" horiz-adv-x="306" d="M117-88q-9,5-13,15t-4,22q0,20 9,45.5T132,38t29,18q10,0 17.5-8.5T186,28Q158-1 144.5-30T117-88ZM7-88Q-2-83-6-73t-4,22q0,20 9,45.5T22,38T51,56q10,0 17.5-8.5T76,28Q48-1 34.5-30T7-88Z" />
      <glyph unicode="&#x2022;" glyph-name="bullet" horiz-adv-x="242" d="M85,118q-18,0-31.5,9.5T40,156q0,16 10,31.5t26,26T110,224q17,0 32.5-12.5T158,180q0-14-10.5-28.5t-27.5-24T85,118Z" />
      <glyph unicode="&#x2039;" glyph-name="guilsinglleft" horiz-adv-x="285" d="M165,44q-18,0-43.5,12T71,86T28,123.5T6,158q33,15 69,41t68,57t53,60q2-2 3.5-9.5T201,294q0-20-16.5-40.5t-42.5-40T86.5,177T32,147q22-16 41.5-29T121,91.5T194,60q-4-5-11.5-10.5T165,44Z" />
      <glyph unicode="&#x203a;" glyph-name="guilsinglright" horiz-adv-x="304" d="M87,44q-10,0-17,5.5T58,60q46,18 73,31t47,26.5T220,147q-25,13-54.5,30T110,213.5t-42.5,40T51,294q0,5 2,12.5t3,9.5q21-29 53-60t68-57t69-41q-4-15-22-34.5T181,86T130.5,56T87,44Z" />
    </font>
</defs>
</svg>
