<?xml version="1.0" standalone="no"?>
<!DOCTYPE svg PUBLIC "-//W3C//DTD SVG 1.1//EN" "http://www.w3.org/Graphics/SVG/1.1/DTD/svg11.dtd">
<svg xmlns="http://www.w3.org/2000/svg">
  <defs>
    <font id="Poppins" horiz-adv-x="852">
      <font-face font-family="Poppins" units-per-em="1000" panose-1="0 0 5 0 0 0 0 0 0 0" ascent="1050" descent="-350" alphabetic="0" />
      <glyph unicode=" " glyph-name="space" horiz-adv-x="298" />
      <glyph unicode="!" glyph-name="exclam" horiz-adv-x="298" d="M267,697L168,197H92l78,500h97ZM98-6Q75-6 60.5,8T46,45q0,30 22,51.5T120,118q23,0 37-14t14-37q0-30-22-51.5T98-6Z" />
      <glyph unicode="&quot;" glyph-name="quotedbl" horiz-adv-x="292" d="M211,796L165,597H102l23,199h86Zm134,0L300,597H237l23,199h85Z" />
      <glyph unicode="#" glyph-name="numbersign" horiz-adv-x="840" d="M660,460L589,280H728l-15-80H558L480,0H393l78,200H261L183,0H96l78,200H18l14,80H205l71,180H120l15,80H307l78,200h87L394,540H604l78,200h87L691,540H830l-14-80H660Zm-87,0H363L292,280H502l71,180Z" />
      <glyph unicode="$" glyph-name="dollar" horiz-adv-x="622" d="M463,527q2,34-19,62.5T382,627L339,384q55-14 90.5-29t60-45T514,231q0-20-4-40q-8-48-39.5-91.5T387.5,27T270-6L256-87H202L216-6Q135,1 87.5,43T40,151q0,20 2,30h97q-3-42 19-73t71-39l44,250q-57,16-92.5,30.5t-60,44T96,472q0,21 4,40q13,82 79.5,134.5T341,705l15,83h54l-15-83q84-8 127-55t38-123H463ZM193,517q-2-16-2-23q0-37 25.5-58.5T288,399l40,231q-53-4-89.5-33T193,517ZM418,186q2,16 2,22q0,38-24.5,59T325,304L283,68q55,7 90.5,39T418,186Z" />
      <glyph unicode="%" glyph-name="percent" horiz-adv-x="675" d="M89,560q12,67 60,107t112,40q56,0 89.5-31T384,591q0-14-3-31q-12-67-60.5-107.5T209,412q-56,0-89.5,31T86,528q0,16 3,32ZM657,698L129,0H38L567,698h90ZM251,651q-35,0-59-23.5T161,560q-3-15-3-27q0-31 16-47.5T219,469q34,0 58,23.5T309,560q2,9 2,25q0,32-16,49t-44,17Zm66-513q12,68 60,108t112,40q55,0 88.5-31T611,170q0-15-3-32Q596,71 548,30.5T437-10q-56,0-89.5,31T314,106q0,16 3,32Zm161,91q-34,0-58-23t-32-68q-3-15-3-26q0-31 16.5-47.5T446,48q34,0 58,23t32,67q2,9 2,26q0,32-16,48.5T478,229Z" />
      <glyph unicode="&amp;" glyph-name="ampersand" horiz-adv-x="750" d="M606,220q-27-37-52-63L683,0H565L490,92Q430,39 367.5,13.5T233-12Q135-12 78,35.5T21,166q0,84 56,149.5T227,417q-20,29-29.5,54T188,522q0,55 27,98t75,67t110,24q70,0 111-36t41-92q0-9-2-27H459q1,5 1,15q0,30-20.5,47.5T386,636q-45,0-75-29t-30-70q0-24 12-48.5T331,429L503,220l23,29l89,113h98L606,220ZM246,66q53,0 100,21t95,66L273,358q-74-27-116.5-72.5T114,179q0-50 36-81.5T246,66Z" />
      <glyph unicode="&apos;" glyph-name="quotesingle" horiz-adv-x="159" d="M213,796L166,597H103l22,199h88Z" />
      <glyph unicode="(" glyph-name="parenleft" horiz-adv-x="455" d="M230-186q-58,70-89,169T110,199q0,138 40,276.5t115,258T442,934h95l-1-9Q434,842 358,727T241,480.5T200,217q0-112 32-213t94-181l-1-9H230Z" />
      <glyph unicode=")" glyph-name="parenright" horiz-adv-x="454" d="M-32-186l1,9Q118-47 203,138.5T288,517q0,118-34.5,223T148,925l2,9h95q65-72 98.5-175T377,533q0-133-38-268T229.5,12.5T63-186H-32Z" />
      <glyph unicode="*" glyph-name="asterisk" horiz-adv-x="486" d="M454,670l25-65L329,547l129-58l-47-66L304,511L294,360H220l41,151L123,422L96,490l150,58L118,605l47,65l109-88l11,152h75L316,582l138,88Z" />
      <glyph unicode="+" glyph-name="plus" horiz-adv-x="683" d="M603,325H392L354,111H267l38,214H94l14,81H319l38,215h87L406,406H618l-15-81Z" />
      <glyph unicode="," glyph-name="comma" horiz-adv-x="198" d="M142,126L-17-143H-78L42,126H142Z" />
      <glyph unicode="-" glyph-name="hyphen" horiz-adv-x="551" d="M478,405l-14-77H65l14,77H478Z" />
      <glyph unicode="." glyph-name="period" horiz-adv-x="210" d="M54-6Q31-6 16.5,8T2,45Q2,75 24,96.5T76,118q23,0 37-14t14-37q0-30-22-51.5T54-6Z" />
      <glyph unicode="/" glyph-name="slash" horiz-adv-x="476" d="M532,942L62-170H-28L441,942h91Z" />
      <glyph unicode="0" glyph-name="zero" horiz-adv-x="628" d="M76,363q30,170 102.5,266T391,725q108,0 154.5-58.5T592,503q0-62-14-140Q548,192 475.5,96T263,0Q155,0 108.5,58.5T62,223q0,62 14,140Zm413,0q14,82 14,131q0,71-28.5,109.5T377,642q-68,0-110-36.5T202.5,509T165,363q-14-82-14-132q0-71 28.5-109.5T277,83q68,0 110,36.5T451,216t38,147Z" />
      <glyph unicode="1" glyph-name="one" horiz-adv-x="320" d="M97,626l15,83H300L175,0H83L193,626H97Z" />
      <glyph unicode="2" glyph-name="two" horiz-adv-x="575" d="M13,73Q158,176 242,240.5t145.5,135T461,513q3,18 3,36q0,47-27,74t-86,27q-67,0-112-42.5T178,494H90q24,112 99,173t176,61q90,0 140.5-44T556,562q0-24-4-45q-14-80-77.5-158T337,222T152,84H496L483,8H1L13,73Z" />
      <glyph unicode="3" glyph-name="three" horiz-adv-x="589" d="M104,541q23,92 97,144t176,52q91,0 139-41.5T564,586q0-17-3-35q-11-62-54-107T404,386v-5q53-13 82.5-49.5T516,237q0-12-4-42q-16-88-85.5-144T248-5Q150-5 92,43T34,180q0,18 1,28h88q-4-60 31.5-98T260,72q69,0 113,36.5T427,203q3,17 3,30q0,58-45,84.5T250,344H226l14,76h25q92,1 144,30.5T472,542q2,16 2,24q0,43-29,68t-85,25q-62,0-106-32t-61-86H104Z" />
      <glyph unicode="4" glyph-name="four" horiz-adv-x="629" d="M17,161l12,69L466,716H575L492,240H592l-15-79H477L449,0H359l29,161H17ZM473,621L137,240H406l67,381Z" />
      <glyph unicode="5" glyph-name="five" horiz-adv-x="628" d="M587,644H235L195,416q29,32 77,52.5T372,489q103,0 149.5-52T568,305q0-25-5-55Q543,139 467.5,68.5T271-2Q166-2 110.5,52T57,196h88q3-57 40-89T285,75q79,0 128,47.5T476,248q4,20 4,43q0,58-33.5,89T346,411q-54,0-97.5-25.5T179,316H93l72,408H600l-13-80Z" />
      <glyph unicode="6" glyph-name="six" horiz-adv-x="635" d="M511,551q-2,54-29.5,82.5T394,662q-89,0-145-68.5T166,368q32,52 91,81.5T382,479q88,0 138-47.5T570,297q0-33-5-59q-12-68-48-122T422,30T286-2Q171-2 122,55.5T73,221q0,69 15,150q65,367 321,367q98,0 144.5-53T595,551H511ZM349,402q-43,0-84-17.5t-70.5-53T156,245q-4-28-4-39q0-60 36-96T295,74q70,0 119.5,43.5T477,235q4,20 4,44q0,58-33.5,90.5T349,402Z" />
      <glyph unicode="7" glyph-name="seven" horiz-adv-x="546" d="M571,652L178,0H78L481,644H96l13,77H584l-13-69Z" />
      <glyph unicode="8" glyph-name="eight" horiz-adv-x="631" d="M211,384q-44,19-67,52t-23,78q0,17 3,35q10,55 45,98.5t93,69T396,742q100,0 153-44t53-114q0-17-3-35q-10-58-49-101.5T453,384q51-17 79-54.5T560,237q0-18-3-38q-12-67-53-116.5T400,6.5T261-20Q159-20 99.5,27.5T40,157q0,22 4,42q12,70 57,118t110,67ZM382,666q-68,0-114.5-33T210,538q-2-16-2-22q0-47 35-75t95-28q49,0 89,19.5t62.5,54T512,565q0,48-34.5,74.5T382,666ZM325,344q-74,0-127.5-35.5T132,202q-3-15-3-29q0-54 38.5-85.5T275,56q77,0 129,40t63,106q3,17 3,31q0,55-39.5,83T325,344Z" />
      <glyph unicode="9" glyph-name="nine" horiz-adv-x="630" d="M162,194q1-58 32-88.5T287,75q82,0 133.5,65T497,359q-29-45-83-70.5T300,263q-89,0-142,47.5T105,445q0,22 5,54q19,107 92.5,172.5T391,737q108,0 155.5-55T594,520q0-57-15-145q-22-126-58.5-208t-98-125T268-1Q172-1 124.5,47.5T77,174q0,13 1,20h84ZM329,340q67,0 117.5,41.5T509,494q4,28 4,40q0,59-34.5,93T379,661q-70,0-119-44T198,501q-3-19-3-38q0-57 33.5-90T329,340Z" />
      <glyph unicode=":" glyph-name="colon" horiz-adv-x="213" d="M54-6Q31-6 16.5,8T2,45Q2,75 24,96.5T76,118q23,0 37-14t14-37q0-30-22-51.5T54-6Zm0,428q-23,0-37.5,14T2,473q0,30 22,51.5T76,546q23,0 37-14t14-37q0-30-22-51.5T54,422Z" />
      <glyph unicode=";" glyph-name="semicolon" horiz-adv-x="264" d="M159,423q-23,0-37.5,14T107,474q0,30 22,51.5T181,547q23,0 37-14t14-37q0-30-22-51.5T159,423Zm8-297L8-143H-53L67,126H167Z" />
      <glyph unicode="&lt;" glyph-name="less" horiz-adv-x="555" d="M299,136L98,366L379,595H494L212,366L413,136H299Z" />
      <glyph unicode="=" glyph-name="equal" horiz-adv-x="723" d="M661,514l-14-81H127l14,81H661ZM623,299l-14-81H89l14,81H623Z" />
      <glyph unicode="&gt;" glyph-name="greater" horiz-adv-x="539" d="M149,595H263L464,366L183,136H68L350,366L149,595Z" />
      <glyph unicode="?" glyph-name="question" horiz-adv-x="524" d="M329,706q87,0 138-43.5T518,543q0-23-4-43q-19-105-93-155.5T237,294l-21-95H137l24,158h29q100,0 161,30t76,113q3,15 3,29q0,47-30,74t-83,27q-62,0-104-33.5T161,505H75q10,60 45.5,105.5t90,70.5T329,706ZM140-6Q117-6 102.5,8T88,45q0,30 22,51.5T162,118q23,0 37-14t14-37q0-30-22-51.5T140-6Z" />
      <glyph unicode="@" glyph-name="at" horiz-adv-x="1011" d="M574,641q111,0 193-42T893,481.5T937,307q0-79-26-151.5T835.5,38T720-7q-50,0-77,25T611,86q-31-43-78-68T433-7Q357-7 313.5,39.5T270,165q0,75 31.5,140T389,409.5T515,449q95,0 128-72l11,62h80L683,150q-3-18-3-35q0-60 53-60q41,0 70.5,38T848,188.5T863,302q0,131-79,203T562,577q-118,0-213.5-57.5T198.5,362T144,141Q144,9 223.5-62.5T446-134q94,0 165,34l13-62q-90-37-197-37T239-158.5T113.5-42.5T69,133q0,141 65,257T314.5,573.5T574,641ZM460,64q45,0 82.5,26T602,161t22,99q0,53-28,86t-81,33q-48,0-84.5-28.5t-56-74.5T355,179q0-53 26.5-84T460,64Z" />
      <glyph unicode="A" glyph-name="A" horiz-adv-x="674" d="M466,155H161L78,0H-18L356,693H461L590,0H494L466,155Zm-13,71L389,582L199,226H453Z" />
      <glyph unicode="B" glyph-name="B" horiz-adv-x="613" d="M588,520q-11-62-51.5-102.5T438,359q49-8 80-47.5T549,218q0-16-3-31q-9-53-43.5-95.5T412,24.5T286,0H26L150,697H400q94,0 142.5-40T591,553q0-16-3-33Zm-94-11q2,9 2,25q0,43-30,67t-87,24H228L187,394H340q63,0 104,30.5T494,509ZM456,196q3,14 3,26q0,46-34,73t-93,27H174L130,72H291q67,0 111,33t54,91Z" />
      <glyph unicode="C" glyph-name="C" horiz-adv-x="772" d="M54,349q18,102 78.5,183.5T280.5,660T464,706q114,0 189.5-55T751,495H642q-18,61-67,94.5T450,623q-73,0-136.5-33.5T206,493.5T147,349q-5-26-5-60q0-98 57.5-155.5T353,76q76,0 137,33t100,94H699Q642,103 547.5,48.5T339-6Q254-6 188,29.5T85,129.5T48,278q0,35 6,71Z" />
      <glyph unicode="D" glyph-name="D" horiz-adv-x="707" d="M367,697q149,0 231.5-72T681,425q0-40-7-78q-19-107-77.5-185.5t-149-120T243,0H26L150,697H367ZM256,70q134,0 218,73.5T581,347q6,36 6,68q0,99-59,153.5T354,623H228L130,70H256Z" />
      <glyph unicode="E" glyph-name="E" horiz-adv-x="513" d="M228,626L186,387H439l-12-70H174L130,72H414L401,0H26L150,698H524l-13-72H228Z" />
      <glyph unicode="F" glyph-name="F" horiz-adv-x="504" d="M543,697l-13-71H228L186,387H432l-13-71H173L117,0H26L150,697H543Z" />
      <glyph unicode="G" glyph-name="G" horiz-adv-x="778" d="M54,349q18,102 78.5,183.5T281,659.5T466,705q112,0 187.5-55T751,495H642q-18,61-67.5,94.5T452,623T314.5,589.5T206,493.5T147,349q-5-26-5-60q0-98 58-155.5T355,76q103,0 180,61.5T641,304H363l13,72H751l-13-70q-23-86-81.5-157.5t-141-113T341-6Q255-6 188.5,29.5T85,130T48,279q0,34 6,70Z" />
      <glyph unicode="H" glyph-name="H" horiz-adv-x="691" d="M686,697L563,0H472l56,318H174L117,0H26L150,697h91L186,389H541l54,308h91Z" />
      <glyph unicode="I" glyph-name="I" horiz-adv-x="246" d="M241,697L117,0H26L150,697h91Z" />
      <glyph unicode="J" glyph-name="J" horiz-adv-x="530" d="M500,697L409,182Q393,95 331.5,44T183-7Q107-7 63.5,33T20,144q0,24 4,45h91q-3-15-3-30q0-39 21-62t65-23q50,0 80.5,30.5T318,182l90,515h92Z" />
      <glyph unicode="K" glyph-name="K" horiz-adv-x="599" d="M266,348L523,0H404L174,318L117,0H26L150,697h91L184,375L529,697H643L266,348Z" />
      <glyph unicode="L" glyph-name="L" horiz-adv-x="432" d="M130,70H374L361,0H26L150,697h91L130,70Z" />
      <glyph unicode="M" glyph-name="M" horiz-adv-x="861" d="M855,692L733,0H642l91,516L412,0H348L208,514L117,0H26L149,692h98L402,120L758,692h97Z" />
      <glyph unicode="N" glyph-name="N" horiz-adv-x="703" d="M574,0H483L216,555L117,0H26L150,698h91L509,144l98,554h91L574,0Z" />
      <glyph unicode="O" glyph-name="O" horiz-adv-x="786" d="M344-7Q257-7 191,29.5T88.5,132T52,283q0,118 53.5,214.5T253,649.5T463,705q88,0 154.5-36.5T720,566.5T756,416q0-119-53.5-215.5T555,48.5T344-7Zm13,82q88,0 157.5,45.5T623,243t39,167q0,99-57,156T450,623q-88,0-157.5-45.5t-108-122T146,289q0-99 56.5-156.5T357,75Z" />
      <glyph unicode="P" glyph-name="P" horiz-adv-x="579" d="M579,493q-15-87-85-144.5T303,291H169L117,0H26L150,697H375q104,0 156-44.5T583,534q0-13-4-41ZM316,363q75,0 117,34.5T486,493q3,18 3,33q0,99-127,99H228L182,363H316Z" />
      <glyph unicode="Q" glyph-name="Q" horiz-adv-x="788" d="M756,416q0-125-59-225T537,39L680-132H562L449,6Q401-7 344-7Q257-7 191,29.5T88.5,132T52,283q0,118 53.5,214.5T253,649.5T463,705q88,0 154.5-36.5T720,566.5T756,416ZM146,289q0-99 56.5-156.5T357,75q88,0 157.5,45.5T623,243t39,167q0,99-57,156T450,623q-88,0-157.5-45.5t-108-122T146,289Z" />
      <glyph unicode="R" glyph-name="R" horiz-adv-x="608" d="M374,697q104,0 157-45t53-120q0-12-4-40q-13-72-64-127T379,292L502,0H393L277,285H168L117,0H26L150,697H374ZM486,492q3,18 3,33q0,48-31.5,74T361,625H228L181,358H315q74,0 117,36.5T486,492Z" />
      <glyph unicode="S" glyph-name="S" horiz-adv-x="582" d="M264-7Q167-7 106.5,39.5T46,164q0,15 1,22h90q-3-49 30-84T268,67T376,98t40,87q0,34-19.5,57.5t-48,39T271,316q-60,24-96.5,45T113,418T90,509q0,58 31,103t85.5,69.5T331,706q68,0 117.5-23T523,619t22-92H450q2,26-11.5,50t-42,39T326,631q-65,0-104.5-30.5T182,517q0-31 18.5-53.5t46.5-38T324,389q59-25 96.5-46.5T484,285t26-90q0-58-30-103.5t-86-72T264-7Z" />
      <glyph unicode="T" glyph-name="T" horiz-adv-x="541" d="M578,697l-13-71H375L265,0H174L284,626H94l13,71H578Z" />
      <glyph unicode="U" glyph-name="U" horiz-adv-x="675" d="M239,697L161,257q-5-30-5-49q0-68 38-101T300,74q81,0 134,45.5T504,257l78,440h91L595,257q-15-87-60.5-146.5T424,22T285-7Q186-7 125,44T64,194q0,30 6,63l78,440h91Z" />
      <glyph unicode="V" glyph-name="V" horiz-adv-x="676" d="M192,697L303,98L628,697h98L339,0H234L94,697h98Z" />
      <glyph unicode="W" glyph-name="W" horiz-adv-x="976" d="M1025,697L700,0H598L535,561L269,0L167-1L95,697h98l48-589L512,697H615l56-587L927,697h98Z" />
      <glyph unicode="X" glyph-name="X" horiz-adv-x="621" d="M373,348L525,0H422L303,273L96,0H-6L270,349L118,697H220L339,425L547,697H649L373,348Z" />
      <glyph unicode="Y" glyph-name="Y" horiz-adv-x="584" d="M638,697L334,263L287,0H196l47,263L91,697H193L302,346L535,697H638Z" />
      <glyph unicode="Z" glyph-name="Z" horiz-adv-x="541" d="M117,79H458L443,0H-5L8,72L442,618H107l15,79H564l-13-72L117,79Z" />
      <glyph unicode="[" glyph-name="bracketleft" horiz-adv-x="423" d="M428,942l-13-76H320L150-102h94l-14-76H50L248,942H428Z" />
      <glyph unicode="\" glyph-name="backslash" horiz-adv-x="509" d="M265-170L178,942h90L354-170H265Z" />
      <glyph unicode="]" glyph-name="bracketright" horiz-adv-x="423" d="M209-186H29l13,76h94L308,859H213l13,75H406L209-186Z" />
      <glyph unicode="^" glyph-name="asciicircum" horiz-adv-x="629" d="M110,169H16L344,693h84L572,169H477L368,581L110,169Z" />
      <glyph unicode="_" glyph-name="underscore" horiz-adv-x="733" d="M580-38l-15-84H33L47-38H580Z" />
      <glyph unicode="`" glyph-name="grave" horiz-adv-x="257" d="M295,657l-12-68L91,703l14,79L295,657Z" />
      <glyph unicode="a" glyph-name="a" horiz-adv-x="676" d="M40,276q15,84 60.5,147.5t111,98.5T351,557q72,0 119-31t65-78l18,100h92L548,0H456l19,102q-36-48-95-79.5T250-9Q186-9 137,18.5T61,97T34,215q0,30 6,61Zm465-1q4,21 4,45q0,73-43.5,115.5T355,478q-51,0-97.5-24T178,384T134,276q-4-21-4-46q0-74 43-116.5T283,71q51,0 97.5,24.5t80,71T505,275Z" />
      <glyph unicode="b" glyph-name="b" horiz-adv-x="676" d="M196,446q37,49 96,80t128,31q98,0 157.5-59T637,338q0-29-6-62q-15-83-60.5-148T459.5,27T321-9Q250-9 202,22t-67,79L117,0H26L157,740h91L196,446ZM538,276q4,21 4,46q0,73-43,114.5T388,478q-50,0-97-24.5t-80.5-71T166,275q-4-21-4-46q0-73 43.5-115.5T316,71q51,0 97.5,24.5t80,71T538,276Z" />
      <glyph unicode="c" glyph-name="c" horiz-adv-x="607" d="M40,275q15,85 60.5,148.5T213,522t145,35q101,0 157.5-49T578,372H480q-5,50-40.5,79T344,480q-78,0-135.5-53.5T134,275q-5-33-5-55q0-73 39-112.5T272,68q60,0 104.5,28T445,176h98Q507,92 432,41.5T258-9Q155-9 94.5,50T34,211q0,31 6,64Z" />
      <glyph unicode="d" glyph-name="d" horiz-adv-x="676" d="M40,276q15,84 60.5,147.5T212,522t140,35q63,0 113-29.5T536,450l51,290h92L548,0H456l19,103q-35-49-94-80.5T251-9Q187-9 138,18.5T61.5,97T34,215q0,30 6,61Zm465-1q4,21 4,45q0,73-43.5,115.5T355,478q-51,0-97.5-24T178,384T134,276q-4-21-4-46q0-74 43-116.5T283,71q51,0 97.5,24.5t80,71T505,275Z" />
      <glyph unicode="e" glyph-name="e" horiz-adv-x="620" d="M361,557q69,0 119.5-26.5t77-74T584,348q0-21-5-51q-4-26-13-54H128q-2-20-2-29q0-69 41.5-107.5T276,68q59,0 103.5,27.5T447,169h98Q509,90 434.5,40.5T262-9Q159-9 96.5,50.5T34,213q0,29 6,62q15,85 61,149t113.5,98.5T361,557ZM487,309q3,20 3,37q0,64-40.5,99T344,480q-70,0-127-45.5T140,309H487Z" />
      <glyph unicode="f" glyph-name="f" horiz-adv-x="329" d="M365,688q-61,0-89.5-23.5T238,587l-7-39H346l-13-75H218L134,0H43l83,473H56l13,75h70l7,39q17,92 72,134.5T378,764l-13-76Z" />
      <glyph unicode="g" glyph-name="g" horiz-adv-x="676" d="M351,557q71,0 119-31t65-78l18,100h92L546-12q-13-75-55.5-133.5T383-237T239-270q-108,0-171,51.5T7-80H98q6-50 47.5-80.5T253-191q75,0 131,47T455-12l20,115q-36-48-94.5-80T251-9Q187-9 138,18.5T61.5,97T34,215q0,30 6,61q15,84 60.5,147.5t111,98.5T351,557ZM505,275q4,21 4,45q0,73-43.5,115.5T355,478q-51,0-97.5-24T178,384T134,276q-4-21-4-46q0-74 43-116.5T283,71q51,0 97.5,24.5t80,71T505,275Z" />
      <glyph unicode="h" glyph-name="h" horiz-adv-x="640" d="M397,558q82,0 132-45.5T579,381q0-32-5-58L517,0H427l55,310q4,21 4,44q0,61-33.5,93T359,479q-72,0-122.5-45T171,303v2L117,0H26L157,740h91L200,469q34,42 86.5,65.5T397,558Z" />
      <glyph unicode="i" glyph-name="i" horiz-adv-x="246" d="M185,637q-22,0-36.5,14.5T134,688q0,30 22,51.5T207,761q23,0 37-14t14-37q0-30-22-51.5T185,637Zm29-89L117,0H26l97,548h91Z" />
      <glyph unicode="j" glyph-name="j" horiz-adv-x="248" d="M188,637q-23,0-37.5,14T136,688q0,30 22,51.5T209,761q23,0 37-14t14-37q0-30-22-51.5T188,637ZM99-119Q87-192 44-226T-70-260h-54l14,77h38q38,0 56,15T8-117L126,548h91L99-119Z" />
      <glyph unicode="k" glyph-name="k" horiz-adv-x="515" d="M246,274L456,0H332L160,241L117,0H26L157,740h91L171,306L425,548H551L246,274Z" />
      <glyph unicode="l" glyph-name="l" horiz-adv-x="246" d="M248,740L117,0H26L157,740h91Z" />
      <glyph unicode="m" glyph-name="m" horiz-adv-x="1030" d="M784,558q84,0 134.5-45.5T969,380q0-32-5-57L907,0H817l55,310q4,21 4,45q0,61-32.5,92.5T752,479q-68,0-116.5-41.5T569,318L512,0H422l55,310q4,23 4,46q0,60-32.5,91.5T357,479q-71,0-121-45.5T171,302v2L117,0H26l97,548h91l-14-79q34,43 84,66t105,23q69,0 116.5-31T568,436q34,58 92.5,90T784,558Z" />
      <glyph unicode="n" glyph-name="n" horiz-adv-x="640" d="M392,558q85,0 136-45.5T579,380q0-32-5-57L517,0H427l55,310q4,21 4,44q0,61-33.5,93T359,479q-72,0-122.5-45T171,303v2L117,0H26l97,548h91l-14-79q34,43 85,66t107,23Z" />
      <glyph unicode="o" glyph-name="o" horiz-adv-x="640" d="M267-9Q198-9 145.5,19.5T64,99.5T35,219q0,93 43,170.5T196.5,512T365,557q69,0 122.5-28.5t83-80T600,328q0-93-44-170T436,36T267-9Zm11,77q65,0 117,35.5t81.5,94T506,323q0,76-44,116.5T352,480q-65,0-116-35.5T157,350T129,223q0-74 42-114.5T278,68Z" />
      <glyph unicode="p" glyph-name="p" horiz-adv-x="676" d="M196,447q36,47 95,78.5T420,557q64,0 113.5-26.5t76.5-76T637,338q0-29-6-62q-15-83-60.5-148T459.5,27T321-9Q251-9 203.5,22.5T135,101L72-260H-19L123,548h91L196,447ZM538,276q4,21 4,46q0,73-43,114.5T388,478q-50,0-97-24.5t-80.5-71T166,275q-4-21-4-46q0-73 43.5-115.5T316,71q51,0 97.5,24.5t80,71T538,276Z" />
      <glyph unicode="q" glyph-name="q" horiz-adv-x="676" d="M40,276q15,84 60.5,147.5T212,522t140,35q71,0 118.5-31.5T535,448l18,100h92L502-260H411l63,361q-33-46-93-78T249-9Q186-9 137,18.5T61,97T34,215q0,30 6,61Zm465-1q4,21 4,45q0,73-43.5,115.5T355,478q-51,0-97.5-24T178,384T134,276q-4-21-4-46q0-74 43-116.5T283,71q51,0 97.5,24.5t80,71T505,275Z" />
      <glyph unicode="r" glyph-name="r" horiz-adv-x="373" d="M196,444q33,54 83,84t114,30l-17-94H352q-71,0-118.5-38T170,298L117,0H26l97,548h91L196,444Z" />
      <glyph unicode="s" glyph-name="s" horiz-adv-x="522" d="M219-9Q133-9 78,32T23,142q0,13 1,19h89q-4-43 25.5-70T224,64t90.5,21.5T349,146q0,33-28,52t-86,41q-51,19-84,36T95,322.5T72,400q0,46 26.5,82t74,55.5T281,557q84,0 138-42t54-110q0-13-1-20H385l1,12q0,40-30.5,63.5T275,484q-49,0-80.5-22T163,403q0-35 29-55t90-44q51-20 82-36.5T417,222t22-73q0-48-28.5-84T332,10T219-9Z" />
      <glyph unicode="t" glyph-name="t" horiz-adv-x="364" d="M164,150q-3-15-3-26q0-25 15.5-36T227,77h67L280,0H198q-65,0-97.5,25T68,107q0,22 4,43l57,323H59l13,75h71l24,138h92L235,548H377l-13-75H221L164,150Z" />
      <glyph unicode="u" glyph-name="u" horiz-adv-x="640" d="M609,548L512,0H421l14,80q-33-42-84-65T245-8Q159-8 107.5,38.5T56,172q0,22 5,55l57,321h90L154,239q-4-21-4-44q0-61 33.5-92.5T277,71q72,0 122.5,45T464,247v-3l54,304h91Z" />
      <glyph unicode="v" glyph-name="v" horiz-adv-x="561" d="M245,86L497,548h98L283,0H176L58,548h98L245,86Z" />
      <glyph unicode="w" glyph-name="w" horiz-adv-x="820" d="M853,548L585,0H491L437,436L227,0H133L58,548h93L196,88L412,548h94L558,91L763,548h90Z" />
      <glyph unicode="x" glyph-name="x" horiz-adv-x="479" d="M287,277L415,0H312L218,204L57,0H-39L187,272L59,548H162l93-202L415,548h96L287,277Z" />
      <glyph unicode="y" glyph-name="y" horiz-adv-x="563" d="M159,548l93-442L501,548h94L123-258H28L183,6L58,548H159Z" />
      <glyph unicode="z" glyph-name="z" horiz-adv-x="455" d="M108,75H377L363,0H-10L3,75L340,474H76l13,74H457l-13-74L108,75Z" />
      <glyph unicode="{" glyph-name="braceleft" horiz-adv-x="462" d="M129,409q105,18 121,105q7,38 13,128q6,93 15,144q12,72 59,110t115,38h58l-14-79H455q-38,0-60.5-17.5T365,780q-5-29-8.5-70.5T352,655q-6-94-15-144Q317,396 207,375l-1-2q45-11 65.5-34T292,278q0-25-10-69T253,91Q240,44 230,1T220-59q0-49 66-49h41l-15-79H254q-58,0-91.5,29T129-74q0,27 10.5,72T170,113q17,63 25,97t8,52q0,32-21,50t-66,26l13,71Z" />
      <glyph unicode="|" glyph-name="bar" horiz-adv-x="291" d="M121-106H30L190,795h91L121-106Z" />
      <glyph unicode="}" glyph-name="braceright" horiz-adv-x="462" d="M368,338q-55-10-84.5-37.5T248,233q-9-46-14-132q-6-89-15-140q-12-72-59.5-110T45-187H-13L1-108H42q38,0 60,17.5T131-33q6,31 9.5,75T145,97q1,12 4.5,58T160,236q9,53 42,89t90,48l1,2q-88,18-88,105q0,15 3,31q6,37 34,137q26,94 33,132q2,16 2,21q0,29-16.5,41.5T211,855H171l13,79h58q59,0 92.5-29T368,821q0-17-3-35q-11-57-35-138q-27-98-33-134q-2-14-2-21q0-67 86-84l-13-71Z" />
      <glyph unicode="~" glyph-name="asciitilde" horiz-adv-x="519" d="M30,248q26,74 69,110t98,36q27,0 45.5-9T287,358q21-15 35-22t32-7q25,0 47,17t31,47h68q-26-74-69-110t-99-36q-27,0-46,9t-43,27q-19,15-33.5,22T176,312q-25,0-47-17T97,248H30Z" />
      <glyph unicode="&#xa0;" glyph-name="uni00A0" horiz-adv-x="298" />
      <glyph unicode="&#xa1;" glyph-name="exclamdown" horiz-adv-x="335" d="M215,564q23,0 37.5-14T267,513q0-30-22-51.5T193,440q-22,0-36.5,14.5T142,491q0,30 22,51.5T215,564ZM46-139l99,500h76L143-139H46Z" />
      <glyph unicode="&#xa2;" glyph-name="cent" horiz-adv-x="665" d="M350,445q-76,0-132-48.5T146,262q-4-20-4-44q0-66 39-102T286,80q61,0 103.5,27.5T453,184h85q-23-74-87.5-123T297,5L280-89H226L243,5q-91,8-139.5,62.5T55,207q0,23 5,55q18,106 91,176.5T333,519l16,92h54l-16-92q87-7 135-55.5T565,341H480q-3,49-36,76.5T350,445Z" />
      <glyph unicode="&#xa3;" glyph-name="sterling" horiz-adv-x="620" d="M498,511q2,18 2,27q0,48-27.5,76T389,642q-58,0-101-34T233,504q-4-23-4-48q0-35 9-84H432l-11-64H247q2-36-2-62Q227,150 143,74H507L494-2H48L41,50q51,47 79,90t39,106q3,20 3,37t-1,25H48l11,64h91q-8,46-8,77q0,22 5,59q17,96 87.5,153.5T402,719q91,0 136.5-47.5T584,548q0-17-3-37H498Z" />
      <glyph unicode="&#xa4;" glyph-name="currency" horiz-adv-x="537" d="M448,484q17-31 17-73q0-16-3-34q-10-58-51-106l49-59l-49-42l-50,60q-52-30-110-30q-59,0-97,29L84,170L49,212l70,59q-14,31-14,68q0,19 3,38q10,63 50,107l-50,60l50,42l50-61q49,29 107,29t98-29l72,61l34-42l-71-60ZM181,377q-3-16-3-32q0-43 23-66.5T261,255q43,0 80,32.5T388,377q3,15 3,29q0,44-24,68.5T305,499q-44,0-79-32.5T181,377Z" />
      <glyph unicode="&#xa5;" glyph-name="yen" horiz-adv-x="595" d="M424,383H561l-11-66l-173-2l-37-52l-7-39H533l-12-67H321L293,0H202l28,157H30l12,67H242l7,39l-18,52L59,317l11,66H207L97,697H199L308,346L541,697H644L424,383Z" />
      <glyph unicode="&#xa6;" glyph-name="brokenbar" horiz-adv-x="291" d="M190,795h91L214,417H123l67,378ZM121-106H30L98,273h91L121-106Z" />
      <glyph unicode="&#xa7;" glyph-name="section" horiz-adv-x="575" d="M446,546q4,44-20.5,72.5T345,647q-54,0-88-21.5T216,563q-1-5-1-15q0-31 30.5-53T356,445q86-29 128.5-65T527,288q0-66-44-117.5T357,95q40-20 63-46.5T443-15q0-48-29.5-89.5T331-171T210-196q-84,0-134,36T26-58q0,9 2,27h91q-4-45 21-73t82-28q53,0 86.5,21.5T349-46q1,5 1,15q0,30-30.5,51.5T209,70q-86,30-129,66.5T37,229q0,65 45.5,117.5T208,420q-41,22-64,48t-23,64q0,48 30,89.5t83.5,66T356,712q84,0 133.5-37T539,572q0-8-2-26H446ZM433,277q0,42-35,68.5T301,372q-50,0-88.5-18.5t-60-49T131,240q0-43 35.5-70T264,143q50,0 88.5,19T412,212t21,65Z" />
      <glyph unicode="&#xa8;" glyph-name="dieresis" horiz-adv-x="314" d="M135,622q-20,0-32.5,12T90,665q0,25 19,43.5T153,727q19,0 31.5-12.5T197,684q0-25-19-43.5T135,622Zm163,0q-20,0-32.5,12T253,665q0,25 19,43.5T316,727q19,0 31.5-12.5T360,684q0-25-19-43.5T298,622Z" />
      <glyph unicode="&#xa9;" glyph-name="copyright" horiz-adv-x="792" d="M470,704q89,0 154.5-35t101-98.5T761,423q0-38-7-74q-18-103-76-183.5T533,39.5T345-6Q256-6 190,29T88.5,128T53,276q0,29 7,73q18,103 76.5,184t145,126T470,704Zm-6-39q-93,0-169-39.5t-126-111T103,349q-6-37-6-71q0-113 67.5-179.5T352,32q92,0 167.5,40T645,183.5T711,349q7,35 7,73q0,112-67,177.5T464,665Zm-17-84q-60,0-114.5-28T240,472.5T189,350q-5-30-5-50q0-84 50.5-133T365,118q75,0 137,40.5T596,267H512q-44-83-135-83q-50,0-80.5,31.5T266,305q0,23 4,44q14,80 60,123t105,43q44,0 72.5-21.5T541,432h84q-7,71-54.5,110T447,581Z" />
      <glyph unicode="&#xaa;" glyph-name="ordfeminine" horiz-adv-x="450" d="M76,530q9,52 38,93t71,63.5T274,709q48,0 78.5-21T392,632l12,71h72L415,353H343l12,71q-21-35-58.5-56T211,347q-62,0-100.5,40T72,491q0,13 4,39Zm297-2q3,17 3,30q0,44-26,69t-67,25q-47,0-85-33t-48-90q-3-15-3-28q0-45 26-71t66-26q48,0 86.5,33.5T373,528Z" />
      <glyph unicode="&#xab;" glyph-name="guillemotleft" horiz-adv-x="461" d="M111,120L46,295L173,470h89L132,295l69-175H111Zm180,0L226,295L353,470h90L313,295l68-175H291Z" />
      <glyph unicode="&#xac;" glyph-name="logicalnot" horiz-adv-x="738" d="M712,432L674,220H584l25,140H58l13,72H712Z" />
      <glyph unicode="&#xad;" glyph-name="uni00AD" horiz-adv-x="551" d="M478,405l-14-77H65l14,77H478Z" />
      <glyph unicode="&#xae;" glyph-name="registered" horiz-adv-x="509" d="M332,706q77,0 123-45.5T501,542q0-19-3-40q-11-58-45.5-105t-85-73.5T259,297q-78,0-124.5,45.5T88,461q0,22 4,41q10,58 44.5,104.5t85.5,73T332,706ZM456,502q3,18 3,36q0,59-35.5,94T325,667q-73,0-125-46T135,502q-3-19-3-36q0-59 35.5-94T266,337q72,0 124.5,46T456,502ZM330,611q29,0 46-14.5T393,557q0-29-16-49t-43-28l41-83l-62-1l-35,80H262l-15-80H195l38,215h97Zm8-65q0,17-21,17H277l-7-42h40q11,0 18.5,5.5T338,542v4Z" />
      <glyph unicode="&#xaf;" glyph-name="macron" horiz-adv-x="387" d="M444,709l-12-68H80l12,68H444Z" />
      <glyph unicode="&#xb0;" glyph-name="degree" horiz-adv-x="410" d="M70,524q14,79 72,127t136,48q68,0 108-37t40-101q0-17-3-37q-14-79-72.5-128T214,347q-67,0-107,37.5T67,486q0,19 3,38Zm279,0q3,17 3,31q0,43-23.5,67T267,646q-44,0-79-32.5T143,524q-3-18-3-32q0-44 22.5-67T223,402q45,0 80.5,32T349,524Z" />
      <glyph unicode="&#xb1;" glyph-name="plusminus" horiz-adv-x="686" d="M402,374L370,197H581l-14-81H58l14,81H283l32,177H103l15,82H329l30,168h87L416,456H627l-15-82H402Z" />
      <glyph unicode="&#xb2;" glyph-name="twosuperior" horiz-adv-x="330" d="M341,600q-7-38-34.5-67.5T224,467l-89-56H311l-11-59H43l9,52l125,88q38,28 59.5,52T264,597q1,5 1,13q0,21-12,32.5T222,654q-24,0-40-13.5T159,603H86q11,48 50,77.5T234,710q51,0 80-26t29-66q0-6-2-18Z" />
      <glyph unicode="&#xb3;" glyph-name="threesuperior" horiz-adv-x="332" d="M84,611q12,44 54,71.5T238,710q50,0 82-25t32-63q0-35-22-59.5T275,529v-2q23-9 37-26.5T326,459q0-29-20-55t-55.5-41.5T171,347q-56,0-87.5,24T52,439q0,10 1,15h71q-1-27 13.5-40T179,401q31,0 51,17t20,45q0,20-15,31t-40,11H152l9,48h41q32,0 52,16t20,45q0,19-13.5,30T223,655q-26,0-43.5-12T153,611H84Z" />
      <glyph unicode="&#xb4;" glyph-name="acute" horiz-adv-x="247" d="M304,703L70,589l12,68L318,782l-14-79Z" />
      <glyph unicode="&#xb5;" glyph-name="uni00B5" horiz-adv-x="645" d="M614,548L517,0H426l18,99q-35-53-88-80.5T243-9Q204-9 173,6T126,53L71-260H-19L123,548h90L160,248q-5-28-5-49q0-63 34.5-96.5T284,69q71,0 120.5,45T469,245v-1l54,304h91Z" />
      <glyph unicode="&#xb6;" glyph-name="paragraph" horiz-adv-x="596" d="M467,0H386L496,621H419L309,0H228l50,286H268q-103,0-154,43.5T63,446q0,23 4,42q16,90 86,147t186,57H590L467,0Z" />
      <glyph unicode="&#xb7;" glyph-name="periodcentered" horiz-adv-x="212" d="M57,279q-23,0-37.5,14T5,330q0,30 22,51.5T79,403q23,0 37-14t14-37q0-30-22-51.5T57,279Z" />
      <glyph unicode="&#xb8;" glyph-name="cedilla" horiz-adv-x="272" d="M65-58q52,1 82.5-19.5T178-137q0-54-41-88.5T36-260H-79l10,59H28q33,0 50.5,10T100-157q1,4 1,10q0,18-14,25.5T44-114H-7L15,7H76L65-58Z" />
      <glyph unicode="&#xb9;" glyph-name="onesuperior" horiz-adv-x="196" d="M88,648l10,56H224L162,352H90l52,296H88Z" />
      <glyph unicode="&#xba;" glyph-name="ordmasculine" horiz-adv-x="436" d="M75,528q15,82 75,131.5T290,709q71,0 114.5-39T448,565q0-17-3-37q-9-54-40-95t-77-64t-98-23q-71,0-114.5,40T72,493q0,17 3,35Zm296-1q3,17 3,31q0,45-26.5,70.5T281,654q-47,0-83.5-33.5T150,527q-3-16-3-31q0-45 26-69.5T239,402q46,0 84,33t48,92Z" />
      <glyph unicode="&#xbb;" glyph-name="guillemotright" horiz-adv-x="461" d="M150,295L82,470h89l65-175L109,120H20L150,295Zm180,0L262,470h90l65-175L290,120H201L330,295Z" />
      <glyph unicode="&#xbc;" glyph-name="onequarter" horiz-adv-x="640" d="M103,648l10,56H239L177,352H105l52,296H103Zm491,50L97,0H11L508,698h86ZM563,69H515L503,0H431l12,69H260l8,42L468,353h98L523,116h48l-8-47ZM484,291L342,116H453l31,175Z" />
      <glyph unicode="&#xbd;" glyph-name="onehalf" horiz-adv-x="675" d="M158,648H104l10,56H240L178,352H106l52,296Zm424,50L93,0H6L495,698h87ZM684,247q-7-38-34.5-67.5T567,114L478,58H654L643-1H386l9,52l125,88q38,28 59.5,52T607,244q1,5 1,13q0,21-12,32.5T565,301q-24,0-40-13.5T502,250H429q11,48 50,77.5T577,357q51,0 80-26t29-66q0-6-2-18Z" />
      <glyph unicode="&#xbe;" glyph-name="threequarters" horiz-adv-x="691" d="M99,611q12,44 54,71.5T253,710q50,0 82-25t32-63q0-35-22-59.5T290,529v-2q23-9 37-26.5T341,459q0-29-20-55t-55.5-41.5T186,347q-56,0-87.5,24T67,439q0,10 1,15h71q-1-27 13.5-40T194,401q31,0 51,17t20,45q0,20-15,31t-40,11H167l9,48h41q32,0 52,16t20,45q0,19-13.5,30T238,655q-26,0-43.5-12T168,611H99Zm579,87L166,0H80L592,698h86ZM623,69H575L563,0H491l12,69H321l7,42L528,353h98L584,116h47l-8-47ZM544,291L402,116H513l31,175Z" />
      <glyph unicode="&#xbf;" glyph-name="questiondown" horiz-adv-x="519" d="M382,556q23,0 37.5-14T434,505q0-30-22-51.5T360,432q-22,0-36.5,14.5T309,483q0,30 22,51.5T382,556ZM193-156q-87,0-138,43.5T4,7Q4,30 8,50q19,105 93,155.5T285,256l21,95h79L361,193H332q-100,0-161-30T95,50q-3-15-3-29q0-47 30-74t83-27q62,0 104,33.5T361,45h86Q437-15 401.5-60.5t-90-70.5T193-156Z" />
      <glyph unicode="&#xc0;" glyph-name="Agrave" horiz-adv-x="674" d="M466,155H161L78,0H-18L356,693H461L590,0H494L466,155Zm-13,71L389,582L199,226H453Zm72,576l-12-68L321,848l14,79L525,802Z" />
      <glyph unicode="&#xc1;" glyph-name="Aacute" horiz-adv-x="674" d="M466,155H161L78,0H-18L356,693H461L590,0H494L466,155Zm-13,71L389,582L199,226H453Zm81,622L300,734l12,68L548,927l-14-79Z" />
      <glyph unicode="&#xc2;" glyph-name="Acircumflex" horiz-adv-x="674" d="M466,155H161L78,0H-18L356,693H461L590,0H494L466,155Zm-13,71L389,582L199,226H453ZM433,832L280,747l12,72l154,83l123-83l-13-72L433,832Z" />
      <glyph unicode="&#xc3;" glyph-name="Atilde" horiz-adv-x="674" d="M466,155H161L78,0H-18L356,693H461L590,0H494L466,155Zm-13,71L389,582L199,226H453ZM273,752q15,51 46.5,78T391,857q19,0 31-6t29-19q12-10 22.5-15.5T497,811q17,0 30.5,11T548,854h53q-15-50-47-77t-72-27q-19,0-32.5,6.5T420,776q-14,10-22.5,15T376,796q-17,0-30-11t-20-33H273Z" />
      <glyph unicode="&#xc4;" glyph-name="Adieresis" horiz-adv-x="674" d="M466,155H161L78,0H-18L356,693H461L590,0H494L466,155Zm-13,71L389,582L199,226H453ZM341,767q-20,0-32.5,12T296,810q0,25 19,43.5T359,872q19,0 31.5-12.5T403,829q0-25-19-43.5T341,767Zm163,0q-20,0-32.5,12T459,810q0,25 19,43.5T522,872q19,0 31.5-12.5T566,829q0-25-19-43.5T504,767Z" />
      <glyph unicode="&#xc5;" glyph-name="Aring" horiz-adv-x="674" d="M466,155H161L78,0H-18L356,693H461L590,0H494L466,155Zm-13,71L389,582L199,226H453ZM333,857q9,48 44,76.5T456,962q40,0 64-22.5T544,879q0-6-2-22q-9-48-43.5-76.5T419,752q-39,0-63.5,23T331,836q0,7 2,21Zm162,12q0,21-13.5,33T447,914q-26,0-46-19t-20-48q0-21 13-33.5T427,801q27,0 47.5,19.5T495,869Z" />
      <glyph unicode="&#xc6;" glyph-name="AE" horiz-adv-x="900" d="M615,626L573,387H826l-12-70H561L518,72H800L787,0H414l27,155H175L60,0H-40L479,698H911l-13-72H615Zm-90,3L227,226H454l71,403Z" />
      <glyph unicode="&#xc7;" glyph-name="Ccedilla" horiz-adv-x="772" d="M353,76q76,0 137,33t100,94H699Q647,111 562.5,57T375-5l-9-53q52,1 82.5-19.5T479-137q0-54-41-88.5T337-260H222l10,59h97q33,0 50.5,10T401-157q1,4 1,10q0,18-14,25.5T345-114H294L314-5Q235,0 174.5,37T81,136.5T48,279q0,34 6,70q18,102 78.5,183.5T280.5,660T464,706q114,0 189.5-55T751,495H642q-18,61-67,94.5T450,623q-73,0-136.5-33.5T206,493.5T147,349q-5-26-5-60q0-98 57.5-155.5T353,76Z" />
      <glyph unicode="&#xc8;" glyph-name="Egrave" horiz-adv-x="513" d="M228,626L186,387H439l-12-70H174L130,72H414L401,0H26L150,698H524l-13-72H228ZM443,802l-12-68L239,848l14,79L443,802Z" />
      <glyph unicode="&#xc9;" glyph-name="Eacute" horiz-adv-x="513" d="M228,626L186,387H439l-12-70H174L130,72H414L401,0H26L150,698H524l-13-72H228ZM452,848L218,734l12,68L466,927l-14-79Z" />
      <glyph unicode="&#xca;" glyph-name="Ecircumflex" horiz-adv-x="513" d="M228,626L186,387H439l-12-70H174L130,72H414L401,0H26L150,698H524l-13-72H228ZM351,832L198,747l12,72l154,83l123-83l-13-72L351,832Z" />
      <glyph unicode="&#xcb;" glyph-name="Edieresis" horiz-adv-x="513" d="M228,626L186,387H439l-12-70H174L130,72H414L401,0H26L150,698H524l-13-72H228Zm31,141q-20,0-32.5,12T214,810q0,25 19,43.5T277,872q19,0 31.5-12.5T321,829q0-25-19-43.5T259,767Zm163,0q-20,0-32.5,12T377,810q0,25 19,43.5T440,872q19,0 31.5-12.5T484,829q0-25-19-43.5T422,767Z" />
      <glyph unicode="&#xcc;" glyph-name="Igrave" horiz-adv-x="246" d="M241,697L117,0H26L150,697h91Zm70,105l-12-68L107,848l14,79L311,802Z" />
      <glyph unicode="&#xcd;" glyph-name="Iacute" horiz-adv-x="246" d="M241,697L117,0H26L150,697h91Zm79,151L86,734l12,68L334,927l-14-79Z" />
      <glyph unicode="&#xce;" glyph-name="Icircumflex" horiz-adv-x="246" d="M241,697L117,0H26L150,697h91ZM219,832L66,747l12,72l154,83l123-83l-13-72L219,832Z" />
      <glyph unicode="&#xcf;" glyph-name="Idieresis" horiz-adv-x="246" d="M241,697L117,0H26L150,697h91ZM127,767q-20,0-32.5,12T82,810q0,25 19,43.5T145,872q19,0 31.5-12.5T189,829q0-25-19-43.5T127,767Zm163,0q-20,0-32.5,12T245,810q0,25 19,43.5T308,872q19,0 31.5-12.5T352,829q0-25-19-43.5T290,767Z" />
      <glyph unicode="&#xd0;" glyph-name="Eth" horiz-adv-x="725" d="M385,697q149,0 231.5-72T699,425q0-40-7-78q-19-107-77.5-185.5t-149-120T262,0H45L99,305H12l16,84h86l54,308H385ZM599,347q6,36 6,68q0,99-59,153.5T372,623H247L206,389H397l-15-84H191L149,70H275q134,0 217.5,73.5T599,347Z" />
      <glyph unicode="&#xd1;" glyph-name="Ntilde" horiz-adv-x="703" d="M574,0H483L216,555L117,0H26L150,698h91L509,144l98,554h91L574,0ZM288,752q15,51 46.5,78T406,857q19,0 31-6t29-19q12-10 22.5-15.5T512,811q17,0 30.5,11T563,854h53q-15-50-47-77t-72-27q-19,0-32.5,6.5T435,776q-14,10-22.5,15T391,796q-17,0-30-11t-20-33H288Z" />
      <glyph unicode="&#xd2;" glyph-name="Ograve" horiz-adv-x="786" d="M344-7Q257-7 191,29.5T88.5,132T52,283q0,118 53.5,214.5T253,649.5T463,705q88,0 154.5-36.5T720,566.5T756,416q0-119-53.5-215.5T555,48.5T344-7Zm13,82q88,0 157.5,45.5T623,243t39,167q0,99-57,156T450,623q-88,0-157.5-45.5t-108-122T146,289q0-99 56.5-156.5T357,75ZM582,808l-12-68L378,854l14,79L582,808Z" />
      <glyph unicode="&#xd3;" glyph-name="Oacute" horiz-adv-x="786" d="M344-7Q257-7 191,29.5T88.5,132T52,283q0,118 53.5,214.5T253,649.5T463,705q88,0 154.5-36.5T720,566.5T756,416q0-119-53.5-215.5T555,48.5T344-7Zm13,82q88,0 157.5,45.5T623,243t39,167q0,99-57,156T450,623q-88,0-157.5-45.5t-108-122T146,289q0-99 56.5-156.5T357,75ZM591,854L357,740l12,68L605,933l-14-79Z" />
      <glyph unicode="&#xd4;" glyph-name="Ocircumflex" horiz-adv-x="786" d="M344-7Q257-7 191,29.5T88.5,132T52,283q0,118 53.5,214.5T253,649.5T463,705q88,0 154.5-36.5T720,566.5T756,416q0-119-53.5-215.5T555,48.5T344-7Zm13,82q88,0 157.5,45.5T623,243t39,167q0,99-57,156T450,623q-88,0-157.5-45.5t-108-122T146,289q0-99 56.5-156.5T357,75ZM489,838L336,753l12,72l154,83l123-83l-13-72L489,838Z" />
      <glyph unicode="&#xd5;" glyph-name="Otilde" horiz-adv-x="786" d="M344-7Q257-7 191,29.5T88.5,132T52,283q0,118 53.5,214.5T253,649.5T463,705q88,0 154.5-36.5T720,566.5T756,416q0-119-53.5-215.5T555,48.5T344-7Zm13,82q88,0 157.5,45.5T623,243t39,167q0,99-57,156T450,623q-88,0-157.5-45.5t-108-122T146,289q0-99 56.5-156.5T357,75ZM329,758q15,51 46.5,78T447,863q19,0 31-6t29-19q12-10 22.5-15.5T553,817q17,0 30.5,11T604,860h53q-15-50-47-77t-72-27q-19,0-32.5,6.5T476,782q-14,10-22.5,15T432,802q-17,0-30-11t-20-33H329Z" />
      <glyph unicode="&#xd6;" glyph-name="Odieresis" horiz-adv-x="786" d="M344-7Q257-7 191,29.5T88.5,132T52,283q0,118 53.5,214.5T253,649.5T463,705q88,0 154.5-36.5T720,566.5T756,416q0-119-53.5-215.5T555,48.5T344-7Zm13,82q88,0 157.5,45.5T623,243t39,167q0,99-57,156T450,623q-88,0-157.5-45.5t-108-122T146,289q0-99 56.5-156.5T357,75Zm40,698q-20,0-32.5,12T352,816q0,25 19,43.5T415,878q19,0 31.5-12.5T459,835q0-25-19-43.5T397,773Zm163,0q-20,0-32.5,12T515,816q0,25 19,43.5T578,878q19,0 31.5-12.5T622,835q0-25-19-43.5T560,773Z" />
      <glyph unicode="&#xd7;" glyph-name="multiply" horiz-adv-x="643" d="M395,368L526,208l-69-58L326,309L139,150L89,210L277,369L148,525l69,59L346,428L530,584l49-60L395,368Z" />
      <glyph unicode="&#xd8;" glyph-name="Oslash" horiz-adv-x="786" d="M705,590q51-73 51-174q0-119-53.5-215.5T555,48.5T344-7Q280-7 227,13T135,71L58,0H-16L103,109Q52,182 52,283q0,118 53.5,214.5T253,649.5T463,705q65,0 118-20t91-57l77,70h75L705,590ZM146,289q0-68 27-116L605,566q-57,57-155,57q-88,0-157.5-45.5t-108-122T146,289ZM662,410q0,68-27,116L203,132q57-57 154-57q88,0 157.5,45.5T623,243t39,167Z" />
      <glyph unicode="&#xd9;" glyph-name="Ugrave" horiz-adv-x="675" d="M239,697L161,257q-5-30-5-49q0-68 38-101T300,74q81,0 134,45.5T504,257l78,440h91L595,257q-15-87-60.5-146.5T424,22T285-7Q186-7 125,44T64,194q0,30 6,63l78,440h91ZM526,802l-12-68L322,848l14,79L526,802Z" />
      <glyph unicode="&#xda;" glyph-name="Uacute" horiz-adv-x="675" d="M239,697L161,257q-5-30-5-49q0-68 38-101T300,74q81,0 134,45.5T504,257l78,440h91L595,257q-15-87-60.5-146.5T424,22T285-7Q186-7 125,44T64,194q0,30 6,63l78,440h91ZM535,848L301,734l12,68L549,927l-14-79Z" />
      <glyph unicode="&#xdb;" glyph-name="Ucircumflex" horiz-adv-x="675" d="M239,697L161,257q-5-30-5-49q0-68 38-101T300,74q81,0 134,45.5T504,257l78,440h91L595,257q-15-87-60.5-146.5T424,22T285-7Q186-7 125,44T64,194q0,30 6,63l78,440h91ZM433,832L280,747l12,72l154,83l123-83l-13-72L433,832Z" />
      <glyph unicode="&#xdc;" glyph-name="Udieresis" horiz-adv-x="675" d="M239,697L161,257q-5-30-5-49q0-68 38-101T300,74q81,0 134,45.5T504,257l78,440h91L595,257q-15-87-60.5-146.5T424,22T285-7Q186-7 125,44T64,194q0,30 6,63l78,440h91Zm102,70q-20,0-32.5,12T296,810q0,25 19,43.5T359,872q19,0 31.5-12.5T403,829q0-25-19-43.5T341,767Zm163,0q-20,0-32.5,12T459,810q0,25 19,43.5T522,872q19,0 31.5-12.5T566,829q0-25-19-43.5T504,767Z" />
      <glyph unicode="&#xdd;" glyph-name="Yacute" horiz-adv-x="584" d="M638,697L334,263L287,0H196l47,263L91,697H193L302,346L535,697H638ZM490,848L256,734l12,68L504,927l-14-79Z" />
      <glyph unicode="&#xde;" glyph-name="Thorn" horiz-adv-x="579" d="M554,349q-16-88-86-145.5T277,146H143L117,0H26L150,698h90L214,553H349q104,0 156.5-44.5T558,389q0-12-4-40ZM290,219q75,0 117.5,34.5T461,349q3,17 3,32q0,100-127,100H203L156,219H290Z" />
      <glyph unicode="&#xdf;" glyph-name="germandbls" horiz-adv-x="659" d="M111,561q17,93 86.5,151.5T382,771q93,0 143-40t50-101q0-39-17-71t-40.5-54.5T457,453q-33-25-48.5-41.5T393,378q0-18 19.5-32T491,311q60-20 87-52.5T605,174q0-53-28.5-95T498,13.5T386-10q-82,0-129,42T210,146q0,16 1,24h92q-1-6-1-17q0-42 24.5-66T396,63q52,0 82.5,26.5T509,163q0,27-19,45t-64,34q-68,24-98,50.5T298,358t24,68t71,67q46,37 67.5,63T482,616q0,37-30,57.5T368,694q-142,0-168-144L104,0H13l98,561Z" />
      <glyph unicode="&#xe0;" glyph-name="agrave" horiz-adv-x="676" d="M40,276q15,84 60.5,147.5t111,98.5T351,557q72,0 119-31t65-78l18,100h92L548,0H456l19,102q-36-48-95-79.5T250-9Q186-9 137,18.5T61,97T34,215q0,30 6,61Zm465-1q4,21 4,45q0,73-43.5,115.5T355,478q-51,0-97.5-24T178,384T134,276q-4-21-4-46q0-74 43-116.5T283,71q51,0 97.5,24.5t80,71T505,275Zm-4,382l-12-68L297,703l14,79L501,657Z" />
      <glyph unicode="&#xe1;" glyph-name="aacute" horiz-adv-x="676" d="M40,276q15,84 60.5,147.5t111,98.5T351,557q72,0 119-31t65-78l18,100h92L548,0H456l19,102q-36-48-95-79.5T250-9Q186-9 137,18.5T61,97T34,215q0,30 6,61Zm465-1q4,21 4,45q0,73-43.5,115.5T355,478q-51,0-97.5-24T178,384T134,276q-4-21-4-46q0-74 43-116.5T283,71q51,0 97.5,24.5t80,71T505,275Zm5,428L276,589l12,68L524,782l-14-79Z" />
      <glyph unicode="&#xe2;" glyph-name="acircumflex" horiz-adv-x="676" d="M40,276q15,84 60.5,147.5t111,98.5T351,557q72,0 119-31t65-78l18,100h92L548,0H456l19,102q-36-48-95-79.5T250-9Q186-9 137,18.5T61,97T34,215q0,30 6,61Zm465-1q4,21 4,45q0,73-43.5,115.5T355,478q-51,0-97.5-24T178,384T134,276q-4-21-4-46q0-74 43-116.5T283,71q51,0 97.5,24.5t80,71T505,275ZM409,687L256,602l12,72l154,83l123-83l-13-72L409,687Z" />
      <glyph unicode="&#xe3;" glyph-name="atilde" horiz-adv-x="676" d="M40,276q15,84 60.5,147.5t111,98.5T351,557q72,0 119-31t65-78l18,100h92L548,0H456l19,102q-36-48-95-79.5T250-9Q186-9 137,18.5T61,97T34,215q0,30 6,61Zm465-1q4,21 4,45q0,73-43.5,115.5T355,478q-51,0-97.5-24T178,384T134,276q-4-21-4-46q0-74 43-116.5T283,71q51,0 97.5,24.5t80,71T505,275ZM249,607q15,51 46.5,78T367,712q19,0 31-6t29-19q12-10 22.5-15.5T473,666q17,0 30.5,11T524,709h53q-15-50-47-77t-72-27q-19,0-32.5,6.5T396,631q-14,10-22.5,15T352,651q-17,0-30-11t-20-33H249Z" />
      <glyph unicode="&#xe4;" glyph-name="adieresis" horiz-adv-x="676" d="M40,276q15,84 60.5,147.5t111,98.5T351,557q72,0 119-31t65-78l18,100h92L548,0H456l19,102q-36-48-95-79.5T250-9Q186-9 137,18.5T61,97T34,215q0,30 6,61Zm465-1q4,21 4,45q0,73-43.5,115.5T355,478q-51,0-97.5-24T178,384T134,276q-4-21-4-46q0-74 43-116.5T283,71q51,0 97.5,24.5t80,71T505,275ZM317,622q-20,0-32.5,12T272,665q0,25 19,43.5T335,727q19,0 31.5-12.5T379,684q0-25-19-43.5T317,622Zm163,0q-20,0-32.5,12T435,665q0,25 19,43.5T498,727q19,0 31.5-12.5T542,684q0-25-19-43.5T480,622Z" />
      <glyph unicode="&#xe5;" glyph-name="aring" horiz-adv-x="676" d="M40,276q15,84 60.5,147.5t111,98.5T351,557q72,0 119-31t65-78l18,100h92L548,0H456l19,102q-36-48-95-79.5T250-9Q186-9 137,18.5T61,97T34,215q0,30 6,61Zm465-1q4,21 4,45q0,73-43.5,115.5T355,478q-51,0-97.5-24T178,384T134,276q-4-21-4-46q0-74 43-116.5T283,71q51,0 97.5,24.5t80,71T505,275ZM309,712q9,48 44,76.5T432,817q40,0 64-22.5T520,734q0-6-2-22q-9-48-43.5-76.5T395,607q-39,0-63.5,23T307,691q0,7 2,21Zm162,12q0,21-13.5,33T423,769q-26,0-46-19t-20-48q0-21 13-33.5T403,656q27,0 47.5,19.5T471,724Z" />
      <glyph unicode="&#xe6;" glyph-name="ae" horiz-adv-x="1097" d="M846,557q67,0 116-27t74.5-74.5T1062,348q0-21-5-51q-6-29-14-54H592q-1-7-1-20q0-74 45-114.5T745,68T855.5,95.5T924,169h98Q987,90 914,40.5T746-9Q679-9 629,22t-68,84L543,0H457l19,105q-39-51-98-82.5T251-9Q187-9 138,18.5T61.5,97T34,215q0,30 6,61q15,84 60.5,147.5t112,98.5T355,557q68,0 114-28.5T536,447l18,101h85L622,447q86,110 224,110ZM965,309q3,20 3,36q0,64-42,99.5T818,480q-72,0-132-46T604,309H965ZM505,275q4,21 4,45q0,73-43.5,115.5T355,478q-51,0-97.5-24T178,384T134,276q-4-21-4-46q0-74 43-116.5T283,71q51,0 97.5,24.5t80,71T505,275Z" />
      <glyph unicode="&#xe7;" glyph-name="ccedilla" horiz-adv-x="607" d="M272,68q60,0 104.5,28T445,176h98Q509,98 442,48.5T286-8l-8-50q52,1 82.5-19.5T391-137q0-54-41-88.5T249-260H134l10,59h97q33,0 50.5,10T313-157q1,4 1,10q0,18-14,25.5T257-114H206L225-7Q137,2 85.5,59.5T34,210q0,31 6,65q15,85 60.5,148.5T213,522t145,35q101,0 157.5-49T578,372H480q-5,50-40.5,79T344,480q-78,0-135.5-53.5T134,275q-5-33-5-55q0-73 39-112.5T272,68Z" />
      <glyph unicode="&#xe8;" glyph-name="egrave" horiz-adv-x="620" d="M361,557q69,0 119.5-26.5t77-74T584,348q0-21-5-51q-4-26-13-54H128q-2-20-2-29q0-69 41.5-107.5T276,68q59,0 103.5,27.5T447,169h98Q509,90 434.5,40.5T262-9Q159-9 96.5,50.5T34,213q0,29 6,62q15,85 61,149t113.5,98.5T361,557ZM487,309q3,20 3,37q0,64-40.5,99T344,480q-70,0-127-45.5T140,309H487ZM473,657l-12-68L269,703l14,79L473,657Z" />
      <glyph unicode="&#xe9;" glyph-name="eacute" horiz-adv-x="620" d="M361,557q69,0 119.5-26.5t77-74T584,348q0-21-5-51q-4-26-13-54H128q-2-20-2-29q0-69 41.5-107.5T276,68q59,0 103.5,27.5T447,169h98Q509,90 434.5,40.5T262-9Q159-9 96.5,50.5T34,213q0,29 6,62q15,85 61,149t113.5,98.5T361,557ZM487,309q3,20 3,37q0,64-40.5,99T344,480q-70,0-127-45.5T140,309H487Zm-5,394L248,589l12,68L496,782l-14-79Z" />
      <glyph unicode="&#xea;" glyph-name="ecircumflex" horiz-adv-x="620" d="M361,557q69,0 119.5-26.5t77-74T584,348q0-21-5-51q-4-26-13-54H128q-2-20-2-29q0-69 41.5-107.5T276,68q59,0 103.5,27.5T447,169h98Q509,90 434.5,40.5T262-9Q159-9 96.5,50.5T34,213q0,29 6,62q15,85 61,149t113.5,98.5T361,557ZM487,309q3,20 3,37q0,64-40.5,99T344,480q-70,0-127-45.5T140,309H487ZM381,687L228,602l12,72l154,83l123-83l-13-72L381,687Z" />
      <glyph unicode="&#xeb;" glyph-name="edieresis" horiz-adv-x="620" d="M361,557q69,0 119.5-26.5t77-74T584,348q0-21-5-51q-4-26-13-54H128q-2-20-2-29q0-69 41.5-107.5T276,68q59,0 103.5,27.5T447,169h98Q509,90 434.5,40.5T262-9Q159-9 96.5,50.5T34,213q0,29 6,62q15,85 61,149t113.5,98.5T361,557ZM487,309q3,20 3,37q0,64-40.5,99T344,480q-70,0-127-45.5T140,309H487ZM288,622q-20,0-32.5,12T243,665q0,25 19,43.5T306,727q19,0 31.5-12.5T350,684q0-25-19-43.5T288,622Zm163,0q-20,0-32.5,12T406,665q0,25 19,43.5T469,727q19,0 31.5-12.5T513,684q0-25-19-43.5T451,622Z" />
      <glyph unicode="&#xec;" glyph-name="igrave" horiz-adv-x="246" d="M214,548L117,0H26l97,548h91Zm71,109l-12-68L81,703l14,79L285,657Z" />
      <glyph unicode="&#xed;" glyph-name="iacute" horiz-adv-x="246" d="M214,548L117,0H26l97,548h91Zm80,155L60,589l12,68L308,782l-14-79Z" />
      <glyph unicode="&#xee;" glyph-name="icircumflex" horiz-adv-x="246" d="M214,548L117,0H26l97,548h91ZM193,687L40,602l12,72l154,83l123-83l-13-72L193,687Z" />
      <glyph unicode="&#xef;" glyph-name="idieresis" horiz-adv-x="246" d="M214,548L117,0H26l97,548h91ZM101,622q-20,0-32.5,12T56,665q0,25 19,43.5T119,727q19,0 31.5-12.5T163,684q0-25-19-43.5T101,622Zm163,0q-20,0-32.5,12T219,665q0,25 19,43.5T282,727q19,0 31.5-12.5T326,684q0-25-19-43.5T264,622Z" />
      <glyph unicode="&#xf0;" glyph-name="eth" horiz-adv-x="638" d="M624,692L524,660q85-117 85-254q0-44-9-91q-18-105-67-177.5T414.5,28T264-9Q159-9 97,51.5T35,215q0,30 6,63q15,83 61,146.5T215.5,523T359,558q119,0 164-92q-14,95-70,172L315,594l9,50l99,32q-20,25-61,64h93q27-27 39-41l138,44l-8-51ZM500,275q5,28 5,49q0,75-43,116T352,481q-50,0-95.5-23.5t-78-69T134,278q-5-32-5-53q0-75 41-116T278,68q50,0 96.5,24t80,71T500,275Z" />
      <glyph unicode="&#xf1;" glyph-name="ntilde" horiz-adv-x="640" d="M392,558q85,0 136-45.5T579,380q0-32-5-57L517,0H427l55,310q4,21 4,44q0,61-33.5,93T359,479q-72,0-122.5-45T171,303v2L117,0H26l97,548h91l-14-79q34,43 85,66t107,23ZM232,607q15,51 46.5,78T350,712q19,0 31-6t29-19q12-10 22.5-15.5T456,666q17,0 30.5,11T507,709h53q-15-50-47-77t-72-27q-19,0-32.5,6.5T379,631q-14,10-22.5,15T335,651q-17,0-30-11t-20-33H232Z" />
      <glyph unicode="&#xf2;" glyph-name="ograve" horiz-adv-x="640" d="M267-9Q198-9 145.5,19.5T64,99.5T35,219q0,93 43,170.5T196.5,512T365,557q69,0 122.5-28.5t83-80T600,328q0-93-44-170T436,36T267-9Zm11,77q65,0 117,35.5t81.5,94T506,323q0,76-44,116.5T352,480q-65,0-116-35.5T157,350T129,223q0-74 42-114.5T278,68ZM482,666l-12-68L278,712l14,79L482,666Z" />
      <glyph unicode="&#xf3;" glyph-name="oacute" horiz-adv-x="640" d="M267-9Q198-9 145.5,19.5T64,99.5T35,219q0,93 43,170.5T196.5,512T365,557q69,0 122.5-28.5t83-80T600,328q0-93-44-170T436,36T267-9Zm11,77q65,0 117,35.5t81.5,94T506,323q0,76-44,116.5T352,480q-65,0-116-35.5T157,350T129,223q0-74 42-114.5T278,68ZM491,712L257,598l12,68L505,791l-14-79Z" />
      <glyph unicode="&#xf4;" glyph-name="ocircumflex" horiz-adv-x="640" d="M267-9Q198-9 145.5,19.5T64,99.5T35,219q0,93 43,170.5T196.5,512T365,557q69,0 122.5-28.5t83-80T600,328q0-93-44-170T436,36T267-9Zm11,77q65,0 117,35.5t81.5,94T506,323q0,76-44,116.5T352,480q-65,0-116-35.5T157,350T129,223q0-74 42-114.5T278,68ZM390,696L237,611l12,72l154,83l123-83l-13-72L390,696Z" />
      <glyph unicode="&#xf5;" glyph-name="otilde" horiz-adv-x="640" d="M267-9Q198-9 145.5,19.5T64,99.5T35,219q0,93 43,170.5T196.5,512T365,557q69,0 122.5-28.5t83-80T600,328q0-93-44-170T436,36T267-9Zm11,77q65,0 117,35.5t81.5,94T506,323q0,76-44,116.5T352,480q-65,0-116-35.5T157,350T129,223q0-74 42-114.5T278,68ZM230,616q15,51 46.5,78T348,721q19,0 31-6t29-19q12-10 22.5-15.5T454,675q17,0 30.5,11T505,718h53q-15-50-47-77t-72-27q-19,0-32.5,6.5T377,640q-14,10-22.5,15T333,660q-17,0-30-11t-20-33H230Z" />
      <glyph unicode="&#xf6;" glyph-name="odieresis" horiz-adv-x="640" d="M267-9Q198-9 145.5,19.5T64,99.5T35,219q0,93 43,170.5T196.5,512T365,557q69,0 122.5-28.5t83-80T600,328q0-93-44-170T436,36T267-9Zm11,77q65,0 117,35.5t81.5,94T506,323q0,76-44,116.5T352,480q-65,0-116-35.5T157,350T129,223q0-74 42-114.5T278,68Zm20,563q-20,0-32.5,12T253,674q0,25 19,43.5T316,736q19,0 31.5-12.5T360,693q0-25-19-43.5T298,631Zm163,0q-20,0-32.5,12T416,674q0,25 19,43.5T479,736q19,0 31.5-12.5T523,693q0-25-19-43.5T461,631Z" />
      <glyph unicode="&#xf7;" glyph-name="divide" horiz-adv-x="657" d="M364,520q-23,0-37.5,14T312,571q0,30 22,51.5T386,644q23,0 37-14t14-37q0-30-22-51.5T364,520ZM609,406l-15-80H84l15,80H609ZM289,91q-23,0-37.5,14T237,142q0,30 22,51.5T311,215q23,0 37-14t14-37q0-30-22-51.5T289,91Z" />
      <glyph unicode="&#xf8;" glyph-name="oslash" horiz-adv-x="640" d="M559,466q41-58 41-138q0-93-44-170T436,36T267-9Q218-9 176.5,6T105,48L52,0H-13L75,81Q35,138 35,219q0,93 43,170.5T196.5,512T365,557q50,0 92-15t73-43l54,49h65l-90-82ZM129,223q0-43 16-78L464,438q-43,42-112,42q-65,0-116-35.5T157,350T129,223ZM506,323q0,45-17,79L171,109q41-41 107-41q65,0 117,35.5t81.5,94T506,323Z" />
      <glyph unicode="&#xf9;" glyph-name="ugrave" horiz-adv-x="640" d="M609,548L512,0H421l14,80q-33-42-84-65T245-8Q159-8 107.5,38.5T56,172q0,22 5,55l57,321h90L154,239q-4-21-4-44q0-61 33.5-92.5T277,71q72,0 122.5,45T464,247v-3l54,304h91ZM483,657l-12-68L279,703l14,79L483,657Z" />
      <glyph unicode="&#xfa;" glyph-name="uacute" horiz-adv-x="640" d="M609,548L512,0H421l14,80q-33-42-84-65T245-8Q159-8 107.5,38.5T56,172q0,22 5,55l57,321h90L154,239q-4-21-4-44q0-61 33.5-92.5T277,71q72,0 122.5,45T464,247v-3l54,304h91ZM492,703L258,589l12,68L506,782l-14-79Z" />
      <glyph unicode="&#xfb;" glyph-name="ucircumflex" horiz-adv-x="640" d="M609,548L512,0H421l14,80q-33-42-84-65T245-8Q159-8 107.5,38.5T56,172q0,22 5,55l57,321h90L154,239q-4-21-4-44q0-61 33.5-92.5T277,71q72,0 122.5,45T464,247v-3l54,304h91ZM391,687L238,602l12,72l154,83l123-83l-13-72L391,687Z" />
      <glyph unicode="&#xfc;" glyph-name="udieresis" horiz-adv-x="640" d="M609,548L512,0H421l14,80q-33-42-84-65T245-8Q159-8 107.5,38.5T56,172q0,22 5,55l57,321h90L154,239q-4-21-4-44q0-61 33.5-92.5T277,71q72,0 122.5,45T464,247v-3l54,304h91ZM299,622q-20,0-32.5,12T254,665q0,25 19,43.5T317,727q19,0 31.5-12.5T361,684q0-25-19-43.5T299,622Zm163,0q-20,0-32.5,12T417,665q0,25 19,43.5T480,727q19,0 31.5-12.5T524,684q0-25-19-43.5T462,622Z" />
      <glyph unicode="&#xfd;" glyph-name="yacute" horiz-adv-x="563" d="M159,548l93-442L501,548h94L123-258H28L183,6L58,548H159ZM453,703L219,589l12,68L467,782l-14-79Z" />
      <glyph unicode="&#xfe;" glyph-name="thorn" horiz-adv-x="676" d="M194,432q36,56 95,90.5T420,557q64,0 113.5-26.5t76.5-76T637,338q0-29-6-62q-15-83-60.5-148T459.5,27T321-9Q249-9 202,26.5T138,120L72-260H-19L157,740h91L194,432ZM538,276q4,21 4,46q0,73-43,114.5T388,478q-50,0-97-24.5t-80.5-71T166,275q-4-21-4-46q0-73 43.5-115.5T316,71q51,0 97.5,24.5t80,71T538,276Z" />
      <glyph unicode="&#xff;" glyph-name="ydieresis" horiz-adv-x="563" d="M159,548l93-442L501,548h94L123-258H28L183,6L58,548H159Zm101,74q-20,0-32.5,12T215,665q0,25 19,43.5T278,727q19,0 31.5-12.5T322,684q0-25-19-43.5T260,622Zm163,0q-20,0-32.5,12T378,665q0,25 19,43.5T441,727q19,0 31.5-12.5T485,684q0-25-19-43.5T423,622Z" />
      <glyph unicode="&#x2013;" glyph-name="endash" horiz-adv-x="677" d="M623,405l-13-77H83l14,77H623Z" />
      <glyph unicode="&#x2014;" glyph-name="emdash" horiz-adv-x="885" d="M830,405l-13-77H83l14,77H830Z" />
      <glyph unicode="&#x2018;" glyph-name="quoteleft" horiz-adv-x="219" d="M148,470H46L182,697h65L148,470Z" />
      <glyph unicode="&#x2019;" glyph-name="quoteright" horiz-adv-x="219" d="M178,697H280L144,470H79l99,227Z" />
      <glyph unicode="&#x201a;" glyph-name="quotesinglbase" horiz-adv-x="187" d="M28,123H130L-6-103H-71L28,123Z" />
      <glyph unicode="&#x201c;" glyph-name="quotedblleft" horiz-adv-x="381" d="M148,470H46L182,697h65L148,470Zm162,0H209L345,697h65L310,470Z" />
      <glyph unicode="&#x201d;" glyph-name="quotedblright" horiz-adv-x="381" d="M178,697H280L144,470H79l99,227Zm163,0H443L307,470H242l99,227Z" />
      <glyph unicode="&#x201e;" glyph-name="quotedblbase" horiz-adv-x="360" d="M28,123H130L-6-103H-71L28,123Zm173,0H302L166-103H101L201,123Z" />
      <glyph unicode="&#x2022;" glyph-name="bullet" horiz-adv-x="412" d="M191,211q-45,0-73.5,28.5T89,311q0,38 20.5,71.5T164,436t71,20q46,0 75-28.5T339,355q0-38-20.5-71.5t-55-53T191,211Z" />
      <glyph unicode="&#x2039;" glyph-name="guilsinglleft" horiz-adv-x="280" d="M111,120L46,295L173,470h89L132,295l69-175H111Z" />
      <glyph unicode="&#x203a;" glyph-name="guilsinglright" horiz-adv-x="280" d="M150,295L82,470h89l65-175L109,120H20L150,295Z" />
    </font>
</defs>
</svg>
