<?xml version="1.0" standalone="no"?>
<!DOCTYPE svg PUBLIC "-//W3C//DTD SVG 1.1//EN" "http://www.w3.org/Graphics/SVG/1.1/DTD/svg11.dtd">
<svg xmlns="http://www.w3.org/2000/svg">
  <defs>
    <font id="Barlow" horiz-adv-x="497">
      <font-face font-family="Barlow" units-per-em="1000" panose-1="0 0 5 0 0 0 0 0 0 0" ascent="1000" descent="-200" alphabetic="0" />
      <glyph unicode=" " glyph-name="space" horiz-adv-x="194" />
      <glyph unicode="!" glyph-name="exclam" horiz-adv-x="310" d="M145,228q-9,0-8,10l51,452q0,4 3,7t7,3h50q10,0 8-10L195,238q-1-10-11-10H145ZM133,4Q112,4 99,17T86,51q0,28 17.5,46T147,115q22,0 35-13t13-33q0-28-18-46.5T133,4Z" />
      <glyph unicode="&quot;" glyph-name="quotedbl" horiz-adv-x="255" d="M86,488q-9,0-8,10L93,684q0,4 3,7t8,3h50q9,0 9-10L132,498q-1-10-11-10H86Zm131,0q-9,0-8,10l15,186q0,4 3,7t8,3h49q9,0 9-10L262,498q-1-10-11-10H217Z" />
      <glyph unicode="#" glyph-name="numbersign" horiz-adv-x="639" d="M603,439q-1-10-11-10H518q-5,0-5-4L470,266q0-4 3-4h65q4,0 6.5-3t1.5-7l-6-42q-1-10-11-10H456q-5,0-5-4L404,25q-3-9-11-9l-49,2q-4,0-6.5,3T336,29l45,167q0,4-2,4H224q-5,0-5-4L172,25q-3-9-11-9l-49,2q-4,0-6.5,3T104,29l45,167q0,4-2,4H85q-5,0-7.5,3T76,210l6,42q1,10 11,10h71q5,0 5,4l43,159q0,4-2,4H149q-5,0-7.5,3t-1.5,7l6,43q0,4 3,7t7,3h71q5,0 6,4l47,171q3,9 11,9l49-2q4,0 6.5-3t0.5-8L302,496q0-4 3-4H458q5,0 5,4l48,171q1,9 10,9l50-2q4,0 6-3.5t1-7.5L533,496q0-4 3-4h65q10,0 8-10l-6-43ZM396,262q5,0 5,4l43,159q0,4-2,4H287q-5,0-5-4L239,266q0-4 3-4H396Z" />
      <glyph unicode="$" glyph-name="dollar" horiz-adv-x="542" d="M493,201q0-86-55.5-142T286-7q-4,0-4-4l-8-72q-2-10-11-10H220q-4,0-6.5,3T212-83l10,72q0,4-3,4Q140,2 96,44T52,153q0,8 2,26l4,31q2,10 11,10h43q5,0 7.5-3t1.5-7l-3-27q-1-6-1-17q0-51 39.5-81.5T268,54q70,0 110.5,32.5T426,173q1,5 1,15q0,43-33.5,73T276,331q-60,28-93.5,48T128,429.5T107,505q0,8 2,26q10,77 61,122.5T302,707q3,0 5,4l8,78q2,10 11,10h42q10,0 8-10l-10-79q-2-4 3-4q76-9 118.5-51.5T530,545q0-9-2-27l-2-22q-1-4-4-7t-7-3H469q-10,0-8,10l2,18q1,6 1,17q0,52-36.5,83.5T322,646q-65,0-103.5-29T173,533q-1-6-1-17q0-30 15.5-50.5t44.5-37T318,387q58-27 94.5-51T471,279.5T493,201Z" />
      <glyph unicode="%" glyph-name="percent" horiz-adv-x="822" d="M264,425q-54,0-89,35.5T140,550q0,43 22,79.5t59,58T299,709q52,0 87-36t35-89q0-42-22-79t-58.5-58.5T264,425ZM189,0q-6,0-7.5,3.5T184,12L635,693q5,7 13,7h31q5,0 7-3.5t-2-8.5L234,7q-5-7-13-7H189Zm80,471q42,0 73.5,32.5T374,580q0,36-23,59.5T293,663q-43,0-74.5-32T187,554q0-36 23-59.5T269,471ZM575-9q-54,0-88.5,35T452,115q0,43 22,79.5T532.5,253T610,275q52,0 86.5-35T731,152q0-43-21.5-80T652,13T575-9Zm6,46q27,0 51,14.5T671,91t15,54q0,36-23.5,60T604,229q-42,0-74-32t-32-76q0-37 23-60.5T581,37Z" />
      <glyph unicode="&amp;" glyph-name="ampersand" horiz-adv-x="639" d="M560,7q0-7-9-7H494q-6,0-11,6q-34,47-48,68q-3,3-6,0Q378,31 328.5,11.5T222-8Q143-8 96,27T49,130q0,16 1,24q9,69 53.5,118T222,369q4,1 2,5q-41,60-56.5,95T152,534q0,49 23,89t64.5,62.5T334,708q68,0 109.5-36T485,577q0-70-42.5-119T323,358q-4-1-2-5q11-14 21-30q26-39 75-106q16-26 28-41q2-3 5,0q43,47 74,86q6,8 14,3l34-22q8-6 1-14q-44-56-90-104l-1-2q0-4 4-8q42-62 59-84l13-19l2-5ZM328,642q-43,0-72.5-24.5T221,551q-1-4-1-12q0-20 12.5-46.5T281,411q3-3 6-1q63,42 96,77.5T416,568q0,34-24.5,54T328,642ZM231,53q83,0 163,70q4,3 1,6l-18,26q-27,40-45,64l-69,97q-1,3-5,1q-60-39-94.5-75T121,159q-2-14-2-19q0-41 29.5-64T231,53Z" />
      <glyph unicode="&apos;" glyph-name="quotesingle" horiz-adv-x="128" d="M87,493q-10,0-9,10L93,688q2,10 11,10h53q4,0 6.5-3t1.5-7L135,503q-1-10-11-10H87Z" />
      <glyph unicode="(" glyph-name="parenleft" horiz-adv-x="253" d="M80-104q-6,0-11,6Q41-42 25,36T9,204q0,64 7,121Q31,451 74.5,566T176,757q6,6 13,6h46q6,0 7.5-3.5T241,751q-51-77-91.5-190T94,326q-7-59-7-124q0-86 13.5-162T137-92q1-2 1-5q0-7-9-7H80Z" />
      <glyph unicode=")" glyph-name="parenright" horiz-adv-x="253" d="M215,763q6,0 11-6q28-56 44-134.5T286,453q0-62-7-119Q263,206 219.5,91.5T118-98q-5-6-12-6H60q-6,0-7.5,3.5T54-92q51,77 91.5,189.5T201,332q8,69 8,125q0,86-13.5,162T158,751l-1,4q0,8 9,8h49Z" />
      <glyph unicode="*" glyph-name="asterisk" horiz-adv-x="385" d="M208,393q-10,0-8,10l16,122q0,6-5,3L96,464q-2-1-5-1q-6,0-8,5l-9,24l-1,4q0,7 7,10l114,61q1,1 1.5,3t-0.5,3L95,634q-3,2-3.5,6t1.5,8l15,24q2,4 6,5t8-1l100-64q1-1 2.5-0.5T227,615l14,122q2,10 11,10h26q10,0 8-10L270,615q0-5 5-3l115,64q2,1 5,1q6,0 9-5l8-24q1-1 1-4q0-7-6-10L292,573q-2-1-2.5-3t1.5-3l100-61q3-2 4-6t-2-8l-14-24q-6-9-15-4l-99,64q-5,2-6-3L245,403q0-4-3-7t-8-3H208Z" />
      <glyph unicode="+" glyph-name="plus" horiz-adv-x="485" d="M460,344q5,0 7.5-3t1.5-7l-5-42q-2-10-11-10H292q-3,0-5-4L267,116q0-4-3-7t-8-3H216q-9,0-9,10l20,162q0,4-3,4H63q-9,0-9,10l5,42q1,4 4,7t7,3H231q2,0 3.5,1t1.5,3l21,170q0,4 3,7t8,3h40q5,0 7.5-3t1.5-7L296,348q0-4 3-4H460Z" />
      <glyph unicode="," glyph-name="comma" horiz-adv-x="256" d="M45-79q-10,0-8,11l69,214q3,9 12,9h43q5,0 7-3t0-8L87-70q-1-4-4-6.5T76-79H45Z" />
      <glyph unicode="-" glyph-name="hyphen" horiz-adv-x="383" d="M63,280q-5,0-7.5,3T54,290l5,42q2,10 11,10H357q9,0 9-10l-5-42q-1-4-4-7t-7-3H63Z" />
      <glyph unicode="." glyph-name="period" horiz-adv-x="270" d="M114,2Q92,2 79,15.5T66,50q0,28 18,46t44,18q21,0 34.5-13T176,66q0-27-18-45.5T114,2Z" />
      <glyph unicode="/" glyph-name="slash" horiz-adv-x="388" d="M20,0q-5,0-6.5,3T14,11L312,692q5,8 13,8h48q11,0 6-11L81,8Q78,0 69,0H20Z" />
      <glyph unicode="0" glyph-name="zero" horiz-adv-x="548" d="M252-10q-85,0-133,45.5T71,160q0,10 2,32l39,316q11,92 73,146.5T340,709q85,0 134.5-46T524,539q0-9-2-31L483,192q-11-92-74-147T252-10Zm8,62q62,0 104,37t50,99l40,323q1,7 1,21q0,53-33,83.5T332,646q-61,0-102.5-37T181,511L141,188q-1-7-1-21q0-53 32-84t88-31Z" />
      <glyph unicode="1" glyph-name="one" horiz-adv-x="340" d="M241,697q6,3 13,3h52q9,0 9-10L231,10Q229,0 220,0H171q-9,0-9,10l75,609q0,5-4,3L124,579l-4-1q-6,0-6,8l-1,38q0,7 9,12l119,61Z" />
      <glyph unicode="2" glyph-name="two" horiz-adv-x="520" d="M136,67q-3-5 2-5H442q9,0 9-10l-6-42q0-4-3-7t-7-3H48q-5,0-7.5,3T39,10l5,42q2,8 6,12q89,96 228,250l27,30Q410,462 419,529q1,6 1,17q0,46-30.5,73T307,646q-55,0-93-32.5T171,528l-4-31q-2-10-11-10H105q-4,0-6.5,3T97,497l5,40q11,77 70.5,124T315,708q81,0 128.5-42.5T491,555q0-9-2-25q-10-83-116-205Q295,237 136,67Z" />
      <glyph unicode="3" glyph-name="three" horiz-adv-x="500" d="M438,331q8-27 8-67q0-23-3-50q-6-53-26-97q-26-60-77-92.5T222-8Q154-8 110.5,28.5T55,127q-3,20-3,39q0,15 2,37q2,10 11,10h49q10,0 9-10l-1-28l1-26q5-44 32.5-69.5T229,54q87,0 123,80q15,31 22,82q3,24 3,44q0,32-7,54q-21,72-100,72q-14,0-38-11l-5-2q-5,0-7,5l-21,35q-1,2-1,6q0,5 4,8L398,633q3,5-2,5H123q-9,0-9,10l6,42q0,4 3,7t8,3H489q5,0 7.5-3t1.5-7l-6-49q-1-5-6-12L307,437q-2-1-1.5-3t3.5-2q102-7 129-101Z" />
      <glyph unicode="4" glyph-name="four" horiz-adv-x="534" d="M478,257q10,0 8-10l-5-44q-2-10-11-10H428q-4,0-4-4L402,10Q400,0 391,0H341q-4,0-6.5,3T333,10l22,179q0,2-1,3t-2,1H62q-5,0-7.5,3T53,203l5,37q0,5 4,12L315,693q4,7 12,7h51q5,0 7-3.5t-1-8.5L139,262q-1-2-0.5-3.5T141,257H359q2,0 3.5,1t1.5,3l20,161q0,4 3,7t7,3h50q10,0 8-10L433,261q-1-1 0-2.5t3-1.5h42Z" />
      <glyph unicode="5" glyph-name="five" horiz-adv-x="499" d="M460,306q1-11 1-31q0-29-4-59q-6-51-19-84Q413,68 359,30.5T236-7T123,29T69,125q-4,20-4,44q0,4 3,7t7,3h52q9,0 9-10q0-13 2-20q4-43 31.5-68.5T242,55q47,0 82,27t50,74q5,13 8.5,30t4.5,30q4,36 3,65q-1,46-30,70t-76,24q-43,0-79-20t-51-53q-3-9-11-9H90q-10,0-8,10l47,387q2,10 11,10H480q10,0 8-10l-5-42q-2-10-11-10H196q-3,0-5-4L161,392q-1-2 0.5-3t3.5,1q27,23 61.5,35.5T298,438q68,0 112-34.5T460,306Z" />
      <glyph unicode="6" glyph-name="six" horiz-adv-x="499" d="M452,329q9-27 9-66q0-22-3-48q-8-63-28-100q-27-58-75.5-90T239-7Q169-7 125.5,27T70,123q-3,20-3,42q0,28 3,52l39,312q10,82 68.5,130.5T320,708q75,0 119.5-40T484,562q0-7-2-25l-2-14q0-4-3-7t-8-3H420q-9,0-9,10l1,8q1,6 1,18q0,44-27.5,70.5T312,646q-53,0-90.5-33.5T177,524L159,377q-1-2 1-2.5t3,1.5q51,60 137,60q61,0 99-28t53-79ZM368,139q16,31 21,76q2,13 2,37q0,27-6,43q-7,37-33,58t-69,21t-74.5-21.5T160,293q-15-31-21-81q-3-22-3-41q0-17 3-32q7-38 34-61t71-23q42,0 75,21.5T368,139Z" />
      <glyph unicode="7" glyph-name="seven" horiz-adv-x="459" d="M127,0q-5,0-6.5,3.5T121,12L421,633q1,2 0.5,3.5T419,638H157q-4,0-4-4l-6-46q-2-10-11-10H96q-10,0-8,10l13,102q1,10 11,10H494q5,0 7.5-3t1.5-7l-6-46q0-4-1-7t-2-5L194,8q-4-8-13-8H127Z" />
      <glyph unicode="8" glyph-name="eight" horiz-adv-x="505" d="M444,294q9-27 9-63q0-11-2-35q-9-70-43-117q-27-41-73-64T233-8q-58,0-99,23.5T75,84q-15,36-15,81q0,10 2,32q7,53 33,100q29,50 80,75q5,2 0,5q-30,21-46,51q-18,33-18,76q0,68 43,124q28,39 72,60.5T321,710q53,0 90-21.5T467,628q17-36 17-80q0-67-43-122q-21-28-57-49q-5-4-1-5q46-24 61-78ZM203,585q-20-32-23-59q-1-7-1-20q0-30 12-53q26-51 91-51q64,0 105,52q20,25 27,73l1,15q0,23-8,45q-11,28-35,44.5T311,648q-33,0-61.5-17T203,585ZM347,106q38,50 38,124q0,28-8,52q-10,32-35.5,49T276,348q-77,0-115-62q-30-47-30-115q0-36 12-62q26-55 97-55q69,0 107,52Z" />
      <glyph unicode="9" glyph-name="nine" horiz-adv-x="506" d="M482,577q3-21 3-45q0-26-3-49L444,171Q434,89 375.5,40.5T233-8Q158-8 113.5,32.5T69,140q0,15 1,23l2,14q2,10 11,10h50q4,0 6.5-3t1.5-7l-1-8q-1-6-1-17q0-44 27.5-71T240,54q53,0 91,33.5T376,176l18,146q0,2-2,2.5t-3-1.5q-51-59-135-59q-121,0-152,107q-10,26-10,67q0,22 3,47q8,61 27,100q28,58 77,90t115,32q70,0 113.5-34.5T482,577ZM270,326q43,0 75,21.5T393,407q15,28 21,81q3,24 3,41t-3,32q-6,38-33.5,61T309,645q-42,0-74.5-21.5T184,561q-14-28-20-76q-2-26-2-35q0-27 5-45q8-36 34.5-57.5T270,326Z" />
      <glyph unicode=":" glyph-name="colon" horiz-adv-x="329" d="M187,350q-22,0-35,13.5T139,398q0,28 18,46t44,18q21,0 34.5-13T249,414q0-27-18-45.5T187,350ZM146,13q-22,0-35,13.5T98,61q0,28 18,46t44,18q21,0 34.5-13T208,77q0-27-18-45.5T146,13Z" />
      <glyph unicode=";" glyph-name="semicolon" horiz-adv-x="301" d="M176,347q-23,0-37.5,14.5T124,399q0,27 20.5,46.5T191,465q22,0 38-15t16-37q0-27-21-46.5T176,347ZM78-75q-5,0-7,3.5T70-64l52,206q3,9 11,9h45q4,0 6.5-3t0.5-8L120-66q-3-9-12-9H78Z" />
      <glyph unicode="&lt;" glyph-name="less" horiz-adv-x="485" d="M435,55q-1-5-5-7.5T422,47L54,235q-6,5-5,11l6,48q0,7 8,11L477,493l4,1q8,0 6-9l-6-49q0-7-9-11L127,273q-6-3-1-6L434,115q7-3 7-11l-6-49Z" />
      <glyph unicode="=" glyph-name="equal" horiz-adv-x="485" d="M76,390q-9,0-9,10l5,42q1,4 4,7t7,3H473q5,0 7.5-3t1.5-7l-5-42q-2-10-11-10H76ZM51,181q-9,0-9,10l5,42q1,4 4,7t7,3H448q5,0 7.5-3t1.5-7l-5-42q-2-10-11-10H51Z" />
      <glyph unicode="&gt;" glyph-name="greater" horiz-adv-x="485" d="M32,46q-4,0-6,2.5T25,55l6,49q2,8 9,11L386,267q6,3 1,6L78,425q-7,4-6,11l6,49q1,5 4.5,7.5T91,493L458,305q6-4 6-11l-6-48q-1-7-8-11L36,47l-4-1Z" />
      <glyph unicode="?" glyph-name="question" horiz-adv-x="447" d="M186,200q-5,0-7.5,3t-1.5,7l7,59q5,43 29,70t70,61q47,34 71,61.5T383,533q1,6 1,17q0,43-27.5,68.5T283,644q-52,0-87.5-31T154,532l-4-31q-2-10-11-10l-49,3q-9,0-9,10l4,28q10,79 67.5,128T293,709q74,0 117.5-40.5T454,560q0-9-2-27q-6-44-24-76t-40-52.5T331,359q-36-26-55-46t-22-48l-7-55q-2-10-11-10H186ZM186,2q-22,0-35.5,13.5T137,50q0,27 18.5,45.5T199,114q22,0 35.5-13T248,66q0-27-18-45.5T186,2Z" />
      <glyph unicode="@" glyph-name="at" horiz-adv-x="802" d="M497,617q81,0 141-31.5t92.5-88T763,367q0-47-13-96q-23-92-73-143T561,77q-34,0-58,13t-34,38q-1,5-5,1q-22-25-50-38T355,78q-52,0-82,26.5T243,174q0,24 16,86q13,58 28,87q21,44 60.5,70T431,443q55,0 79-37q1-2 2.5-2t2.5,3l5,22q3,9 11,9h31q5,0 7-3.5t1-7.5L518,218q-4-15-4-30q0-29 15.5-46.5T572,124q41,0 74.5,38T697,268q13,48 13,92q0,97-60.5,153T487,569q-81,0-158.5-37T195,421.5T123,244q-6-34-6-66q0-101 56.5-161.5T333-44q48,0 94.5,12T501-3q8,6 13-2l14-20l2-5q0-5-6-9q-34-25-90.5-39.5T320-93Q200-93 133.5-21T67,172q0,42 7,81q19,113 84,195.5T313.5,574T497,617ZM455,189q6,11 10.5,24T478,261q12,52 13,71q2,29-14.5,47.5T429,398t-57-18t-41-47q-10-18-24-74q-7-28-9.5-43.5T295,189q-2-29 16.5-47T362,124q31,0 55.5,18.5T455,189Z" />
      <glyph unicode="A" glyph-name="A" horiz-adv-x="589" d="M474,0q-8,0-10,8L440,134q0,3-3,3H147q-3,0-4-3L88,8Q85,0 76,0H23Q12,0 17,11L315,692q1,4 5,6t7,2h66q4,0 7-2t4-6L536,11V9q0-9-9-9H474ZM170,200q-1-2 0-3.5t3-1.5H424q2,0 3.5,2t0.5,3L352,608q-1,2-2.5,2t-3.5-2L170,200Z" />
      <glyph unicode="B" glyph-name="B" horiz-adv-x="608" d="M457,365q-5-3 0-6q87-37 87-139q0-8-2-30q-11-90-73-140T316,0H81q-4,0-6.5,3T73,10l84,680q0,4 3,7t7,3H395q86,0 134-40t48-114q0-67-31.5-113T457,365ZM223,638q-3,0-5-4L189,394q0-4 3-4H357q67,0 108.5,38.5T507,530q0,50-32,79t-87,29H223ZM324,63q67,0 109,42.5T475,217q0,52-32.5,82.5T353,330H185q-4,0-4-4L149,67q0-4 3-4H324Z" />
      <glyph unicode="C" glyph-name="C" horiz-adv-x="589" d="M277-9Q184-9 129.5,42T75,179q0,22 2,34l33,275q8,65 43,115t90,77.5T365,708q94,0 149-50t55-134q0-10-2-32q-2-11-11-11l-50-3q-9,0-9,9l1,3q1,8 1,23q0,61-37.5,97T358,646q-71,0-120.5-43T179,490L145,210q-1-8-1-23q0-61 38-97T285,54q72,0 121,43t57,113l1,2q0,9 10,9l49-3q11,0 9-9q-8-65-42.5-114.5T400,18T277-9Z" />
      <glyph unicode="D" glyph-name="D" horiz-adv-x="599" d="M81,0q-4,0-6.5,3T73,10l84,680q0,4 3,7t7,3H396q88,0 138-43.5T584,537q0-10-2-30L544,193q-11-89-74.5-141T310,0H81Zm68,66q0-4 3-4H321q63,0 105,38t50,102l36,295q2,18 2,25q0,54-32,85t-90,31H223q-3,0-5-4L149,66Z" />
      <glyph unicode="E" glyph-name="E" horiz-adv-x="587" d="M591,648q-2-10-11-10H223q-3,0-5-4L188,387q0-4 4-4H442q10,0 8-10l-5-42q-2-10-11-10H184q-4,0-4-4L149,66q0-4 3-4H509q9,0 9-10l-6-42q0-4-3-7t-8-3H81q-4,0-6.5,3T73,10l84,680q0,4 3,7t7,3H587q5,0 7.5-3t1.5-7l-5-42Z" />
      <glyph unicode="F" glyph-name="F" horiz-adv-x="551" d="M590,648q-2-10-11-10H223q-3,0-5-4L188,387q0-4 4-4H441q10,0 8-10l-5-42q-2-10-11-10H184q-4,0-4-4L142,10Q140,0 131,0H81q-4,0-6.5,3T73,10l84,680q0,4 3,7t7,3H586q5,0 7.5-3t1.5-7l-5-42Z" />
      <glyph unicode="G" glyph-name="G" horiz-adv-x="595" d="M277-8Q184-8 129,43.5T74,180q0,10 2,32l34,276q8,65 43,115t90,77.5T365,708q93,0 148-50.5T568,525q0-9-2-29l-1-13q-2-10-11-10H504q-10,0-8,10l1,12q1,8 1,22q0,58-37.5,93.5T358,646q-71,0-120.5-43T179,490L145,210q-1-8-1-22q0-61 39-97.5T288,54q71,0 118,40t55,107l11,91q1,1 0,2.5t-3,1.5H326q-4,0-6.5,3t-1.5,7l5,42q2,10 11,10H540q4,0 6.5-3t1.5-7L532,219Q519,112 450,52T277-8Z" />
      <glyph unicode="H" glyph-name="H" horiz-adv-x="634" d="M543,690q0,4 3,7t7,3h50q10,0 8-10L528,10Q526,0 517,0H468q-5,0-7.5,3T459,10l38,307q0,4-4,4H184q-4,0-4-4L142,10Q140,0 131,0H81q-4,0-6.5,3T73,10l84,680q0,4 3,7t7,3h50q10,0 8-10L188,387q0-4 4-4H501q4,0 4,4l38,303Z" />
      <glyph unicode="I" glyph-name="I" horiz-adv-x="251" d="M81,0q-4,0-6.5,3T73,10l84,680q0,4 3,7t7,3h50q10,0 8-10L142,10Q140,0 131,0H81Z" />
      <glyph unicode="J" glyph-name="J" horiz-adv-x="560" d="M228-8Q137-8 84,40.5T31,171q0,10 2,30l10,76q0,4 3,7t8,3h49q9,0 9-10l-10-76q-1-8-1-23q0-57 36-90.5T236,54q68,0 114.5,40.5T405,201l60,489q2,10 11,10h49q5,0 7.5-3t1.5-7L474,201q-8-62-41.5-109.5T346,18T228-8Z" />
      <glyph unicode="K" glyph-name="K" horiz-adv-x="592" d="M81,0q-4,0-6.5,3T73,10l84,680q0,4 3,7t7,3h50q10,0 8-10L184,351q-1-2 1-3t3,1L537,695q5,5 13,5h56q7,0 7-5q0-3-4-7L338,411q-3-2-1-6L547,12q1-1 1-4t-3-5.5T538,0H482q-9,0-11,6L284,354q-2,4-6,1L174,254q-3-3-3-5L142,10Q140,0 131,0H81Z" />
      <glyph unicode="L" glyph-name="L" horiz-adv-x="551" d="M81,0q-4,0-6.5,3T73,10l84,680q0,4 3,7t7,3h50q10,0 8-10L149,66q0-4 3-4H495q4,0 6.5-3t1.5-7l-5-42Q496,0 487,0H81Z" />
      <glyph unicode="M" glyph-name="M" horiz-adv-x="694" d="M597,693q7,7 13,7h50q9,0 9-10L585,10Q583,0 574,0H525q-9,0-9,10l69,556q0,3-2,4t-3-2L391,318q-5-7-12-7H353q-7,0-10,6L215,565q-1,3-3,2t-2-4L142,10Q140,0 131,0H81q-4,0-6.5,3T73,10l84,680q0,4 3,7t7,3h51q6,0 11-6L376,409q1-1 3-1t3,1L597,693Z" />
      <glyph unicode="N" glyph-name="N" horiz-adv-x="656" d="M561,690q2,10 11,10h49q5,0 7.5-3t1.5-7L546,10q0-4-3-7t-8-3H487q-6,0-11,7L214,562q-1,3-3,2.5t-2-3.5L142,10Q140,0 131,0H81q-4,0-6.5,3T73,10l84,680q0,4 3,7t7,3h49q6,0 11-7L489,138q1-3 3-2.5t2,3.5l67,551Z" />
      <glyph unicode="O" glyph-name="O" horiz-adv-x="603" d="M280-8Q186-8 131,45T76,188q0,24 2,36l31,252q8,69 43.5,121.5T244,679t124,29q95,0 150.5-53T574,512q0-24-2-36L541,224q-9-69-44.5-121.5T405,21T280-8Zm8,61q74,0 124,46t59,122l32,256q2,18 2,26q0,66-38.5,104.5T361,646q-73,0-123.5-46.5T178,477L146,221q-2-18-2-26q0-65 39-103.5T288,53Z" />
      <glyph unicode="P" glyph-name="P" horiz-adv-x="574" d="M416,701q77,0 122-45t45-120q0-9-2-31q-11-87-70-140T365,312H176q-4,0-4-4L135,10Q133,0 124,0H75q-5,0-7.5,3T66,10l84,681q2,10 11,10H416ZM368,371q63,0 104.5,43T514,525q0,52-31,83t-83,31H216q-4,0-4-4L180,375q0-4 3-4H368Z" />
      <glyph unicode="Q" glyph-name="Q" horiz-adv-x="559" d="M347,708q91,0 144-51.5T544,518q0-24-2-36L509,214q-10-89-67.5-148.5T298-6q-4,0-4-4l-12-95q-2-10-11-10H222q-5,0-7.5,3t-1.5,7l12,95q0,4-3,4Q147,5 104,54.5T61,180q0,10 2,34L96,482q8,67 42.5,118T227,679.5T347,708ZM474,485q2,18 2,26q0,61-37,98T339,646q-69,0-117-44.5T165,485L132,215q-2-18-2-26q0-61 37-98T267,54q69,0 117,44.5T441,215l33,270Z" />
      <glyph unicode="R" glyph-name="R" horiz-adv-x="594" d="M468,0q-10,0-11,7L352,317q0,3-3,3H184q-3,0-5-4L142,10Q140,0 131,0H81q-4,0-6.5,3T73,10l84,680q0,4 3,7t7,3H419q75,0 119.5-44.5T583,537q0-10-2-30q-8-70-51-119T422,325q-4-2-2-5L527,12l1-4q0-8-9-8H468ZM223,638q-3,0-5-4L187,381q0-4 4-4H371q62,0 102.5,42.5T514,528q0,50-30,80t-81,30H223Z" />
      <glyph unicode="S" glyph-name="S" horiz-adv-x="567" d="M267-8Q166-8 108.5,35.5T51,154q0,9 2,25l4,31q2,10 11,10h47q9,0 9-10l-4-27q-1-5-1-15q0-51 42.5-82.5T280,54q74,0 117,32.5T447,173q1,5 1,16q0,42-35.5,71.5T288,331q-64,27-100,47.5T130,430t-22,76q0,7 2,25q10,84 72.5,130.5T344,708t154.5-44.5T554,544q0-8-2-26l-2-22q-2-10-11-10H490q-4,0-6.5,3t-1.5,7l2,18q1,6 1,16q0,52-39.5,84T333,646q-68,0-108.5-29T177,533q-1-6-1-16q0-30 16.5-51T240,428.5T332,387q62-27 100-51t61.5-57T517,200q0-16-1-24Q506,92 440,42T267-8Z" />
      <glyph unicode="T" glyph-name="T" horiz-adv-x="552" d="M567,700q9,0 9-10l-6-43q0-4-3-7t-8-3H369q-4,0-4-4L288,10q0-4-3-7t-8-3H228q-9,0-9,10l77,623q0,4-3,4H110q-10,0-8,10l5,43q2,10 11,10H567Z" />
      <glyph unicode="U" glyph-name="U" horiz-adv-x="629" d="M294-8Q200-8 144.5,43.5T89,182q0,10 2,34l58,474q0,4 3,7t8,3h49q9,0 9-10L159,214q-1-8-1-23q0-62 39-99.5T302,54q72,0 122,44t59,116l59,476q0,4 3,7t8,3h49q10,0 8-10L552,216q-8-67-43-117.5T418.5,20T294-8Z" />
      <glyph unicode="V" glyph-name="V" horiz-adv-x="571" d="M239,0q-4,0-7,2t-4,6L100,689v2q0,9 9,9h53q3,0 6-2t4-6L277,106q0-2 2.5-2t3.5,2L531,692q5,8 13,8h51q10,0 7-11L305,8q-5-8-13-8H239Z" />
      <glyph unicode="W" glyph-name="W" horiz-adv-x="852" d="M205,0q-8,0-10,8L92,689v2q0,4 3,6.5t7,2.5h52q8,0 10-8l80-548q0-2 2-2t3,2L452,691q3,9 12,9h53q4,0 6.5-2.5T526,691l76-547q0-2 1.5-2t2.5,2L821,692q3,8 12,8h49q11,0 8-11L623,8q-3-8-12-8H560q-4,0-7,2.5T550,9L477,569q0,2-1.5,2t-3.5-2L265,9q-3-9-12-9H205Z" />
      <glyph unicode="X" glyph-name="X" horiz-adv-x="571" d="M25,0q-6,0-7,3.5T21,12L266,347q2,3 0,6L104,688q-1,2-1,6q0,6 8,6h54q8,0 11-7L314,408q1-1 3-1t3,1L526,693q7,7 13,7h53q12,0 5-12L353,352q-3-3-1-6L514,12q1-2 1-5q0-7-9-7H453q-6,0-11,7L305,291q0,2-2,2t-3-2L92,7Q87,0 80,0H25Z" />
      <glyph unicode="Y" glyph-name="Y" horiz-adv-x="550" d="M231,1q-10,0-8,10l36,296q0,4-1,5L103,688q-1,2-1,5q0,7 9,7h53q9,0 10-7L300,388q1-1 3-1t3,1L507,693q1,3 5,5t8,2h52q6,0 7.5-3.5T577,688L329,312q-1-1-1-5L291,11q0-4-3-7t-8-3H231Z" />
      <glyph unicode="Z" glyph-name="Z" horiz-adv-x="532" d="M34,0q-9,0-9,10l6,48q2,8 6,13L461,633q1,1 0.5,3t-2.5,2H112q-10,0-8,10l5,42q2,10 11,10H538q10,0 8-10l-5-48q-2-7-6-13L112,67q-2-2-1-3.5t3-1.5H460q4,0 6.5-3t1.5-7l-5-42Q461,0 452,0H34Z" />
      <glyph unicode="[" glyph-name="bracketleft" horiz-adv-x="368" d="M6-121q-4,0-6.5,3T-2-111L105,764q1,4 4,7t7,3H304q4,0 6.5-3t1.5-7l-5-42q-2-10-11-10H172q-3,0-5-4L74-55q0-4 3-4H202q9,0 9-10l-5-42q-1-4-4-7t-7-3H6Z" />
      <glyph unicode="\" glyph-name="backslash" horiz-adv-x="388" d="M339,9q0-9-9-9H281q-8,0-10,8L139,689v2q0,9 9,9h49q3,0 6-2t4-6L339,11V9Z" />
      <glyph unicode="]" glyph-name="bracketright" horiz-adv-x="368" d="M304-111q-1-4-4-7t-7-3H105q-4,0-6.5,3T97-111l5,42q2,10 11,10H237q3,0 5,4l93,763q0,4-3,4H209q-5,0-7.5,3t-1.5,7l5,42q2,10 11,10H403q4,0 6.5-3t1.5-7L304-111Z" />
      <glyph unicode="^" glyph-name="asciicircum" horiz-adv-x="436" d="M68,307q-5,0-6.5,3.5T62,319L250,692q4,8 12,8h45q9,0 10-8l97-373l1-3q0-9-10-9H365q-9,0-10,8L278,623q0,3-2,3t-4-3L120,315q-4-8-11-8H68Z" />
      <glyph unicode="_" glyph-name="underscore" horiz-adv-x="470" d="M18,0q-4,0-6.5,3T10,10l5,37q0,4 3,7t7,3H419q9,0 9-10l-5-37Q421,0 412,0H18Z" />
      <glyph unicode="`" glyph-name="grave" horiz-adv-x="189" d="M207,584q1-2 1-5q0-7-9-7H164q-6,0-11,7L101,688q-1,2-1,6q0,6 8,6h44q9,0 10-7l45-109Z" />
      <glyph unicode="a" glyph-name="a" horiz-adv-x="529" d="M424,496q0,4 3,7t8,3h49q9,0 9-10L433,10Q431,0 422,0H372q-4,0-6.5,3T364,10l7,58q1,3-1,3.5T367,69q-24-36-60.5-56.5T223-8Q152-8 108.5,38.5T65,159q0,26 9,93q5,45 10.5,74.5T99,381q22,59 73.5,96T290,514q91,0 122-75q1-3 2.5-2.5T417,440l7,56ZM374,150q6,15 9.5,33T394,252q7,66 7,84q0,13-1,20q-2,41-29.5,68.5T297,452q-47,0-83-27t-50-69q-6-16-9.5-35T145,253q-8-59-8-80q0-9 2-23q3-42 33-69t76-27t79,27t47,69Z" />
      <glyph unicode="b" glyph-name="b" horiz-adv-x="529" d="M482,377q2-24 2-39q0-37-6-85q-10-82-29-127q-26-62-76.5-98T255-8Q216-8 186,8T139,54q-1,2-3,1.5T134,53l-6-43q0-4-3-7t-8-3H68q-9,0-9,10l84,680q2,10 11,10h49q5,0 7.5-3t1.5-7L183,454q-1-2 0.5-2.5T187,453q25,29 59,45t73,16q69,0 111-36.5T482,377ZM377,132q12,21 19,47.5T409,253q5,43 5,64q0,35-11,62q-9,33-35,53t-64,20t-66.5-20T193,377q-13-21-20.5-48.5T159,253q-5-47-5-67q0-31 8-55q8-35 32-56t62-21q40,0 72.5,21T377,132Z" />
      <glyph unicode="c" glyph-name="c" horiz-adv-x="504" d="M242-8Q172-8 127,29.5T71,131q-3,20-3,42q0,36 6,82q9,74 28,122q25,62 80,99.5T307,514q71,0 118-37t56-92q2-12 2-30q0-9-10-11l-49-7h-2q-8,0-8,9l-1,15q-4,38-35,64.5T299,452t-84-26.5T164,355q-14-36-21-101q-5-39-5-75q0-20 1-27q4-44 33-71t78-27q48,0 85.5,25.5T386,145q1,1 1,4l1,4q3,10 13,8l47-8q10-2 7-11q-2-9-6-20q-22-58-78.5-94T242-8Z" />
      <glyph unicode="d" glyph-name="d" horiz-adv-x="529" d="M448,690q0,4 3,7t7,3h50q10,0 8-10L433,10Q431,0 422,0H372q-4,0-6.5,3T364,10l5,42q1,2-0.5,2.5T365,53Q340,24 306,8T234-8Q166-8 124.5,28T73,126q-4,20-4,49q0,35 6,78q10,83 27,124q25,64 76,100.5T298,514q38,0 68-15.5T414,454q3-5 5,1l29,235ZM361,131q12,20 19,47t13,75q5,36 5,70q0,28-7,54q-8,34-32,54.5T298,452q-38,0-69-20t-48-53q-14-22-22.5-50T144,253q-5-35-5-68q0-27 7-53q8-36 35-57t67-21q39,0 67.5,21T361,131Z" />
      <glyph unicode="e" glyph-name="e" horiz-adv-x="517" d="M476,338q0-38-9-102q0-4-3-7t-8-3H143q-4,0-4-4q-4-44-4-56q0-51 32.5-81.5T259,54q42,0 74.5,19T388,127q8,9 14,4l35-23q8-5 2-14q-30-48-81.5-75.5T242-9Q173-8 131,25T75,117q-6,26-6,58q0,35 6,80q5,43 10,69t13,47q24,65 79,104t126,39q88,0 130-46t43-130ZM295,452q-47,0-81.5-25.5T163,358q-7-20-16-68q0-4 4-4H402q4,0 4,4q2,40 2,51q0,50-30,80.5T295,452Z" />
      <glyph unicode="f" glyph-name="f" horiz-adv-x="346" d="M331,638q-54,0-76.5-24.5T225,530l-2-20q-1-1 0-2.5t3-1.5H335q10,0 8-10l-5-45q-2-10-11-10H218q-4,0-4-4L161,10q0-4-3-7t-8-3H102q-9,0-9,10l53,427q0,4-4,4H77q-4,0-6.5,3T69,451l5,45q1,4 4,7t7,3h65q2,0 3.5,1t1.5,3l3,24q7,61 25,97t53.5,52.5T332,700h28q5,0 7.5-3t1.5-7l-5-42q-2-10-11-10H331Z" />
      <glyph unicode="g" glyph-name="g" horiz-adv-x="519" d="M422,496q0,4 3,7t8,3h49q9,0 9-10L432,17Q418-95 349-147T171-199q-23,0-34,1q-10,1-9,11l8,46q2,11 11,9l27-1q89,0 134,36.5T363,19l5,37q0,2-1.5,2.5T363,57Q312-3 229-3Q166-3 121,32T67,131q-2,22-2,37q0,37 6,85q10,87 28,128q25,60 75,96.5T288,514q86,0 124-59q1-2 3-1t2,3l5,39ZM375,153q5,16 8,34t9,67q8,67 8,85q0,10-1,16q-2,42-30,69.5T295,452t-81-27t-52-70q-13-31-22-100q-5-37-5-71q0-18 2-30q5-42 34.5-69.5T247,57q48,0 81.5,27T375,153Z" />
      <glyph unicode="h" glyph-name="h" horiz-adv-x="523" d="M325,513q70,0 110-39t40-106q0-8-2-28L433,10Q431,0 422,0H372q-4,0-6.5,3T364,10l39,316q1,7 1,20q0,48-27.5,76.5T302,451q-54,0-91-34t-44-89L128,10q0-4-3-7t-8-3H68q-9,0-9,10l84,680q2,10 11,10h49q5,0 7.5-3t1.5-7L183,453q-1-2 0.5-3t3.5,1q24,31 59.5,46.5T325,513Z" />
      <glyph unicode="i" glyph-name="i" horiz-adv-x="248" d="M178,598q-21,0-34.5,13.5T130,646q0,27 18.5,45.5T192,710q21,0 34.5-13T240,662q0-27-18-45.5T178,598ZM78,1q-9,0-9,10l60,486q2,10 11,10h49q5,0 7.5-3t1.5-7L138,11Q136,1 127,1H78Z" />
      <glyph unicode="j" glyph-name="j" horiz-adv-x="238" d="M168,598q-22,0-35,13.5T120,646q0,28 18,46t44,18q21,0 34.5-13T230,662q0-27-18-45.5T168,598ZM-69-208q-9,0-9,10l5,41q2,10 12,10Q43-146 55-44l66,540q2,10 11,10h49q5,0 7.5-3t1.5-7L124-44q-11-85-56.5-124T-69-208Z" />
      <glyph unicode="k" glyph-name="k" horiz-adv-x="486" d="M68,0q-9,0-9,10l84,680q2,10 11,10h49q5,0 7.5-3t1.5-7L162,281q-1-2 0.5-3t3.5,1L399,501q5,5 12,5h59q5,0 6.5-4t-2.5-8L332,352q-2-2-1-5L438,12l1-3q0-9-10-9H376q-8,0-9,8L277,300q0,1-1.5,1.5T273,301L152,185q-3-3-3-5L128,10q0-4-3-7t-8-3H68Z" />
      <glyph unicode="l" glyph-name="l" horiz-adv-x="223" d="M68,0q-9,0-9,10l84,680q2,10 11,10h49q5,0 7.5-3t1.5-7L128,10q0-4-3-7t-8-3H68Z" />
      <glyph unicode="m" glyph-name="m" horiz-adv-x="802" d="M618,513q65,0 101.5-36.5T756,375q0-8-2-30L713,10Q711,0 702,0H654q-9,0-9,10l40,321q1,7 1,20q0,46-26,73t-71,27q-52,0-87-32t-42-86L420,10q0-4-3-7t-8-3H360q-9,0-9,10l40,321q1,7 1,21q0,46-26,72.5T295,451q-51,0-85.5-32T168,333L128,10q0-4-3-7t-8-3H68q-9,0-9,10l60,486q2,10 11,10h49q5,0 7.5-3t1.5-7l-5-40q0-2 1.5-2.5T188,455q25,29 60,43.5T324,513q50,0 83.5-21T455,431q0-2 1.5-2t2.5,2q26,41 68,61.5T618,513Z" />
      <glyph unicode="n" glyph-name="n" horiz-adv-x="523" d="M325,513q70,0 110-39t40-106q0-8-2-28L433,10Q431,0 422,0H372q-4,0-6.5,3T364,10l39,316q1,7 1,20q0,48-27.5,76.5T302,451q-54,0-91-34t-44-89L128,10q0-4-3-7t-8-3H68q-9,0-9,10l60,486q2,10 11,10h49q5,0 7.5-3t1.5-7l-5-43q-1-2 0.5-3t3.5,1q24,31 59.5,46.5T325,513Z" />
      <glyph unicode="o" glyph-name="o" horiz-adv-x="529" d="M244-8Q174-8 128,29T71,131q-3,21-3,48q0,30 5,75q9,76 28,122q26,64 81.5,101T309,514q69,0 114.5-37T480,377q4-19 4-47q0-22-6-76q-10-80-28-123Q424,66 369,29T244-8Zm8,62q46,0 82.5,26.5T388,152q13,34 21,101q6,47 6,78q0,16-1,23q-6,45-36.5,71.5T300,452t-83-26.5T163,354q-12-33-20-101q-6-45-6-77q0-17 1-24q5-45 35.5-71.5T252,54Z" />
      <glyph unicode="p" glyph-name="p" horiz-adv-x="536" d="M486,380q4-21 4-52q0-28-5-75q-9-79-28-124Q432,65 381.5,28.5T261-8Q222-8 192.5,7.5T145,52q-1,2-3,1.5T140,51L111-184q0-4-3-7t-8-3H51q-9,0-9,10l84,680q2,10 11,10h49q9,0 9-10l-5-42q-1-2 0.5-2.5T194,453q25,29 59,45t72,16q68,0 109.5-36T486,380ZM378,127q14,22 22.5,50T415,253q5,35 5,68q0,27-7,53q-8,36-35,57t-67,21q-39,0-68.5-21T197,375q-11-21-18-47.5T166,253q-5-36-5-70q0-28 7-54q8-34 32-54.5T261,54q39,0 70,20t47,53Z" />
      <glyph unicode="q" glyph-name="q" horiz-adv-x="536" d="M424,496q0,4 3,7t8,3h49q9,0 9-10L409-184q-2-10-11-10H349q-5,0-7.5,3t-1.5,7L369,51q0,5-4,1Q339,23 305.5,7.5T234-8Q165-8 123,28.5T71,129q-3,18-3,38q0,30 7,86q10,82 29,127q25,62 75.5,98T298,514q38,0 68-16t48-45q3-5 5,1l5,42ZM360,129q12,22 19.5,49T393,253q5,38 5,71q0,31-7,51q-8,35-32,56t-62,21q-40,0-72.5-21T176,374q-12-21-19-47.5T144,253q-5-43-5-64q0-35 11-62q9-33 35-53t64-20t66.5,20T360,129Z" />
      <glyph unicode="r" glyph-name="r" horiz-adv-x="353" d="M319,511q32,0 54-13q6-4 4-13l-17-49q-5-10-13-6q-16,7-37,7l-13-1q-51-2-88-38.5T165,305L128,10q0-4-3-7t-8-3H68q-9,0-9,10l60,486q2,10 11,10h49q5,0 7.5-3t1.5-7l-8-61q0-3 1.5-3.5T185,433q24,37 58,57.5T319,511Z" />
      <glyph unicode="s" glyph-name="s" horiz-adv-x="467" d="M219-5Q142-5 96,29T50,115q0,8 1,13l1,12q2,10 11,10h47q4,0 6.5-3t1.5-7l-1-8q-3-21 10-40t38.5-30.5T224,50q53,0 88.5,26.5T348,142q0,22-14.5,36t-34,22T237,222q-49,16-80.5,30.5t-53,39.5T82,355q0,10 1,16q8,64 61.5,102T277,511q76,0 120.5-34.5T442,388q0-10-1-15l-1-3q-2-10-11-10H384q-5,0-7.5,3t-1.5,7l1,3q4,34-25,57t-82,23q-52,0-85.5-23T150,368q0-30 26-46t82-34q52-16 83-29.5t54-39T418,155q0-11-1-17q-8-64-62.5-103.5T219-5Z" />
      <glyph unicode="t" glyph-name="t" horiz-adv-x="353" d="M335,457q-1-4-4-7t-7-3H214q-4,0-4-4L173,148q-1-8-1-21q0-36 19-51t58-15h24q9,0 9-10l-5-41Q275,0 266,0q-12-1-36-1q-63,0-95.5,21T102,97q0,9 2,29l39,317q0,4-4,4H80q-10,0-8,10l4,39q1,4 4,7t7,3h60q1,0 2.5,1t1.5,3l14,116q2,10 11,10h48q4,0 6.5-3t1.5-7L218,510q0-4 3-4H331q10,0 8-10l-4-39Z" />
      <glyph unicode="u" glyph-name="u" horiz-adv-x="520" d="M416,496q2,10 11,10h49q5,0 7.5-3t1.5-7L425,10Q423,0 414,0H365q-9,0-9,10l6,43q0,2-2,3t-3-1Q309-7 220-7Q154-7 111,30T68,133q0,7 2,25l41,338q2,10 11,10h50q10,0 8-10L141,179q-1-7-1-21q0-48 26.5-75.5T241,55q55,0 92,34t44,90l39,317Z" />
      <glyph unicode="v" glyph-name="v" horiz-adv-x="461" d="M183,0q-8,0-10,8L73,495v2q0,9 9,9h56q8,0 10-8l74-392q0-2 2-2t3,2L397,498q1,4 5,6t7,2l56-1q5,0 6.5-3t-0.5-8L252,8q-1-4-5-6t-7-2H183Z" />
      <glyph unicode="w" glyph-name="w" horiz-adv-x="699" d="M160,0q-7,0-10,8L72,495v2q0,4 3,6.5t7,2.5h51q8,0 10-9l54-394q2-5 5,0L355,497q4,9 12,9h46q10,0 10-8l57-394q1-2 3-2t3,2L640,497q4,9 12,9l50-1q11,0 8-11L510,8q-3-8-11-8H447q-7,0-10,8L378,382q-1,2-2.5,2t-2.5-2L224,8q-3-8-12-8H160Z" />
      <glyph unicode="x" glyph-name="x" horiz-adv-x="463" d="M16,0Q11,0 9,4t2,8L202,250q3,3 1,6L70,494q-1,1-1,4q0,8 10,8h52q9,0 11-6L246,311q0-1 2-1t4,1L401,500q4,6 12,6h57q6,0 7.5-3.5T475,494L284,256q-3-3-1-6L416,12q2-4 2-5q0-7-10-7H355q-9,0-11,6L241,195q-1,2-3,1.5t-3-1.5L84,6Q80,0 72,0H16Z" />
      <glyph unicode="y" glyph-name="y" horiz-adv-x="447" d="M11-200q-7,0-5,10l5,40q0,4 3,7t8,3h3q38,1 60.5,11.5T126-90T169-3q1,2 1.5,3.5T170,3L67,495v2q0,9 9,9h51q8,0 11-8L214,94q1-2 3-2t3,2L394,498q1,4 5,6t7,2h51q11,0 6-11L218-44q-31-67-55.5-99T106-187.5T18-200H11Z" />
      <glyph unicode="z" glyph-name="z" horiz-adv-x="432" d="M23,0Q13,0 15,10l6,48q0,5 5,12L346,436q2,1 1.5,3t-2.5,2H81q-10,0-8,10l5,45q2,10 11,10H430q10,0 8-10l-6-48q0-5-5-12L104,70q-2-1-1.5-3t2.5-2H376q4,0 6.5-3t1.5-7l-5-45q-1-4-4-7t-7-3H23Z" />
      <glyph unicode="{" glyph-name="braceleft" horiz-adv-x="293" d="M157-121q-45,0-66.5,20.5T69-36q0,7 2,29L98,210q2,20 2,27q0,29-10.5,44T57,300q-8,2-7,10l5,40q0,8 10,10q27,5 42,26t20,63l26,212q8,59 35,86t79,27h61q10,0 8-10l-5-42q-2-10-11-10H283q-55,0-64-74L195,444q-5-46-19.5-72.5T134,332q-4-1-1-5q37-19 37-77q0-15-3-35L143,16q-2-16-2-22q0-53 48-53h37q4,0 6.5-3t1.5-7l-5-42q-2-10-11-10H157Z" />
      <glyph unicode="|" glyph-name="bar" horiz-adv-x="161" d="M26-80q-10,0-8,10L118,750q2,10 11,10h50q4,0 6.5-3t1.5-7L86-70q0-4-3-7t-7-3H26Z" />
      <glyph unicode="}" glyph-name="braceright" horiz-adv-x="293" d="M6-121q-4,0-6.5,3T-2-111L3-69Q5-59 14-59H51q55,0 64,75l25,199q5,46 20,72.5T202,327q5,4 1,5q-38,20-38,77q0,16 3,35l24,194q1,7 1,19q0,55-47,55H109q-9,0-9,10l5,42q1,4 4,7t7,3h61q45,0 67-21t22-65q0-7-2-27L237,449q-1-9-1-24q0-30 10-45.5T278,360q8-1 7-10l-4-40q-1-9-11-10q-27-5-42-26.5T208,210L182-7q-7-59-35-86.5T68-121H6Z" />
      <glyph unicode="~" glyph-name="asciitilde" horiz-adv-x="486" d="M344,231q-29,0-48.5,8.5T249,265q-20,12-37,19t-37,7q-48,0-78-41q-3-4-7-5t-7,2L58,266q-6,6-2,13q20,34 53.5,54.5T181,354q24,0 42-6.5T261,328q5-3 21-13t32-15.5t34-5.5q21,0 36.5,10T417,334q8,8 14,3l29-21q8-6 2-13q-22-33-52.5-52.5T344,231Z" />
      <glyph unicode="&#xa0;" glyph-name="uni00A0" horiz-adv-x="194" />
      <glyph unicode="&#xa1;" glyph-name="exclamdown" horiz-adv-x="310" d="M220,708q22,0 35-13.5T268,660q0-28-18-46t-44-18q-21,0-34,13t-13,34q0,28 17.5,46.5T220,708ZM166,473q1,10 11,10h38q10,0 9-10L174,22q0-4-3-7t-8-3H114q-10,0-8,10l60,451Z" />
      <glyph unicode="&#xa2;" glyph-name="cent" horiz-adv-x="504" d="M397,235q1,1 1,4l1,4q3,10 13,8l47-8q10-2 7-11q-2-9-6-20q-20-52-69.5-87T278,83q-4,0-4-4L266,8Q264-2 255-2H212q-10,0-8,10l10,73q0,4-3,5q-53,11-86.5,46.5T82,221q-3,20-3,42q0,36 6,82q9,74 28,122q20,52 62,87t97,45q5,2 5,5l8,73q2,10 11,10h42q5,0 7.5-3t1.5-7l-10-70q0-4 4-4q62-7 102.5-42.5T492,475q2-12 2-30q0-9-10-11l-49-7h-2q-8,0-8,9l-1,15q-4,38-35,64.5T310,542t-84-26.5T175,445q-14-36-21-101q-5-39-5-75q0-20 1-27q4-44 33-71t78-27q48,0 85.5,25.5T397,235Z" />
      <glyph unicode="&#xa3;" glyph-name="sterling" horiz-adv-x="588" d="M193,67q-2-2-1.5-3.5T194,62H533q5,0 7.5-3t1.5-7l-5-42Q535,0 526,0H111q-5,0-7.5,3T102,10l6,44q0,7 8,12q26,15 43.5,47T182,187l14,117q1,1 0,2.5t-3,1.5H119q-10,0-8,10l5,39q0,4 3,7t8,3h73q3,0 5,4l17,141q11,92 69.5,144T442,708q65,0 104.5-34.5T598,575v-2q0-8-8-10l-49-9h-3q-6,0-7,7q-10,44-33.5,64.5T434,646q-60,0-98-34t-45-99L274,371q-1-1 0-2.5t3-1.5H463q9,0 9-10l-5-39q-2-10-11-10H270q-3,0-5-4L251,189q-10-79-58-122Z" />
      <glyph unicode="&#xa4;" glyph-name="currency" horiz-adv-x="506" d="M462,327q0-38-13.5-73.5T411,189q-1-1-0.5-3.5T411,183l56-65q2-2 2-5q0-4-5-9L429,76q-7-7-13,1l-53,62q0,1-1.5,1.5T358,140q-55-36-115-36q-59,0-103,33q-3,2-6-1L70,77q-4-3-8-3.5T56,76L28,104q-3,3-3,6q0,4 4,8l67,60q3,3 1,6q-25,41-25,90q0,39 13.5,75.5T123,415q1,1 0.5,3.5T123,421L68,485q-2,4-2,5q0,4 5,9l33,28q4,3 7,3t7-4l52-61q0-1 1.5-1.5T175,464q55,36 116,36q64,0 110-40q3-2 6,1l71,65q3,3 7,3.5t7-2.5l27-28q3-3 3-7t-4-7l-75-68q-2-2-2-6q21-39 21-84ZM133,285q0-50 33.5-84.5T250,166q39,0 73.5,20.5t56,55T401,316q0,52-33.5,87T284,438q-39,0-73.5-21t-56-56.5T133,285Z" />
      <glyph unicode="&#xa5;" glyph-name="yen" horiz-adv-x="668" d="M632,700q6,0 7.5-3.5T637,688L411,344q-2-5 1-5H526q4,0 6.5-3t1.5-7l-3-23q0-4-3-7t-8-3H390q-4,0-4-4l-10-82q0-4 3-4H509q5,0 7.5-3t1.5-7l-3-24q-2-10-11-10H374q-4,0-4-4L352,11q-1-4-4-7t-7-3H291q-10,0-8,10l18,147q0,4-4,4H162q-4,0-6.5,3t-1.5,7l3,24q2,10 11,10H303q4,0 4,4l10,82q0,4-3,4H179q-9,0-9,10l3,23q2,10 11,10H303q1,0 2,1.5t0,3.5L163,688l-1,4q0,8 9,8h53q9,0 10-7L360,388q1-1 3-1t3,1L567,693q5,7 13,7h52Z" />
      <glyph unicode="&#xa6;" glyph-name="brokenbar" horiz-adv-x="161" d="M85,398q-9,0-9,10l42,342q2,10 11,10h50q4,0 6.5-3t1.5-7L145,408q-2-10-11-10H85ZM26-80q-10,0-8,10L60,272q0,4 3,7t8,3h49q10,0 8-10L86-70q0-4-3-7t-7-3H26Z" />
      <glyph unicode="&#xa7;" glyph-name="section" horiz-adv-x="439" d="M172-207q-65,0-101,37T35-68q0,16 1,24l2,23q2,10 11,10H99q4,0 6.5-3t1.5-7l-2-13q-1-6-1-19q0-43 21-68t58-25q43,0 74.5,35T289-29q0,31-15.5,50.5T237,51T178,75q-41,16-66.5,33T72,155q-12,27-12,65q0,34 10.5,65.5T99,340q35,45 85,58q3,1 3,2t-2,2q-36,16-58,50t-22,78q0,45 24,86t66,66t93,25q63,0 101.5-38T428,569q0-14-1-21l-2-17q-2-10-11-10H365q-5,0-7.5,3t-1.5,7l2,11q1,5 1,16q0,39-22,63.5T280,646q-44,0-75.5-35.5T173,528q0-38 27.5-62T279,424q31-10 56.5-24.5T378,360q22-32 22-78q0-34-10-66.5T362,157q-15-23-36.5-38.5T281,98q-5-1-1-4q37-17 57.5-48T358-28q0-14-1-21q-9-69-61-113.5T172-207Zm44,345q58,0 89,44q25,38 25,88q0,30-13,51q-25,38-73,38q-26,0-51-14.5T153,307q-24-37-24-84q0-25 9-40q23-45 78-45Z" />
      <glyph unicode="&#xa8;" glyph-name="dieresis" horiz-adv-x="331" d="M303,601q-22,0-35,13.5T255,649q0,28 18,46t44,18q21,0 34.5-13T365,665q0-27-18-45.5T303,601Zm-166,0q-22,0-35,13.5T89,649q0,28 18,46t44,18q21,0 34.5-13T199,665q0-27-18-45.5T137,601Z" />
      <glyph unicode="&#xa9;" glyph-name="copyright" horiz-adv-x="843" d="M401-8Q309-8 238.5,31.5T129,141T90,300q0,25 3,50q13,101 68.5,183T303,661.5T489,708q92,0 162-39.5T760,559t39-159q0-24-3-50q-12-101-67.5-183T587,38.5T401-8Zm6,51q85,0 158.5,40t121,110T744,349q3,23 3,44q0,76-33,136.5t-93.5,94T482,657q-86,0-159-40T202.5,506.5T145,349q-3-22-3-44q0-76 33-135.5t93-93T407,43Zm17,128q-45,0-70.5,24T328,259q0,10 1,15l19,153q6,47 38.5,74.5T468,529q44,0 69.5-23T563,444q0-9-1-14v-1q-2-10-11-10l-23,1q-9,0-9,10v1l1,10q0,23-15.5,36.5T463,491q-29,0-48.5-16.5T391,431L372,269l-1-10q0-23 15.5-36.5T428,209q29,0 48.5,16.5T500,269v1q0,4 3,7t8,3l23,1q9,0 9-10q-6-45-38.5-72.5T424,171Z" />
      <glyph unicode="&#xaa;" glyph-name="ordfeminine" horiz-adv-x="314" d="M277,564q4,0 4,4l3,24q1,5 1,14q0,29-18,46t-52,17q-29,0-50.5-12.5T136,623q-5-9-13-8l-23,3q-10,2-7,11q11,36 45.5,57.5T221,708q51,0 79.5-26T329,613q0-10-1-16L302,379q-2-10-11-10H266q-4,0-6.5,3t-1.5,7l3,21q0,2-1.5,3t-3.5-1q-36-39-101-39q-43,0-70,20T58,442q0,56 41,89t106,33h72ZM166,400q39,0 69.5,20T270,475l6,48q0,4-4,4H204q-45,0-73.5-19.5T102,451q0-26 17.5-38.5T166,400ZM39,290q0,4 3,7t7,3H290q10,0 8-10l-3-32q-1-4-4-7t-7-3H43q-10,0-8,10l4,32Z" />
      <glyph unicode="&#xab;" glyph-name="guillemotleft" horiz-adv-x="524" d="M270,114q0-7-10-7H213q-7,0-12,6L100,274q-2,4-2,6q0,5 3,8L242,449q6,6 14,6h47q6,0 7.5-3.5T308,443L167,284q-2-4-1-6L268,119l2-5Zm153,0q0-7-9-7H366q-7,0-12,6L253,274q-2,4-2,5q0,5 4,9L396,449q5,6 13,6h47q6,0 7.5-3.5T461,443L321,284q-1-2-1-6L421,119l2-5Z" />
      <glyph unicode="&#xac;" glyph-name="logicalnot" horiz-adv-x="485" d="M59,334q1,4 4,7t7,3H460q5,0 7.5-3t1.5-7L449,172q-2-10-11-10H396q-10,0-8,10l13,106q0,4-4,4H63q-9,0-9,10l5,42Z" />
      <glyph unicode="&#xad;" glyph-name="uni00AD" horiz-adv-x="383" d="M63,280q-5,0-7.5,3T54,290l5,42q2,10 11,10H357q9,0 9-10l-5-42q-1-4-4-7t-7-3H63Z" />
      <glyph unicode="&#xae;" glyph-name="registered" horiz-adv-x="438" d="M287,714q49,0 87-22t59.5-60.5T455,545q0-60-30-110.5T345.5,354T240,324q-48,0-86.5,22T93,407T71,494q0,58 30,109t79.5,81T287,714ZM244,361q46,0 86.5,24.5T395,451t24,89q0,59-38.5,98T283,677q-45,0-85.5-24t-65-65T108,501q0-60 38-100t98-40Zm86,202q0-19-9-33t-23-20q-4-3-3-6l17-63l1-3q0-9-10-9H290q-8,0-9,8l-17,64q0,3-3,3H245q-4,0-4-4l-8-61q0-4-3-7t-8-3H212q-9,0-9,10l20,159q2,10 11,10h51q20,0 32.5-12.5T330,563Zm-75,18q-3,0-5-4l-5-45q0-4 3-4h22q13,0 21,8.5t8,22.5q0,22-22,22H255Z" />
      <glyph unicode="&#xaf;" glyph-name="macron" horiz-adv-x="261" d="M63,594q-10,0-8,10l4,31q0,4 3,7t7,3H311q10,0 8-10l-3-31q-2-10-11-10H63Z" />
      <glyph unicode="&#xb0;" glyph-name="degree" horiz-adv-x="369" d="M225,487q-61,0-99.5,39.5T87,627q0,49 24.5,90.5t65.5,66T264,808q61,0 100-39.5T403,669q0-14-1-21q-6-45-31.5-82t-64-58T225,487Zm6,50q33,0 61,17t44.5,46T353,663q0,42-26.5,69T258,759q-32,0-60-17t-45-46t-17-63q0-41 27-68.5T231,537Z" />
      <glyph unicode="&#xb1;" glyph-name="plusminus" horiz-adv-x="485" d="M465,383q5,0 7.5-3t1.5-7l-5-42q-2-10-11-10H297q-3,0-5-4L272,155q0-4-3-7t-8-3H221q-9,0-9,10l20,162q0,4-3,4H68q-9,0-9,10l5,42q1,4 4,7t7,3H236q2,0 3.5,1t1.5,3l21,170q0,4 3,7t8,3h40q5,0 7.5-3t1.5-7L301,387q0-4 3-4H465ZM28,0q-9,0-9,10l5,42q1,4 4,7t7,3H425q5,0 7.5-3t1.5-7l-5-42Q427,0 418,0H28Z" />
      <glyph unicode="&#xb2;" glyph-name="uni00B2" horiz-adv-x="316" d="M79,442q-10,0-8,10l3,27q2,8 6,12q33,33 71.5,75T206,625l23,25q64,69 68,107q4,29-13.5,47T234,822t-53-18t-24-48l-2-14q-2-10-11-10H114q-9,0-9,10l3,21q7,47 43.5,75.5T239,867q50,0 79-26.5T347,773q0-29-17-62t-51-74q-73-82-136-146q-3-5 2-5H315q5,0 7.5-3t1.5-7l-3-24q-2-10-11-10H79Z" />
      <glyph unicode="&#xb3;" glyph-name="uni00B3" horiz-adv-x="313" d="M321,646q7-18 7-46q0-8-2-30q-6-44-23-71q-17-31-46.5-47.5T189,435q-41,0-68,22T86,517q-2,16-2,25l1,17q2,10 11,10h30q9,0 9-10l-1-14l1-13q2-23 18-37.5T194,480q41,0 64,35q15,22 18,56q2,18 2,24q0,23-7,38q-12,35-53,35q-11,0-19-4q-2-1-5-1q-5,0-9,4l-11,18q-2,4-2,6q0,5 4,8L287,811q2,2 1,3.5t-3,1.5H130q-10,0-8,10l2,24q1,4 4,7t7,3H349q10,0 8-10l-3-27q-1-5-6-12L247,706q-3-3 3-5q54-6 71-55Z" />
      <glyph unicode="&#xb4;" glyph-name="acute" horiz-adv-x="189" d="M92,572q-5,0-7,3.5t2,8.5l72,109q3,7 12,7h44q6,0 7-3.5t-3-8.5L140,579q-7-7-13-7H92Z" />
      <glyph unicode="&#xb5;" glyph-name="uni00B5" horiz-adv-x="529" d="M423,496q0,4 3,7t8,3h49q9,0 9-10L432,10Q430,0 421,0H372q-5,0-7.5,3T363,10l5,43q1,2-1,3t-3-1Q314-7 228-7q-55,0-94,25q-2,1-3.5,0T129,15L104-190q-2-10-11-10H43q-4,0-6.5,3T35-190l84,686q2,10 11,10h49q5,0 7.5-3t1.5-7L147,160q-1-49 25.5-77T248,55q55,0 92,34t44,90l39,317Z" />
      <glyph unicode="&#xb6;" glyph-name="paragraph" horiz-adv-x="559" d="M527,700q5,0 7.5-3t1.5-7L428-190q-2-10-11-10H384q-9,0-9,10L478,643q0,4-4,4H350q-4,0-4-4L243-190q0-4-3-7t-8-3H199q-5,0-7.5,3t-1.5,7l54,436q0,4-4,4q-75,4-121.5,58T72,443q0,10 2,32q7,63 41,114.5t86,81T313,700H527Z" />
      <glyph unicode="&#xb7;" glyph-name="periodcentered" horiz-adv-x="203" d="M110,222q-22,0-35,13.5T62,270q0,28 18,46t44,18q21,0 34.5-13T172,286q0-27-18-45.5T110,222Z" />
      <glyph unicode="&#xb8;" glyph-name="cedilla" horiz-adv-x="136" d="M-33-181q-8,3-5,12l6,23q3,10 13,7q11-3 21-3q17,0 30.5,9T52-106q3,9 3,19q0,36-39,75q-3,3-3,6q0,6 8,6H47q7,0 11-4q46-42 46-90q0-18-5-32q-12-32-37-46T6-186q-19,0-39,5Z" />
      <glyph unicode="&#xb9;" glyph-name="uni00B9" horiz-adv-x="179" d="M165,860q6,2 12,2h34q5,0 7.5-3t1.5-7L171,452q-2-10-11-10H130q-5,0-7.5,3t-1.5,7l44,358q0,3-3,3l-50-9h-2q-8,0-8,9l3,18q0,8 9,12l51,17Z" />
      <glyph unicode="&#xba;" glyph-name="ordmasculine" horiz-adv-x="338" d="M195,367q-44,0-72.5,24T85,458q-3,15-3,34q0,22 3,46q6,46 19,80q17,42 52,66t81,24q50,0 80.5-32T348,589q0-23-3-50q-7-50-19-81q-17-42-52-66.5T195,367Zm6,43q28,0 50,17t32,45q9,20 14,66q4,38 4,51q0,35-18.5,55.5T231,665q-29,0-50.5-16.5T148,603q-9-23-14-65q-3-27-3-47q0-14 1-19q3-29 21-45.5T201,410ZM52,248q-9,0-9,10l4,34q1,4 4,7t7,3H315q5,0 7.5-3t1.5-7l-4-34q-2-10-11-10H52Z" />
      <glyph unicode="&#xbb;" glyph-name="guillemotright" horiz-adv-x="524" d="M100,107q-5,0-6.5,4t2.5,8L236,278q1,2 1,6L136,443l-2,5q0,7 9,7h47q7,0 12-6L304,288q1-2 1-6q0-5-3-8L160,113q-4-6-13-6H100Zm154,0q-5,0-6.5,4t2.5,8L390,278q1,2 1,6L290,443l-2,5q0,7 9,7h47q7,0 12-6L458,288q1-2 1-6q0-5-3-8L314,113q-4-6-13-6H254Z" />
      <glyph unicode="&#xbc;" glyph-name="onequarter" horiz-adv-x="782" d="M145,698q6,2 12,2h34q5,0 7.5-3t1.5-7L151,290q-2-10-11-10H110q-5,0-7.5,3t-1.5,7l44,358q0,3-3,3l-50-9H90q-8,0-8,9l3,18q0,8 9,12l51,17ZM90,0q-6,0-7,3.5T86,12L582,693q7,7 13,7h32q6,0 7-3.5t-3-8.5L135,7q-5-7-12-7H90ZM727,159q5,0 7.5-3t1.5-7l-3-26q-2-10-11-10H702q-4,0-4-4L686,10Q684,0 675,0H645q-9,0-9,10l12,99q1,1 0,2.5t-3,1.5H475q-4,0-6.5,3t-1.5,7l3,23q0,2 4,12L619,413q3,7 11,7h31q5,0 7-3.5t0-8.5L529,164q-1-2 0-3.5t2-1.5H651q4,0 4,4l11,88q2,10 11,10h30q10,0 8-10l-10-88q-1-1 0-2.5t3-1.5h19Z" />
      <glyph unicode="&#xbd;" glyph-name="onehalf" horiz-adv-x="772" d="M145,698q6,2 12,2h34q5,0 7.5-3t1.5-7L151,290q-2-10-11-10H110q-5,0-7.5,3t-1.5,7l44,358q0,3-3,3l-50-9H90q-8,0-8,9l3,18q0,8 9,12l51,17ZM90,0q-6,0-7,3.5T86,12L582,693q7,7 13,7h32q6,0 7-3.5t-3-8.5L135,7q-5-7-12-7H90ZM469,0q-10,0-8,10l3,27q2,8 6,12q33,33 71.5,75T596,183l23,25q64,69 68,107q4,29-13.5,47T624,380t-53-18t-24-48l-2-14q-2-10-11-10H504q-9,0-9,10l3,21q7,47 43.5,75.5T629,425q50,0 79-26.5T737,331q0-29-17-62t-51-74Q596,113 533,49q-3-5 2-5H705q5,0 7.5-3t1.5-7l-3-24Q709,0 700,0H469Z" />
      <glyph unicode="&#xbe;" glyph-name="threequarters" horiz-adv-x="874" d="M302,492q7-18 7-46q0-8-2-30q-6-44-23-71q-17-31-46.5-47.5T170,281q-41,0-68,22T67,363q-2,16-2,25l1,17q2,10 11,10h30q9,0 9-10l-1-14l1-13q2-23 18-37.5T175,326q41,0 64,35q15,22 18,56q2,18 2,24q0,23-7,38q-12,35-53,35q-11,0-19-4q-2-1-5-1q-5,0-9,4l-11,18q-2,4-2,6q0,5 4,8L268,657q2,2 1,3.5t-3,1.5H111q-10,0-8,10l2,24q1,4 4,7t7,3H330q10,0 8-10l-3-27q-1-5-6-12L228,552q-3-3 3-5q54-6 71-55ZM187,0q-6,0-7,3.5t3,8.5L679,693q7,7 13,7h32q6,0 7-3.5t-3-8.5L232,7q-5-7-12-7H187ZM824,159q5,0 7.5-3t1.5-7l-3-26q-2-10-11-10H799q-4,0-4-4L783,10Q781,0 772,0H742q-9,0-9,10l12,99q1,1 0,2.5t-3,1.5H572q-4,0-6.5,3t-1.5,7l3,23q0,2 4,12L716,413q3,7 11,7h31q5,0 7-3.5t0-8.5L626,164q-1-2 0-3.5t2-1.5H748q4,0 4,4l11,88q2,10 11,10h30q10,0 8-10l-10-88q-1-1 0-2.5t3-1.5h19Z" />
      <glyph unicode="&#xbf;" glyph-name="questiondown" horiz-adv-x="447" d="M283,498q22,0 35.5-13.5T332,450q0-27-18-45.5T270,386q-22,0-35.5,13T221,434q0,27 18,45.5T283,498Zm0-198q9,0 9-10l-8-59q-5-43-29-70.5T186,100q-46-34-70-61.5T87-33q-1-6-1-17q0-43 27-68.5T186-144q52,0 88,31t42,81l4,31q2,10 11,10l49-3q10,0 8-10l-3-28q-10-79-67.5-128T177-209q-75,0-118.5,40.5T15-60q0,9 2,27q6,44 24,76T81,95.5T138,141q36,26 55,46t22,48l7,55q2,10 11,10h50Z" />
      <glyph unicode="&#xc0;" glyph-name="Agrave" horiz-adv-x="589" d="M474,0q-8,0-10,8L440,134q0,3-3,3H147q-3,0-4-3L88,8Q85,0 76,0H23Q12,0 17,11L315,692q1,4 5,6t7,2h66q4,0 7-2t4-6L536,11V9q0-9-9-9H474ZM170,200q-1-2 0-3.5t3-1.5H424q2,0 3.5,2t0.5,3L352,608q-1,2-2.5,2t-3.5-2L170,200ZM395,778q1-2 1-5q0-7-9-7H352q-6,0-11,7L289,882q-1,2-1,6q0,6 8,6h44q9,0 10-7l45-109Z" />
      <glyph unicode="&#xc1;" glyph-name="Aacute" horiz-adv-x="589" d="M474,0q-8,0-10,8L440,134q0,3-3,3H147q-3,0-4-3L88,8Q85,0 76,0H23Q12,0 17,11L315,692q1,4 5,6t7,2h66q4,0 7-2t4-6L536,11V9q0-9-9-9H474ZM170,200q-1-2 0-3.5t3-1.5H424q2,0 3.5,2t0.5,3L352,608q-1,2-2.5,2t-3.5-2L170,200ZM335,766q-5,0-7,3.5t2,8.5l72,109q3,7 12,7h44q6,0 7-3.5t-3-8.5L383,773q-7-7-13-7H335Z" />
      <glyph unicode="&#xc2;" glyph-name="Acircumflex" horiz-adv-x="589" d="M474,0q-8,0-10,8L440,134q0,3-3,3H147q-3,0-4-3L88,8Q85,0 76,0H23Q12,0 17,11L315,692q1,4 5,6t7,2h66q4,0 7-2t4-6L536,11V9q0-9-9-9H474ZM170,200q-1-2 0-3.5t3-1.5H424q2,0 3.5,2t0.5,3L352,608q-1,2-2.5,2t-3.5-2L170,200Zm85,568q-6,0-7.5,3.5T250,780l91,108q5,6 14,6h56q8,0 12-6l65-108l2-5q0-7-9-7H442q-10,0-12,6l-48,82q-1,2-3,2t-3-2l-69-82q-5-6-13-6H255Z" />
      <glyph unicode="&#xc3;" glyph-name="Atilde" horiz-adv-x="589" d="M474,0q-8,0-10,8L440,134q0,3-3,3H147q-3,0-4-3L88,8Q85,0 76,0H23Q12,0 17,11L315,692q1,4 5,6t7,2h66q4,0 7-2t4-6L536,11V9q0-9-9-9H474ZM170,200q-1-2 0-3.5t3-1.5H424q2,0 3.5,2t0.5,3L352,608q-1,2-2.5,2t-3.5-2L170,200ZM432,797q-18,0-31,6t-26,16q-16,10-25.5,14.5T329,838q-17,0-30.5-5.5T272,813q-6-9-13-2l-16,18q-5,7 0,14q37,49 90,49q15,0 27-5t21-10.5t12-7.5t12.5-8t17.5-9t16-3q31,0 55,28q7,10 13,2l16-17q3-3 3-7t-4-8q-17-24-41-37t-49-13Z" />
      <glyph unicode="&#xc4;" glyph-name="Adieresis" horiz-adv-x="589" d="M474,0q-8,0-10,8L440,134q0,3-3,3H147q-3,0-4-3L88,8Q85,0 76,0H23Q12,0 17,11L315,692q1,4 5,6t7,2h66q4,0 7-2t4-6L536,11V9q0-9-9-9H474ZM170,200q-1-2 0-3.5t3-1.5H424q2,0 3.5,2t0.5,3L352,608q-1,2-2.5,2t-3.5-2L170,200ZM454,795q-22,0-35,13.5T406,843q0,28 18,46t44,18q21,0 34.5-13T516,859q0-27-18-45.5T454,795Zm-166,0q-22,0-35,13.5T240,843q0,28 18,46t44,18q21,0 34.5-13T350,859q0-27-18-45.5T288,795Z" />
      <glyph unicode="&#xc5;" glyph-name="Aring" horiz-adv-x="589" d="M474,0q-8,0-10,8L440,134q0,3-3,3H147q-3,0-4-3L88,8Q85,0 76,0H23Q12,0 17,11L315,692q1,4 5,6t7,2h66q4,0 7-2t4-6L536,11V9q0-9-9-9H474ZM170,200q-1-2 0-3.5t3-1.5H424q2,0 3.5,2t0.5,3L352,608q-1,2-2.5,2t-3.5-2L170,200ZM369,773q-42,0-68.5,26.5T274,867q0,33 17,61t44.5,44.5T395,989q41,0 67.5-27T489,894q0-33-16.5-60.5t-44.5-44T369,773Zm5,43q29,0 50.5,21T446,889q0,25-15.5,41.5T390,947q-30,0-52-22t-22-53q0-24 16.5-40T374,816Z" />
      <glyph unicode="&#xc6;" glyph-name="AE" horiz-adv-x="894" d="M897,648q0-4-3-7t-8-3H556q-2,0-3.5-1t-1.5-3L521,387q0-4 3-4H748q5,0 7.5-3t1.5-7l-5-42q-2-10-11-10H517q-3,0-5-4L481,66q0-4 4-4H816q4,0 6.5-3t1.5-7l-5-42Q817,0 808,0H414q-10,0-8,10l15,123q0,4-4,4H177q-2,0-4-3L93,7Q89,0 81,0H24q-5,0-6.5,3.5T19,12L451,693q3,7 12,7H894q10,0 8-10l-5-42ZM214,200q-3-5 2-5H425q1,0 2.5,1t1.5,3l51,416q0,6-5,1L214,200Z" />
      <glyph unicode="&#xc7;" glyph-name="Ccedilla" horiz-adv-x="589" d="M566,487q0-2-3-4t-7-2l-50-3q-9,0-9,9l1,3q1,8 1,23q0,61-37.5,97T358,646q-71,0-120.5-43T179,490L145,210q-1-8-1-23q0-61 38-97T285,54q72,0 121,43t57,113l1,2q0,9 10,9l49-3q11,0 9-9q-8-65-42.5-114.5T400,18T277-9q-2,0 3-5q36-36 36-79q0-18-6-34q-11-32-36-46t-56-14q-20,0-40,5q-8,3-5,12l7,23q3,10 13,7q11-3 20-3q22,0 38,13.5T267-89q0,22-13.5,44T218-4q-1,2-2,2t-2,1Q148,15 111.5,62T75,179q0,10 2,34l33,275q8,65 43,115t90,77.5T365,708q94,0 149-50t55-134q0-10-2-32l-1-5Z" />
      <glyph unicode="&#xc8;" glyph-name="Egrave" horiz-adv-x="587" d="M591,648q-2-10-11-10H223q-3,0-5-4L188,387q0-4 4-4H442q10,0 8-10l-5-42q-2-10-11-10H184q-4,0-4-4L149,66q0-4 3-4H509q9,0 9-10l-6-42q0-4-3-7t-8-3H81q-4,0-6.5,3T73,10l84,680q0,4 3,7t7,3H587q5,0 7.5-3t1.5-7l-5-42ZM409,778q1-2 1-5q0-7-9-7H366q-6,0-11,7L303,882q-1,2-1,6q0,6 8,6h44q9,0 10-7l45-109Z" />
      <glyph unicode="&#xc9;" glyph-name="Eacute" horiz-adv-x="587" d="M591,648q-2-10-11-10H223q-3,0-5-4L188,387q0-4 4-4H442q10,0 8-10l-5-42q-2-10-11-10H184q-4,0-4-4L149,66q0-4 3-4H509q9,0 9-10l-6-42q0-4-3-7t-8-3H81q-4,0-6.5,3T73,10l84,680q0,4 3,7t7,3H587q5,0 7.5-3t1.5-7l-5-42ZM349,766q-5,0-7,3.5t2,8.5l72,109q3,7 12,7h44q6,0 7-3.5t-3-8.5L397,773q-7-7-13-7H349Z" />
      <glyph unicode="&#xca;" glyph-name="Ecircumflex" horiz-adv-x="587" d="M591,648q-2-10-11-10H223q-3,0-5-4L188,387q0-4 4-4H442q10,0 8-10l-5-42q-2-10-11-10H184q-4,0-4-4L149,66q0-4 3-4H509q9,0 9-10l-6-42q0-4-3-7t-8-3H81q-4,0-6.5,3T73,10l84,680q0,4 3,7t7,3H587q5,0 7.5-3t1.5-7l-5-42ZM269,768q-6,0-7.5,3.5T264,780l91,108q5,6 14,6h56q8,0 12-6l65-108l2-5q0-7-9-7H456q-10,0-12,6l-48,82q-1,2-3,2t-3-2l-69-82q-5-6-13-6H269Z" />
      <glyph unicode="&#xcb;" glyph-name="Edieresis" horiz-adv-x="587" d="M591,648q-2-10-11-10H223q-3,0-5-4L188,387q0-4 4-4H442q10,0 8-10l-5-42q-2-10-11-10H184q-4,0-4-4L149,66q0-4 3-4H509q9,0 9-10l-6-42q0-4-3-7t-8-3H81q-4,0-6.5,3T73,10l84,680q0,4 3,7t7,3H587q5,0 7.5-3t1.5-7l-5-42ZM468,795q-22,0-35,13.5T420,843q0,28 18,46t44,18q21,0 34.5-13T530,859q0-27-18-45.5T468,795Zm-166,0q-22,0-35,13.5T254,843q0,28 18,46t44,18q21,0 34.5-13T364,859q0-27-18-45.5T302,795Z" />
      <glyph unicode="&#xcc;" glyph-name="Igrave" horiz-adv-x="251" d="M81,0q-4,0-6.5,3T73,10l84,680q0,4 3,7t7,3h50q10,0 8-10L142,10Q140,0 131,0H81ZM228,778q1-2 1-5q0-7-9-7H185q-6,0-11,7L122,882q-1,2-1,6q0,6 8,6h44q9,0 10-7l45-109Z" />
      <glyph unicode="&#xcd;" glyph-name="Iacute" horiz-adv-x="251" d="M81,0q-4,0-6.5,3T73,10l84,680q0,4 3,7t7,3h50q10,0 8-10L142,10Q140,0 131,0H81Zm87,766q-5,0-7,3.5t2,8.5l72,109q3,7 12,7h44q6,0 7-3.5t-3-8.5L216,773q-7-7-13-7H168Z" />
      <glyph unicode="&#xce;" glyph-name="Icircumflex" horiz-adv-x="251" d="M81,0q-4,0-6.5,3T73,10l84,680q0,4 3,7t7,3h50q10,0 8-10L142,10Q140,0 131,0H81Zm6,768q-6,0-7.5,3.5T82,780l91,108q5,6 14,6h56q8,0 12-6l65-108l2-5q0-7-9-7H274q-10,0-12,6l-48,82q-1,2-3,2t-3-2l-69-82q-5-6-13-6H87Z" />
      <glyph unicode="&#xcf;" glyph-name="Idieresis" horiz-adv-x="251" d="M81,0q-4,0-6.5,3T73,10l84,680q0,4 3,7t7,3h50q10,0 8-10L142,10Q140,0 131,0H81ZM287,795q-22,0-35,13.5T239,843q0,28 18,46t44,18q21,0 34.5-13T349,859q0-27-18-45.5T287,795Zm-166,0q-22,0-35,13.5T73,843q0,28 18,46t44,18q21,0 34.5-13T183,859q0-27-18-45.5T121,795Z" />
      <glyph unicode="&#xd0;" glyph-name="Eth" horiz-adv-x="663" d="M459,700q88,0 138-43.5T647,537q0-10-2-30L607,193q-11-89-74.5-141T373,0H145q-5,0-7.5,3T136,10l40,324q0,4-4,4H123q-10,0-8,10l3,32q1,4 4,7t7,3h50q4,0 4,4l37,296q0,4 3,7t7,3H459ZM575,497q2,18 2,25q0,54-32,85t-90,31H286q-4,0-4-4L252,394q0-2 1-3t2-1H371q10,0 8-10l-4-32q0-4-3-7t-7-3H249q-4,0-4-4L212,66q0-4 3-4H385q62,0 104,38t50,102l36,295Z" />
      <glyph unicode="&#xd1;" glyph-name="Ntilde" horiz-adv-x="656" d="M561,690q2,10 11,10h49q5,0 7.5-3t1.5-7L546,10q0-4-3-7t-8-3H487q-6,0-11,7L214,562q-1,3-3,2.5t-2-3.5L142,10Q140,0 131,0H81q-4,0-6.5,3T73,10l84,680q0,4 3,7t7,3h49q6,0 11-7L489,138q1-3 3-2.5t2,3.5l67,551ZM466,797q-18,0-31,6t-26,16q-16,10-25.5,14.5T363,838q-17,0-30.5-5.5T306,813q-6-9-13-2l-16,18q-5,7 0,14q37,49 90,49q15,0 27-5t21-10.5t12-7.5t12.5-8t17.5-9t16-3q31,0 55,28q7,10 13,2l16-17q3-3 3-7t-4-8q-17-24-41-37t-49-13Z" />
      <glyph unicode="&#xd2;" glyph-name="Ograve" horiz-adv-x="603" d="M280-8Q186-8 131,45T76,188q0,24 2,36l31,252q8,69 43.5,121.5T244,679t124,29q95,0 150.5-53T574,512q0-24-2-36L541,224q-9-69-44.5-121.5T405,21T280-8Zm8,61q74,0 124,46t59,122l32,256q2,18 2,26q0,66-38.5,104.5T361,646q-73,0-123.5-46.5T178,477L146,221q-2-18-2-26q0-65 39-103.5T288,53ZM403,778q1-2 1-5q0-7-9-7H360q-6,0-11,7L297,882q-1,2-1,6q0,6 8,6h44q9,0 10-7l45-109Z" />
      <glyph unicode="&#xd3;" glyph-name="Oacute" horiz-adv-x="603" d="M280-8Q186-8 131,45T76,188q0,24 2,36l31,252q8,69 43.5,121.5T244,679t124,29q95,0 150.5-53T574,512q0-24-2-36L541,224q-9-69-44.5-121.5T405,21T280-8Zm8,61q74,0 124,46t59,122l32,256q2,18 2,26q0,66-38.5,104.5T361,646q-73,0-123.5-46.5T178,477L146,221q-2-18-2-26q0-65 39-103.5T288,53Zm55,713q-5,0-7,3.5t2,8.5l72,109q3,7 12,7h44q6,0 7-3.5t-3-8.5L391,773q-7-7-13-7H343Z" />
      <glyph unicode="&#xd4;" glyph-name="Ocircumflex" horiz-adv-x="603" d="M280-8Q186-8 131,45T76,188q0,24 2,36l31,252q8,69 43.5,121.5T244,679t124,29q95,0 150.5-53T574,512q0-24-2-36L541,224q-9-69-44.5-121.5T405,21T280-8Zm8,61q74,0 124,46t59,122l32,256q2,18 2,26q0,66-38.5,104.5T361,646q-73,0-123.5-46.5T178,477L146,221q-2-18-2-26q0-65 39-103.5T288,53ZM262,768q-6,0-7.5,3.5T257,780l91,108q5,6 14,6h56q8,0 12-6l65-108l2-5q0-7-9-7H449q-10,0-12,6l-48,82q-1,2-3,2t-3-2l-69-82q-5-6-13-6H262Z" />
      <glyph unicode="&#xd5;" glyph-name="Otilde" horiz-adv-x="603" d="M280-8Q186-8 131,45T76,188q0,24 2,36l31,252q8,69 43.5,121.5T244,679t124,29q95,0 150.5-53T574,512q0-24-2-36L541,224q-9-69-44.5-121.5T405,21T280-8Zm8,61q74,0 124,46t59,122l32,256q2,18 2,26q0,66-38.5,104.5T361,646q-73,0-123.5-46.5T178,477L146,221q-2-18-2-26q0-65 39-103.5T288,53ZM440,797q-18,0-31,6t-26,16q-16,10-25.5,14.5T337,838q-17,0-30.5-5.5T280,813q-6-9-13-2l-16,18q-5,7 0,14q37,49 90,49q15,0 27-5t21-10.5t12-7.5t12.5-8t17.5-9t16-3q31,0 55,28q7,10 13,2l16-17q3-3 3-7t-4-8q-17-24-41-37t-49-13Z" />
      <glyph unicode="&#xd6;" glyph-name="Odieresis" horiz-adv-x="603" d="M280-8Q186-8 131,45T76,188q0,24 2,36l31,252q8,69 43.5,121.5T244,679t124,29q95,0 150.5-53T574,512q0-24-2-36L541,224q-9-69-44.5-121.5T405,21T280-8Zm8,61q74,0 124,46t59,122l32,256q2,18 2,26q0,66-38.5,104.5T361,646q-73,0-123.5-46.5T178,477L146,221q-2-18-2-26q0-65 39-103.5T288,53ZM462,795q-22,0-35,13.5T414,843q0,28 18,46t44,18q21,0 34.5-13T524,859q0-27-18-45.5T462,795Zm-166,0q-22,0-35,13.5T248,843q0,28 18,46t44,18q21,0 34.5-13T358,859q0-27-18-45.5T296,795Z" />
      <glyph unicode="&#xd7;" glyph-name="multiply" horiz-adv-x="409" d="M401,453q2-4 2-6q0-5-4-8L271,322q-3-3 0-6l97-115q2-4 2-6q0-5-4-8l-32-30q-4-3-8-3t-6,3L223,272q-3,3-6,0L89,155q-3-3-7-3t-7,3L50,184q-3,3-3,6q0,4 4,8L180,316q4,3 1,6L79,442q-2,4-2,5q0,5 4,9l32,29q3,3 7,3t6-3L228,365q3-3 6,0L363,483q3,3 7,3t6-3l25-30Z" />
      <glyph unicode="&#xd8;" glyph-name="Oslash" horiz-adv-x="603" d="M612,693q7-7 1-14l-56-73q-1-2-1-6q19-38 19-90q0-10-2-34L542,224q-9-69-44.5-121.5T405.5,21T280-8Q192-8 135,41q-3,3-5-1L85-19q-7-8-13-3L37,3q-8,6-2,13L93,93q1,2 1,6q-17,39-17,89q0,24 2,36l31,252q8,69 43,121.5T244,679t124,29q92,0 147-49q3-3 5,1l44,57q3,4 7,5t7-2l34-27ZM147,221q-1-9-1-26q0-16 1-24q1-2 3-2t3,2L473,595q2,3 0,6q-39,45-112,45T238,599.5T179,477L147,221ZM504,477q2,18 2,26q0,9-2,25q0,2-2,2t-4-2L178,103q-3-3-1-6q39-44 111-44q74,0 124.5,46T472,221l32,256Z" />
      <glyph unicode="&#xd9;" glyph-name="Ugrave" horiz-adv-x="629" d="M294-8Q200-8 144.5,43.5T89,182q0,10 2,34l58,474q0,4 3,7t8,3h49q9,0 9-10L159,214q-1-8-1-23q0-62 39-99.5T302,54q72,0 122,44t59,116l59,476q0,4 3,7t8,3h49q10,0 8-10L552,216q-8-67-43-117.5T418.5,20T294-8ZM416,778q1-2 1-5q0-7-9-7H373q-6,0-11,7L310,882q-1,2-1,6q0,6 8,6h44q9,0 10-7l45-109Z" />
      <glyph unicode="&#xda;" glyph-name="Uacute" horiz-adv-x="629" d="M294-8Q200-8 144.5,43.5T89,182q0,10 2,34l58,474q0,4 3,7t8,3h49q9,0 9-10L159,214q-1-8-1-23q0-62 39-99.5T302,54q72,0 122,44t59,116l59,476q0,4 3,7t8,3h49q10,0 8-10L552,216q-8-67-43-117.5T418.5,20T294-8Zm62,774q-5,0-7,3.5t2,8.5l72,109q3,7 12,7h44q6,0 7-3.5t-3-8.5L404,773q-7-7-13-7H356Z" />
      <glyph unicode="&#xdb;" glyph-name="Ucircumflex" horiz-adv-x="629" d="M294-8Q200-8 144.5,43.5T89,182q0,10 2,34l58,474q0,4 3,7t8,3h49q9,0 9-10L159,214q-1-8-1-23q0-62 39-99.5T302,54q72,0 122,44t59,116l59,476q0,4 3,7t8,3h49q10,0 8-10L552,216q-8-67-43-117.5T418.5,20T294-8ZM276,768q-6,0-7.5,3.5T271,780l91,108q5,6 14,6h56q8,0 12-6l65-108l2-5q0-7-9-7H463q-10,0-12,6l-48,82q-1,2-3,2t-3-2l-69-82q-5-6-13-6H276Z" />
      <glyph unicode="&#xdc;" glyph-name="Udieresis" horiz-adv-x="629" d="M294-8Q200-8 144.5,43.5T89,182q0,10 2,34l58,474q0,4 3,7t8,3h49q9,0 9-10L159,214q-1-8-1-23q0-62 39-99.5T302,54q72,0 122,44t59,116l59,476q0,4 3,7t8,3h49q10,0 8-10L552,216q-8-67-43-117.5T418.5,20T294-8ZM475,795q-22,0-35,13.5T427,843q0,28 18,46t44,18q21,0 34.5-13T537,859q0-27-18-45.5T475,795Zm-166,0q-22,0-35,13.5T261,843q0,28 18,46t44,18q21,0 34.5-13T371,859q0-27-18-45.5T309,795Z" />
      <glyph unicode="&#xdd;" glyph-name="Yacute" horiz-adv-x="550" d="M231,1q-10,0-8,10l36,296q0,4-1,5L103,688q-1,2-1,5q0,7 9,7h53q9,0 10-7L300,388q1-1 3-1t3,1L507,693q1,3 5,5t8,2h52q6,0 7.5-3.5T577,688L329,312q-1-1-1-5L291,11q0-4-3-7t-8-3H231Zm86,764q-5,0-7,3.5t2,8.5l72,109q3,7 12,7h44q6,0 7-3.5t-3-8.5L365,772q-7-7-13-7H317Z" />
      <glyph unicode="&#xde;" glyph-name="Thorn" horiz-adv-x="550" d="M372,543q78,0 123.5-44.5T541,379q0-10-2-30q-7-57-37.5-100.5t-77-67.5T323,157H157q-4,0-4-4L135,10Q133,0 124,0H75q-5,0-7.5,3T66,10l84,680q0,4 3,7t8,3h49q9,0 9-10L201,547q0-4 3-4H372ZM325,216q58,0 98,36t47,96q1,7 1,20q0,52-30.5,82.5T358,481H197q-3,0-5-4L161,220q0-4 3-4H325Z" />
      <glyph unicode="&#xdf;" glyph-name="germandbls" horiz-adv-x="540" d="M68,0q-9,0-9,10l62,500q12,93 71,146t150,53q82,0 128.5-42.5T517,550q0-63-27-108.5T413,375q-2-1-2.5-2t1.5-2q35-17 54.5-53.5T486,230q0-11-2-33q-11-93-73.5-145T246,0H186q-10,0-8,10l5,41q2,10 11,10h66q65,0 106.5,37T416,203q2,18 2,27q0,54-29,83.5T308,344H251q-9,0-9,10l5,37q2,10 11,10h56q62,0 98,38t36,103q0,49-29,77t-83,28q-57,0-97-35t-49-97L128,10q0-4-3-7t-8-3H68Z" />
      <glyph unicode="&#xe0;" glyph-name="agrave" horiz-adv-x="495" d="M424,496q0,4 3,7t8,3h49q9,0 9-10L433,10Q431,0 422,0H372q-4,0-6.5,3T364,10l7,58q1,3-1,3.5T367,69q-24-36-60.5-56.5T223-8Q152-8 108.5,38.5T65,159q0,26 9,93q5,45 10.5,74.5T99,381q22,59 73.5,96T290,514q91,0 122-75q1-3 2.5-2.5T417,440l7,56ZM374,150q6,15 9.5,33T394,252q7,66 7,84q0,13-1,20q-2,41-29.5,68.5T297,452q-47,0-83-27t-50-69q-6-16-9.5-35T145,253q-8-59-8-80q0-9 2-23q3-42 33-69t76-27t79,27t47,69ZM326,584q1-2 1-5q0-7-9-7H283q-6,0-11,7L220,688q-1,2-1,6q0,6 8,6h44q9,0 10-7l45-109Z" />
      <glyph unicode="&#xe1;" glyph-name="aacute" horiz-adv-x="495" d="M424,496q0,4 3,7t8,3h49q9,0 9-10L433,10Q431,0 422,0H372q-4,0-6.5,3T364,10l7,58q1,3-1,3.5T367,69q-24-36-60.5-56.5T223-8Q152-8 108.5,38.5T65,159q0,26 9,93q5,45 10.5,74.5T99,381q22,59 73.5,96T290,514q91,0 122-75q1-3 2.5-2.5T417,440l7,56ZM374,150q6,15 9.5,33T394,252q7,66 7,84q0,13-1,20q-2,41-29.5,68.5T297,452q-47,0-83-27t-50-69q-6-16-9.5-35T145,253q-8-59-8-80q0-9 2-23q3-42 33-69t76-27t79,27t47,69ZM266,572q-5,0-7,3.5t2,8.5l72,109q3,7 12,7h44q6,0 7-3.5t-3-8.5L314,579q-7-7-13-7H266Z" />
      <glyph unicode="&#xe2;" glyph-name="acircumflex" horiz-adv-x="495" d="M424,496q0,4 3,7t8,3h49q9,0 9-10L433,10Q431,0 422,0H372q-4,0-6.5,3T364,10l7,58q1,3-1,3.5T367,69q-24-36-60.5-56.5T223-8Q152-8 108.5,38.5T65,159q0,26 9,93q5,45 10.5,74.5T99,381q22,59 73.5,96T290,514q91,0 122-75q1-3 2.5-2.5T417,440l7,56ZM374,150q6,15 9.5,33T394,252q7,66 7,84q0,13-1,20q-2,41-29.5,68.5T297,452q-47,0-83-27t-50-69q-6-16-9.5-35T145,253q-8-59-8-80q0-9 2-23q3-42 33-69t76-27t79,27t47,69ZM185,574q-6,0-7.5,3.5T180,586l91,108q5,6 14,6h56q8,0 12-6l65-108l2-5q0-7-9-7H372q-10,0-12,6l-48,82q-1,2-3,2t-3-2l-69-82q-5-6-13-6H185Z" />
      <glyph unicode="&#xe3;" glyph-name="atilde" horiz-adv-x="495" d="M424,496q0,4 3,7t8,3h49q9,0 9-10L433,10Q431,0 422,0H372q-4,0-6.5,3T364,10l7,58q1,3-1,3.5T367,69q-24-36-60.5-56.5T223-8Q152-8 108.5,38.5T65,159q0,26 9,93q5,45 10.5,74.5T99,381q22,59 73.5,96T290,514q91,0 122-75q1-3 2.5-2.5T417,440l7,56ZM374,150q6,15 9.5,33T394,252q7,66 7,84q0,13-1,20q-2,41-29.5,68.5T297,452q-47,0-83-27t-50-69q-6-16-9.5-35T145,253q-8-59-8-80q0-9 2-23q3-42 33-69t76-27t79,27t47,69ZM363,603q-18,0-31,6t-26,16q-16,10-25.5,14.5T260,644q-17,0-30.5-5.5T203,619q-6-9-13-2l-16,18q-5,7 0,14q37,49 90,49q15,0 27-5t21-10.5t12-7.5t12.5-8t17.5-9t16-3q31,0 55,28q7,10 13,2l16-17q3-3 3-7t-4-8q-17-24-41-37t-49-13Z" />
      <glyph unicode="&#xe4;" glyph-name="adieresis" horiz-adv-x="495" d="M424,496q0,4 3,7t8,3h49q9,0 9-10L433,10Q431,0 422,0H372q-4,0-6.5,3T364,10l7,58q1,3-1,3.5T367,69q-24-36-60.5-56.5T223-8Q152-8 108.5,38.5T65,159q0,26 9,93q5,45 10.5,74.5T99,381q22,59 73.5,96T290,514q91,0 122-75q1-3 2.5-2.5T417,440l7,56ZM374,150q6,15 9.5,33T394,252q7,66 7,84q0,13-1,20q-2,41-29.5,68.5T297,452q-47,0-83-27t-50-69q-6-16-9.5-35T145,253q-8-59-8-80q0-9 2-23q3-42 33-69t76-27t79,27t47,69Zm11,451q-22,0-35,13.5T337,649q0,28 18,46t44,18q21,0 34.5-13T447,665q0-27-18-45.5T385,601Zm-166,0q-22,0-35,13.5T171,649q0,28 18,46t44,18q21,0 34.5-13T281,665q0-27-18-45.5T219,601Z" />
      <glyph unicode="&#xe5;" glyph-name="aring" horiz-adv-x="495" d="M424,496q0,4 3,7t8,3h49q9,0 9-10L433,10Q431,0 422,0H372q-4,0-6.5,3T364,10l7,58q1,3-1,3.5T367,69q-24-36-60.5-56.5T223-8Q152-8 108.5,38.5T65,159q0,26 9,93q5,45 10.5,74.5T99,381q22,59 73.5,96T290,514q91,0 122-75q1-3 2.5-2.5T417,440l7,56ZM374,150q6,15 9.5,33T394,252q7,66 7,84q0,13-1,20q-2,41-29.5,68.5T297,452q-47,0-83-27t-50-69q-6-16-9.5-35T145,253q-8-59-8-80q0-9 2-23q3-42 33-69t76-27t79,27t47,69ZM300,579q-42,0-68.5,26.5T205,673q0,33 17,61t44.5,44.5T326,795q41,0 67.5-27T420,700q0-33-16.5-60.5t-44.5-44T300,579Zm5,43q29,0 50.5,21T377,695q0,25-15.5,41.5T321,753q-30,0-52-22t-22-53q0-24 16.5-40T305,622Z" />
      <glyph unicode="&#xe6;" glyph-name="ae" horiz-adv-x="807" d="M195-8Q127-8 83.5,21T40,111q0,14 1,21q9,74 67,116t153,42H373q3,0 5,4l5,43q1,7 1,21q0,43-25.5,68.5T281,452q-45,0-77.5-19T160,382q-3-11-12-9l-49,7q-10,2-7,11q15,55 69.5,89T287,514q58,0 96-24.5T433,426q0-2 1.5-2.5T437,425q23,37 67.5,63T600,514q66,0 112-38t54-100q2-20 2-32q0-26-9-103q-2-11-11-11H444q-4,0-4-4q-5-44-7-63q-3-50 31-77t89-27q87,0 131,73q4,9 13,5l31-19q7-4 4-13q-25-49-77.5-81T537-8q-55,0-94.5,23T389,77q-1,2-2,2t-2-1q-25-40-77-63T195-8ZM447,294q0-4 4-4H692q4,0 5,4q3,27 3,49q0,47-29.5,78T591,452q-47,0-82.5-27T460,354q-4-11-7.5-31.5T447,294ZM209,49q56,0 101,28.5T361,160l8,66q0,4-3,4H263q-69,0-111-26.5T110,126q0-37 27-57t72-20Z" />
      <glyph unicode="&#xe7;" glyph-name="ccedilla" horiz-adv-x="504" d="M386,145q1,1 1,4l1,4q3,10 13,8l47-8q10-2 7-11q-2-9-6-20q-20-53-70-88T266-7q-6,0-2-4q38-39 38-82q0-15-5-33q-12-32-37-46t-56-14q-21,0-39,5q-4,1-5.5,4t0.5,8l6,23q3,10 13,7q11-3 21-3q17,0 30.5,9T250-106q3,9 3,19q0,39-45,80q-1,2-5,2Q150,5 115.5,40.5T71,131q-3,20-3,42q0,36 6,82q9,74 28,122q25,62 80,99.5T307,514q71,0 118-37t56-92q2-12 2-30q0-9-10-11l-49-7h-2q-8,0-8,9l-1,15q-4,38-35,64.5T299,452t-84-26.5T164,355q-14-36-21-101q-5-39-5-75q0-20 1-27q4-44 33-71t78-27q48,0 85.5,25.5T386,145Z" />
      <glyph unicode="&#xe8;" glyph-name="egrave" horiz-adv-x="517" d="M476,338q0-38-9-102q0-4-3-7t-8-3H143q-4,0-4-4q-4-44-4-56q0-51 32.5-81.5T259,54q42,0 74.5,19T388,127q8,9 14,4l35-23q8-5 2-14q-30-48-81.5-75.5T242-9Q173-8 131,25T75,117q-6,26-6,58q0,35 6,80q5,43 10,69t13,47q24,65 79,104t126,39q88,0 130-46t43-130ZM295,452q-47,0-81.5-25.5T163,358q-7-20-16-68q0-4 4-4H402q4,0 4,4q2,40 2,51q0,50-30,80.5T295,452Zm41,132q1-2 1-5q0-7-9-7H293q-6,0-11,7L230,688q-1,2-1,6q0,6 8,6h44q9,0 10-7l45-109Z" />
      <glyph unicode="&#xe9;" glyph-name="eacute" horiz-adv-x="517" d="M476,338q0-38-9-102q0-4-3-7t-8-3H143q-4,0-4-4q-4-44-4-56q0-51 32.5-81.5T259,54q42,0 74.5,19T388,127q8,9 14,4l35-23q8-5 2-14q-30-48-81.5-75.5T242-9Q173-8 131,25T75,117q-6,26-6,58q0,35 6,80q5,43 10,69t13,47q24,65 79,104t126,39q88,0 130-46t43-130ZM295,452q-47,0-81.5-25.5T163,358q-7-20-16-68q0-4 4-4H402q4,0 4,4q2,40 2,51q0,50-30,80.5T295,452ZM276,572q-5,0-7,3.5t2,8.5l72,109q3,7 12,7h44q6,0 7-3.5t-3-8.5L324,579q-7-7-13-7H276Z" />
      <glyph unicode="&#xea;" glyph-name="ecircumflex" horiz-adv-x="517" d="M476,338q0-38-9-102q0-4-3-7t-8-3H143q-4,0-4-4q-4-44-4-56q0-51 32.5-81.5T259,54q42,0 74.5,19T388,127q8,9 14,4l35-23q8-5 2-14q-30-48-81.5-75.5T242-9Q173-8 131,25T75,117q-6,26-6,58q0,35 6,80q5,43 10,69t13,47q24,65 79,104t126,39q88,0 130-46t43-130ZM295,452q-47,0-81.5-25.5T163,358q-7-20-16-68q0-4 4-4H402q4,0 4,4q2,40 2,51q0,50-30,80.5T295,452ZM196,574q-6,0-7.5,3.5T191,586l91,108q5,6 14,6h56q8,0 12-6l65-108l2-5q0-7-9-7H383q-10,0-12,6l-48,82q-1,2-3,2t-3-2l-69-82q-5-6-13-6H196Z" />
      <glyph unicode="&#xeb;" glyph-name="edieresis" horiz-adv-x="517" d="M476,338q0-38-9-102q0-4-3-7t-8-3H143q-4,0-4-4q-4-44-4-56q0-51 32.5-81.5T259,54q42,0 74.5,19T388,127q8,9 14,4l35-23q8-5 2-14q-30-48-81.5-75.5T242-9Q173-8 131,25T75,117q-6,26-6,58q0,35 6,80q5,43 10,69t13,47q24,65 79,104t126,39q88,0 130-46t43-130ZM295,452q-47,0-81.5-25.5T163,358q-7-20-16-68q0-4 4-4H402q4,0 4,4q2,40 2,51q0,50-30,80.5T295,452ZM395,601q-22,0-35,13.5T347,649q0,28 18,46t44,18q21,0 34.5-13T457,665q0-27-18-45.5T395,601Zm-166,0q-22,0-35,13.5T181,649q0,28 18,46t44,18q21,0 34.5-13T291,665q0-27-18-45.5T229,601Z" />
      <glyph unicode="&#xec;" glyph-name="igrave" horiz-adv-x="205" d="M58,0Q48,0 50,10l59,486q1,4 4,7t7,3h50q10,0 8-10L119,10q-1-4-4-7t-7-3H58ZM181,584q1-2 1-5q0-7-9-7H138q-6,0-11,7L75,688q-1,2-1,6q0,6 8,6h44q9,0 10-7l45-109Z" />
      <glyph unicode="&#xed;" glyph-name="iacute" horiz-adv-x="205" d="M58,0Q48,0 50,10l59,486q1,4 4,7t7,3h50q10,0 8-10L119,10q-1-4-4-7t-7-3H58Zm63,572q-5,0-7,3.5t2,8.5l72,109q3,7 12,7h44q6,0 7-3.5t-3-8.5L169,579q-7-7-13-7H121Z" />
      <glyph unicode="&#xee;" glyph-name="icircumflex" horiz-adv-x="205" d="M58,0Q48,0 50,10l59,486q1,4 4,7t7,3h50q10,0 8-10L119,10q-1-4-4-7t-7-3H58ZM41,574q-6,0-7.5,3.5T36,586l91,108q5,6 14,6h56q8,0 12-6l65-108l2-5q0-7-9-7H228q-10,0-12,6l-48,82q-1,2-3,2t-3-2L93,580q-5-6-13-6H41Z" />
      <glyph unicode="&#xef;" glyph-name="idieresis" horiz-adv-x="205" d="M58,0Q48,0 50,10l59,486q1,4 4,7t7,3h50q10,0 8-10L119,10q-1-4-4-7t-7-3H58ZM240,601q-22,0-35,13.5T192,649q0,28 18,46t44,18q21,0 34.5-13T302,665q0-27-18-45.5T240,601ZM74,601q-22,0-35,13.5T26,649q0,28 18,46t44,18q21,0 34.5-13T136,665q0-27-18-45.5T74,601Z" />
      <glyph unicode="&#xf0;" glyph-name="eth" horiz-adv-x="515" d="M468,355q1-40-7-111q-6-47-11-72.5T436,125q-24-60-78.5-96.5T235-8T122.5,28.5T68,125q-2,10-2,32q0,28 7,87q5,45 10,71t14,47q18,49 59.5,81.5T251,481q16,3 34,3q32,0 60.5-8.5T391,451q2-2 3-1.5t0,3.5q-11,60-50,117q0,1-1.5,2t-2.5,0l-93-27l-4-1q-5,0-7,8l-4,22v2q0,7 9,11l70,21q6,2 2,5q-26,32-67,75q-3,3-3,6q0,2 3,4t7,2h54q7,0 11-5q28-32 57-66q2-2 5-1l77,23l4,1q6,0 8-8l3-23q0-9-8-12l-56-17q-4-1-3-4q33-48 49.5-104T468,355ZM373,144q8,22 18,98q7,63 7,82l-1,14q-4,43-32.5,69.5T289,434q-46,0-80.5-26.5T160,338q-9-22-19-96q-6-49-6-77q0-15 1-21q4-43 32-69.5T242,48t81,26.5T373,144Z" />
      <glyph unicode="&#xf1;" glyph-name="ntilde" horiz-adv-x="523" d="M325,513q70,0 110-39t40-106q0-8-2-28L433,10Q431,0 422,0H372q-4,0-6.5,3T364,10l39,316q1,7 1,20q0,48-27.5,76.5T302,451q-54,0-91-34t-44-89L128,10q0-4-3-7t-8-3H68q-9,0-9,10l60,486q2,10 11,10h49q5,0 7.5-3t1.5-7l-5-43q-1-2 0.5-3t3.5,1q24,31 59.5,46.5T325,513Zm54,90q-18,0-31,6t-26,16q-16,10-25.5,14.5T276,644q-17,0-30.5-5.5T219,619q-6-9-13-2l-16,18q-5,7 0,14q37,49 90,49q15,0 27-5t21-10.5t12-7.5t12.5-8t17.5-9t16-3q31,0 55,28q7,10 13,2l16-17q3-3 3-7t-4-8q-17-24-41-37t-49-13Z" />
      <glyph unicode="&#xf2;" glyph-name="ograve" horiz-adv-x="520" d="M244-8Q174-8 128,29T71,131q-3,21-3,48q0,30 5,75q9,76 28,122q26,64 81.5,101T309,514q69,0 114.5-37T480,377q4-19 4-47q0-22-6-76q-10-80-28-123Q424,66 369,29T244-8Zm8,62q46,0 82.5,26.5T388,152q13,34 21,101q6,47 6,78q0,16-1,23q-6,45-36.5,71.5T300,452t-83-26.5T163,354q-12-33-20-101q-6-45-6-77q0-17 1-24q5-45 35.5-71.5T252,54Zm86,530q1-2 1-5q0-7-9-7H295q-6,0-11,7L232,688q-1,2-1,6q0,6 8,6h44q9,0 10-7l45-109Z" />
      <glyph unicode="&#xf3;" glyph-name="oacute" horiz-adv-x="520" d="M244-8Q174-8 128,29T71,131q-3,21-3,48q0,30 5,75q9,76 28,122q26,64 81.5,101T309,514q69,0 114.5-37T480,377q4-19 4-47q0-22-6-76q-10-80-28-123Q424,66 369,29T244-8Zm8,62q46,0 82.5,26.5T388,152q13,34 21,101q6,47 6,78q0,16-1,23q-6,45-36.5,71.5T300,452t-83-26.5T163,354q-12-33-20-101q-6-45-6-77q0-17 1-24q5-45 35.5-71.5T252,54Zm26,518q-5,0-7,3.5t2,8.5l72,109q3,7 12,7h44q6,0 7-3.5t-3-8.5L326,579q-7-7-13-7H278Z" />
      <glyph unicode="&#xf4;" glyph-name="ocircumflex" horiz-adv-x="520" d="M244-8Q174-8 128,29T71,131q-3,21-3,48q0,30 5,75q9,76 28,122q26,64 81.5,101T309,514q69,0 114.5-37T480,377q4-19 4-47q0-22-6-76q-10-80-28-123Q424,66 369,29T244-8Zm8,62q46,0 82.5,26.5T388,152q13,34 21,101q6,47 6,78q0,16-1,23q-6,45-36.5,71.5T300,452t-83-26.5T163,354q-12-33-20-101q-6-45-6-77q0-17 1-24q5-45 35.5-71.5T252,54ZM198,574q-6,0-7.5,3.5T193,586l91,108q5,6 14,6h56q8,0 12-6l65-108l2-5q0-7-9-7H385q-10,0-12,6l-48,82q-1,2-3,2t-3-2l-69-82q-5-6-13-6H198Z" />
      <glyph unicode="&#xf5;" glyph-name="otilde" horiz-adv-x="520" d="M244-8Q174-8 128,29T71,131q-3,21-3,48q0,30 5,75q9,76 28,122q26,64 81.5,101T309,514q69,0 114.5-37T480,377q4-19 4-47q0-22-6-76q-10-80-28-123Q424,66 369,29T244-8Zm8,62q46,0 82.5,26.5T388,152q13,34 21,101q6,47 6,78q0,16-1,23q-6,45-36.5,71.5T300,452t-83-26.5T163,354q-12-33-20-101q-6-45-6-77q0-17 1-24q5-45 35.5-71.5T252,54ZM375,603q-18,0-31,6t-26,16q-16,10-25.5,14.5T272,644q-17,0-30.5-5.5T215,619q-6-9-13-2l-16,18q-5,7 0,14q37,49 90,49q15,0 27-5t21-10.5t12-7.5t12.5-8t17.5-9t16-3q31,0 55,28q7,10 13,2l16-17q3-3 3-7t-4-8q-17-24-41-37t-49-13Z" />
      <glyph unicode="&#xf6;" glyph-name="odieresis" horiz-adv-x="520" d="M244-8Q174-8 128,29T71,131q-3,21-3,48q0,30 5,75q9,76 28,122q26,64 81.5,101T309,514q69,0 114.5-37T480,377q4-19 4-47q0-22-6-76q-10-80-28-123Q424,66 369,29T244-8Zm8,62q46,0 82.5,26.5T388,152q13,34 21,101q6,47 6,78q0,16-1,23q-6,45-36.5,71.5T300,452t-83-26.5T163,354q-12-33-20-101q-6-45-6-77q0-17 1-24q5-45 35.5-71.5T252,54ZM397,601q-22,0-35,13.5T349,649q0,28 18,46t44,18q21,0 34.5-13T459,665q0-27-18-45.5T397,601Zm-166,0q-22,0-35,13.5T183,649q0,28 18,46t44,18q21,0 34.5-13T293,665q0-27-18-45.5T231,601Z" />
      <glyph unicode="&#xf7;" glyph-name="divide" horiz-adv-x="485" d="M276,440q-19,0-31.5,13.5T232,487q0,23 17.5,40T289,544q19,0 32-12.5T334,500q0-25-18-42.5T276,440ZM64,295q-4,0-6.5,3T56,305l5,41q2,10 11,10H462q10,0 8-10l-5-41q-2-10-11-10H64ZM237,123q-19,0-31.5,13T193,169q0,22 17.5,40T250,227q19,0 32-13.5T295,180q0-23-18-40t-40-17Z" />
      <glyph unicode="&#xf8;" glyph-name="oslash" horiz-adv-x="512" d="M475,377q3-19 3-44q0-31-5-79q-10-80-28-123Q418,66 363,29T239-8Q172-8 128,25q-4,2-5-1L86-23q-6-9-14-3L41,2q-7,7-1,14L83,71q3,3 1,6Q72,99 67,131q-4,20-4,51q0,29 5,72q10,81 28,122q26,64 81,101t127,37q59,0 100-27q4-2 5,1l37,47q8,9 14,3l31-28q7-6 2-14l-41-51q-1-3 0-6q15-24 23-62ZM134,144q1-2 3-2t3,1L362,428q2,4-1,5q-29,19-67,19q-47,0-83-26.5T158,354q-13-31-21-101q-5-48-5-76q0-18 1-25l1-8Zm248,8q13,32 22,101q5,50 5,76q0,18-1,25t-5,21q-1,4-5,0L170,84q-2-4 1-5q30-25 75-25q47,0 83,26.5T382,152Z" />
      <glyph unicode="&#xf9;" glyph-name="ugrave" horiz-adv-x="522" d="M416,496q2,10 11,10h49q5,0 7.5-3t1.5-7L425,10Q423,0 414,0H365q-9,0-9,10l6,43q0,2-2,3t-3-1Q309-7 220-7Q154-7 111,30T68,133q0,7 2,25l41,338q2,10 11,10h50q10,0 8-10L141,179q-1-7-1-21q0-48 26.5-75.5T241,55q55,0 92,34t44,90l39,317Zm-77,88q1-2 1-5q0-7-9-7H296q-6,0-11,7L233,688q-1,2-1,6q0,6 8,6h44q9,0 10-7l45-109Z" />
      <glyph unicode="&#xfa;" glyph-name="uacute" horiz-adv-x="522" d="M416,496q2,10 11,10h49q5,0 7.5-3t1.5-7L425,10Q423,0 414,0H365q-9,0-9,10l6,43q0,2-2,3t-3-1Q309-7 220-7Q154-7 111,30T68,133q0,7 2,25l41,338q2,10 11,10h50q10,0 8-10L141,179q-1-7-1-21q0-48 26.5-75.5T241,55q55,0 92,34t44,90l39,317ZM280,572q-5,0-7,3.5t2,8.5l72,109q3,7 12,7h44q6,0 7-3.5t-3-8.5L328,579q-7-7-13-7H280Z" />
      <glyph unicode="&#xfb;" glyph-name="ucircumflex" horiz-adv-x="522" d="M416,496q2,10 11,10h49q5,0 7.5-3t1.5-7L425,10Q423,0 414,0H365q-9,0-9,10l6,43q0,2-2,3t-3-1Q309-7 220-7Q154-7 111,30T68,133q0,7 2,25l41,338q2,10 11,10h50q10,0 8-10L141,179q-1-7-1-21q0-48 26.5-75.5T241,55q55,0 92,34t44,90l39,317ZM199,574q-6,0-7.5,3.5T194,586l91,108q5,6 14,6h56q8,0 12-6l65-108l2-5q0-7-9-7H386q-10,0-12,6l-48,82q-1,2-3,2t-3-2l-69-82q-5-6-13-6H199Z" />
      <glyph unicode="&#xfc;" glyph-name="udieresis" horiz-adv-x="522" d="M416,496q2,10 11,10h49q5,0 7.5-3t1.5-7L425,10Q423,0 414,0H365q-9,0-9,10l6,43q0,2-2,3t-3-1Q309-7 220-7Q154-7 111,30T68,133q0,7 2,25l41,338q2,10 11,10h50q10,0 8-10L141,179q-1-7-1-21q0-48 26.5-75.5T241,55q55,0 92,34t44,90l39,317ZM399,601q-22,0-35,13.5T351,649q0,28 18,46t44,18q21,0 34.5-13T461,665q0-27-18-45.5T399,601Zm-166,0q-22,0-35,13.5T185,649q0,28 18,46t44,18q21,0 34.5-13T295,665q0-27-18-45.5T233,601Z" />
      <glyph unicode="&#xfd;" glyph-name="yacute" horiz-adv-x="447" d="M11-200q-7,0-5,10l5,40q0,4 3,7t8,3h3q38,1 60.5,11.5T126-90T169-3q1,2 1.5,3.5T170,3L67,495v2q0,9 9,9h51q8,0 11-8L214,94q1-2 3-2t3,2L394,498q1,4 5,6t7,2h51q11,0 6-11L218-44q-31-67-55.5-99T106-187.5T18-200H11ZM242,576q-5,0-7,3.5t2,8.5l72,109q3,7 12,7h44q6,0 7-3.5t-3-8.5L290,583q-7-7-13-7H242Z" />
      <glyph unicode="&#xfe;" glyph-name="thorn" horiz-adv-x="523" d="M478,381q3-18 3-39q0-34-8-90q-5-45-10-71.5T450,131Q427,68 375.5,30T259-8q-43,0-73.5,18T139,60q-1,3-2.5,2.5T134,59L104-190q-2-10-11-10H43q-4,0-6.5,3T35-190L143,690q2,10 11,10h49q5,0 7.5-3t1.5-7L182,448q0-3 1.5-3t2.5,2q51,67 135,67q66,0 107.5-37T478,381ZM382,150q6,17 10,36t10,67q7,60 7,80q0,9-2,23q-4,42-32.5,69T299,452q-45,0-78-25.5T174,362q-1-3-1-7l-2-4l-1-2L146,156l1-4q0-1-0.5-2t0.5-2q4-41 30.5-67.5T250,54q47,0 83.5,27T382,150Z" />
      <glyph unicode="&#xff;" glyph-name="ydieresis" horiz-adv-x="447" d="M11-200q-7,0-5,10l5,40q0,4 3,7t8,3h3q38,1 60.5,11.5T126-90T169-3q1,2 1.5,3.5T170,3L67,495v2q0,9 9,9h51q8,0 11-8L214,94q1-2 3-2t3,2L394,498q1,4 5,6t7,2h51q11,0 6-11L218-44q-31-67-55.5-99T106-187.5T18-200H11ZM361,605q-22,0-35,13.5T313,653q0,28 18,46t44,18q21,0 34.5-13T423,669q0-27-18-45.5T361,605Zm-166,0q-22,0-35,13.5T147,653q0,28 18,46t44,18q21,0 34.5-13T257,669q0-27-18-45.5T195,605Z" />
      <glyph unicode="&#x2013;" glyph-name="endash" horiz-adv-x="437" d="M59,251q-9,0-9,10l6,43q0,4 3,7t8,3H408q9,0 9-10l-6-43q0-4-3-7t-8-3H59Z" />
      <glyph unicode="&#x2014;" glyph-name="emdash" horiz-adv-x="665" d="M59,252q-10,0-8,10l5,42q0,4 3,7t8,3H636q9,0 9-10l-6-42q0-4-3-7t-8-3H59Z" />
      <glyph unicode="&#x2018;" glyph-name="quoteleft" horiz-adv-x="136" d="M53,495q-5,0-6.5,3.5T48,507l94,185q4,8 12,8h37q5,0 6.5-3t-0.5-8L117,503q-5-8-13-8H53Z" />
      <glyph unicode="&#x2019;" glyph-name="quoteright" horiz-adv-x="136" d="M191,700q5,0 6.5-3.5T196,688L102,503q-4-8-12-8H53q-11,0-6,11l80,186q3,8 12,8h52Z" />
      <glyph unicode="&#x201a;" glyph-name="quotesinglbase" horiz-adv-x="582" d="M45-79q-10,0-8,11l69,214q3,9 12,9h43q5,0 7-3t0-8L87-70q-1-4-4-6.5T76-79H45Z" />
      <glyph unicode="&#x201c;" glyph-name="quotedblleft" horiz-adv-x="259" d="M53,495q-5,0-7,3.5t1,8.5l91,185q4,8 12,8h35q12,0 7-11L115,503q-3-8-13-8H53Zm129,0q-5,0-7,3.5t1,8.5l91,185q4,8 12,8h35q12,0 7-11L244,503q-3-8-13-8H182Z" />
      <glyph unicode="&#x201d;" glyph-name="quotedblright" horiz-adv-x="259" d="M184,700q5,0 6.5-3.5T190,688L100,503q-4-8-12-8H53q-12,0-7,11l76,186q3,8 12,8h50Zm130,0q5,0 7-3.5t-1-8.5L229,503q-4-8-12-8H182q-12,0-7,11l77,186q3,8 12,8h50Z" />
      <glyph unicode="&#x201e;" glyph-name="quotedblbase" horiz-adv-x="266" d="M114,128q5,0 6.5-3.5T120,116L30-69q-4-8-12-8H-17q-12,0-7,11L52,120q3,8 12,8h50Zm130,0q5,0 7-3.5t-1-8.5L159-69q-4-8-12-8H112q-12,0-7,11l77,186q3,8 12,8h50Z" />
      <glyph unicode="&#x2022;" glyph-name="bullet" horiz-adv-x="299" d="M149,151q-42,0-70.5,29.5T50,252q0,35 18,65t47.5,47.5T178,382q42,0 70-28.5T276,282q0-34-17.5-64t-47-48.5T149,151Z" />
      <glyph unicode="&#x2039;" glyph-name="guilsinglleft" horiz-adv-x="352" d="M246,119q2-2 2-5q0-7-9-7H193q-9,0-12,6L79,274q-1,1-1,5q0,5 3,9L222,449q5,6 13,6h47q6,0 7.5-3.5T286,443L146,284q-1-3 0-6L246,119Z" />
      <glyph unicode="&#x203a;" glyph-name="guilsinglright" horiz-adv-x="381" d="M100,107q-5,0-6.5,4t2.5,8L236,278q1,2 1,6L136,443l-2,5q0,7 9,7h47q7,0 12-6L304,288q1-2 1-6q0-5-3-8L160,113q-4-6-13-6H100Z" />
    </font>
</defs>
</svg>
