<?xml version="1.0" standalone="no"?>
<!DOCTYPE svg PUBLIC "-//W3C//DTD SVG 1.1//EN" "http://www.w3.org/Graphics/SVG/1.1/DTD/svg11.dtd">
<svg xmlns="http://www.w3.org/2000/svg">
  <defs>
    <font id="Poppins" horiz-adv-x="866">
      <font-face font-family="Poppins SemiBold" units-per-em="1000" panose-1="0 0 7 0 0 0 0 0 0 0" ascent="1050" descent="-350" alphabetic="0" />
      <glyph unicode=" " glyph-name="space" horiz-adv-x="268" />
      <glyph unicode="!" glyph-name="exclam" horiz-adv-x="354" d="M324,710L223,227H104l69,483H324ZM125-7Q92-7 72,12T52,60q0,40 30.5,68.5T154,157q33,0 52.5-18.5T226,90q0-40-30-68.5T125-7Z" />
      <glyph unicode="&quot;" glyph-name="quotedbl" horiz-adv-x="364" d="M247,798L197,586H102l24,212H247Zm169,0L367,586H271l25,212H416Z" />
      <glyph unicode="#" glyph-name="numbersign" horiz-adv-x="887" d="M712,449L652,295H779L757,170H603L537,0H404l66,170H288L222,0H89l66,170H5L27,295H204l60,154H115l22,125H313l65,166H511L446,574H628l65,166H826L761,574H889L867,449H712Zm-133,0H397L337,295H519l60,154Z" />
      <glyph unicode="$" glyph-name="dollar" horiz-adv-x="654" d="M446,511q2,29-11,50t-40,30L362,402q62-16 100-31t65.5-47T555,240q0-20-4-39q-9-52-43.5-97.5T417,28.5T290-6L276-87H211L225-5Q137,2 85,45T33,161q0,16 3,34H186q-3-35 12-58t47-30l34,192q-62,16-100,31.5t-65.5,47T86,462q0,21 4,40q15,87 87.5,142T352,707l14,81h64l-14-81q86-8 134-51.5T598,536q0-16-1-25H446Zm-209-2q-1-5-1-15q0-26 17-43.5T301,421l31,174q-38-5-63-27t-32-59ZM405,195q1,5 1,15q0,25-17,42t-48,29L310,107q39,7 64,30.5T405,195Z" />
      <glyph unicode="%" glyph-name="percent" horiz-adv-x="765" d="M82,550q13,75 65,117.5T269,710q61,0 97.5-32.5T403,587q0-11-4-37q-13-75-64.5-118T213,389q-61,0-97.5,33T79,514q0,17 3,36ZM719,700L203,0H66L582,700H719ZM254,626q-56,0-70-76q-2-9-2-26q0-51 45-51q26,0 44.5,19T297,550q2,9 2,25q0,51-45,51ZM388,151q13,75 65,117t122,42q60,0 96.5-32T708,188q0-11-4-37Q691,75 639.5,32.5T518-10q-61,0-97,32.5T385,115q0,17 3,36Zm171,76q-26,0-44.5-19T489,151q-2-9-2-25q0-52 45-52q26,0 44.5,19T602,151q2,9 2,24q0,52-45,52Z" />
      <glyph unicode="&amp;" glyph-name="ampersand" horiz-adv-x="790" d="M646,241q-29-42-56-74L730,0H558L495,75Q383-12 243-12Q138-12 77,35.5T16,167q0,81 54,145.5T214,414q-32,47-32,95q0,59 30,105t83.5,71.5T417,711q82,0 127-39.5T589,572q0-13-3-28H450q1,4 1,12q0,22-14.5,35T397,604q-33,0-55-21.5T320,530q0-20 11-42.5T365,435L512,260l6,9l74,95H738L646,241ZM267,104q83,0 155,58L280,332q-56-23-88-59.5T160,191q0-38 29-62.5T267,104Z" />
      <glyph unicode="&apos;" glyph-name="quotesingle" horiz-adv-x="195" d="M247,798L197,586H102l24,212H247Z" />
      <glyph unicode="(" glyph-name="parenleft" horiz-adv-x="485" d="M228-197q-60,69-91,168T106,188q0,138 40,277.5t116,259T440,924H581l-2-13Q478,828 402,715T284.5,472T243,213q0-113 32.5-215T371-183l-2-14H228Z" />
      <glyph unicode=")" glyph-name="parenright" horiz-adv-x="485" d="M-51-197l3,14Q99-54 184.5,128.5T270,500q0,119-35,225T129,911l2,13H273q67-71 100.5-175T407,523q0-133-38.5-269T258.5,0T91-197H-51Z" />
      <glyph unicode="*" glyph-name="asterisk" horiz-adv-x="518" d="M469,686l34-90L364,549l123-47l-69-93l-92,89l-2-138H221l45,138L143,407l-37,96l138,47L123,595l67,92l95-88l2,139H392L343,599l126,87Z" />
      <glyph unicode="+" glyph-name="plus" horiz-adv-x="674" d="M592,292H404L370,101H237l34,191H82l23,127H293l34,192H460L426,419H615L592,292Z" />
      <glyph unicode="," glyph-name="comma" horiz-adv-x="255" d="M201,149L35-134H-57L53,149H201Z" />
      <glyph unicode="-" glyph-name="hyphen" horiz-adv-x="583" d="M518,416L497,298H72L93,416H518Z" />
      <glyph unicode="." glyph-name="period" horiz-adv-x="260" d="M78-7Q45-7 25,12T5,60q0,40 30.5,68.5T107,157q33,0 52.5-18.5T179,90q0-40-30-68.5T78-7Z" />
      <glyph unicode="/" glyph-name="slash" horiz-adv-x="486" d="M560,947L90-181H-46L423,947H560Z" />
      <glyph unicode="0" glyph-name="zero" horiz-adv-x="646" d="M66,365Q96,533 175.5,630T400,727q218,0 218-236q0-60-12-126Q542,2 272,2Q54,2 54,239q0,60 12,126Zm402,0q12,67 12,111q0,57-23.5,89T377,597q-80,0-117-61T204,365q-12-67-12-111q0-58 23.5-90T295,132t90,31t52,80.5T468,365Z" />
      <glyph unicode="1" glyph-name="one" horiz-adv-x="362" d="M87,580l24,130H351L225,0H81L183,580H87Z" />
      <glyph unicode="2" glyph-name="two" horiz-adv-x="574" d="M80,162q111,81 174.5,132.5T364.5,401T420,508q3,15 3,29q0,36-20.5,56T340,613q-49,0-81-32.5T214,488H79q24,120 103,182t183,62q99,0 150-46.5T566,562q0-25-4-45q-13-75-67-144T378,251.5T215,126H510L489,10H-4L14,114l66,48Z" />
      <glyph unicode="3" glyph-name="three" horiz-adv-x="599" d="M98,537q23,100 98.5,154.5T379,746q96,0 147-43t51-113q0-17-3-37q-10-63-50.5-106.5T435,388v-4q45-15 70-49.5T530,247q0-24-4-45q-11-60-47-107T385,21.5T252-5Q150-5 90,41.5T30,180q0,19 3,40H169q-1-6-1-18q0-41 26-65.5T269,112q58,0 92.5,37T396,240q0,46-34,66T257,326H228l21,115h29q141,0 158,95q2,16 2,21q0,34-21.5,52T354,627q-48,0-78-26t-41-64H98Z" />
      <glyph unicode="4" glyph-name="four" horiz-adv-x="661" d="M21,142L40,252L450,720H612L533,264h87L599,142H511L485,0H346l25,142H21ZM455,570L197,264H401l54,306Z" />
      <glyph unicode="5" glyph-name="five" horiz-adv-x="644" d="M600,608H276L246,437q25,26 66.5,42.5T398,496q99,0 144.5-52T588,312q0-25-5-57Q563,140 485,70T286,0Q178,0 120.5,51T63,187l1,19H201q2-40 28.5-64T305,118q60,0 96.5,37T449,253q3,18 3,34q0,45-25.5,69T351,380q-42,0-74-21t-49-56H93l75,428H621L600,608Z" />
      <glyph unicode="6" glyph-name="six" horiz-adv-x="640" d="M476,547q-2,42-23,63t-67,21q-69,0-111-55.5T209,395q32,40 82,62.5T395,480q85,0 134-47t49-133q0-32-5-58q-12-71-50-126.5T424.5,29T287-2Q170-2 119,56T68,225q0,63 16,151q32,183 111.5,276.5T411,746q105,0 153-57t42-142H476ZM343,365q-53,0-94.5-31T197,244q-3-16-3-31q0-46 27.5-71T301,117q55,0 92,33t47,89q3,17 3,32q0,44-25,69t-75,25Z" />
      <glyph unicode="7" glyph-name="seven" horiz-adv-x="548" d="M575,620L196,0H46L433,605H91l20,119H593L575,620Z" />
      <glyph unicode="8" glyph-name="eight" horiz-adv-x="643" d="M193,394q-74,41-74,124q0,18 3,37q9,53 45,98t96,72.5T403,753q105,0 159.5-46.5T617,588q0-16-3-33q-10-55-44.5-96.5T486,394q43-20 66.5-56.5T576,251q0-12-4-40q-13-70-56.5-121.5T407,11T267-16Q165-16 102.5,32.5T40,167q0,24 4,44q12,66 51,113t98,70ZM382,637q-50,0-84-27t-43-76q-2-14-2-20q0-37 25.5-58.5T347,434q54,0 92,35t38,88q0,39-25,59.5T382,637ZM328,333q-57,0-98-30t-50-86q-2-9-2-25q0-42 29-67t81-25q66,0 108,41t42,102q0,43-30,66.5T328,333Z" />
      <glyph unicode="9" glyph-name="nine" horiz-adv-x="626" d="M199,205q3-91 98-91q62,0 99.5,52T455,339q-28-32-72.5-50T289,271q-86,0-138.5,46.5T98,449q0,22 5,54q20,111 97,177t192,66q110,0 159-55.5T600,526q0-65-15-146q-23-130-59.5-212.5T427.5,42T272-1Q169-1 118.5,50.5T68,182q0,15 1,23H199ZM338,385q51,0 87,32t45,86q3,17 3,32q0,45-26,68.5T375,627q-54,0-91-33.5T237,505q-3-15-3-28q0-42 26-67t78-25Z" />
      <glyph unicode=":" glyph-name="colon" horiz-adv-x="263" d="M78-7Q45-7 25,12T5,60q0,40 30.5,68.5T107,157q33,0 52.5-18.5T179,90q0-40-30-68.5T78-7Zm0,414q-33,0-53,19T5,474q0,40 30.5,68.5T107,571q33,0 52.5-18.5T179,504q0-40-30-68.5T78,407Z" />
      <glyph unicode=";" glyph-name="semicolon" horiz-adv-x="324" d="M183,403q-33,0-53,19t-20,48q0,40 30.5,68.5T212,567q33,0 52.5-18.5T284,500q0-40-30-68.5T183,403Zm37-254L54-134H-38L72,149H220Z" />
      <glyph unicode="&lt;" glyph-name="less" horiz-adv-x="584" d="M269,132L90,356L348,580H524L266,356L445,132H269Z" />
      <glyph unicode="=" glyph-name="equal" horiz-adv-x="738" d="M685,538L663,413H118l22,125H685ZM643,298L621,173H76L98,298H643Z" />
      <glyph unicode="&gt;" glyph-name="greater" horiz-adv-x="567" d="M140,580H317L495,356L238,132H61L319,356L140,580Z" />
      <glyph unicode="?" glyph-name="question" horiz-adv-x="538" d="M341,722q91,0 144-44t53-124q0-24-4-44q-17-98-89.5-149.5T268,309l-18-77H128l25,170h45q88,0 138.5,23T398,511q2,14 2,21q0,34-21.5,53.5T319,605q-45,0-75.5-25T205,511H73q10,61 46,109t93,75t129,27ZM146-7Q113-7 93,12T73,60q0,40 30.5,68.5T175,157q33,0 52.5-18.5T247,90q0-40-30-68.5T146-7Z" />
      <glyph unicode="@" glyph-name="at" horiz-adv-x="1048" d="M598,656q116,0 201-43T929.5,492T975,312q0-82-28.5-155T864,39T736-6q-52,0-84,21.5T611,77q-29-39-75-61.5T439-7Q363-7 320,38.5T277,163q0,75 31,140t86,104.5T518,447q86,0 118-60l9,52H762L715,169q-3-19-3-35q0-24 10-36t34-12q36,0 60.5,34t37,85T866,307q0,121-74,187.5T583,561q-115,0-208-55.5t-145.5-151T177,142q0-124 73.5-191T459-116q97,0 171,35l20-92q-95-40-211-40q-112,0-195.5,42.5T114-50.5T68,131q0,147 68.5,267T326,587t272,69ZM483,97q36,0 66,21t47.5,56T614,249q0,42-22.5,68T527,343q-37,0-65-22.5T418.5,262T403,186q0-41 20-65t60-24Z" />
      <glyph unicode="A" glyph-name="A" horiz-adv-x="716" d="M469,133H190L121,0H-26L349,699H512L639,0H491L469,133ZM451,242L401,538L247,242H451Z" />
      <glyph unicode="B" glyph-name="B" horiz-adv-x="643" d="M624,518q-10-61-49.5-101.5T478,358q48-10 77.5-48T585,220q0-14-3-31q-14-85-85.5-137T318,0H17L141,698H429q95,0 146.5-40T627,551q0-16-3-33ZM478,497q1,6 1,18q0,35-23,54t-67,19H262L230,408H358q49,0 81,23.5T478,497ZM443,206q2,14 2,20q0,36-25.5,56.5T349,303H211L178,111H319q51,0 84,25t40,70Z" />
      <glyph unicode="C" glyph-name="C" horiz-adv-x="768" d="M46,350q18,103 78.5,184.5t149,127T462,707q117,0 195-60t94-166H590q-16,48-55,72.5T439,578q-61,0-113.5-28t-88-80T190,350q-5-32-5-53q0-81 46.5-128T358,122q57,0 105,25t81,73H705Q651,113 552.5,53.5T337-6Q249-6 181.5,29.5T77,130T40,279q0,35 6,71Z" />
      <glyph unicode="D" glyph-name="D" horiz-adv-x="717" d="M385,698q97,0 167.5-33.5t108-95.5T698,422q0-38-7-74q-18-105-77.5-183.5T463,43T261,0H17L141,698H385ZM277,114q110,0 180.5,62T548,348q5,33 5,57q0,84-49.5,130T359,581H261L179,114h98Z" />
      <glyph unicode="E" glyph-name="E" horiz-adv-x="532" d="M262,589L230,408H465L446,300H211L178,111H443L423,0H17L141,699H546L527,589H262Z" />
      <glyph unicode="F" glyph-name="F" horiz-adv-x="530" d="M572,698L552,588H262L230,405H452L433,297H210L158,0H17L141,698H572Z" />
      <glyph unicode="G" glyph-name="G" horiz-adv-x="768" d="M46,350q18,103 79,184.5t150,127T464,707q118,0 194.5-57.5T751,488H590q-16,44-54,67t-94,23q-62,0-115-28t-89-80T190,350q-5-24-5-55q0-82 48.5-128.5T367,120q79,0 138.5,43T594,282H354l18,106H750L728,266q-27-73-84-135T508,31.5T339-6Q250-6 182.5,30T77.5,130.5T40,280q0,34 6,70Z" />
      <glyph unicode="H" glyph-name="H" horiz-adv-x="717" d="M720,698L597,0H456l53,299H211L158,0H17L141,698H281L230,409H529l51,289H720Z" />
      <glyph unicode="I" glyph-name="I" horiz-adv-x="278" d="M281,698L158,0H17L141,698H281Z" />
      <glyph unicode="J" glyph-name="J" horiz-adv-x="570" d="M548,698L462,208Q444,106 375,49.5T207-7Q119-7 68,37.5T17,163q0,22 5,50H163q-2-10-2-27q0-68 66-68q38,0 62,24t32,66l86,490H548Z" />
      <glyph unicode="K" glyph-name="K" horiz-adv-x="663" d="M355,352L589,0H411L213,311L158,0H17L141,698H281L226,385L535,698H704L355,352Z" />
      <glyph unicode="L" glyph-name="L" horiz-adv-x="459" d="M177,107H407L388,0H17L141,698H281L177,107Z" />
      <glyph unicode="M" glyph-name="M" horiz-adv-x="899" d="M902,698L779,0H638l80,452L452,0H345L238,453L158,0H17L141,698H300L431,180L743,698H902Z" />
      <glyph unicode="N" glyph-name="N" horiz-adv-x="735" d="M615,0H474L243,479L158,0H17L141,699H281L513,219l85,480H738L615,0Z" />
      <glyph unicode="O" glyph-name="O" horiz-adv-x="785" d="M344-7Q256-7 188.5,30.5T84,134.5T47,287q0,120 53.5,216t148,150.5T461,708q89,0 156.5-37T722,567.5T759,416q0-122-53-218T558,47.5T344-7Zm20,129q75,0 132.5,38t89,102.5T617,403q0,82-46,129T442,579q-74,0-131.5-38t-89-102T190,299q0-82 45.5-129.5T364,122Z" />
      <glyph unicode="P" glyph-name="P" horiz-adv-x="608" d="M611,482q-10-56-45-105t-96.5-79T322,268H205L158,0H17L141,698H398q107,0 162-47.5T615,524q0-23-4-42ZM336,378q57,0 90,28t42,76q2,9 2,26q0,79-98,79H262L225,378H336Z" />
      <glyph unicode="Q" glyph-name="Q" horiz-adv-x="787" d="M759,416q0-120-51.5-215T565,52L690-123H516L434,2q-42-9-90-9Q256-7 188.5,30.5T84,134.5T47,287q0,120 53.5,216t148,150.5T461,708q89,0 156.5-37T722,567.5T759,416ZM190,299q0-82 45.5-129.5T364,122q75,0 132.5,38t89,102.5T617,403q0,82-46,129T442,579q-74,0-131.5-38t-89-102T190,299Z" />
      <glyph unicode="R" glyph-name="R" horiz-adv-x="641" d="M403,698q107,0 162-48.5T620,523q0-19-3-39q-12-68-61.5-123.5T423,283L540,0H377L273,272H206L158,0H17L141,698H403Zm70-217q2,18 2,24q0,38-24,59t-73,21H261L224,376H341q56,0 89.5,28T473,481Z" />
      <glyph unicode="S" glyph-name="S" horiz-adv-x="610" d="M282-7Q177-7 109.5,40.5T42,174q0,9 2,27H187q-4-42 22.5-69T287,105t80.5,21.5T397,188q0,37-30.5,59T271,296q-60,25-97.5,46t-64,58.5T83,495q0,65 33.5,113t92,74T342,708q74,0 128.5-24.5t82-69.5T576,509H427l1,11q0,33-24.5,54T335,595q-47,0-76-22t-29-60q0-25 16.5-43.5t40.5-32T356,403q59-26 97-49t65-61t27-93q0-60-32.5-107t-92-73.5T282-7Z" />
      <glyph unicode="T" glyph-name="T" horiz-adv-x="577" d="M616,698L596,588H411L307,0H166L270,588H84l20,110H616Z" />
      <glyph unicode="U" glyph-name="U" horiz-adv-x="697" d="M279,698L203,267q-4-28-4-39q0-52 31-79.5T318,121q68,0 111.5,37.5T486,267l76,431H703L627,267q-16-90-65-151.5t-118.5-92T294-7Q188-7 122.5,48T57,206q0,28 6,61l76,431H279Z" />
      <glyph unicode="V" glyph-name="V" horiz-adv-x="711" d="M236,698l93-555L619,698H768L389,0H219L86,698H236Z" />
      <glyph unicode="W" glyph-name="W" horiz-adv-x="1024" d="M1074,698L755,0H590L547,497L323,0L159-1L94,698H244l28-542L509,698H665l38-539L923,698h151Z" />
      <glyph unicode="X" glyph-name="X" horiz-adv-x="686" d="M434,347L596,0H435L326,234L147,0H-11L271,351L110,698H271L380,464L557,698H716L434,347Z" />
      <glyph unicode="Y" glyph-name="Y" horiz-adv-x="636" d="M696,698L380,243L337,0H196l44,243L83,698H241l93-317L538,698H696Z" />
      <glyph unicode="Z" glyph-name="Z" horiz-adv-x="576" d="M182,118H495L474,0H-2L18,108L412,580H101l21,118H598L578,590L182,118Z" />
      <glyph unicode="[" glyph-name="bracketleft" horiz-adv-x="497" d="M499,932L479,817H360L202-74H321L301-189H50L248,932H499Z" />
      <glyph unicode="\" glyph-name="backslash" horiz-adv-x="547" d="M249-181L194,947H330L386-181H249Z" />
      <glyph unicode="]" glyph-name="bracketright" horiz-adv-x="496" d="M278-197H27L47-81H166L324,810H205l19,114H475L278-197Z" />
      <glyph unicode="^" glyph-name="asciicircum" horiz-adv-x="680" d="M155,167H12L345,700H480L625,167H481L384,534L155,167Z" />
      <glyph unicode="_" glyph-name="underscore" horiz-adv-x="790" d="M635-40L612-173H26L49-40H635Z" />
      <glyph unicode="`" glyph-name="grave" horiz-adv-x="271" d="M311,693L293,593L82,698l20,114L311,693Z" />
      <glyph unicode="a" glyph-name="a" horiz-adv-x="678" d="M31,279q15,84 59.5,149T199,528t135,35q62,0 104.5-25T501,475l14,79H656L558,0H417l15,81q-33-39-85.5-64.5T232-9Q171-9 124,18.5t-73,78T25,214q0,31 6,65Zm435-2q4,26 4,38q0,59-34.5,92T349,440q-39,0-75.5-19T210,365.5T174,279q-3-19-3-36q0-60 34-94.5T291,114q39,0 76,19.5T430.5,190T466,277Z" />
      <glyph unicode="b" glyph-name="b" horiz-adv-x="678" d="M242,473q33,40 85,65t113,25q62,0 109.5-26.5T623,460t26-117q0-31-6-64q-15-85-60-150.5T474,27T340-9Q278-9 235,15.5T172,79L158,0H17L148,740H289L242,473ZM500,279q3,20 3,36q0,59-34,92t-87,33q-38,0-75-19.5T243,364t-36-87q-4-26-4-38q0-59 34.5-92T324,114q39,0 76,20t64,57t36,88Z" />
      <glyph unicode="c" glyph-name="c" horiz-adv-x="602" d="M31,277q15,86 61,150.5t114.5,100T355,563q103,0 161.5-51T582,367H431q-6,36-31,56.5T333,444q-60,0-102.5-43.5T174,277q-5-28-5-48q0-57 28-87.5T275,111q84,0 124,76H550Q511,97 433.5,44T255-9Q150-9 87.5,50.5T25,212q0,31 6,65Z" />
      <glyph unicode="d" glyph-name="d" horiz-adv-x="678" d="M31,279q15,84 59.5,149t109,100T335,563q54,0 99-23.5T501,477l47,263H689L558,0H417l15,82q-33-41-84.5-66T234-9Q173-9 125.5,18.5t-74,78T25,214q0,31 6,65Zm435-2q4,26 4,38q0,59-34.5,92T349,440q-39,0-75.5-19T210,365.5T174,279q-3-19-3-36q0-60 34-94.5T291,114q39,0 76,19.5T430.5,190T466,277Z" />
      <glyph unicode="e" glyph-name="e" horiz-adv-x="617" d="M359,563q106,0 168-58.5T589,347q0-32-5-57q-6-30-13-52H166q-1-7-1-20q0-52 30.5-81.5T276,107q42,0 72.5,18.5T398,174H549Q512,94 434.5,42.5T259-9Q153-9 89,51T25,214q0,30 6,63q15,86 61.5,151T208,528t151,35Zm86-240q2,16 2,23q0,48-31,75t-81,27q-53,0-95-33.5T181,323H445Z" />
      <glyph unicode="f" glyph-name="f" horiz-adv-x="345" d="M136,582q18,102 84,150t182,45L382,659q-50,1-74-17t-32-65l-4-23h97L349,439H252L174,0H33l78,439H47L67,554h64l5,28Z" />
      <glyph unicode="g" glyph-name="g" horiz-adv-x="678" d="M334,563q62,0 105.5-24.5T501,475l14,79H656L558-4q-14-77-56-137.5t-110-96T236-273q-117,0-182.5,55T-6-68H133q4-38 36.5-60.5T254-151q62,0 105.5,36.5T417-4l15,86q-34-39-85.5-65T234-9T125.5,18.5t-74,78T25,214q0,31 6,65q15,84 59.5,149T199,528t135,35ZM466,277q4,26 4,38q0,59-34.5,92T349,440q-39,0-75.5-19T210,365.5T174,279q-3-19-3-36q0-60 34-94.5T291,114q39,0 76,19.5T430.5,190T466,277Z" />
      <glyph unicode="h" glyph-name="h" horiz-adv-x="661" d="M429,562q82,0 130.5-47T608,383q0-32-5-58L545,0H406l54,306q3,18 3,35q0,50-26.5,76T361,443q-56,0-95-33.5T214,314L158,0H17L148,740H289L244,486q34,35 82.5,55.5T429,562Z" />
      <glyph unicode="i" glyph-name="i" horiz-adv-x="278" d="M198,620q-33,0-53,19t-20,48q0,40 30.5,68.5T227,784q32,0 52-19t20-48q0-40-30-68.5T198,620Zm58-66L158,0H17l98,554H256Z" />
      <glyph unicode="j" glyph-name="j" horiz-adv-x="278" d="M198,620q-33,0-53,18.5T125,687q0,40 30,68.5T227,784q32,0 52-19t20-48q0-40-30-68.5T198,620ZM142-91q-16-92-69-132.5T-65-264h-62l21,119h40q32,0 47,12.5T1-92L115,554H256L142-91Z" />
      <glyph unicode="k" glyph-name="k" horiz-adv-x="584" d="M331,277L527,0H346L200,235L158,0H17L148,740H289L215,320L441,554H624L331,277Z" />
      <glyph unicode="l" glyph-name="l" horiz-adv-x="278" d="M289,740L158,0H17L148,740H289Z" />
      <glyph unicode="m" glyph-name="m" horiz-adv-x="1048" d="M805,562q88,0 139-47t51-133q0-32-5-57L932,0H793l54,306q3,18 3,35q0,48-26.5,73.5T748,440q-58,0-98-34.5T600,306v1L545,0H406l54,306q3,18 3,34q0,49-27,74.5T360,440q-55,0-94.5-32.5T214,315L158,0H17l98,554H256l-12-66q33,34 79,54t97,20q65,0 111-27.5T596,456q35,48 91.5,77T805,562Z" />
      <glyph unicode="n" glyph-name="n" horiz-adv-x="661" d="M423,562q86,0 135.5-46.5T608,383q0-32-5-58L545,0H406l54,306q3,18 3,35q0,50-26.5,76T361,443q-56,0-95.5-33.5T213,313L158,0H17l98,554H256l-12-68q34,35 81,55.5T423,562Z" />
      <glyph unicode="o" glyph-name="o" horiz-adv-x="638" d="M265-9Q194-9 139.5,20T55,102T25,224q0,94 44.5,171.5T191.5,518T364,563q71,0 126.5-29.5t86-82.5T607,329q0-95-45-172T438.5,35.5T265-9Zm19,120q50,0 91,29t64,77t23,101q0,60-33.5,92.5T344,443t-90.5-29T192,336.5T170,234q0-59 31.5-91T284,111Z" />
      <glyph unicode="p" glyph-name="p" horiz-adv-x="678" d="M242,474q34,38 85.5,63.5T440,563q62,0 109.5-26.5T623,460t26-117q0-31-6-64q-15-85-60-150.5T474,27T340-9Q279-9 236.5,16T172,79L112-264H-29L115,554H256l-14-80ZM500,279q3,20 3,36q0,59-34,92t-87,33q-38,0-75-19.5T243,364t-36-87q-4-26-4-38q0-59 34.5-92T324,114q39,0 76,20t64,57t36,88Z" />
      <glyph unicode="q" glyph-name="q" horiz-adv-x="678" d="M30,278q15,83 61,147.5T202.5,526T339,562q59,0 101-22.5T502,482l13,72H656L512-264H371L430,76q-34-36-84.5-60T235-8Q174-8 126,20T51,99T24,217q0,30 6,61Zm436-1q3,20 3,37q0,60-34.5,93T349,440q-37,0-74-19t-64.5-55.5T174,278q-3-19-3-37q0-59 35-93t85-34q38,0 74.5,19t64,56T466,277Z" />
      <glyph unicode="r" glyph-name="r" horiz-adv-x="404" d="M239,456q36,50 84,78t104,28L401,415H364q-62,0-99.5-27T210,296L158,0H17l98,554H256l-17-98Z" />
      <glyph unicode="s" glyph-name="s" horiz-adv-x="545" d="M234-9Q173-9 123.5,11.5t-78,57T17,152q0,7 2,23H155q-3-35 21-56.5T244,97q40,0 66.5,14.5T337,154q0,25-24.5,40T235,228t-88,37T87,315T62,396t28.5,87T170,542t117,21q63,0 111-21t74.5-58.5T499,398q0-12-1-18H368q3,35-20,56t-67,21q-36,0-59-15.5T199,400t26-42.5T305,321q54-21 86.5-38.5t56.5-48T472,158q0-51-31-89T356,11T234-9Z" />
      <glyph unicode="t" glyph-name="t" horiz-adv-x="388" d="M211,171q-1-6-1-16q0-20 11.5-28.5T260,118h66L305,0H216Q66,0 66,125q0,24 4,47l47,267H51L71,554h67l24,137H303L279,554H402L382,439H258L211,171Z" />
      <glyph unicode="u" glyph-name="u" horiz-adv-x="661" d="M638,554L540,0H400l12,70q-32-36-79-56.5T234-7Q148-7 98,39.5T48,172q0,32 5,57l57,325H250L196,249q-3-18-3-35q0-49 27-75.5T296,112q57,0 97,35.5T444,249l54,305H638Z" />
      <glyph unicode="v" glyph-name="v" horiz-adv-x="599" d="M271,129L486,554H637L334,0H162L56,554H206l65-425Z" />
      <glyph unicode="w" glyph-name="w" horiz-adv-x="844" d="M884,554L624,0H472L440,385L270,0H118L54,554H195l24-422L400,554H548l30-421L749,554H884Z" />
      <glyph unicode="x" glyph-name="x" horiz-adv-x="540" d="M346,278L481,0H323L240,171L108,0H-42L188,278L54,554H212l83-171L427,554H577L346,278Z" />
      <glyph unicode="y" glyph-name="y" horiz-adv-x="605" d="M208,554l74-387L497,554H646L159-262H10L178,14L51,554H208Z" />
      <glyph unicode="z" glyph-name="z" horiz-adv-x="483" d="M167,115H413L392,0H-13L7,113L306,439H65L85,554H487L468,441L167,115Z" />
      <glyph unicode="{" glyph-name="braceleft" horiz-adv-x="508" d="M135,418q98,9 112,85q8,43 13,124q6,87 14,134q13,78 67,121.5T472,926h69L521,808H479q-31,0-49-14.5T406,749q-6-32-11-107q-8-94-17-144q-9-53-40.5-88T251,365l-1-2q84-17 84-93q0-23-8.5-61.5T297,87Q269-19 269-42q0-38 54-38h41L343-199H274q-67,0-105.5,33.5T130-71q0,47 41,188q11,40 20,76.5t9,51.5q0,58-84,64l19,109Z" />
      <glyph unicode="|" glyph-name="bar" horiz-adv-x="309" d="M152-121H11L176,808H316L152-121Z" />
      <glyph unicode="}" glyph-name="braceright" horiz-adv-x="508" d="M404,309q-49-4-77.5-26T292,224q-6-34-12-120q-1-13-4.5-58.5T265-34q-13-78-67.5-121.5T66-199H-3L18-80H60q32,0 49.5,14T132-21q7,40 12,111q8,90 16,139q9,53 41,88t87,46l1,2q-85,17-85,101q0,16 3,32q6,32 17.5,77.5T240,636q23,82 28,113q2,12 2,17q0,42-54,42H175l20,118h69q67,0 106-34t39-95q0-16-3-36q-9-48-34-137q-24-81-31-121q-2-12-2-17q0-29 21-46.5T423,418L404,309Z" />
      <glyph unicode="~" glyph-name="asciitilde" horiz-adv-x="592" d="M20,224Q86,413 231,413q30,0 52-9.5T332,376q20-14 35.5-21t33.5-7q26,0 46.5,16T478,412H581q-33-96-87.5-142.5T369,223q-30,0-52,9.5T269,260q-23,15-37,21.5T200,288q-26,0-46.5-16.5T122,224H20Z" />
      <glyph unicode="&#xa0;" glyph-name="uni00A0" horiz-adv-x="268" />
      <glyph unicode="&#xa1;" glyph-name="exclamdown" horiz-adv-x="384" d="M240,569q33,0 53-19t20-48q0-40-30.5-68.5T211,405q-33,0-52.5,18.5T139,472q0,40 30,68.5T240,569ZM41-148L142,335H261L192-148H41Z" />
      <glyph unicode="&#xa2;" glyph-name="cent" horiz-adv-x="663" d="M343,405q-62,0-105-39T182,258q-3-19-3-36q0-53 29.5-82T291,111q45,0 76.5,18.5T414,182H544q-21-76-87-126T302-2L287-87H223L238-2Q144,6 94,61T44,202q0,24 5,56q19,108 92.5,179T329,518l15,85h64l-15-85q86-8 135-58t43-126H442q-5,34-29.5,52.5T343,405Z" />
      <glyph unicode="&#xa3;" glyph-name="sterling" horiz-adv-x="654" d="M478,514q2,18 2,25q0,78-84,78q-47,0-80-28t-43-86q-3-21-3-41q0-25 6-71H464l-17-96H284l-3-24q-7-44-31-86t-64-76H540L520-3H35L27,69q52,44 81,89.5T148,272l3,23H41l17,96h82q-4,36-4,58q0,29 6,65q18,102 92.5,160.5T414,733q98,0 146.5-48T609,557q0-20-3-43H478Z" />
      <glyph unicode="&#xa4;" glyph-name="currency" horiz-adv-x="561" d="M479,484q17-31 17-71q0-18-3-36q-10-59-51-105l46-56l-67-58l-52,62q-50-22-106-22q-57,0-96,21L95,158L47,216l66,57q-15,30-15,68q0,18 3,36q12,63 52,106l-49,58l69,58l53-64q45,21 102,21t96-21l75,64l47-58l-67-57ZM211,377q-2-9-2-25q0-35 19-54t50-19q36,0 66.5,25.5T383,377q2,9 2,25q0,36-20,55t-51,19q-36,0-65.5-25.5T211,377Z" />
      <glyph unicode="&#xa5;" glyph-name="yen" horiz-adv-x="636" d="M495,409H609l-17-97l-165-2l-47-67l-2-9H578l-17-97H361L337,0H196l25,137H21l16,97H238l2,9l-23,68L52,312l17,97H183L83,698H241l91-327L538,698H696L495,409Z" />
      <glyph unicode="&#xa6;" glyph-name="brokenbar" horiz-adv-x="350" d="M196,808H337L266,409H126l70,399ZM173-121H32l71,399H243L173-121Z" />
      <glyph unicode="&#xa7;" glyph-name="section" horiz-adv-x="582" d="M412,530l1,14q0,31-16.5,47.5T347,608q-42,0-67-20t-25-57q0-26 29-47t108-53q74-32 111.5-69T541,273q0-14-3-29Q519,138 396,89q59-46 59-109q0-17-2-26q-9-48-42.5-87T323-195T201-218q-87,0-137.5,39T13-72q0,20 2,30H155q-1-6-1-16q0-30 16.5-46T219-120q38,0 61.5,16.5T310-56q1,4 1,13q0,26-29,47T175,57Q100,89 62.5,126T25,215q0,14 3,29q9,52 44.5,92.5T170,399q-59,46-59,109q0,17 2,26q9,48 42.5,87T243,683t122,23q87,0 137.5-39T553,560q0-20-2-30H412ZM299,336q-36,0-65-15t-45-39.5T173,229q0-33 25.5-55T268,152q55,0 90,32t35,76q0,33-25,54.5T299,336Z" />
      <glyph unicode="&#xa8;" glyph-name="dieresis" horiz-adv-x="338" d="M135,620q-25,0-41,15.5T78,674q0,32 24,55.5T158,753q25,0 40-15.5T213,698q0-32-23.5-55T135,620Zm185,0q-25,0-41,15.5T263,674q0,32 24,55.5T343,753q25,0 40-15.5T398,698q0-32-23.5-55T320,620Z" />
      <glyph unicode="&#xa9;" glyph-name="copyright" horiz-adv-x="785" d="M466,708q89,0 155.5-35.5T724,573t36-148q0-39-7-75q-18-104-76.5-185.5t-146-127T340-8Q250-8 183.5,27.5T81.5,127T46,275q0,39 7,75q18,104 76.5,185.5t146,127T466,708Zm-8-50q-90,0-164-38T172,512.5T108,350q-7-44-7-71q0-110 65.5-173.5T349,42q90,0 163.5,38.5t122,108T699,350q6,38 6,70q0,111-65,174.5T458,658Zm-16-80q-62,0-117-28t-93-79.5T182,351q-4-23-4-48q0-83 50.5-131.5T362,123q77,0 140.5,42.5T596,278H472q-15-28-38-43t-57-15q-38,0-59.5,23.5T296,312q0,11 4,39q11,63 44,96.5T423,481q32,0 51.5-15T498,423H621q-4,72-52,113.5T442,578Z" />
      <glyph unicode="&#xaa;" glyph-name="ordfeminine" horiz-adv-x="462" d="M71,530q9,53 38.5,94T181,687.5T269,710q43,0 71-17t41-47l10,58H498L437,353H330l9,59q-22-30-55.5-47T206,348q-61,0-100,39T67,490q0,21 4,40Zm289-1q2,16 2,22q0,35-21,55t-53,20q-43,0-75.5-32.5T180,506q0-35 21-54.5T254,432q37,0 67.5,26T360,529Z" />
      <glyph unicode="&#xab;" glyph-name="guillemotleft" horiz-adv-x="521" d="M103,120L45,295L165,470H297L174,295l61-175H103Zm207,0L253,295L372,470H505L382,295l61-175H310Z" />
      <glyph unicode="&#xac;" glyph-name="logicalnot" horiz-adv-x="759" d="M729,438L686,195H545l24,135H43L62,438H729Z" />
      <glyph unicode="&#xad;" glyph-name="uni00AD" horiz-adv-x="583" d="M518,416L497,298H72L93,416H518Z" />
      <glyph unicode="&#xae;" glyph-name="registered" horiz-adv-x="516" d="M335,709q81,0 129.5-46.5T513,539q0-23-4-43q-11-61-46.5-109T374,311.5T260,284q-82,0-131,47T80,454q0,22 4,42q10,62 46,110.5T219.5,682T335,709ZM455,496q3,20 3,36q0,58-35,92t-97,34q-72,0-123-44.5T139,496q-3-19-3-36q0-58 35-91.5T268,335q72,0 123,44.5T455,496ZM333,606q31,0 48.5-15.5T399,549t-14-45.5T348,474l36-82H305l-29,75h-5l-13-75H190l38,214H333Zm-53-87h29q7,0 12.5,3.5T328,533v2q0,11-14,11H284l-4-27Z" />
      <glyph unicode="&#xaf;" glyph-name="macron" horiz-adv-x="402" d="M470,732L452,632H70L88,732H470Z" />
      <glyph unicode="&#xb0;" glyph-name="degree" horiz-adv-x="444" d="M69,527q14,81 77,129.5T296,705q76,0 121-38.5T462,562q0-17-3-35q-14-81-77.5-130.5T232,347q-77,0-121.5,38.5T66,490q0,18 3,37Zm280-1q2,9 2,26q0,37-20,56.5T281,628q-35,0-65-26.5T178,526q-2-9-2-26q0-36 19.5-55T245,426q35,0 65.5,26T349,526Z" />
      <glyph unicode="&#xb1;" glyph-name="plusminus" horiz-adv-x="676" d="M418,363L397,243H585L562,117H53L75,243H263l21,120H96l22,126H306l24,134H464L441,489H628L605,363H418Z" />
      <glyph unicode="&#xb2;" glyph-name="twosuperior" horiz-adv-x="360" d="M378,600q-7-36-36-63.5T250,476l-75-39H347l-15-85H44l15,80l128,77q38,24 57.5,46T264,602q0,15-8,23t-21,8q-32,0-43-37H84q12,52 58,84t115,32q60,0 91-27.5T379,616q0-11-1-16Z" />
      <glyph unicode="&#xb3;" glyph-name="threesuperior" horiz-adv-x="357" d="M77,601q11,49 57,80t117,31q58,0 93.5-25.5T380,621q0-36-22-59t-57-31l-1-3q56-18 56-67q0-32-22-58t-61-41t-88-15q-68,0-103.5,26.5T46,448q0,10 1,15H156q-1-38 38-38q19,0 32.5,10.5T243,464q1,3 1,9q0,14-11,22t-30,8H168l10,57h30q25,0 40,11.5T263,606q0,13-9,20.5T227,634q-35,0-48-33H77Z" />
      <glyph unicode="&#xb4;" glyph-name="acute" horiz-adv-x="250" d="M313,698L63,593L81,693L333,812L313,698Z" />
      <glyph unicode="&#xb5;" glyph-name="uni00B5" horiz-adv-x="678" d="M649,554L551,0H411l15,85q-33-44-82-68T237-7q-44,0-72,19L117-264H-23L121,554H261L207,249q-3-19-3-36q0-48 27-73.5T307,114q57,0 96.5,35T455,249l54,305H649Z" />
      <glyph unicode="&#xb6;" glyph-name="paragraph" horiz-adv-x="666" d="M540,0H420L524,590H460L355,0H236l49,278H267q-104,0-154.5,46.5T62,446q0,14 4,42q16,91 86.5,150.5T341,698H663L540,0Z" />
      <glyph unicode="&#xb7;" glyph-name="periodcentered" horiz-adv-x="270" d="M85,244q-33,0-53,19T12,311q0,40 30.5,68.5T114,408q33,0 52.5-18.5T186,341q0-40-30-68.5T85,244Z" />
      <glyph unicode="&#xb8;" glyph-name="cedilla" horiz-adv-x="295" d="M96-43q49,0 80.5-22T208-130q0-6-2-22q-9-54-52.5-83T54-264H-88l15,82H46q24,0 37,7t17,25t-7,24.5T57-119H-5L17,7h88L96-43Z" />
      <glyph unicode="&#xb9;" glyph-name="onesuperior" horiz-adv-x="228" d="M78,622l14,82H257L195,352H87l48,270H78Z" />
      <glyph unicode="&#xba;" glyph-name="ordmasculine" horiz-adv-x="450" d="M70,528q15,81 77.5,131T296,709q78,0 124.5-40T467,562q0-16-3-34q-9-53-41.5-94t-81-64T236,347q-76,0-122.5,40.5T67,494q0,16 3,34Zm285,24q0,37-20.5,57T283,629q-36,0-65-26.5T180,527q-2-16-2-23q0-36 20.5-56T250,428q26,0 50.5,14.5T340,485t15,67Z" />
      <glyph unicode="&#xbb;" glyph-name="guillemotright" horiz-adv-x="521" d="M142,295L81,470H213l58-175L151,120H19L142,295Zm207,0L289,470H421l58-175L359,120H227L349,295Z" />
      <glyph unicode="&#xbc;" glyph-name="onequarter" horiz-adv-x="730" d="M95,622l14,82H274L212,352H104l48,270H95Zm569,77L158,0H23L531,699H664ZM656,65H613L601,0H494l12,65H315l11,58L515,353H664L624,129h43L656,65ZM547,276L432,130h89l26,146Z" />
      <glyph unicode="&#xbd;" glyph-name="onehalf" horiz-adv-x="757" d="M152,622H95l14,82H274L212,352H104l48,270Zm507,78L158,0H23L524,700H659ZM760,247q-7-36-36-63.5T632,123L557,84H729L714-1H426l15,80l128,77q38,24 57.5,46T646,249q0,15-8,23t-21,8q-32,0-43-37H466q12,52 58,84t115,32q60,0 91-27.5T761,263q0-11-1-16Z" />
      <glyph unicode="&#xbe;" glyph-name="threequarters" horiz-adv-x="811" d="M101,601q11,49 57,80t117,31q58,0 93.5-25.5T404,621q0-36-22-59t-57-31l-1-3q56-18 56-67q0-32-22-58t-61-41t-88-15q-68,0-103.5,26.5T70,448q0,10 1,15H180q-1-38 38-38q19,0 32.5,10.5T267,464q1,3 1,9q0,14-11,22t-30,8H192l10,57h30q25,0 40,11.5T287,606q0,13-9,20.5T251,634q-35,0-48-33H101Zm668,99L251,0H117L635,700H769ZM748,65H706L694,0H586l12,65H408l10,58L602,353H757L717,129h42L748,65ZM640,281L524,129h89l27,152Z" />
      <glyph unicode="&#xbf;" glyph-name="questiondown" horiz-adv-x="538" d="M392,566q33,0 53-19t20-48q0-40-30.5-68.5T363,402q-33,0-52.5,18.5T291,469q0,40 30,68.5T392,566ZM197-163q-91,0-144,44T0,5Q0,29 4,49q17,98 89.5,149.5T270,250l18,77H410L385,157H340q-88,0-138.5-23T140,48q-2-14-2-21q0-34 21.5-53.5T219-46q45,0 75.5,25T333,48H465Q455-13 419-61t-93-75T197-163Z" />
      <glyph unicode="&#xc0;" glyph-name="Agrave" horiz-adv-x="716" d="M469,133H190L121,0H-26L349,699H512L639,0H491L469,133ZM451,242L401,538L247,242H451ZM564,838L546,738L335,843l20,114L564,838Z" />
      <glyph unicode="&#xc1;" glyph-name="Aacute" horiz-adv-x="716" d="M469,133H190L121,0H-26L349,699H512L639,0H491L469,133ZM451,242L401,538L247,242H451ZM566,843L316,738l18,100L586,957L566,843Z" />
      <glyph unicode="&#xc2;" glyph-name="Acircumflex" horiz-adv-x="716" d="M469,133H190L121,0H-26L349,699H512L639,0H491L469,133ZM451,242L401,538L247,242H451Zm3,585L289,740l19,103l163,83l134-83L587,740L454,827Z" />
      <glyph unicode="&#xc3;" glyph-name="Atilde" horiz-adv-x="716" d="M469,133H190L121,0H-26L349,699H512L639,0H491L469,133ZM451,242L401,538L247,242H451ZM260,754q21,66 59.5,98.5T408,885q20,0 35-6.5T475,860q14-10 24.5-14.5T522,841q38,0 52,43h75q-22-66-60-98.5T501,753q-21,0-35,6.5T433,778q-14,10-24.5,15T386,798q-36,0-51-44H260Z" />
      <glyph unicode="&#xc4;" glyph-name="Adieresis" horiz-adv-x="716" d="M469,133H190L121,0H-26L349,699H512L639,0H491L469,133ZM451,242L401,538L247,242H451ZM350,765q-25,0-41,15.5T293,819q0,32 24,55.5T373,898q25,0 40-15.5T428,843q0-32-23.5-55T350,765Zm185,0q-25,0-41,15.5T478,819q0,32 24,55.5T558,898q25,0 40-15.5T613,843q0-32-23.5-55T535,765Z" />
      <glyph unicode="&#xc5;" glyph-name="Aring" horiz-adv-x="716" d="M469,133H190L121,0H-26L349,699H512L639,0H491L469,133ZM451,242L401,538L247,242H451ZM345,862q10,52 48,83.5T480,977q43,0 69.5-24.5T576,886q0-41-19-72.5t-50-49T440,747q-43,0-70,24.5T343,838q0,16 2,24Zm166,11q0,18-12,28.5T468,912q-21,0-37.5-13.5T410,862q-1-3-1-9q0-18 11.5-29.5T451,812q24,0 42,17.5T511,873Z" />
      <glyph unicode="&#xc6;" glyph-name="AE" horiz-adv-x="937" d="M669,589L638,409H869L851,301H619L585,111H847L827,0H425l23,131H202L110,0H-42L453,699H951L931,589H669ZM467,239l63,358L278,239H467Z" />
      <glyph unicode="&#xc7;" glyph-name="Ccedilla" horiz-adv-x="768" d="M358,122q57,0 105,25t81,73H705Q656,124 570.5,65.5T381-4l-7-41q49,0 80.5-22T486-132q0-6-2-22q-9-54-52.5-83T332-266H190l15,82H324q24,0 37,7t17,25t-7,24.5T335-121H273L293-4Q217,4 159.5,42T71,141T40,279q0,35 6,71q18,103 78.5,184.5t149,127T462,707q117,0 195-60t94-166H590q-16,48-55,72.5T439,578q-61,0-113.5-28t-88-80T190,350q-5-32-5-53q0-81 46.5-128T358,122Z" />
      <glyph unicode="&#xc8;" glyph-name="Egrave" horiz-adv-x="532" d="M262,589L230,408H465L446,300H211L178,111H443L423,0H17L141,699H546L527,589H262ZM473,838L455,738L244,843l20,114L473,838Z" />
      <glyph unicode="&#xc9;" glyph-name="Eacute" horiz-adv-x="532" d="M262,589L230,408H465L446,300H211L178,111H443L423,0H17L141,699H546L527,589H262ZM475,843L225,738l18,100L495,957L475,843Z" />
      <glyph unicode="&#xca;" glyph-name="Ecircumflex" horiz-adv-x="532" d="M262,589L230,408H465L446,300H211L178,111H443L423,0H17L141,699H546L527,589H262ZM362,827L197,740l19,103l163,83l134-83L495,740L362,827Z" />
      <glyph unicode="&#xcb;" glyph-name="Edieresis" horiz-adv-x="532" d="M262,589L230,408H465L446,300H211L178,111H443L423,0H17L141,699H546L527,589H262Zm-3,176q-25,0-41,15.5T202,819q0,32 24,55.5T282,898q25,0 40-15.5T337,843q0-32-23.5-55T259,765Zm185,0q-25,0-41,15.5T387,819q0,32 24,55.5T467,898q25,0 40-15.5T522,843q0-32-23.5-55T444,765Z" />
      <glyph unicode="&#xcc;" glyph-name="Igrave" horiz-adv-x="278" d="M281,698L158,0H17L141,698H281Zm64,140L327,738L116,843l20,114L345,838Z" />
      <glyph unicode="&#xcd;" glyph-name="Iacute" horiz-adv-x="278" d="M281,698L158,0H17L141,698H281Zm66,145L97,738l18,100L367,957L347,843Z" />
      <glyph unicode="&#xce;" glyph-name="Icircumflex" horiz-adv-x="278" d="M281,698L158,0H17L141,698H281ZM235,827L70,740L89,843l163,83l134-83L368,740L235,827Z" />
      <glyph unicode="&#xcf;" glyph-name="Idieresis" horiz-adv-x="278" d="M281,698L158,0H17L141,698H281ZM131,765q-25,0-41,15.5T74,819q0,32 24,55.5T154,898q25,0 40-15.5T209,843q0-32-23.5-55T131,765Zm185,0q-25,0-41,15.5T259,819q0,32 24,55.5T339,898q25,0 40-15.5T394,843q0-32-23.5-55T316,765Z" />
      <glyph unicode="&#xd0;" glyph-name="Eth" horiz-adv-x="726" d="M394,698q97,0 167.5-33.5t108-96T707,421q0-27-7-73q-19-105-78-183.5T472,43T270,0H26L77,287H6L28,409H98l51,289H394ZM556,348q5,25 5,58q0,83-49.5,129T368,581H270L240,409H406L384,287H218L188,114h98q109,0 180,62t90,172Z" />
      <glyph unicode="&#xd1;" glyph-name="Ntilde" horiz-adv-x="735" d="M615,0H474L243,479L158,0H17L141,699H281L513,219l85,480H738L615,0ZM270,754q21,66 59.5,98.5T418,885q20,0 35-6.5T485,860q14-10 24.5-14.5T532,841q38,0 52,43h75q-22-66-60-98.5T511,753q-21,0-35,6.5T443,778q-14,10-24.5,15T396,798q-36,0-51-44H270Z" />
      <glyph unicode="&#xd2;" glyph-name="Ograve" horiz-adv-x="785" d="M344-7Q256-7 188.5,30.5T84,134.5T47,287q0,120 53.5,216t148,150.5T461,708q89,0 156.5-37T722,567.5T759,416q0-122-53-218T558,47.5T344-7Zm20,129q75,0 132.5,38t89,102.5T617,403q0,82-46,129T442,579q-74,0-131.5-38t-89-102T190,299q0-82 45.5-129.5T364,122ZM596,845L578,745L367,850l20,114L596,845Z" />
      <glyph unicode="&#xd3;" glyph-name="Oacute" horiz-adv-x="785" d="M344-7Q256-7 188.5,30.5T84,134.5T47,287q0,120 53.5,216t148,150.5T461,708q89,0 156.5-37T722,567.5T759,416q0-122-53-218T558,47.5T344-7Zm20,129q75,0 132.5,38t89,102.5T617,403q0,82-46,129T442,579q-74,0-131.5-38t-89-102T190,299q0-82 45.5-129.5T364,122ZM598,850L348,745l18,100L618,964L598,850Z" />
      <glyph unicode="&#xd4;" glyph-name="Ocircumflex" horiz-adv-x="785" d="M344-7Q256-7 188.5,30.5T84,134.5T47,287q0,120 53.5,216t148,150.5T461,708q89,0 156.5-37T722,567.5T759,416q0-122-53-218T558,47.5T344-7Zm20,129q75,0 132.5,38t89,102.5T617,403q0,82-46,129T442,579q-74,0-131.5-38t-89-102T190,299q0-82 45.5-129.5T364,122ZM486,834L321,747l19,103l163,83l134-83L619,747L486,834Z" />
      <glyph unicode="&#xd5;" glyph-name="Otilde" horiz-adv-x="785" d="M344-7Q256-7 188.5,30.5T84,134.5T47,287q0,120 53.5,216t148,150.5T461,708q89,0 156.5-37T722,567.5T759,416q0-122-53-218T558,47.5T344-7Zm20,129q75,0 132.5,38t89,102.5T617,403q0,82-46,129T442,579q-74,0-131.5-38t-89-102T190,299q0-82 45.5-129.5T364,122ZM293,761q21,66 59.5,98.5T441,892q20,0 35-6.5T508,867q14-10 24.5-14.5T555,848q38,0 52,43h75q-22-66-60-98.5T534,760q-21,0-35,6.5T466,785q-14,10-24.5,15T419,805q-36,0-51-44H293Z" />
      <glyph unicode="&#xd6;" glyph-name="Odieresis" horiz-adv-x="785" d="M344-7Q256-7 188.5,30.5T84,134.5T47,287q0,120 53.5,216t148,150.5T461,708q89,0 156.5-37T722,567.5T759,416q0-122-53-218T558,47.5T344-7Zm20,129q75,0 132.5,38t89,102.5T617,403q0,82-46,129T442,579q-74,0-131.5-38t-89-102T190,299q0-82 45.5-129.5T364,122Zm18,650q-25,0-41,15.5T325,826q0,32 24,55.5T405,905q25,0 40-15.5T460,850q0-32-23.5-55T382,772Zm185,0q-25,0-41,15.5T510,826q0,32 24,55.5T590,905q25,0 40-15.5T645,850q0-32-23.5-55T567,772Z" />
      <glyph unicode="&#xd7;" glyph-name="multiply" horiz-adv-x="670" d="M438,360L559,214L451,123L331,269L160,124L84,215L255,361L139,502l107,91L363,452L529,593l76-91L438,360Z" />
      <glyph unicode="&#xd8;" glyph-name="Oslash" horiz-adv-x="785" d="M710,587q49-72 49-171q0-122-53-218T558,47.5T344-7Q283-7 231,11.5T140,64L70,0H-27L97,114Q47,187 47,287q0,120 53.5,216t148,150.5T461,708q62,0 114.5-18.5T667,637l69,63h97L710,587ZM190,299q0-50 16-85L562,540q-45,39-120,39q-74,0-131.5-38t-89-102T190,299ZM617,403q0,49-16,84L245,161q45-39 119-39q75,0 132.5,38t89,102.5T617,403Z" />
      <glyph unicode="&#xd9;" glyph-name="Ugrave" horiz-adv-x="697" d="M279,698L203,267q-4-28-4-39q0-52 31-79.5T318,121q68,0 111.5,37.5T486,267l76,431H703L627,267q-16-90-65-151.5t-118.5-92T294-7Q188-7 122.5,48T57,206q0,28 6,61l76,431H279ZM554,838L536,738L325,843l20,114L554,838Z" />
      <glyph unicode="&#xda;" glyph-name="Uacute" horiz-adv-x="697" d="M279,698L203,267q-4-28-4-39q0-52 31-79.5T318,121q68,0 111.5,37.5T486,267l76,431H703L627,267q-16-90-65-151.5t-118.5-92T294-7Q188-7 122.5,48T57,206q0,28 6,61l76,431H279ZM556,843L306,738l18,100L576,957L556,843Z" />
      <glyph unicode="&#xdb;" glyph-name="Ucircumflex" horiz-adv-x="697" d="M279,698L203,267q-4-28-4-39q0-52 31-79.5T318,121q68,0 111.5,37.5T486,267l76,431H703L627,267q-16-90-65-151.5t-118.5-92T294-7Q188-7 122.5,48T57,206q0,28 6,61l76,431H279ZM444,827L279,740l19,103l163,83l134-83L577,740L444,827Z" />
      <glyph unicode="&#xdc;" glyph-name="Udieresis" horiz-adv-x="697" d="M279,698L203,267q-4-28-4-39q0-52 31-79.5T318,121q68,0 111.5,37.5T486,267l76,431H703L627,267q-16-90-65-151.5t-118.5-92T294-7Q188-7 122.5,48T57,206q0,28 6,61l76,431H279Zm62,67q-25,0-41,15.5T284,819q0,32 24,55.5T364,898q25,0 40-15.5T419,843q0-32-23.5-55T341,765Zm185,0q-25,0-41,15.5T469,819q0,32 24,55.5T549,898q25,0 40-15.5T604,843q0-32-23.5-55T526,765Z" />
      <glyph unicode="&#xdd;" glyph-name="Yacute" horiz-adv-x="636" d="M696,698L380,243L337,0H196l44,243L83,698H241l93-317L538,698H696ZM526,843L276,738l18,100L546,957L526,843Z" />
      <glyph unicode="&#xde;" glyph-name="Thorn" horiz-adv-x="608" d="M588,350q-10-56-45-104t-96.5-78T299,138H182L158,0H17L141,699H280L256,563H374q107,0 162.5-47T592,391q0-13-4-41ZM312,245q57,0 90.5,28T445,350q2,9 2,25q0,80-98,80H239L201,245H312Z" />
      <glyph unicode="&#xdf;" glyph-name="germandbls" horiz-adv-x="704" d="M100,549q17,99 94.5,160.5T400,771q69,0 117.5-20.5t73-55T615,619q0-55-30-94t-81-82q-27-22-38.5-34.5T454,385q0-14 16.5-25T542,328q62-23 89.5-57T659,182q0-56-31-100T543,14T421-10q-91,0-142.5,44T227,155q0,14 1,22H363q-4-38 14.5-59.5T434,96q39,0 60.5,17.5T516,165q0,22-16.5,37T442,232q-71,26-102.5,53.5T308,354q0,37 22,65t66,67q38,33 56.5,55.5T471,591q0,30-24.5,46.5T378,654q-63,0-96.5-30T237,535L143,0H3l97,549Z" />
      <glyph unicode="&#xe0;" glyph-name="agrave" horiz-adv-x="678" d="M31,279q15,84 59.5,149T199,528t135,35q62,0 104.5-25T501,475l14,79H656L558,0H417l15,81q-33-39-85.5-64.5T232-9Q171-9 124,18.5t-73,78T25,214q0,31 6,65Zm435-2q4,26 4,38q0,59-34.5,92T349,440q-39,0-75.5-19T210,365.5T174,279q-3-19-3-36q0-60 34-94.5T291,114q39,0 76,19.5T430.5,190T466,277Zm55,416L503,593L292,698l20,114L521,693Z" />
      <glyph unicode="&#xe1;" glyph-name="aacute" horiz-adv-x="678" d="M31,279q15,84 59.5,149T199,528t135,35q62,0 104.5-25T501,475l14,79H656L558,0H417l15,81q-33-39-85.5-64.5T232-9Q171-9 124,18.5t-73,78T25,214q0,31 6,65Zm435-2q4,26 4,38q0,59-34.5,92T349,440q-39,0-75.5-19T210,365.5T174,279q-3-19-3-36q0-60 34-94.5T291,114q39,0 76,19.5T430.5,190T466,277Zm57,421L273,593l18,100L543,812L523,698Z" />
      <glyph unicode="&#xe2;" glyph-name="acircumflex" horiz-adv-x="678" d="M31,279q15,84 59.5,149T199,528t135,35q62,0 104.5-25T501,475l14,79H656L558,0H417l15,81q-33-39-85.5-64.5T232-9Q171-9 124,18.5t-73,78T25,214q0,31 6,65Zm435-2q4,26 4,38q0,59-34.5,92T349,440q-39,0-75.5-19T210,365.5T174,279q-3-19-3-36q0-60 34-94.5T291,114q39,0 76,19.5T430.5,190T466,277ZM410,682L245,595l19,103l163,83l134-83L543,595L410,682Z" />
      <glyph unicode="&#xe3;" glyph-name="atilde" horiz-adv-x="678" d="M31,279q15,84 59.5,149T199,528t135,35q62,0 104.5-25T501,475l14,79H656L558,0H417l15,81q-33-39-85.5-64.5T232-9Q171-9 124,18.5t-73,78T25,214q0,31 6,65Zm435-2q4,26 4,38q0,59-34.5,92T349,440q-39,0-75.5-19T210,365.5T174,279q-3-19-3-36q0-60 34-94.5T291,114q39,0 76,19.5T430.5,190T466,277ZM217,609q21,66 59.5,98.5T365,740q20,0 35-6.5T432,715q14-10 24.5-14.5T479,696q38,0 52,43h75q-22-66-60-98.5T458,608q-21,0-35,6.5T390,633q-14,10-24.5,15T343,653q-36,0-51-44H217Z" />
      <glyph unicode="&#xe4;" glyph-name="adieresis" horiz-adv-x="678" d="M31,279q15,84 59.5,149T199,528t135,35q62,0 104.5-25T501,475l14,79H656L558,0H417l15,81q-33-39-85.5-64.5T232-9Q171-9 124,18.5t-73,78T25,214q0,31 6,65Zm435-2q4,26 4,38q0,59-34.5,92T349,440q-39,0-75.5-19T210,365.5T174,279q-3-19-3-36q0-60 34-94.5T291,114q39,0 76,19.5T430.5,190T466,277ZM307,620q-25,0-41,15.5T250,674q0,32 24,55.5T330,753q25,0 40-15.5T385,698q0-32-23.5-55T307,620Zm185,0q-25,0-41,15.5T435,674q0,32 24,55.5T515,753q25,0 40-15.5T570,698q0-32-23.5-55T492,620Z" />
      <glyph unicode="&#xe5;" glyph-name="aring" horiz-adv-x="678" d="M31,279q15,84 59.5,149T199,528t135,35q62,0 104.5-25T501,475l14,79H656L558,0H417l15,81q-33-39-85.5-64.5T232-9Q171-9 124,18.5t-73,78T25,214q0,31 6,65Zm435-2q4,26 4,38q0,59-34.5,92T349,440q-39,0-75.5-19T210,365.5T174,279q-3-19-3-36q0-60 34-94.5T291,114q39,0 76,19.5T430.5,190T466,277ZM301,717q10,52 48,83.5T436,832q43,0 69.5-24.5T532,741q0-41-19-72.5t-50-49T396,602q-43,0-70,24.5T299,693q0,16 2,24Zm166,11q0,18-12,28.5T424,767q-21,0-37.5-13.5T366,717q-1-3-1-9q0-18 11.5-29.5T407,667q24,0 42,17.5T467,728Z" />
      <glyph unicode="&#xe6;" glyph-name="ae" horiz-adv-x="1077" d="M839,563q97,0 154-58.5T1050,349q0-33-5-59q-4-23-14-52H604q-3-63 32.5-97T724,107q48,0 82,18t52,49h152Q972,93 900.5,42T738-9Q678-9 633,16T568,82L553,0H418l15,82q-38-41-89.5-66T234-9Q173-9 125.5,18.5t-74,78T25,214q0,31 6,65q15,85 60,149.5T201,528t138,35q58,0 99-22t64-65l14,78H651l-14-78q42,45 92,66t110,21Zm67-240q2,14 2,21q0,48-34,76t-88,28q-55,0-101-33.5T619,323H906ZM466,277q4,26 4,38q0,59-34.5,92T349,440q-39,0-75.5-19T210,365.5T174,279q-3-19-3-36q0-60 34-94.5T291,114q39,0 76,19.5T430.5,190T466,277Z" />
      <glyph unicode="&#xe7;" glyph-name="ccedilla" horiz-adv-x="602" d="M275,111q84,0 124,76H550Q515,106 449.5,55T297-6l-7-39q49,0 80.5-22T402-132q0-6-2-22q-9-54-52.5-83T248-266H106l15,82H240q24,0 37,7t17,25t-7,24.5T251-121H189L209-6Q123,7 74,64.5T25,212q0,31 6,65q15,86 61,150.5t114.5,100T355,563q103,0 161.5-51T582,367H431q-6,36-31,56.5T333,444q-60,0-102.5-43.5T174,277q-5-28-5-48q0-57 28-87.5T275,111Z" />
      <glyph unicode="&#xe8;" glyph-name="egrave" horiz-adv-x="617" d="M359,563q106,0 168-58.5T589,347q0-32-5-57q-6-30-13-52H166q-1-7-1-20q0-52 30.5-81.5T276,107q42,0 72.5,18.5T398,174H549Q512,94 434.5,42.5T259-9Q153-9 89,51T25,214q0,30 6,63q15,86 61.5,151T208,528t151,35Zm86-240q2,16 2,23q0,48-31,75t-81,27q-53,0-95-33.5T181,323H445Zm47,370L474,593L263,698l20,114L492,693Z" />
      <glyph unicode="&#xe9;" glyph-name="eacute" horiz-adv-x="617" d="M359,563q106,0 168-58.5T589,347q0-32-5-57q-6-30-13-52H166q-1-7-1-20q0-52 30.5-81.5T276,107q42,0 72.5,18.5T398,174H549Q512,94 434.5,42.5T259-9Q153-9 89,51T25,214q0,30 6,63q15,86 61.5,151T208,528t151,35Zm86-240q2,16 2,23q0,48-31,75t-81,27q-53,0-95-33.5T181,323H445Zm49,375L244,593l18,100L514,812L494,698Z" />
      <glyph unicode="&#xea;" glyph-name="ecircumflex" horiz-adv-x="617" d="M359,563q106,0 168-58.5T589,347q0-32-5-57q-6-30-13-52H166q-1-7-1-20q0-52 30.5-81.5T276,107q42,0 72.5,18.5T398,174H549Q512,94 434.5,42.5T259-9Q153-9 89,51T25,214q0,30 6,63q15,86 61.5,151T208,528t151,35Zm86-240q2,16 2,23q0,48-31,75t-81,27q-53,0-95-33.5T181,323H445ZM382,682L217,595l19,103l163,83l134-83L515,595L382,682Z" />
      <glyph unicode="&#xeb;" glyph-name="edieresis" horiz-adv-x="617" d="M359,563q106,0 168-58.5T589,347q0-32-5-57q-6-30-13-52H166q-1-7-1-20q0-52 30.5-81.5T276,107q42,0 72.5,18.5T398,174H549Q512,94 434.5,42.5T259-9Q153-9 89,51T25,214q0,30 6,63q15,86 61.5,151T208,528t151,35Zm86-240q2,16 2,23q0,48-31,75t-81,27q-53,0-95-33.5T181,323H445ZM278,620q-25,0-41,15.5T221,674q0,32 24,55.5T301,753q25,0 40-15.5T356,698q0-32-23.5-55T278,620Zm185,0q-25,0-41,15.5T406,674q0,32 24,55.5T486,753q25,0 40-15.5T541,698q0-32-23.5-55T463,620Z" />
      <glyph unicode="&#xec;" glyph-name="igrave" horiz-adv-x="290" d="M262,554L164,0H23l98,554H262Zm63,139L307,593L96,698l20,114L325,693Z" />
      <glyph unicode="&#xed;" glyph-name="iacute" horiz-adv-x="290" d="M262,554L164,0H23l98,554H262Zm65,144L77,593L95,693L347,812L327,698Z" />
      <glyph unicode="&#xee;" glyph-name="icircumflex" horiz-adv-x="290" d="M262,554L164,0H23l98,554H262ZM215,682L50,595L69,698l163,83l134-83L348,595L215,682Z" />
      <glyph unicode="&#xef;" glyph-name="idieresis" horiz-adv-x="290" d="M262,554L164,0H23l98,554H262ZM111,620q-25,0-41,15.5T54,674q0,32 24,55.5T134,753q25,0 40-15.5T189,698q0-32-23.5-55T111,620Zm185,0q-25,0-41,15.5T239,674q0,32 24,55.5T319,753q25,0 40-15.5T374,698q0-32-23.5-55T296,620Z" />
      <glyph unicode="&#xf0;" glyph-name="eth" horiz-adv-x="638" d="M544,656q73-115 73-251q0-40-8-88q-18-104-68.5-177.5T418.5,29T265-8Q195-8 140.5,19.5T56,98.5T26,219q0,33 5,59q15,85 62.5,149.5T209,527t144,35q78,0 132-45q-16,59-47,107L316,588l12,64l75,22q-22,28-60,66H478l30-34l117,35l-11-64l-70-21ZM459,277q4,19 4,41q0,60-34,92.5T345,443q-59,0-108-43T174,277q-4-30-4-41q0-60 33-92.5T286,111q38,0 74,18.5t62.5,56T459,277Z" />
      <glyph unicode="&#xf1;" glyph-name="ntilde" horiz-adv-x="661" d="M423,562q86,0 135.5-46.5T608,383q0-32-5-58L545,0H406l54,306q3,18 3,35q0,50-26.5,76T361,443q-56,0-95.5-33.5T213,313L158,0H17l98,554H256l-12-68q34,35 81,55.5T423,562ZM223,609q21,66 59.5,98.5T371,740q20,0 35-6.5T438,715q14-10 24.5-14.5T485,696q38,0 52,43h75q-22-66-60-98.5T464,608q-21,0-35,6.5T396,633q-14,10-24.5,15T349,653q-36,0-51-44H223Z" />
      <glyph unicode="&#xf2;" glyph-name="ograve" horiz-adv-x="638" d="M265-9Q194-9 139.5,20T55,102T25,224q0,94 44.5,171.5T191.5,518T364,563q71,0 126.5-29.5t86-82.5T607,329q0-95-45-172T438.5,35.5T265-9Zm19,120q50,0 91,29t64,77t23,101q0,60-33.5,92.5T344,443t-90.5-29T192,336.5T170,234q0-59 31.5-91T284,111ZM498,702L480,602L269,707l20,114L498,702Z" />
      <glyph unicode="&#xf3;" glyph-name="oacute" horiz-adv-x="638" d="M265-9Q194-9 139.5,20T55,102T25,224q0,94 44.5,171.5T191.5,518T364,563q71,0 126.5-29.5t86-82.5T607,329q0-95-45-172T438.5,35.5T265-9Zm19,120q50,0 91,29t64,77t23,101q0,60-33.5,92.5T344,443t-90.5-29T192,336.5T170,234q0-59 31.5-91T284,111ZM500,707L250,602l18,100L520,821L500,707Z" />
      <glyph unicode="&#xf4;" glyph-name="ocircumflex" horiz-adv-x="638" d="M265-9Q194-9 139.5,20T55,102T25,224q0,94 44.5,171.5T191.5,518T364,563q71,0 126.5-29.5t86-82.5T607,329q0-95-45-172T438.5,35.5T265-9Zm19,120q50,0 91,29t64,77t23,101q0,60-33.5,92.5T344,443t-90.5-29T192,336.5T170,234q0-59 31.5-91T284,111ZM388,691L223,604l19,103l163,83l134-83L521,604L388,691Z" />
      <glyph unicode="&#xf5;" glyph-name="otilde" horiz-adv-x="638" d="M265-9Q194-9 139.5,20T55,102T25,224q0,94 44.5,171.5T191.5,518T364,563q71,0 126.5-29.5t86-82.5T607,329q0-95-45-172T438.5,35.5T265-9Zm19,120q50,0 91,29t64,77t23,101q0,60-33.5,92.5T344,443t-90.5-29T192,336.5T170,234q0-59 31.5-91T284,111ZM194,618q21,66 59.5,98.5T342,749q20,0 35-6.5T409,724q14-10 24.5-14.5T456,705q38,0 52,43h75q-22-66-60-98.5T435,617q-21,0-35,6.5T367,642q-14,10-24.5,15T320,662q-36,0-51-44H194Z" />
      <glyph unicode="&#xf6;" glyph-name="odieresis" horiz-adv-x="638" d="M265-9Q194-9 139.5,20T55,102T25,224q0,94 44.5,171.5T191.5,518T364,563q71,0 126.5-29.5t86-82.5T607,329q0-95-45-172T438.5,35.5T265-9Zm19,120q50,0 91,29t64,77t23,101q0,60-33.5,92.5T344,443t-90.5-29T192,336.5T170,234q0-59 31.5-91T284,111Zm0,518q-25,0-41,15.5T227,683q0,32 24,55.5T307,762q25,0 40-15.5T362,707q0-32-23.5-55T284,629Zm185,0q-25,0-41,15.5T412,683q0,32 24,55.5T492,762q25,0 40-15.5T547,707q0-32-23.5-55T469,629Z" />
      <glyph unicode="&#xf7;" glyph-name="divide" horiz-adv-x="648" d="M360,496q-33,0-53,19t-20,48q0,40 30.5,68.5T389,660q33,0 52.5-18.5T461,593q0-40-30-68.5T360,496Zm246-77L584,294H73L96,419H606ZM273,55q-33,0-53,19t-20,48q0,40 30.5,68.5T302,219q33,0 52.5-18.5T374,152q0-40-30-68.5T273,55Z" />
      <glyph unicode="&#xf8;" glyph-name="oslash" horiz-adv-x="634" d="M564,467q41-58 41-138q0-95-45-172T436.5,35.5T263-9Q167-9 103,44L55,0H-30L64,86Q23,142 23,224q0,94 44.5,171.5T189.5,518T362,563q49,0 90.5-14T525,509l49,45h85l-95-87ZM168,234q0-26 6-47L422,415q-31,28-80,28q-51,0-90.5-29T190,336.5T168,234Zm292,84q0,27-7,47L205,138q30-27 77-27q50,0 91,29t64,77t23,101Z" />
      <glyph unicode="&#xf9;" glyph-name="ugrave" horiz-adv-x="661" d="M638,554L540,0H400l12,70q-32-36-79-56.5T234-7Q148-7 98,39.5T48,172q0,32 5,57l57,325H250L196,249q-3-18-3-35q0-49 27-75.5T296,112q57,0 97,35.5T444,249l54,305H638ZM511,693L493,593L282,698l20,114L511,693Z" />
      <glyph unicode="&#xfa;" glyph-name="uacute" horiz-adv-x="661" d="M638,554L540,0H400l12,70q-32-36-79-56.5T234-7Q148-7 98,39.5T48,172q0,32 5,57l57,325H250L196,249q-3-18-3-35q0-49 27-75.5T296,112q57,0 97,35.5T444,249l54,305H638ZM513,698L263,593l18,100L533,812L513,698Z" />
      <glyph unicode="&#xfb;" glyph-name="ucircumflex" horiz-adv-x="661" d="M638,554L540,0H400l12,70q-32-36-79-56.5T234-7Q148-7 98,39.5T48,172q0,32 5,57l57,325H250L196,249q-3-18-3-35q0-49 27-75.5T296,112q57,0 97,35.5T444,249l54,305H638ZM400,682L235,595l19,103l163,83l134-83L533,595L400,682Z" />
      <glyph unicode="&#xfc;" glyph-name="udieresis" horiz-adv-x="661" d="M638,554L540,0H400l12,70q-32-36-79-56.5T234-7Q148-7 98,39.5T48,172q0,32 5,57l57,325H250L196,249q-3-18-3-35q0-49 27-75.5T296,112q57,0 97,35.5T444,249l54,305H638ZM297,620q-25,0-41,15.5T240,674q0,32 24,55.5T320,753q25,0 40-15.5T375,698q0-32-23.5-55T297,620Zm185,0q-25,0-41,15.5T425,674q0,32 24,55.5T505,753q25,0 40-15.5T560,698q0-32-23.5-55T482,620Z" />
      <glyph unicode="&#xfd;" glyph-name="yacute" horiz-adv-x="605" d="M208,554l74-387L497,554H646L159-262H10L178,14L51,554H208ZM485,698L235,593l18,100L505,812L485,698Z" />
      <glyph unicode="&#xfe;" glyph-name="thorn" horiz-adv-x="678" d="M241,468q35,44 85,69t110,25q62,0 110-27.5t75-78T648,339q0-29-6-61q-15-83-60.5-148.5T471.5,28T336-8Q276-8 235,19T174,93L112-264H-29L148,740H289L241,468ZM500,278q3,20 3,37q0,59-35,92t-86,33q-37,0-74-19t-64.5-56T207,277q-3-19-3-37q0-59 35-92.5T324,114q38,0 75,19t64.5,56.5T500,278Z" />
      <glyph unicode="&#xff;" glyph-name="ydieresis" horiz-adv-x="605" d="M208,554l74-387L497,554H646L159-262H10L178,14L51,554H208Zm61,66q-25,0-41,15.5T212,674q0,32 24,55.5T292,753q25,0 40-15.5T347,698q0-32-23.5-55T269,620Zm185,0q-25,0-41,15.5T397,674q0,32 24,55.5T477,753q25,0 40-15.5T532,698q0-32-23.5-55T454,620Z" />
      <glyph unicode="&#x2013;" glyph-name="endash" horiz-adv-x="702" d="M646,416L625,298H81l21,118H646Z" />
      <glyph unicode="&#x2014;" glyph-name="emdash" horiz-adv-x="927" d="M870,416L849,298H81l21,118H870Z" />
      <glyph unicode="&#x2018;" glyph-name="quoteleft" horiz-adv-x="275" d="M196,446H48L201,698h96L196,446Z" />
      <glyph unicode="&#x2019;" glyph-name="quoteright" horiz-adv-x="275" d="M184,698H331L179,446H82L184,698Z" />
      <glyph unicode="&#x201a;" glyph-name="quotesinglbase" horiz-adv-x="253" d="M50,149H197L44-103H-52L50,149Z" />
      <glyph unicode="&#x201c;" glyph-name="quotedblleft" horiz-adv-x="480" d="M196,446H48L201,698h96L196,446Zm205,0H253L406,698h96L401,446Z" />
      <glyph unicode="&#x201d;" glyph-name="quotedblright" horiz-adv-x="480" d="M184,698H331L179,446H82L184,698Zm205,0H536L384,446H287L389,698Z" />
      <glyph unicode="&#x201e;" glyph-name="quotedblbase" horiz-adv-x="460" d="M50,149H197L44-103H-52L50,149Zm206,0H404L251-103H155L256,149Z" />
      <glyph unicode="&#x2022;" glyph-name="bullet" horiz-adv-x="480" d="M222,194q-51,0-84,32.5T105,309q0,44 23.5,82t62,60T272,473q52,0 85-32t33-82q0-44-23.5-82T304,216.5T222,194Z" />
      <glyph unicode="&#x2039;" glyph-name="guilsinglleft" horiz-adv-x="316" d="M103,120L45,295L165,470H297L174,295l61-175H103Z" />
      <glyph unicode="&#x203a;" glyph-name="guilsinglright" horiz-adv-x="316" d="M142,295L81,470H213l58-175L151,120H19L142,295Z" />
    </font>
</defs>
</svg>
