<?xml version="1.0" standalone="no"?>
<!DOCTYPE svg PUBLIC "-//W3C//DTD SVG 1.1//EN" "http://www.w3.org/Graphics/SVG/1.1/DTD/svg11.dtd">
<svg xmlns="http://www.w3.org/2000/svg">
  <defs>
    <font id="Lato" horiz-adv-x="958">
      <font-face font-family="Lato Light" units-per-em="2000" panose-1="2 15 3 2 2 2 4 3 2 3" ascent="1974" descent="-426" alphabetic="0" />
      <glyph unicode=" " glyph-name="space" horiz-adv-x="386" />
      <glyph unicode="!" glyph-name="exclam" horiz-adv-x="596" d="M460,1415L390,843q-6-45-12-85t-13-81.5T349.5,589T331,487H269q4,56 7,102t6.5,87.5T290,758t9,85l70,572h91ZM163,77q0,19 7,36t19.5,29.5t29,20T255,170q19,0 36-7.5t29.5-20t20-29.5T348,77q0-20-7.5-36.5t-20-29T291-8t-36-7q-39,0-65.5,26.5T163,77Z" />
      <glyph unicode="&quot;" glyph-name="quotedbl" horiz-adv-x="678" d="M357,1415l-36-292L295,969q-4-16-11.5-25T259,935q-14,0-20,9t-8,25l10,154l38,292h78Zm271,0l-36-292L566,969q-4-16-11.5-25T530,935q-14,0-20,9t-8,25l10,154l38,292h78Z" />
      <glyph unicode="#" glyph-name="numbersign" horiz-adv-x="1160" d="M744,443L596,0H557q-12,0-20,7t-8,20q0,7 3,16L666,443H366L232,39q-7-21-20.5-30T182,0H141L289,443H106q-26,0-26,24q0,4 0.5,7.5T82,483l7,29H308L438,903H185l10,37q7,31 48,31H457l137,406q6,19 19.5,28.5T644,1415h40L535,971H834l150,444h41q12,0 19.5-6.5t7.5-18.5q0-7-3-16L912,971h226l-12-36q-5-16-15.5-24t-30.5-8H893L763,512H989q28,0 28-26q0-3 0-6.5t-2-7.5l-9-29H744ZM385,512H685L816,903H516L385,512Z" />
      <glyph unicode="$" glyph-name="dollar" horiz-adv-x="1160" d="M481-15Q353-9 264.5,40T114,169l31,38q11,14 30,14q9,0 20.5-11T224,182.5T264.5,146t56-37.5t75-30T494,63L605,704q-60,20-117,43.5T386.5,807T315,895t-27,128q0,78 30.5,150T406,1301t139,90.5T730,1429l29,167q2,14 11,22.5t22,8.5h35l-34-199q100-7 171-44t126-101l-25-33q-12-16-27-16q-12,0-29.5,16.5t-47,37t-73.5,39T779,1350L680,774q64-21 126-45t111.5-59.5t80-87.5T1028,452q0-92-34-174.5t-97-146T744.5,29T543-15L507-228q-2-12-11-21t-22-9H439L481-15ZM937,430q0,58-22.5,98T854,596.5t-87,49T664,684L557,63q89,5 159.5,36T836,179.5t75,114T937,430ZM376,1043q0-54 19.5-92.5t53.5-67T527,834t94-39l96,556q-84-4-147.5-31T463,1251t-65-96t-22-112Z" />
      <glyph unicode="%" glyph-name="percent" horiz-adv-x="1414" d="M706,1137q0-103-27.5-181T606,826T503,748T383,722q-51,0-94.5,19t-75,55.5t-49,91T147,1013q0,103 26,181t70,130.5t103,79T470,1430q51,0 94-19t74.5-56t49.5-91.5T706,1137Zm-74-1q0,60-13,103.5t-36,72T529,1354t-67,14q-48,0-92-20.5t-77.5-64t-53-110.5T220,1013q0-60 13-103t35.5-71t54-41.5T390,784q48,0 91.5,20t77,63T612,976.5T632,1136Zm600,261q8,8 16.5,13t22.5,5h65L227,17Q212,0 191,0H125L1232,1397Zm88-999q0-103-27.5-180.5T1220,88T1117,9.5T997-17q-51,0-94.5,19T828,58t-48.5,91T762,274q0,103 26,181.5t70,131t102.5,79T1084,692q51,0 94-19t74.5-56.5t49.5-92T1320,398Zm-74,0q0,60-13,103.5t-36,72t-53.5,42T1077,629q-48,0-92-20.5t-77.5-64T854,434T834,274q0-59 13-102t36-71t54.5-41.5T1005,46q48,0 91.5,20t76.5,63t53,109.5T1246,398Z" />
      <glyph unicode="&amp;" glyph-name="ampersand" horiz-adv-x="1274" d="M718,1431q62,0 114-20.5t89-58t57.5-89.5T999,1148l-52-9q-2,0-4-0.5t-4-0.5q-19,0-22,24q-4,32-16.5,66.5T864,1292t-61.5,47.5T711,1358q-61,0-111.5-22t-87-60.5t-56.5-91T436,1070q0-69 31-140t90-144L910,352q50,72 82.5,149T1039,649q2,11 8,18t19,7h60q-14-94-56-193.5T960,290L1197,0h-77q-25,0-38.5,5.5T1054,29L900,218q-47-51-101-94T684,50T556,1.5T418-16T285,6.5t-108,65T104,176T77,316q0,82 29,154.5t78.5,133T301,710t144,76q-49,70-73,136.5T348,1059q0,80 27,148t76,118t117,78t150,28ZM172,328q0-66 23-116.5T255,127t84.5-51T437,59q62,0 119.5,16.5t110,45.5T766,190t87,87L481,737q-71-30-128-73t-97-95.5T194,455T172,328Z" />
      <glyph unicode="&apos;" glyph-name="quotesingle" horiz-adv-x="409" d="M357,1415l-36-292L295,969q-4-16-11.5-25T259,935q-14,0-20,9t-8,25l10,154l38,292h78Z" />
      <glyph unicode="(" glyph-name="parenleft" horiz-adv-x="552" d="M239,450q0-79 8-163t24.5-167.5T313-44.5T371-197q4-9 4-17q0-9-4.5-15T359-239l-43-25q-43,88-73,179T193.5,95.5T165,271.5T156,438q0,86 5,168.5T181,772t41,168.5T290.5,1118T393,1310.5T535,1525l38-25q11-7 11-18q0-9-9-24q-83-119-146-233T324,991T260.5,738.5T239,450Z" />
      <glyph unicode=")" glyph-name="parenright" horiz-adv-x="552" d="M348,811q0,79-8.5,163t-25,167.5t-41,164T216,1458q-4,9-4,17q0,9 4.5,15t11.5,10l43,25q43-89 73-179.5t49.5-180t28.5-176T431,823q0-86-5-168.5T406,489T365,320.5T296.5,143T194-49.5T52-264L14-239Q3-232 3-221q0,9 9,24Q95-78 158,36T263,270t63.5,252.5T348,811Z" />
      <glyph unicode="*" glyph-name="asterisk" horiz-adv-x="736" d="M376,898l27,214q2,17 6,30t13,29q-11-14-23.5-22.5T373,1132L188,1022l-20,43l186,110q14,9 27.5,13t32.5,7q-19,3-30.5,7T359,1215L199,1325l30,44l160-110q14-9 22-19t19-28q-4,14-6,25t-2,23q0,5 0,9t1,9l26,215h50l-26-214q-2-18-6.5-32T452,1215q13,17 24.5,26t27.5,18l185,110l18-44L522,1215q-15-9-28.5-14t-31.5-7q18-2 29.5-6t25.5-13l160-110l-29-43L488,1132q-13,9-21.5,16T448,1171q3-13 4.5-22.5T454,1128q0-4 0-7.5t-1-8.5L426,898H376Z" />
      <glyph unicode="+" glyph-name="plus" horiz-adv-x="1160" d="M698,1157L643,706h432l-8-71H634L579,182H503l56,453H128l9,71H567l56,451h75Z" />
      <glyph unicode="," glyph-name="comma" horiz-adv-x="395" d="M63,85q0,35 24,60t63,25q43,0 66.5-29.5T240,63q0-41-10.5-83.5T199-104t-48-79T89-253L73-238q-5,4-6,8.5T66-220q0,8 15.5,26.5t35,47T154-81T177,0q-6-2-13.5-3T147-4Q110-4 86.5,21T63,85Z" />
      <glyph unicode="-" glyph-name="hyphen" horiz-adv-x="612" d="M110,632H538l-9-78H99l11,78Z" />
      <glyph unicode="." glyph-name="period" horiz-adv-x="395" d="M58,77q0,19 7,36t19.5,29.5t29,20T150,170q19,0 36.5-7.5t30-20t20-29.5T244,77q0-39-27.5-65.5T150-15T84.5,11.5T58,77Z" />
      <glyph unicode="/" glyph-name="slash" horiz-adv-x="660" d="M22-47Q13-66-3.5-75T-36-84H-74L677,1409q17,36 56,36h39L22-47Z" />
      <glyph unicode="0" glyph-name="zero" horiz-adv-x="1160" d="M694,1431q92,0 170-36t135-108t89-180.5T1120,853q0-221-49-384T939,198.5T746.5,38T516-15q-92,0-170,36T211,129T122,309.5T90,563q0,220 49,383.5t132.5,271t193,160.5T694,1431ZM528,63q99,0 188.5,47.5t158,145t109,246T1024,852q0,130-26.5,225T925,1233t-108.5,90.5T683,1353q-99,0-189-47.5t-158.5-145t-109-246T186,565q0-131 26.5-225.5t73-156t109-91T528,63Z" />
      <glyph unicode="1" glyph-name="one" horiz-adv-x="1160" d="M258,72H584L727,1233l15,69L389,1018q-12-9-24-9q-18,0-25,12l-22,39l451,361h73L677,72H986L978,0H250l8,72Z" />
      <glyph unicode="2" glyph-name="two" horiz-adv-x="1160" d="M715,1431q75,0 140.5-21t115-62.5t78-104T1077,1099q0-91-29.5-166.5t-80-143T849.5,658T707,526L204,70q32,8 67.5,12T342,86H958q30,0 30-33L981,0H70l4,33q1,11 7.5,22T97,74L642,564q75,67 137.5,128.5T887,816t70,128.5T982,1089q0,67-22.5,116.5t-61,82T809,1336t-108,16q-68,0-126.5-19.5t-106-56t-82.5-88T331,1074q-6-18-17-25.5t-25-7.5q-7,0-11,1l-46,7q23,90 69,161t109,120t140.5,75T715,1431Z" />
      <glyph unicode="3" glyph-name="three" horiz-adv-x="1160" d="M729,1431q75,0 139.5-20.5t112.5-60t75.5-98.5t27.5-135q0-80-25.5-143T989,864T885.5,785.5T759,738q69-13 120.5-40.5t86.5-67t52.5-90T1036,432q0-96-40.5-178T886,112T725,18T529-16Q432-16 359.5,7T236,76T155,189.5T113,346l41,14q9,3 19,3q11,0 20.5-5T205,342q14-71 39-123t64.5-87T404,80T538,63q97,0 172.5,33.5t127,86T916,300t27,129q0,55-18,103.5t-61,84t-115,56T568,693l9,66q97,3 174,28t130.5,69T963,962t28,138q0,64-22,111.5t-59.5,79T822,1337t-107,15q-68,0-127-19.5T481,1277t-83-87.5T343,1074q-5-18-15.5-25.5T303,1041q-7,0-11,1l-46,7q23,90 68.5,161T423,1330t141,75t165,26Z" />
      <glyph unicode="4" glyph-name="four" horiz-adv-x="1160" d="M858,481h260l-7-50q-1-11-8-17.5t-21-6.5H849L800,0H716l50,407H101q-15,0-24.5,6.5T65,431l-3,45l827,941h84L858,481Zm8,746q3,32 14,71L165,481H775l91,746Z" />
      <glyph unicode="5" glyph-name="five" horiz-adv-x="1160" d="M1074,1375q-3-20-16.5-32.5T1015,1330H501L356,854q130,31 237,31q103,0 180.5-27t129-75.5t77-115.5T1005,520q0-125-45.5-224.5T837.5,127T661.5,21T453-16Q395-16 343-6T247,21.5t-80.5,40T103,109l32,39q12,14 29,14q13,0 35.5-15T258,113.5T345.5,80T467,65q91,0 171.5,30.5t141,87.5T875,322.5T910,510q0,66-20,120.5T828,724T721.5,785T569,807q-110,0-255-37l-56,19l187,626h635l-6-40Z" />
      <glyph unicode="6" glyph-name="six" horiz-adv-x="1160" d="M670,845q84,0 152.5-26.5T940,744t76-115.5T1043,479q0-108-40.5-199t-111-156.5T725,21T518-16q-89,0-161.5,27.5T233,91T154.5,216.5T127,382q0,58 13.5,114.5t42.5,116t74,123T364,871l452,521q9,10 22,16.5t29,6.5h81L459,863q-38-42-69-79.5T333,711q66,63 153,98.5T670,845ZM215,378q0-68 21-126t61-100.5T394.5,85T526,61q94,0 172,30.5T832,176t86.5,128.5T949,466q0,70-22,127t-62.5,97T766,751.5T637,773q-95,0-172.5-34t-133-89.5T245.5,523T215,378Z" />
      <glyph unicode="7" glyph-name="seven" horiz-adv-x="1160" d="M1185,1415l-4-35q-1-14-5.5-27.5T1166,1330L349,29q-8-13-19.5-21T301,0H229l814,1284q8,13 16.5,24t18.5,22H260q-11,0-17.5,6.5T236,1353l8,62h941Z" />
      <glyph unicode="8" glyph-name="eight" horiz-adv-x="1160" d="M518-16Q424-16 347.5,8.5T216.5,78T132,186.5T102,328q0,89 27,158.5T204,607t114,83.5T461,739Q352,772 296,848.5T240,1029q0,84 33,157.5T366,1314t143.5,85.5T695,1431q87,0 155-25.5t115.5-69t72-102T1062,1109q0-68-20.5-127.5T982.5,874T888,791T760,737q60-14 109.5-40.5t85-65.5t55-91.5T1029,421q0-102-39-183T882.5,100.5T720.5,14T518-16Zm8,74q89,0 164,25.5t129,73t84.5,114T934,420q0,79-30.5,132.5t-78.5,86t-106.5,46T605,698q-44,0-90.5-7.5T423,666t-85.5-45t-71-68T218,459.5T200,337q0-63 23-114t65-88T390.5,78T526,58Zm88,715q91,0 158,28.5t111.5,75t66,105.5T971,1103q0,54-18.5,100.5t-54.5,81t-89,54T687,1358q-83,0-149-25t-112-69t-71-103.5T330,1032q0-50 16.5-97T398,852t88.5-57.5T614,773Z" />
      <glyph unicode="9" glyph-name="nine" horiz-adv-x="1160" d="M589,602q-80,0-146,25.5T330,699T257.5,810T232,954q0,102 39.5,189.5t108.5,151t161,100T738,1431q85,0 154.5-28t119-79t76-122t26.5-157q0-68-15-125t-44-112.5t-72-113T885,568L445,22Q428,0 396,0H312L802,585q32,38 63,76t60,79q-66-66-154-102T589,602Zm436,446q0,67-21.5,123.5t-60.5,97t-94,63T728,1354q-86,0-159.5-28.5t-127.5-80t-84.5-123T326,965q0-67 20.5-121t59-91.5T499,695t123-20q93,0 167.5,32.5t127,85T997,912t28,136Z" />
      <glyph unicode=":" glyph-name="colon" horiz-adv-x="395" d="M58,77q0,19 7,36t19.5,29.5t29,20T150,170q19,0 36.5-7.5t30-20t20-29.5T244,77q0-39-27.5-65.5T150-15T84.5,11.5T58,77ZM160,874q0,19 7,36t19.5,29.5t29,20T252,967q19,0 36.5-7.5t30-20t20-29.5t7.5-36q0-39-27.5-65.5T252,782t-65.5,26.5T160,874Z" />
      <glyph unicode=";" glyph-name="semicolon" horiz-adv-x="395" d="M60,85q0,35 24,60t63,25q43,0 66.5-29.5T237,63q0-41-10.5-83.5T196-104t-48-79T86-253L70-238q-5,4-6,8.5T63-220q0,8 15.5,26.5t35,47T151-81T174,0q-6-2-13.5-3T144-4Q107-4 83.5,21T60,85ZM171,874q0,19 7,36t19.5,29.5t29,20T263,967q19,0 36.5-7.5t30-20t20-29.5t7.5-36q0-39-27.5-65.5T263,782t-65.5,26.5T171,874Z" />
      <glyph unicode="&lt;" glyph-name="less" horiz-adv-x="1067" d="M178,692l797,385l-8-65q-3-21-31-35L348,697q-17-8-35.5-14.5T274,671q40-10 68-25L861,365q22-11 22-30q0-1 0-2.5t-1-8T879.5,304T875,265L173,651l5,41Z" />
      <glyph unicode="=" glyph-name="equal" horiz-adv-x="1160" d="M168,555H995l-9-71H160l8,71Zm39,312h826l-8-71H198l9,71Z" />
      <glyph unicode="&gt;" glyph-name="greater" horiz-adv-x="1067" d="M937,650L140,265l8,65q3,21 31,35L767,645q17,8 35.5,14.5T841,671q-40,10-68,25L254,977q-22,11-22,30q0,1 0,2.5t1,8t2.5,20.5t4.5,39L942,691l-5-41Z" />
      <glyph unicode="?" glyph-name="question" horiz-adv-x="685" d="M127,1290q29,27 63.5,52.5t75,45T352,1419t98,12q61,0 112.5-19t89-54t58.5-83.5T731,1167q0-83-24.5-142T644,922t-82.5-76.5t-85-62.5T406,722t-38-71L336,487H272l17,170q4,44 32.5,78.5T389,801t84,62.5T556,935t63,92t25,124q0,47-16,84.5t-44.5,64t-67,40.5T434,1354q-62,0-108-17.5T248,1298t-52-38.5T166,1242q-12,0-19,12l-20,36ZM181,77q0,19 7,36t19.5,29.5t29,20T273,170q19,0 36-7.5t29.5-20t20-29.5T366,77q0-20-7.5-36.5t-20-29T309-8t-36-7q-39,0-65.5,26.5T181,77Z" />
      <glyph unicode="@" glyph-name="at" horiz-adv-x="1504" d="M1032,188q-73,0-108.5,39T888,338q0,7 0,14t1,15q-63-92-133-133.5T610,192q-45,0-78,16t-54,44.5T446.5,319T436,401q0,59 16.5,121T500,642t76,109t101.5,89T802,900t146,22q49,0 91-8.5t75-25.5L987,541q-23-61-32.5-106T945,358q0-33 9-54t23.5-33t34-16.5T1052,250q59,0 116.5,36.5t102.5,104t72.5,163T1371,767q0,124-38,218t-104,156t-156,93.5T880,1266q-92,0-180.5-27.5t-168-78.5t-146-124t-115-165t-76-200.5T167,440q0-148 43-262T329.5-14t180-118T735-172q137,0 253.5,34T1200-42q11,7 20,7q18,0 21-18l7-31q-111-74-239.5-114T728-238q-138,0-254,45.5T274.5-60.5T144,150.5T97,434q0,129 30,245.5t83,216t126.5,180t161.5,137t186.5,87T887,1330q112,0 212.5-36.5t176.5-108T1396,1009t44-242q0-129-34-235.5t-90.5-183T1185.5,230T1032,188ZM637,256q33,0 69,12t72,43.5T849,397t65,138l112,311q-22,7-45,10.5T928,860q-59,0-113-18.5t-100-51T631.5,714t-64-93.5t-41-103T512,412q0-33 7.5-61.5t23-49.5t39-33T637,256Z" />
      <glyph unicode="A" glyph-name="A" horiz-adv-x="1180" d="M1112,0h-76q-14,0-22.5,7.5T1002,26L901,440H267L65,26Q60,15 49,7.5T24,0H-52L655,1415h98L1112,0ZM303,513H884L709,1233q-5,17-9.5,38t-7.5,44q-2-6-7.5-18.5T673,1271t-11-24t-7-15L303,513Z" />
      <glyph unicode="B" glyph-name="B" horiz-adv-x="1179" d="M131,0L305,1415H682q102,0 176-21t123-60.5t72.5-96.5t23.5-129q0-68-22-130T992.5,865.5t-98.5-87T763,724q138-23 211-98.5T1047,429q0-98-33.5-177.5T916.5,116T762,30T556,0H131ZM314,679L240,79H564q186,0 285,90.5T948,426q0,58-20.5,104.5t-60,79.5t-97,51T639,679H314Zm9,72H602q97,0 168,29t117,76.5T955,965t22,126q0,119-74.5,182T673,1336H395L323,751Z" />
      <glyph unicode="C" glyph-name="C" horiz-adv-x="1267" d="M679,69q73,0 131,12.5t103,31t77.5,40t55.5,40t37.5,31T1106,236q9,0 13-6l35-42q-46-47-98.5-84.5T943,39.5T813.5-1.5T664-16Q542-16 443.5,28t-168,125t-107,194T131,598q0,185 56,338.5T341.5,1200t232,170.5T862,1431q73,0 131-11.5t106.5-33.5t89-55t78.5-75l-31-40q-11-12-27-12q-12,0-32.5,22t-59.5,48.5T1015.5,1323T857,1345q-132,0-246-52T413,1145T280.5,912T232,605q0-124 33-223.5t92-169T498.5,106T679,69Z" />
      <glyph unicode="D" glyph-name="D" horiz-adv-x="1398" d="M1325,815q0-125-24.5-234t-70-199.5T1120.5,220T976,100T803,25.5T607,0H131L305,1415H781q125,0 226-42.5T1178.5,1252T1287,1063t38-248Zm-103-2q0,121-31.5,218t-90,164t-142,103T771,1334H395L240,81H616q132,0 243,49.5T1051,274t126,230t45,309Z" />
      <glyph unicode="E" glyph-name="E" horiz-adv-x="1087" d="M1076,1333H395L324,757H891l-11-80H314L241,82H925L914,0H131L305,1415h782l-11-82Z" />
      <glyph unicode="F" glyph-name="F" horiz-adv-x="1052" d="M1076,1333H395L321,734H912l-12-83H311L231,0H131L305,1415h782l-11-82Z" />
      <glyph unicode="G" glyph-name="G" horiz-adv-x="1376" d="M699,65q67,0 122.5,7.5T926,95t94,36t90,48l48,385H911q-22,0-22,19q0,0 0,1.5t0.5,7t2,17T895,641h363l-63-502q-53-37-108.5-66t-118-48.5T836-5.5T684-16Q557-16 454.5,28.5T280,154T169.5,348.5T131,600q0,187 55,340.5T340,1203t236,168.5T877,1431q77,0 140-11.5t115-33.5t95-54t81-73l-31-39q-12-15-26-15q-8,0-16,4q-9,4-22.5,16t-33,27t-47,31.5t-65,30T981,1336t-112,9q-141,0-258-52T409.5,1145t-131-233.5T232,603q0-124 33-223.5T359,210T506,102.5T699,65Z" />
      <glyph unicode="H" glyph-name="H" horiz-adv-x="1392" d="M1139,0H1039l83,679H314L231,0H131L305,1415H405L323,754h808l82,661h100L1139,0Z" />
      <glyph unicode="I" glyph-name="I" horiz-adv-x="550" d="M265,0H165L338,1415H438L265,0Z" />
      <glyph unicode="J" glyph-name="J" horiz-adv-x="834" d="M637,441q-15-117-51-203T495,95.5t-127.5-84T208-16q-54,0-98.5,7T22,13l8,54q2,8 7,15t19,7q10,0 22-3.5T107.5,78t42-7.5T209,67q59,0 113,18.5t97.5,62t74,115T537,439l120,976H757L637,441Z" />
      <glyph unicode="K" glyph-name="K" horiz-adv-x="1216" d="M350,760h77q34,0 54,7.5T524,798l592,588q17,17 31,23t33,6h81L619,778q-19-18-33.5-30T554,730q18-6 31-18.5T612,680L1123,0h-80q-26,0-35.5,7T989,26L519,640q-9,11-16.5,19T485,672.5t-24,8T425,683H341L257,0H158L331,1417H431L350,760Z" />
      <glyph unicode="L" glyph-name="L" horiz-adv-x="941" d="M240,85H856L845,0H131L305,1415h99L240,85Z" />
      <glyph unicode="M" glyph-name="M" horiz-adv-x="1673" d="M813,400q4-11 7.5-22.5T826,354q10,22 24,46l638,996q8,13 16.5,16t22.5,3h69L1422,0h-87l149,1209q2,11 4,24.5t5,27.5L863,272q-16-25-41-25H806q-26,0-35,25L369,1264q0-30-3-54L218,0H131L305,1415h68q14,0 22.5-2.5T409,1396L813,400Z" />
      <glyph unicode="N" glyph-name="N" horiz-adv-x="1390" d="M354,1415q14,0 20.5-3.5T388,1396L1074,164q1,14 1.5,26.5T1078,214l148,1201h87L1139,0h-46q-25,0-37,22L369,1254l-3-45L218,0H131L305,1415h49Z" />
      <glyph unicode="O" glyph-name="O" horiz-adv-x="1465" d="M1393,816q0-187-54.5-340T1187,214T958,45T672-15Q548-15 448,29.5T277.5,155T169,349T131,599q0,186 55,339.5t151.5,263t228,169.5T850,1431q125,0 225.5-44.5t171-125.5T1355,1066.5T1393,816Zm-103-2q0,123-31.5,221.5t-90.5,168t-142.5,107T839,1348q-130,0-241-52T405.5,1147T278,912T232,602q0-123 32-221.5T355,213T497,106.5T683,69q132,0 243,51.5T1118,269t126.5,234.5T1290,814Z" />
      <glyph unicode="P" glyph-name="P" horiz-adv-x="1094" d="M327,571L257,0H158L331,1415H671q208,0 312-93.5T1087,1059q0-108-37-197.5t-105-154T781,607T567,571H327Zm94,765L337,651H577q94,0 169.5,30t129,83T958,890t29,159q0,136-81.5,211.5T661,1336H421Z" />
      <glyph unicode="Q" glyph-name="Q" horiz-adv-x="1464" d="M1393,816q0-129-26.5-242t-75-207t-117-167.5T1021,77l291-389h-78q-20,0-34.5,5T1175-288L937,35Q813-15 672-15Q548-15 448,29.5T277.5,155T169,349T131,599q0,186 55,339.5t151.5,263t228,169.5T850,1431q125,0 225.5-44.5t171-125.5T1355,1066.5T1393,816Zm-103-2q0,123-31.5,221.5t-90.5,168t-142.5,107T839,1348q-130,0-241-52T405.5,1147T278,912T232,602q0-123 32-221.5T355,213T497,106.5T683,69q132,0 243,51.5T1118,269t126.5,234.5T1290,814Z" />
      <glyph unicode="R" glyph-name="R" horiz-adv-x="1162" d="M336,641L257,0H158L331,1415H667q205,0 306.5-81.5T1075,1097q0-92-30-168.5t-85-134T827.5,701T656,653q21-15 35-39L1060,0H975q-30,0-45,25L589,601q-14,22-30.5,31T505,641H336Zm86,695L345,715H568q95,0 170.5,26T867,815t81,116t28,151q0,128-81,191t-237,63H422Z" />
      <glyph unicode="S" glyph-name="S" horiz-adv-x="962" d="M916,1244q-11-17-26-17q-12,0-29,19t-46.5,41.5t-76,41.5T622,1348q-76,0-135.5-24.5t-101-67t-63.5-99T300,1037q0-61 25-102.5t65.5-71t92-51t106-42t106-45t92-59.5T852,581t25-123q0-96-33-182.5t-94.5-151T600,22T403-16Q275-16 187,33.5T39,169l33,43q14,14 28,14q9,0 20.5-12t28-29.5t39-38t54.5-38T316.5,79T415,67q84,0 152,28.5T683,174t73.5,117.5T782,437q0,62-25,103.5T691.5,611t-92,49T494,700T388,744t-92.5,59.5t-65,87T206,1017q0,81 29,156t83.5,132.5T452,1397t180,34q102,0 179-37.5T944,1284l-28-40Z" />
      <glyph unicode="T" glyph-name="T" horiz-adv-x="1077" d="M1158,1415l-10-84H692L529,0H430L593,1331H135l10,84H1158Z" />
      <glyph unicode="U" glyph-name="U" horiz-adv-x="1349" d="M623,70q93,0 171,36t136.5,99T1027,354t50,185l107,876h100L1176,539q-15-117-61.5-218.5T994.5,144T824,26T612-17Q509-17 428.5,18.5T292.5,116T208,263.5T179,450q0,44 6,89l107,876H392L284,540q-2-20-3.5-40T279,460q0-84 22.5-155.5t66-123.5T475,99.5T623,70Z" />
      <glyph unicode="V" glyph-name="V" horiz-adv-x="1191" d="M127,1415h79q14,0 21.5-7.5T238,1389L532,208q5-21 10-45t8-50q9,26 18.5,50T589,208l583,1181q5,11 15.5,18.5t24.5,7.5h78L580,0H491L127,1415Z" />
      <glyph unicode="W" glyph-name="W" horiz-adv-x="1819" d="M129,1415h78q29,0 32-26L426,213q3-19 4-39.5t3-42.5q7,22 14.5,42.5T463,213L974,1389q5,11 15,18.5t24,7.5h22q27,0 32-26L1289,213q3-18 5-38.5t4-41.5q7,21 13.5,41.5T1325,213l475,1176q4,11 15.5,18.5t25.5,7.5h77L1334,0h-89L1014,1233q-2,11-3.5,24t-3.5,27q-5-14-9.5-27t-9.5-24L454,0H365L129,1415Z" />
      <glyph unicode="X" glyph-name="X" horiz-adv-x="1108" d="M518,756L168,1415h89q14,0 20.5-5t11.5-16L590,807q7,14 15,26l432,564q14,18 32,18h99L656,761L1052,0H963q-14,0-20.5,8T932,24L586,703q-3-6-6-12t-8-11L72,24Q63,13 53.5,6.5T32,0H-66L518,756Z" />
      <glyph unicode="Y" glyph-name="Y" horiz-adv-x="1107" d="M615,583L542,0H443l73,584L135,1415h88q14,0 21.5-7t12.5-18L556,722q8-17 12-33.5t7-32.5q8,17 17,33t20,33l464,668q7,11 16,18t23,7h83L615,583Z" />
      <glyph unicode="Z" glyph-name="Z" horiz-adv-x="1165" d="M1185,1415l-5-33q-2-9-5.5-16t-10.5-15L190,82h824L1003,0H44l4,33q1,8 5.5,14.5T63,62l976,1271H232l11,82h942Z" />
      <glyph unicode="[" glyph-name="bracketleft" horiz-adv-x="552" d="M68-263L286,1516H580l-4-35q-2-12-10.5-19.5T544,1454H357L153-200H341q12,0 19-6.5t7-17.5q0-1-0.5-6.5T362-263H68Z" />
      <glyph unicode="\" glyph-name="backslash" horiz-adv-x="659" d="M113,1445h39q39,0 48-36L584-84H547q-17,0-31.5,9T496-47L113,1445Z" />
      <glyph unicode="]" glyph-name="bracketright" horiz-adv-x="552" d="M223,1516H519L300-263H5l4,35q2,12 10.5,20T42-200H229L432,1454H245q-26,0-26,23l4,39Z" />
      <glyph unicode="^" glyph-name="asciicircum" horiz-adv-x="1160" d="M604,1415h59l341-615H937q-11,0-20,6.5T903,823L662,1259q-18,31-28,62q-5-16-11.5-31T608,1259L368,823q-5-8-13-15.5T333,800H263l341,615Z" />
      <glyph unicode="_" glyph-name="underscore" horiz-adv-x="726" d="M640-207l-9-65H-94l8,65H640Z" />
      <glyph unicode="`" glyph-name="grave" horiz-adv-x="540" d="M216,1431q23,0 33-7.5t18-24.5l115-238H329q-21,0-33,16L127,1431h89Z" />
      <glyph unicode="a" glyph-name="a" horiz-adv-x="980" d="M766,0H720q-19,0-26.5,9T686,31l33,313q-38-80-83.5-145.5T538.5,86T430,13T312-13q-63,0-110,24.5T123.5,81T76,190T60,334q0,87 22,170.5T144.5,663T241,801T364.5,910T509,982t159,26q60,0 112-10.5T883,961L766,0ZM343,66q57,0 112.5,32T561,188.5t94.5,141T735,512l50,405q-59,20-128,20q-67,0-130-22.5T408.5,852t-102-95T226,636.5T173.5,498T155,349q0-134 45.5-208.5T343,66Z" />
      <glyph unicode="b" glyph-name="b" horiz-adv-x="1019" d="M102,0L278,1455h93L274,659q39,79 87,143.5T462,913t111.5,71.5T692,1010q65,0 114-25t82-70.5T938,804t17-145q0-77-16-156.5t-45.5-154T821.5,208T725,93T606.5,15.5T470-13q-85,0-155,38.5T203,140L184,32q-3-17-10-24.5T149,0H102ZM661,933q-57,0-114.5-32t-111-90t-100-140T253,489L218,205q21-39 48.5-66.5t59-44.5t65-24.5T459,62q63,0 117.5,25.5t99,69.5t79,102.5t58,123.5t36,133.5T861,650q0,134-51,208.5T661,933Z" />
      <glyph unicode="c" glyph-name="c" horiz-adv-x="861" d="M797,182q-53-59-100.5-97t-93-60T511-5T411-13q-86,0-149.5,29.5T156,99T93,225T72,384q0,79 16.5,156.5T136,688t75,129t99,102t119.5,67.5T567,1011q49,0 88.5-9.5t72.5-27T788,932t50-56l-28-33q-9-11-21-11q-10,0-24.5,16t-39,34.5T662,917t-98,16q-84,0-156.5-45t-126-121t-84-175.5T167,384q0-69 15.5-128t48-102T312,87T428,63q53,0 95,11.5T597.5,103t57,37.5T698,178t32.5,28.5T755,218t21-10l21-26Z" />
      <glyph unicode="d" glyph-name="d" horiz-adv-x="1021" d="M751,0q-19,0-26.5,9T717,31l33,317q-39-81-87.5-147.5T560,86.5T447,13T327-13q-65,0-114,25T131,83T81,194T64,340q0,76 16,155.5t45.5,154t72,140T294,904t118,77.5T549,1010q81,0 149-35.5T810,868l73,587h92L797,0H751ZM358,64q57,0 114,31.5T582.5,185t100,139.5T765,505l35,288q-43,78-107,110T560,935q-63,0-117.5-25.5t-99-69.5t-79-102t-58-123t-36-134T158,348q0-134 51-209T358,64Z" />
      <glyph unicode="e" glyph-name="e" horiz-adv-x="895" d="M838,805q0-41-11-78t-39-70t-76-62.5t-123-54t-179-44T166,462q-2-21-3-41.5T162,380q0-149 67.5-233T433,63q53,0 95.5,11.5t76,29.5t59,38T709,180t34.5,29.5T770,221t21-10l22-26q-49-52-95.5-89.5T623.5,34T525-1.5T416-13q-83,0-147.5,27.5T160,92.5t-67,123T70,378q0,75 15,151t44.5,146t73,131T302,912t124,71t147,26q73,0 123.5-20.5t82-51t45.5-66T838,805ZM568,939q-80,0-144.5-34t-114-90.5t-83-131T177,528q127,14 219,32.5t156,39T655.5,644T717,693.5T746.5,746t7.5,56q0,21-9.5,45.5T713,892t-57.5,33.5T568,939Z" />
      <glyph unicode="f" glyph-name="f" horiz-adv-x="568" d="M306,894L200,21L158-209q-4-22-17-31.5T109-250H74L214,893L88,901q-22,2-22,22q0,1 0.5,6.5T70,964H222l16,126q10,85 39,149.5T349.5,1347t98.5,64.5T566,1433q28,0 56-5.5t50-15.5l-10-48q-1-11-15-11q-11,0-31,4t-46,4q-45,0-85.5-15t-72-47.5t-54-84.5T327,1087L311,964H593l-10-70H306Z" />
      <glyph unicode="g" glyph-name="g" horiz-adv-x="881" d="M762,736q-1-55-14.5-100T714,553.5t-43.5-70T627,420t-33-63t-13-68q0-30 12-55.5T622.5,184T661,135.5T699.5,84T729,25t12-71q0-63-32-121.5T619-271T479.5-343T298-370q-79,0-144.5,16t-113,46.5T-33-233T-59-133Q-59-61-21.5-5.5T80.5,88t150,58T414,166q34,0 68-2.5t69-7.5q-17,23-28.5,49T511,263q0,35 12,71t46,87q-41-28-86.5-43T383,363q-57,0-106,18t-84.5,53.5t-55.5,87T117,641q0,69 24.5,135.5t71,118.5T327,978.5T482,1010q51,0 96-12.5T658,960H918l-4-32q-1-10-7.5-17.5T886,901L724,888q18-31 28-69t10-83ZM654-52q0,49-16,84T599,96l1-3q-49,8-93,11t-85,3q-99,0-172-18.5t-121.5-50T55.5-35T31-123q0-43 19.5-76.5t55.5-56T193-290t113-12q78,0 142,21t109.5,56T628-145t26,93ZM405,425q64,0 114.5,27T605,522.5t53,99T676,733q0,104-55,156.5T473,942q-64,0-114-25.5T274.5,849T222,752.5T204,641q0-106 54-161t147-55Z" />
      <glyph unicode="h" glyph-name="h" horiz-adv-x="1030" d="M102,0L278,1455h94L280,695q40,75 88.5,133.5t102,99T580,989t113,21q112,0 167.5-72T916,731q0-8-0.5-18.5t-3-35.5T905,605.5t-14-125t-22.5-196T835,0H741l75,636q6,46 6,87q0,102-38.5,155T662,931q-54,0-110-27.5t-108.5-79T344,700T261,537L196,0H102Z" />
      <glyph unicode="i" glyph-name="i" horiz-adv-x="455" d="M334,995L213,0H120L241,995h93Zm73,343q0-18-7-33.5T381,1277t-27.5-19t-31.5-7q-17,0-32,7t-26.5,19T245,1304.5t-7,33.5t7,34t18.5,28.5T290,1420t32,7q16,0 31.5-7t27.5-19t19-28.5t7-34.5Z" />
      <glyph unicode="j" glyph-name="j" horiz-adv-x="440" d="M330,995L192-127q-6-52-26-96t-51.5-76.5t-75-51T-57-369q-29,0-49.5,5T-147-348l5,22q5,22 8.5,30t11.5,8t21-4t35-4q74,0 115,44t51,125L238,995h92Zm75,343q0-18-7.5-33.5T378,1277t-27.5-19t-31.5-7q-17,0-32,7t-26,19t-18,27.5t-7,33.5t7,34t18.5,28.5T288,1420t32,7q16,0 31.5-7t27.5-19t19-28.5t7-34.5Z" />
      <glyph unicode="k" glyph-name="k" horiz-adv-x="888" d="M370,1455L261,568h37q18,0 29,4.5T353,591L765,970q12,11 23,18t28,7h82L443,578q-11-10-20.5-18.5T402,545q14-8 23-19t18-24L807,0H727q-14,0-23,5T686,23L356,471q-14,18-27,24.5T289,502H253L192,0H99L277,1455h93Z" />
      <glyph unicode="l" glyph-name="l" horiz-adv-x="448" d="M117,0L293,1455h93L209,0H117Z" />
      <glyph unicode="m" glyph-name="m" horiz-adv-x="1551" d="M94,0L214,998h43q35,0 35-36L264,684q78,155 180,240.5T659,1010q100,0 142.5-63T844,766q0-34-3-73q39,80 85.5,139.5t98,99t105.5,59t107,19.5q107,0 154-67.5T1438,750q0-10-0.5-22.5t-3-39.5t-7.5-74.5T1413,486t-23-198.5T1356,0h-93l75,636q4,31 6,58.5t2,52.5q0,90-31,136.5T1207,930q-49,0-99.5-22.5t-99-67.5t-92-113T838,567L771,0H678l75,636q9,69 9,123q0,84-29,127.5T630,930q-114,0-210.5-104T250,532L187,0H94Z" />
      <glyph unicode="n" glyph-name="n" horiz-adv-x="1024" d="M94,0L214,998h43q34,0 34-36L262,674q41,79 90.5,141.5T457,921.5t113,66T687,1010q111,0 167-73t56-209q0-9-0.5-20.5t-3-36.5T899,600.5t-14-123t-22.5-194T829,0H735l75,636q6,46 6,87q0,101-38.5,154T656,930q-56,0-113-28.5t-110.5-81T332,693.5T249,526L188,0H94Z" />
      <glyph unicode="o" glyph-name="o" horiz-adv-x="988" d="M434,62q87,0 158.5,45.5T715,228.5t78.5,173T821,602q0,160-71,247T553,936q-58,0-109-20.5T350,858t-77.5-87.5T214.5,660t-36-127T166,396q0-159 70.5-246.5T434,62Zm-8-75q-80,0-145.5,28t-112,81t-72,128.5T71,396q0,121 36,232.5T208.5,825T364,960.5T562,1011q80,0 145.5-28.5t112-81t72-128.5T917,603q0-121-36.5-232T779,174.5T624,38T426-13Z" />
      <glyph unicode="p" glyph-name="p" horiz-adv-x="1009" d="M50-352L214,998h43q35,0 35-36L260,649q39,81 87.5,147.5t103,114T564,984t120,26q65,0 114-25t82-70.5T930,804t17-145q0-77-16-156.5t-45.5-154T813.5,208T717,93T598.5,15.5T462-13q-81,0-149.5,36T201,129L142-352H50ZM653,933q-57,0-114.5-31.5T428,812T328,672.5T245,491L210,205q44-79 108-111T451,62q63,0 117.5,25.5t99,69.5t79,102.5t58,123.5t36,133.5T853,650q0,134-51,208.5T653,933Z" />
      <glyph unicode="q" glyph-name="q" horiz-adv-x="980" d="M722-352H668q-20,0-28.5,11T631-312q0,8 1,13l79,627q-38-77-82.5-139.5T533.5,81t-106-69.5T312-13q-63,0-110,24.5T123.5,81T76,190T60,334q0,87 22,170.5T144.5,663T241,801T364.5,910T509,982t159,26q60,0 112-10.5T883,961L722-352ZM343,66q57,0 111.5,31.5T559,187t94,139t79,180l1,3l52,408q-59,20-128,20q-67,0-130-22.5T408.5,852t-102-95T226,636.5T173.5,498T155,349q0-134 45.5-208.5T343,66Z" />
      <glyph unicode="r" glyph-name="r" horiz-adv-x="672" d="M94,0L214,998h43q35,0 35-36L263,666q68,163 155.5,251.5T605,1006q41,0 84-17l-17-89q-46,17-86,17q-107,0-192.5-105.5T247,507L187,0H94Z" />
      <glyph unicode="s" glyph-name="s" horiz-adv-x="772" d="M711,873q-8-14-22-14q-10,0-24.5,12.5t-39.5,28t-62,28T471,940q-51,0-96.5-17t-79-45.5t-53-66T223,732q0-41 19-69t50.5-48.5t71-35.5T445,549t81.5-33.5t71-44.5T648,407.5T667,317q0-64-25.5-124T569,86.5T455.5,12T307-16q-97,0-162,33.5T33,105l23,34q6,8 12,12t15,4q10,0 25-16t41.5-35.5T217,68T320,52q59,0 107.5,19.5t83,53.5T564,203.5T583,298q0,44-19,74t-50,51.5T443,460t-81.5,29.5t-81.5,32T209,564t-50,61t-19,88q0,58 25,111.5t70,95t107,66T478,1010q84,0 146-26t110-78l-23-33Z" />
      <glyph unicode="t" glyph-name="t" horiz-adv-x="658" d="M175,167q0,6 0.5,15t2,27t5,46.5T191,328l68,565H128q-20,0-20,19l5,41l157,12l66,356q2,9 9,16t17,7h46L361,964H649l-8-71H353L284,331q-5-41-8-67t-5-42.5T268.5,197T268,185q0-65 30.5-94T377,62q33,0 58.5,10.5t44.5,23t31,23T529,129t9-2.5t6-7.5l18-42Q522,35 465,9.5T351-16q-82,0-128.5,45T175,167Z" />
      <glyph unicode="u" glyph-name="u" horiz-adv-x="1022" d="M289,995L214,362q-6-47-6-87q0-102 38.5-155.5T368,66q55,0 111,28t109,80.5t100,126T771,466l64,529h94L809,0H765q-19,0-27.5,10T729,37l30,283q-41-79-90.5-141T564.5,74.5T452,9.5T336-13Q225-13 169.5,60.5T114,270q0,9 0.5,19.5t3,36T125,396t14,122.5T161.5,712T195,995h94Z" />
      <glyph unicode="v" glyph-name="v" horiz-adv-x="903" d="M83,995h73q14,0 21.5-7.5T187,971L390,186q4-23 6.5-45T401,96q13,42 34,90L832,971q5,11 14.5,17.5T867,995h71L428,0H350L83,995Z" />
      <glyph unicode="w" glyph-name="w" horiz-adv-x="1363" d="M86,995h67q25,0 30-24L317,186q4-22 4.5-42.5T322,103q8,20 16,40.5T355,186L697,978q8,22 30,22h36q22,0 25-22L935,186q5-23 6.5-44t3.5-42q6,21 13,42t17,44l326,785q5,11 13.5,17.5T1334,995h66L974,0H906q-15,0-19,21L734,829q-5,25-5,46q-7-22-18-46L359,21Q351,0 335,0H269L86,995Z" />
      <glyph unicode="x" glyph-name="x" horiz-adv-x="854" d="M371,532L120,995h80q13,0 19-3.5T230,980L439,582q7,15 16,27L743,978q7,8 12.5,12.5T770,995h84L489,531L768,0H688q-13,0-20.5,5.5T655,22L420,478q-6-15-15-27L71,20Q64,12 56.5,6T37,0H-43L371,532Z" />
      <glyph unicode="y" glyph-name="y" horiz-adv-x="903" d="M251-324q-14-28-41-28H143L353,37L86,995h74q14,0 20.5-6.5T190,971L400,197q4-15 5.5-30t3.5-30q6,15 12.5,30.5T436,197L837,974q5,11 14,16t18,5h73L251-324Z" />
      <glyph unicode="z" glyph-name="z" horiz-adv-x="838" d="M822,955q-3-20-18-38L133,75H692L683,0H9l4,38q1,8 6,18T32,75L705,920H151l10,75H828l-6-40Z" />
      <glyph unicode="{" glyph-name="braceleft" horiz-adv-x="552" d="M196,467q0,57-34,93.5T71,597l7,59q74,0 120,58t46,177q0,60-7,129.5T230,1150q0,85 21.5,152.5t60.5,115t94.5,73T531,1516h51l-4-40q-2-11-11-16.5t-17-5.5H521q-58,0-98-25.5T358.5,1360t-35-98T313,1149q0-66 4.5-132T322,889q0-45-8-87t-27.5-77t-51-60.5T158,626q24-6 45-19.5t36.5-34t25-47T274,467q0-61-17-120T219.5,228.5T182,107.5T165-19q0-41 11-74t30.5-57T254-187t63-13h31q7,0 14-5t7-15q0,0 0-1t-0.5-5.5t-1.5-13T364-263H313q-56,0-98.5,18.5T143-193T99-115.5T84-19q0,68 17.5,129.5t38.5,120T178.5,347T196,467Z" />
      <glyph unicode="|" glyph-name="bar" horiz-adv-x="600" d="M202,1517h75V-352H202V1517Z" />
      <glyph unicode="}" glyph-name="braceright" horiz-adv-x="552" d="M389,786q0-57 34-93.5T514,656l-7-59q-74,0-120-58T341,362q0-60 7-129.5T355,103q0-85-21.5-152.5T273-164.5t-94.5-73T54-263H3l4,40q2,11 11,16.5T35-201H64q58,0 98,25.5T226.5-107t35,97.5T272,104q0,66-4.5,132T263,364q0,45 8,87t27.5,77T349,588.5T427,627q-24,6-45,19.5T345.5,680t-25,47T311,786q0,61 17,120t37.5,118.5t37.5,121T420,1272q0,40-11,73.5T378.5,1403t-48,37T268,1453H237q-7,0-14,5t-7,15q0,0 0,1t0.5,5.5t1.5,13t3,23.5h51q55,0 98-18.5t72-51.5t44-77.5t15-96.5q0-68-17.5-129.5t-38.5-120T406.5,906T389,786Z" />
      <glyph unicode="~" glyph-name="asciitilde" horiz-adv-x="1160" d="M719,567q37,0 67.5,13.5T838,618t32.5,57T882,747h78q0-55-16-102t-46-82t-74-55T724,488q-51,0-104.5,19.5T513.5,551T412,594.5T320,614q-38,0-67.5-13.5T202,563t-32.5-57T157,434H80q0,55 16,102t46,82t73.5,55T315,693q52,0 105.5-19.5T526,630t101-43.5T719,567Z" />
      <glyph unicode="&#xa0;" glyph-name="uni00A0" horiz-adv-x="386" />
      <glyph unicode="&#xa1;" glyph-name="exclamdown" horiz-adv-x="596" d="M171-352l68,550q6,45 11,85t11,81.5T273.5,452T288,554h41q-6-56-10.5-102t-9-87.5t-9-81.5T291,198L224-352H171ZM256,917q0,39 26.5,66.5T348,1011q19,0 36.5-7.5t30-20t20-30T442,917q0-39-27.5-65.5T348,825t-65.5,26.5T256,917Z" />
      <glyph unicode="&#xa2;" glyph-name="cent" horiz-adv-x="1160" d="M529-12Q443-6 374,26T256,113.5t-75,133T155,420q0,129 38,236.5T302,842T474.5,964T704,1010l35,207q2,12 11,21.5t22,9.5h35l-41-240q86-8 151-37.5T1028,896l-27-32q-5-5-10-8t-13-3q-9,0-24,11t-41,25.5t-65,28T753,936L603,59q75,2 129,19t90.5,36.5T880,150t32,16t17-9l21-30q-26-28-63-52.5t-83.5-43T703,1.5T591-12L555-223q-2-13-10.5-21.5T523-253H488L529-12ZM246,425q0-81 20.5-145.5t58.5-111t92.5-74T541,61L691,937q-105-3-187.5-40T364,793.5t-87.5-160T246,425Z" />
      <glyph unicode="&#xa3;" glyph-name="sterling" horiz-adv-x="1160" d="M865,661q-2-12-11-20t-23-8H356L317,311q-5-44-16-79t-28.5-63.5t-41-52T177,73q22,4 42.5,6T263,81h791l-4-39q-2-15-15.5-28.5T1002,0H31l8,64q36,13 66.5,30.5t54,43.5t39,62.5T220,290l42,343H86l4,37q2,11 11,19t23,8H270l36,297q11,93 49,173t99,138.5t144,92T783,1431q80,0 138.5-18.5t99-50T1087,1288t42-91l-40-22q-12-5-21-5q-17,0-28,17q-16,32-35,62t-48.5,53T883,1338.5T774,1352q-78,0-143-26t-113-73.5t-78.5-113T400,995L364,697H869l-4-36Z" />
      <glyph unicode="&#xa4;" glyph-name="currency" horiz-adv-x="1160" d="M277,671q0,62 20,116.5T352,887L198,1041l50,50L401,936q45,37 100,58t118,21q62,0 117-20.5T836,938l154,154l49-50L885,889q37-45 57.5-100T963,671q0-62-20.5-116.5T887,455l153-154l-49-50L837,405q-45-36-100-56.5T619,328q-62,0-116.5,20T404,404L249,250l-49,50L354,454q-36,45-56.5,99.5T277,671Zm72,0q0-56 21.5-105t58-85.5t85.5-58T619,401q57,0 106.5,21.5t86.5,58T870.5,566T892,671T870.5,776.5T812,863t-86.5,58.5T619,943q-56,0-105-21.5T428.5,863t-58-86.5T349,671Z" />
      <glyph unicode="&#xa5;" glyph-name="yen" horiz-adv-x="1160" d="M176,616H523L200,1415h77q25,0 34-25L577,722q8-20 11.5-37.5T594,650q7,17 14,34.5T628,722l430,668q7,11 17,18t24,7h78L656,616h347l-7-57H629L614,441H981l-6-56H608L561,0H468l47,385H148l7,56H521l15,118H170l6,57Z" />
      <glyph unicode="&#xa6;" glyph-name="brokenbar" horiz-adv-x="600" d="M202,1517h75V739H202v778Zm0-1092h75V-352H202V425Z" />
      <glyph unicode="&#xa7;" glyph-name="section" horiz-adv-x="922" d="M843,1292q-9-13-23-13q-11,0-25.5,12.5t-39,28t-61,28T603,1360q-54,0-99.5-17.5T425,1296t-51.5-68T355,1147q0-41 20-72t53-56.5T503.5,971T590,926.5t86.5-48t75.5-58T805,747t20-96q0-94-47-163T638,381q40-34 65-76.5T728,203q0-68-25-128.5T631.5-32t-114-72.5T366-131q-97,0-163.5,33T88-11l26,34q10,15 29,15q12,0 27.5-16T212-12.5T278-47T380-63T491-43.5t83,53t52,78T644,182q0,61-36.5,102.5t-91,73.5T398,419T279.5,483.5t-91,84T152,687q0,85 50,154T365,951q-42,33-68,76t-26,105q0,59 25,113t70,95t107.5,65.5T612,1430q83,0 144.5-26T866,1325l-23-33ZM236,710q0-38 16.5-68T297,587t64.5-46.5T438,499t81-41.5T596,412q78,38 111.5,91.5T741,626q0,40-15,71.5t-40,57T627.5,801T557,841t-75,38t-73,41q-96-43-134.5-94.5T236,710Z" />
      <glyph unicode="&#xa8;" glyph-name="dieresis" horiz-adv-x="540" d="M283,1306q0-16-7-30.5T257.5,1250T231,1232.5t-31-6.5q-17,0-31.5,6.5t-26,17.5t-18,25.5T118,1306q0,17 6.5,32t18,26.5t26,18T200,1389q16,0 31-6.5t26.5-18T276,1338t7-32Zm342,0q0-16-7-30.5T600,1250t-26-17.5t-31-6.5q-17,0-32,6.5T485,1250t-17.5,25.5T461,1306q0,34 24,58.5t58,24.5q16,0 31-6.5t26-18t18-26.5t7-32Z" />
      <glyph unicode="&#xa9;" glyph-name="copyright" horiz-adv-x="1613" d="M1113,421q2,2 5.5,4t6.5,2q5,0 8-2t4-3l34-35q-59-59-139-94T836,258q-96,0-176,32.5T522.5,382T433,524T401,709q0,100 33.5,183t93,142.5T670,1127t182,33q52,0 95.5-7.5t80.5-22t69.5-35T1160,1048l-23-33q-7-11-21-11q-9,0-25.5,13t-46,28.5t-75,28.5T856,1087q-83,0-151-26.5T588.5,985t-75-119T487,709q0-90 26.5-160t74-118.5t112-74T840,331q60,0 103,9.5t74.5,23t54,29T1113,421ZM107,708q0,99 26,191.5T206,1072t113,146t146,113t172,73t192,26q99,0 191.5-26t172.5-73t146-113t113-146t73-172.5T1551,708q0-100-26-192t-73-172T1339,198T1193,85T1020.5,12T829-14T637.5,12T465,85T319,198T206,344T133,516T107,708Zm60,0q0-139 51.5-260.5T360,235.5T570.5,93T829,41q92,0 177,23.5t159,67t134.5,104t104,134.5t67,159.5T1494,708q0,139-52,260.5T1299.5,1181T1088,1324.5T829,1377t-258.5-52.5T360,1181T218.5,968.5T167,708Z" />
      <glyph unicode="&#xaa;" glyph-name="ordfeminine" horiz-adv-x="619" d="M533,839q-11,0-17,3.5T510,857v68q-52-46-101.5-70.5T293,830q-28,0-53,8t-44,23.5t-30,40T155,959q0,42 20.5,78t66,63.5t118,44T535,1163q3,24 5,39.5t3,25t1,15t0,9.5q0,119-111,119q-39,0-67-11t-48.5-24t-34-24T260,1301q-8,0-13,4t-7,9l-9,23q49,47 101.5,69.5T448,1429q42,0 73-14t51.5-38.5t30-57T612,1251q0-3 0-7.5t-1.5-18T606,1186t-8.5-70.5t-13.5-112T564,839H533ZM318,881q61,0 106.5,26.5T513,975l16,139q-160-5-233-42.5T223,968q0-46 28.5-66.5T318,881Z" />
      <glyph unicode="&#xab;" glyph-name="guillemotleft" horiz-adv-x="818" d="M146,513l2,12L417,903l28-14q13-8 13-21q0-12-11-26L245,547q-17-21-26-28q9-8 18-28L368,196q5-12 5-19q0-19-19-28l-32-15L146,513Zm237,0l2,12L654,903l28-14q13-8 13-21q0-12-11-26L482,547q-17-21-26-28q9-8 18-28L605,196q5-12 5-19q0-19-19-28l-32-15L383,513Z" />
      <glyph unicode="&#xac;" glyph-name="logicalnot" horiz-adv-x="1160" d="M192,706h828L974,340H895l36,295H184l8,71Z" />
      <glyph unicode="&#xad;" glyph-name="uni00AD" horiz-adv-x="612" d="M110,632H538l-9-78H99l11,78Z" />
      <glyph unicode="&#xae;" glyph-name="registered" horiz-adv-x="1613" d="M113,708q0,99 26,191.5T212,1072t113,146t146,113t172,73t192,26t192-26t172-73t146-113t113-146t73-172.5T1557,708q0-100-26-192t-73-172T1345,198T1199,85T1026.5,12T835-14T643.5,12T471,85T325,198T212,344T139,516T113,708Zm60,0q0-139 51.5-260.5T366,235.5T576.5,93T835,41q92,0 177,23.5t159,67t134.5,104t104,134.5t67,159.5T1500,708q0,139-52,260.5T1305.5,1181T1094,1324.5T835,1377t-258.5-52.5T366,1181T224.5,968.5T173,708Zm479-51V266H567v885H814q154,0 232-57.5T1124,918q0-100-64-164T878,674q12-7 21-17t19-23l285-368h-79q-19,0-31,16L822,633q-8,11-20,17.5T762,657H652Zm0,64H800q121,0 180.5,48.5T1040,909q0,92-53.5,134T814,1085H652V721Z" />
      <glyph unicode="&#xaf;" glyph-name="macron" horiz-adv-x="540" d="M121,1316H625l-8-64H114l7,64Z" />
      <glyph unicode="&#xb0;" glyph-name="degree" horiz-adv-x="759" d="M161,1134q0,62 24,116.5t64.5,95t95,63.5T461,1432q63,0 118-23t95.5-63.5t64-95T762,1134t-23.5-116t-64-94.5t-95.5-64T461,836q-62,0-116.5,23.5t-95,64T185,1018t-24,116Zm69,0q0-48 18-90t49-73t73.5-49T461,904t90,18t72.5,49t48.5,73t18,90t-18,90t-48.5,73.5T551,1347t-90,18t-90.5-18T297,1297.5T248,1224t-18-90Z" />
      <glyph unicode="&#xb1;" glyph-name="plusminus" horiz-adv-x="1160" d="M697,1151L647,745h433l-9-71H638L589,270H513l49,404H133l8,71H571l50,406h76ZM68,151h938l-8-71H60l8,71Z" />
      <glyph unicode="&#xb2;" glyph-name="twosuperior" horiz-adv-x="662" d="M476,1622q40,0 74.5-11t60-33t39.5-53.5t14-73.5q0-45-15.5-83t-41-72t-59-65.5T478,1166L243,954q19,5 39,7.5t39,2.5H599q22,0 22-20q0-2-1-9t-2-15l-2-20H143l2,24q2,16 17,30l266,237q34,31 64.5,60.5T545,1312t35,63t13,68q0,31-10,53.5T555.5,1534t-41,22.5T465,1564q-57,0-102-33t-68-94q-4-11-11-15t-18-4q-6,0-9,1l-36,6q25,96 93.5,146.5T476,1622Z" />
      <glyph unicode="&#xb3;" glyph-name="threesuperior" horiz-adv-x="662" d="M494,1622q40,0 74-11t59-31.5t39-50.5t14-68q0-75-42.5-122.5T526,1272q64-15 96.5-52.5T655,1125q0-53-21.5-95.5T576,956t-83-47.5T395,892q-60,0-99,15t-63.5,40.5t-37,59T176,1076l32,13q9,3 17,3q20,0 24-22q2-12 8.5-32T280,998.5t44.5-34T399,950q44,0 78.5,15t58,39t36,53.5T584,1117q0,28-9.5,50.5t-31,39T488,1232t-82,9l6,50q97,2 147.5,43T610,1447q0,30-10,51.5t-27,36T533,1556t-50,7q-63,0-105-33t-65-92q-9-20-26-20q-6,0-9,1l-36,6q12,48 36.5,84.5T336,1571t73,38t85,13Z" />
      <glyph unicode="&#xb4;" glyph-name="acute" horiz-adv-x="540" d="M596,1431L364,1177q-15-16-37-16H272l173,238q13,17 25,24.5t35,7.5h91Z" />
      <glyph unicode="&#xb5;" glyph-name="mu" horiz-adv-x="997" d="M280,995L198,326q-1-5-1-12t0-26q0-109 49.5-169.5T402,58q88,0 170,49T726,244l93,751h91L788,0H737q-25,0-25,23q0,0 0.5,4.5t1,20t2.5,45t5,80.5Q646,85 563.5,39.5T388-6Q300-6 245,31T164,136q-2-42-5.5-83T150-23L110-352H64q-16,0-27,9.5T26-312L188,995h92Z" />
      <glyph unicode="&#xb6;" glyph-name="paragraph" horiz-adv-x="1264" d="M1332,1415l-9-82H1097L910-190H825l187,1523H684L497-190H411L520,699q-92,0-165.5,22.5T229,785.5t-80,101T121,1021q0,86 34.5,158T254,1303.5t154,82T608,1415h724Z" />
      <glyph unicode="&#xb7;" glyph-name="periodcentered" horiz-adv-x="532" d="M192,592q0,21 8,40t21.5,33T253,687t38,8q21,0 40-8t33-22t22-33t8-40q0-20-8-38.5t-22-32T331,500t-40-8q-20,0-38,8t-31.5,21.5t-21.5,32T192,592Z" />
      <glyph unicode="&#xb8;" glyph-name="cedilla" horiz-adv-x="540" d="M52-274q5,0 12.5-5.5t19-12t29-12T156-309q51,0 80,25t29,67q0,22-11,37t-31,25t-48,15.5T113-129L169,5h58L188-92q74-14 113-41.5T340-212q0-33-14.5-59.5t-39.5-45T226.5-345T152-355q-38,0-72,11.5T23-312l13,27q8,11 16,11Z" />
      <glyph unicode="&#xb9;" glyph-name="onesuperior" horiz-adv-x="662" d="M248,953H406l67,538l8,37L321,1401q-8-6-16-6q-13,0-18,8l-18,31l233,183h57L477,953H620l-6-53H241l7,53Z" />
      <glyph unicode="&#xba;" glyph-name="ordmasculine" horiz-adv-x="689" d="M460,1429q55,0 97.5-18t72-51.5t45-80T690,1176q0-79-21.5-143.5t-61-110T512,852T387,827q-56,0-99,18t-72.5,51t-45,79.5T155,1079q0,79 21.5,143.5t61,110.5t96,71T460,1429ZM394,883q55,0 97,21t70,59.5t42.5,92.5T618,1176q0,89-41,142.5T454,1372q-58,0-100.5-21.5T283,1290t-41.5-93T228,1078q0-89 41-142t125-53Z" />
      <glyph unicode="&#xbb;" glyph-name="guillemotright" horiz-adv-x="818" d="M168,134l-27,15q-14,8-14,21q0,12 9,26L341,491q12,19 23,28q-8,6-17,28L215,842q-4,8-4,16q0,21 20,31l31,14L437,525l-1-12L168,134Zm237,0l-27,15q-14,8-14,21q0,12 9,26L578,491q12,19 23,28q-8,6-17,28L452,842q-4,8-4,16q0,21 20,31l31,14L674,525l-1-12L405,134Z" />
      <glyph unicode="&#xbc;" glyph-name="onequarter" horiz-adv-x="1475" d="M1249,251h127l-3-39q-2-16-20-16H1243L1219,0h-61l24,196H856q-23,0-23,16l-2,34l410,468h65l-57-463ZM419,31Q407,12 393,6T362,0H324l907,1380q22,35 58,35h40L419,31ZM220,754H378l67,538l8,37L304,1210q-12-10-18-12t-10-2q-12,0-17,8l-18,31l233,183h57L449,754H592l-6-53H213l7,53ZM1230,585q2,12 4,25.5t6,28.5L904,251h285l41,334Z" />
      <glyph unicode="&#xbd;" glyph-name="onehalf" horiz-adv-x="1475" d="M375,31Q363,12 349,6T318,0H280l907,1380q22,35 58,35h40L375,31Zm789,691q40,0 74.5-11t60-33t39.5-53.5t14-73.5q0-45-15.5-83t-41-72t-59-65.5T1166,266L931,54q19,5 39,7.5t39,2.5h278q22,0 22-19q0-1 0-3t-1-10l-4-32H831l2,24q2,7 5.5,15T850,54l266,237q34,31 64.5,60.5T1233,412t35,63t13,68q0,31-10,53.5T1243.5,634t-41,22.5T1153,664q-62,0-106-35t-64-92q-7-18-28-18q-2,0-8,0t-14,2l-24,4q25,96 93.5,146.5T1164,722ZM220,754H378l67,538l8,37L304,1210q-12-10-18-12t-10-2q-12,0-17,8l-18,31l233,183h57L449,754H592l-6-53H213l7,53Z" />
      <glyph unicode="&#xbe;" glyph-name="threequarters" horiz-adv-x="1475" d="M1267,251h127l-3-39q-2-8-6.5-12t-13.5-4H1261L1237,0h-61l24,196H874q-23,0-23,16l-2,34l410,468h65l-57-463ZM445,31Q433,12 419,6T388,0H350l907,1380q22,35 58,35h40L445,31Zm37,1392q40,0 74-11t59-31.5t39-50.5t14-68q0-75-42.5-122.5T514,1073q64-15 96.5-52.5T643,926q0-53-21.5-95.5T564,757t-83-47.5T383,693q-60,0-99,15t-63.5,40.5t-37,59T164,877l32,13q9,3 17,3t14-3.5t8-11.5q5-22 13.5-44.5t25.5-41t44-30T387,751q44,0 78.5,15t58,39t36,53.5T572,918q0,28-9.5,50.5t-31,39T476,1033t-82,9l6,50q97,2 147.5,43T598,1248q0,30-10,51.5t-27,36T521,1357t-50,7q-63,0-106-34.5T301,1239q-9-20-25-20q-2,0-5.5,0t-12.5,2l-28,5q12,48 36.5,84.5T324,1372t73,38t85,13Zm766-838q2,12 4,25.5t6,28.5L922,251h285l41,334Z" />
      <glyph unicode="&#xbf;" glyph-name="questiondown" horiz-adv-x="685" d="M571-224q-29-27-63-52.5t-74-45t-86-31T250-364q-59,0-110.5,18.5T50-293T-9.5-210T-31-99Q-31-17-6.5,41t62,99.5t82.5,72T223,270t69.5,55T329,390l32,164h62L408,383q-4-43-31-74.5t-65.5-60t-82.5-57t-81.5-66t-62-88T61-84q0-48 16.5-86T122-234.5t65.5-40T266-288q61,0 107.5,18T453-231t52.5,39T532-174q8,0 12-3.5t7-8.5l20-38ZM343,918q0,19 7,36t19.5,29.5t29,20T435,1011q19,0 36-7.5t29.5-20t20-29.5t7.5-36q0-20-7.5-36.5t-20-29T471,833t-36-7q-39,0-65.5,26.5T343,918Z" />
      <glyph unicode="&#xc0;" glyph-name="Agrave" horiz-adv-x="1180" d="M1112,0h-76q-14,0-22.5,7.5T1002,26L901,440H267L65,26Q60,15 49,7.5T24,0H-52L655,1415h98L1112,0ZM303,513H884L709,1233q-5,17-9.5,38t-7.5,44q-2-6-7.5-18.5T673,1271t-11-24t-7-15L303,513ZM551,1770q23,0 33.5-4.5T606,1748l183-206H716q-12,0-19,3.5T681,1557L443,1770H551Z" />
      <glyph unicode="&#xc1;" glyph-name="Aacute" horiz-adv-x="1180" d="M1112,0h-76q-14,0-22.5,7.5T1002,26L901,440H267L65,26Q60,15 49,7.5T24,0H-52L655,1415h98L1112,0ZM303,513H884L709,1233q-5,17-9.5,38t-7.5,44q-2-6-7.5-18.5T673,1271t-11-24t-7-15L303,513Zm728,1257L740,1557q-11-8-19-11.5t-20-3.5H628l234,206q14,13 25.5,17.5T922,1770h109Z" />
      <glyph unicode="&#xc2;" glyph-name="Acircumflex" horiz-adv-x="1180" d="M1112,0h-76q-14,0-22.5,7.5T1002,26L901,440H267L65,26Q60,15 49,7.5T24,0H-52L655,1415h98L1112,0ZM303,513H884L709,1233q-5,17-9.5,38t-7.5,44q-2-6-7.5-18.5T673,1271t-11-24t-7-15L303,513ZM970,1542H899q-7,0-15.5,2.5T870,1552L736,1683q-2,2-4,4t-3,4q-3-5-8-8L554,1552q-7-5-16-7.5t-17-2.5H450l241,199h87l192-199Z" />
      <glyph unicode="&#xc3;" glyph-name="Atilde" horiz-adv-x="1180" d="M1112,0h-76q-14,0-22.5,7.5T1002,26L901,440H267L65,26Q60,15 49,7.5T24,0H-52L655,1415h98L1112,0ZM303,513H884L709,1233q-5,17-9.5,38t-7.5,44q-2-6-7.5-18.5T673,1271t-11-24t-7-15L303,513ZM838,1615q38,0 61.5,27.5T930,1713h52q-5-34-16.5-64T935,1597t-45-34.5T832,1550q-31,0-56.5,16t-49,35t-46,35T634,1652q-38,0-61.5-28.5T543,1553H488q4,34 16.5,64t32,52t45.5,34.5t58,12.5q31,0 57-16t49-34.5t45.5-34.5t46.5-16Z" />
      <glyph unicode="&#xc4;" glyph-name="Adieresis" horiz-adv-x="1180" d="M1112,0h-76q-14,0-22.5,7.5T1002,26L901,440H267L65,26Q60,15 49,7.5T24,0H-52L655,1415h98L1112,0ZM303,513H884L709,1233q-5,17-9.5,38t-7.5,44q-2-6-7.5-18.5T673,1271t-11-24t-7-15L303,513ZM628,1665q0-31-23.5-53T550,1590q-30,0-53,22t-23,53q0,32 23,54.5t53,22.5q31,0 54.5-22.5T628,1665Zm335,0q0-31-23-53t-54-22t-53.5,22T810,1665q0,32 22.5,54.5T886,1742t54-22.5t23-54.5Z" />
      <glyph unicode="&#xc5;" glyph-name="Aring" horiz-adv-x="1180" d="M1112,0h-76q-14,0-22.5,7.5T1002,26L901,440H267L65,26Q60,15 49,7.5T24,0H-52L655,1415h98L1112,0ZM303,513H884L709,1233q-5,17-9.5,38t-7.5,44q-2-6-7.5-18.5T673,1271t-11-24t-7-15L303,513ZM547,1630q0,34 13.5,63.5t36,50.5t52.5,33t64,12t65-12t53.5-33t36-50.5T881,1630q0-35-13.5-64t-36-50T778,1483.5T713,1472t-64,11.5T596.5,1516t-36,50T547,1630Zm53,0q0-50 31.5-82t82.5-32q50,0 82,32t32,82t-32,82t-82,32q-51,0-82.5-32T600,1630Z" />
      <glyph unicode="&#xc6;" glyph-name="AE" horiz-adv-x="1698" d="M1687,1333H936V756h566l-11-80H936V82h599L1523,0H843V440H298L40,26Q33,15 22,7.5T-3,0H-80L807,1415h890l-10-82ZM343,513H843v821q-10-25-21-46.5T799,1245L343,513Z" />
      <glyph unicode="&#xc7;" glyph-name="Ccedilla" horiz-adv-x="1267" d="M520-274q5,0 12.5-5.5t19-12t29-12T624-309q51,0 80,25t29,67q0,22-11,37t-31,25t-48,15.5T581-129L628-15Q514-9 422,38T265.5,165T166,355T131,598q0,185 56,338.5T341.5,1200t232,170.5T862,1431q73,0 131-11.5t106.5-33.5t89-55t78.5-75l-31-40q-11-12-27-12q-12,0-32.5,22t-59.5,48.5T1015.5,1323T857,1345q-132,0-246-52T413,1145T280.5,912T232,605q0-124 33-223.5t92-169T498.5,106T679,69q73,0 131,12.5t103,31t77.5,40t55.5,40t37.5,31T1106,236q9,0 13-6l35-42q-45-45-95-81.5t-107.5-63T828,1.5T686-16L656-92q74-14 113-41.5T808-212q0-33-14.5-59.5t-39.5-45T694.5-345T620-355q-38,0-72,11.5T491-312l13,27q8,11 16,11Z" />
      <glyph unicode="&#xc8;" glyph-name="Egrave" horiz-adv-x="1087" d="M1076,1333H395L324,757H891l-11-80H314L241,82H925L914,0H131L305,1415h782l-11-82ZM558,1770q23,0 33.5-4.5T613,1748l183-206H723q-12,0-19,3.5T688,1557L450,1770H558Z" />
      <glyph unicode="&#xc9;" glyph-name="Eacute" horiz-adv-x="1087" d="M1076,1333H395L324,757H891l-11-80H314L241,82H925L914,0H131L305,1415h782l-11-82Zm-46,437L739,1557q-11-8-19-11.5t-20-3.5H627l234,206q14,13 25.5,17.5T921,1770h109Z" />
      <glyph unicode="&#xca;" glyph-name="Ecircumflex" horiz-adv-x="1087" d="M1076,1333H395L324,757H891l-11-80H314L241,82H925L914,0H131L305,1415h782l-11-82Zm-99,209H906q-7,0-15.5,2.5T877,1552L743,1683q-2,2-4,4t-3,4q-3-5-8-8L561,1552q-7-5-16-7.5t-17-2.5H457l241,199h87l192-199Z" />
      <glyph unicode="&#xcb;" glyph-name="Edieresis" horiz-adv-x="1087" d="M1076,1333H395L324,757H891l-11-80H314L241,82H925L914,0H131L305,1415h782l-11-82ZM635,1665q0-31-23.5-53T557,1590q-30,0-53,22t-23,53q0,32 23,54.5t53,22.5q31,0 54.5-22.5T635,1665Zm335,0q0-31-23-53t-54-22t-53.5,22T817,1665q0,32 22.5,54.5T893,1742t54-22.5t23-54.5Z" />
      <glyph unicode="&#xcc;" glyph-name="Igrave" horiz-adv-x="550" d="M265,0H165L338,1415H438L265,0ZM237,1770q23,0 33.5-4.5T292,1748l183-206H402q-12,0-19,3.5T367,1557L129,1770H237Z" />
      <glyph unicode="&#xcd;" glyph-name="Iacute" horiz-adv-x="550" d="M265,0H165L338,1415H438L265,0ZM709,1770L418,1557q-11-8-19-11.5t-20-3.5H306l234,206q14,13 25.5,17.5T600,1770H709Z" />
      <glyph unicode="&#xce;" glyph-name="Icircumflex" horiz-adv-x="550" d="M265,0H165L338,1415H438L265,0ZM656,1542H585q-7,0-15.5,2.5T556,1552L422,1683q-2,2-4,4t-3,4q-3-5-8-8L240,1552q-7-5-16-7.5t-17-2.5H136l241,199h87l192-199Z" />
      <glyph unicode="&#xcf;" glyph-name="Idieresis" horiz-adv-x="550" d="M265,0H165L338,1415H438L265,0Zm49,1665q0-31-23.5-53T236,1590q-30,0-53,22t-23,53q0,32 23,54.5t53,22.5q31,0 54.5-22.5T314,1665Zm335,0q0-31-23-53t-54-22t-53.5,22T496,1665q0,32 22.5,54.5T572,1742t54-22.5t23-54.5Z" />
      <glyph unicode="&#xd0;" glyph-name="Eth" horiz-adv-x="1449" d="M77,748H275l82,667H833q125,0 225.5-42.5t171-120.5T1338,1063t38-248q0-187-54-338T1172,220T944.5,57T659,0H183l84,686H69l8,62Zm1196,65q0,121-31.5,218t-90,164t-142,103T823,1334H446L374,748H745l-7-62H367L293,81H669q132,0 242.5,49.5t191,143.5T1228,504t45,309Z" />
      <glyph unicode="&#xd1;" glyph-name="Ntilde" horiz-adv-x="1390" d="M354,1415q14,0 20.5-3.5T388,1396L1074,164q1,14 1.5,26.5T1078,214l148,1201h87L1139,0h-46q-25,0-37,22L369,1254l-3-45L218,0H131L305,1415h49Zm590,200q38,0 61.5,27.5T1036,1713h52q-5-34-16.5-64t-30.5-52t-45-34.5T938,1550q-31,0-56.5,16t-49,35t-46,35T740,1652q-38,0-61.5-28.5T649,1553H594q4,34 16.5,64t32,52t45.5,34.5t58,12.5q31,0 57-16t49-34.5t45.5-34.5t46.5-16Z" />
      <glyph unicode="&#xd2;" glyph-name="Ograve" horiz-adv-x="1465" d="M1393,816q0-187-54.5-340T1187,214T958,45T672-15Q548-15 448,29.5T277.5,155T169,349T131,599q0,186 55,339.5t151.5,263t228,169.5T850,1431q125,0 225.5-44.5t171-125.5T1355,1066.5T1393,816Zm-103-2q0,123-31.5,221.5t-90.5,168t-142.5,107T839,1348q-130,0-241-52T405.5,1147T278,912T232,602q0-123 32-221.5T355,213T497,106.5T683,69q132,0 243,51.5T1118,269t126.5,234.5T1290,814ZM691,1770q23,0 33.5-4.5T746,1748l183-206H856q-12,0-19,3.5T821,1557L583,1770H691Z" />
      <glyph unicode="&#xd3;" glyph-name="Oacute" horiz-adv-x="1465" d="M1393,816q0-187-54.5-340T1187,214T958,45T672-15Q548-15 448,29.5T277.5,155T169,349T131,599q0,186 55,339.5t151.5,263t228,169.5T850,1431q125,0 225.5-44.5t171-125.5T1355,1066.5T1393,816Zm-103-2q0,123-31.5,221.5t-90.5,168t-142.5,107T839,1348q-130,0-241-52T405.5,1147T278,912T232,602q0-123 32-221.5T355,213T497,106.5T683,69q132,0 243,51.5T1118,269t126.5,234.5T1290,814Zm-127,956L872,1557q-11-8-19-11.5t-20-3.5H760l234,206q14,13 25.5,17.5t34.5,4.5h109Z" />
      <glyph unicode="&#xd4;" glyph-name="Ocircumflex" horiz-adv-x="1465" d="M1393,816q0-187-54.5-340T1187,214T958,45T672-15Q548-15 448,29.5T277.5,155T169,349T131,599q0,186 55,339.5t151.5,263t228,169.5T850,1431q125,0 225.5-44.5t171-125.5T1355,1066.5T1393,816Zm-103-2q0,123-31.5,221.5t-90.5,168t-142.5,107T839,1348q-130,0-241-52T405.5,1147T278,912T232,602q0-123 32-221.5T355,213T497,106.5T683,69q132,0 243,51.5T1118,269t126.5,234.5T1290,814Zm-180,728h-71q-7,0-15.5,2.5T1010,1552L876,1683q-2,2-4,4t-3,4q-3-5-8-8L694,1552q-7-5-16-7.5t-17-2.5H590l241,199h87l192-199Z" />
      <glyph unicode="&#xd5;" glyph-name="Otilde" horiz-adv-x="1465" d="M1393,816q0-187-54.5-340T1187,214T958,45T672-15Q548-15 448,29.5T277.5,155T169,349T131,599q0,186 55,339.5t151.5,263t228,169.5T850,1431q125,0 225.5-44.5t171-125.5T1355,1066.5T1393,816Zm-103-2q0,123-31.5,221.5t-90.5,168t-142.5,107T839,1348q-130,0-241-52T405.5,1147T278,912T232,602q0-123 32-221.5T355,213T497,106.5T683,69q132,0 243,51.5T1118,269t126.5,234.5T1290,814ZM978,1615q38,0 61.5,27.5T1070,1713h52q-5-34-16.5-64t-30.5-52t-45-34.5T972,1550q-31,0-56.5,16t-49,35t-46,35T774,1652q-38,0-61.5-28.5T683,1553H628q4,34 16.5,64t32,52t45.5,34.5t58,12.5q31,0 57-16t49-34.5t45.5-34.5t46.5-16Z" />
      <glyph unicode="&#xd6;" glyph-name="Odieresis" horiz-adv-x="1465" d="M1393,816q0-187-54.5-340T1187,214T958,45T672-15Q548-15 448,29.5T277.5,155T169,349T131,599q0,186 55,339.5t151.5,263t228,169.5T850,1431q125,0 225.5-44.5t171-125.5T1355,1066.5T1393,816Zm-103-2q0,123-31.5,221.5t-90.5,168t-142.5,107T839,1348q-130,0-241-52T405.5,1147T278,912T232,602q0-123 32-221.5T355,213T497,106.5T683,69q132,0 243,51.5T1118,269t126.5,234.5T1290,814ZM768,1665q0-31-23.5-53T690,1590q-30,0-53,22t-23,53q0,32 23,54.5t53,22.5q31,0 54.5-22.5T768,1665Zm335,0q0-31-23-53t-54-22t-53.5,22T950,1665q0,32 22.5,54.5T1026,1742t54-22.5t23-54.5Z" />
      <glyph unicode="&#xd7;" glyph-name="multiply" horiz-adv-x="1160" d="M1065,1037L652,670L978,298l-54-51L596,620L174,245l-44,51L551,671L227,1039l57,52L607,721l413,368l45-52Z" />
      <glyph unicode="&#xd8;" glyph-name="Oslash" horiz-adv-x="1464" d="M1393,816q0-187-54.5-340T1187,214T958,45T672-15Q568-15 481.5,16T328,104L184-74q-14-17-31-24t-33-7H79L283,148q-74,81-113,195.5T131,599q0,186 55,339.5t151.5,263t228,169.5T850,1431q109,0 199.5-34.5T1209,1299l122,151q13,17 23,23t29,6h52l-182-226q68-81 104-192t36-245ZM232,602q0-118 29-213t83-164l805,999q-58,60-136,92t-174,32q-130,0-241-52T405.5,1147T278,912T232,602ZM1290,814q0,111-26,201.5T1190,1175L387,178q57-54 131.5-81.5T683,69q132,0 243,51.5T1118,269t126.5,234.5T1290,814Z" />
      <glyph unicode="&#xd9;" glyph-name="Ugrave" horiz-adv-x="1349" d="M623,70q93,0 171,36t136.5,99T1027,354t50,185l107,876h100L1176,539q-15-117-61.5-218.5T994.5,144T824,26T612-17Q509-17 428.5,18.5T292.5,116T208,263.5T179,450q0,44 6,89l107,876H392L284,540q-2-20-3.5-40T279,460q0-84 22.5-155.5t66-123.5T475,99.5T623,70Zm14,1700q23,0 33.5-4.5T692,1748l183-206H802q-12,0-19,3.5T767,1557L529,1770H637Z" />
      <glyph unicode="&#xda;" glyph-name="Uacute" horiz-adv-x="1349" d="M623,70q93,0 171,36t136.5,99T1027,354t50,185l107,876h100L1176,539q-15-117-61.5-218.5T994.5,144T824,26T612-17Q509-17 428.5,18.5T292.5,116T208,263.5T179,450q0,44 6,89l107,876H392L284,540q-2-20-3.5-40T279,460q0-84 22.5-155.5t66-123.5T475,99.5T623,70Zm486,1700L818,1557q-11-8-19-11.5t-20-3.5H706l234,206q14,13 25.5,17.5t34.5,4.5h109Z" />
      <glyph unicode="&#xdb;" glyph-name="Ucircumflex" horiz-adv-x="1349" d="M623,70q93,0 171,36t136.5,99T1027,354t50,185l107,876h100L1176,539q-15-117-61.5-218.5T994.5,144T824,26T612-17Q509-17 428.5,18.5T292.5,116T208,263.5T179,450q0,44 6,89l107,876H392L284,540q-2-20-3.5-40T279,460q0-84 22.5-155.5t66-123.5T475,99.5T623,70Zm433,1472H985q-7,0-15.5,2.5T956,1552L822,1683q-2,2-4,4t-3,4q-3-5-8-8L640,1552q-7-5-16-7.5t-17-2.5H536l241,199h87l192-199Z" />
      <glyph unicode="&#xdc;" glyph-name="Udieresis" horiz-adv-x="1349" d="M623,70q93,0 171,36t136.5,99T1027,354t50,185l107,876h100L1176,539q-15-117-61.5-218.5T994.5,144T824,26T612-17Q509-17 428.5,18.5T292.5,116T208,263.5T179,450q0,44 6,89l107,876H392L284,540q-2-20-3.5-40T279,460q0-84 22.5-155.5t66-123.5T475,99.5T623,70Zm91,1595q0-31-23.5-53T636,1590q-30,0-53,22t-23,53q0,32 23,54.5t53,22.5q31,0 54.5-22.5T714,1665Zm335,0q0-31-23-53t-54-22t-53.5,22T896,1665q0,32 22.5,54.5T972,1742t54-22.5t23-54.5Z" />
      <glyph unicode="&#xdd;" glyph-name="Yacute" horiz-adv-x="1107" d="M615,583L542,0H443l73,584L135,1415h88q14,0 21.5-7t12.5-18L556,722q8-17 12-33.5t7-32.5q8,17 17,33t20,33l464,668q7,11 16,18t23,7h83L615,583ZM997,1770L706,1557q-11-8-19-11.5t-20-3.5H594l234,206q14,13 25.5,17.5T888,1770H997Z" />
      <glyph unicode="&#xde;" glyph-name="Thorn" horiz-adv-x="1094" d="M455,1129H697q207,0 311.5-93T1113,774q0-108-37-197.5t-105.5-154T806,322T593,286H352L317,0H218L391,1415H491l-36-286Zm-9-79L362,366H603q94,0 169.5,30t129,83T984,605t29,159q0,137-81,211.5T686,1050H446Z" />
      <glyph unicode="&#xdf;" glyph-name="germandbls" horiz-adv-x="1024" d="M693,1432q73,0 128-22.5t92-59t55.5-82.5t18.5-92q0-70-26-120t-64.5-88T813,900t-83.5-59T665,779.5T639,704q0-41 23-66.5t57.5-45t75-38.5t75-46.5T927,438t23-108q0-76-27-139.5T848.5,81T735.5,9.5T593-16q-93,0-156,33.5T326,105l25,33q12,15 29,15q12,0 27.5-16t41-34.5T512,68t96-16T713,72t80,54.5t51,81T862,307q0,56-23.5,91T779,457t-77,41.5t-77,40T565.5,594T542,680q0,56 26.5,97t66,74.5t86,64t86,66t66,80.5T899,1170q0,29-11,63t-37,62.5T783,1343t-103,19q-65,0-126.5-33t-111-92t-84-139.5T312,923L200,21L158-209q-4-22-17-31.5T109-250H74L214,892L83,901q-24,1-24,22l4,40H224q18,95 61.5,180.5T391,1293t139,101.5T693,1432Z" />
      <glyph unicode="&#xe0;" glyph-name="agrave" horiz-adv-x="980" d="M766,0H720q-19,0-26.5,9T686,31l33,313q-38-80-83.5-145.5T538.5,86T430,13T312-13q-63,0-110,24.5T123.5,81T76,190T60,334q0,87 22,170.5T144.5,663T241,801T364.5,910T509,982t159,26q60,0 112-10.5T883,961L766,0ZM343,66q57,0 112.5,32T561,188.5t94.5,141T735,512l50,405q-59,20-128,20q-67,0-130-22.5T408.5,852t-102-95T226,636.5T173.5,498T155,349q0-134 45.5-208.5T343,66ZM556,1431q23,0 33-7.5t18-24.5l115-238H669q-21,0-33,16L467,1431h89Z" />
      <glyph unicode="&#xe1;" glyph-name="aacute" horiz-adv-x="980" d="M766,0H720q-19,0-26.5,9T686,31l33,313q-38-80-83.5-145.5T538.5,86T430,13T312-13q-63,0-110,24.5T123.5,81T76,190T60,334q0,87 22,170.5T144.5,663T241,801T364.5,910T509,982t159,26q60,0 112-10.5T883,961L766,0ZM343,66q57,0 112.5,32T561,188.5t94.5,141T735,512l50,405q-59,20-128,20q-67,0-130-22.5T408.5,852t-102-95T226,636.5T173.5,498T155,349q0-134 45.5-208.5T343,66ZM897,1431L665,1177q-15-16-37-16H573l173,238q13,17 25,24.5t35,7.5h91Z" />
      <glyph unicode="&#xe2;" glyph-name="acircumflex" horiz-adv-x="980" d="M766,0H720q-19,0-26.5,9T686,31l33,313q-38-80-83.5-145.5T538.5,86T430,13T312-13q-63,0-110,24.5T123.5,81T76,190T60,334q0,87 22,170.5T144.5,663T241,801T364.5,910T509,982t159,26q60,0 112-10.5T883,961L766,0ZM343,66q57,0 112.5,32T561,188.5t94.5,141T735,512l50,405q-59,20-128,20q-67,0-130-22.5T408.5,852t-102-95T226,636.5T173.5,498T155,349q0-134 45.5-208.5T343,66ZM880,1169H819q-15,0-24,12L672,1345l-8,12l-11-12L489,1181q-5-5-12-8.5t-15-3.5H397l231,246h83l169-246Z" />
      <glyph unicode="&#xe3;" glyph-name="atilde" horiz-adv-x="980" d="M766,0H720q-19,0-26.5,9T686,31l33,313q-38-80-83.5-145.5T538.5,86T430,13T312-13q-63,0-110,24.5T123.5,81T76,190T60,334q0,87 22,170.5T144.5,663T241,801T364.5,910T509,982t159,26q60,0 112-10.5T883,961L766,0ZM343,66q57,0 112.5,32T561,188.5t94.5,141T735,512l50,405q-59,20-128,20q-67,0-130-22.5T408.5,852t-102-95T226,636.5T173.5,498T155,349q0-134 45.5-208.5T343,66ZM758,1279q40,0 63,27.5t30,74.5h57q-4-36-16.5-67T859,1260t-47-36t-59-13q-31,0-55.5,16.5t-47,36.5t-44,36.5T561,1317q-38,0-62-29t-31-74H410q4,36 17.5,67.5t34,54t47,35.5t58.5,13q31,0 56-16.5t47-36t43-36t45-16.5Z" />
      <glyph unicode="&#xe4;" glyph-name="adieresis" horiz-adv-x="980" d="M766,0H720q-19,0-26.5,9T686,31l33,313q-38-80-83.5-145.5T538.5,86T430,13T312-13q-63,0-110,24.5T123.5,81T76,190T60,334q0,87 22,170.5T144.5,663T241,801T364.5,910T509,982t159,26q60,0 112-10.5T883,961L766,0ZM343,66q57,0 112.5,32T561,188.5t94.5,141T735,512l50,405q-59,20-128,20q-67,0-130-22.5T408.5,852t-102-95T226,636.5T173.5,498T155,349q0-134 45.5-208.5T343,66ZM569,1306q0-16-7-30.5T543.5,1250T517,1232.5t-31-6.5q-17,0-31.5,6.5t-26,17.5t-18,25.5T404,1306q0,17 6.5,32t18,26.5t26,18T486,1389q16,0 31-6.5t26.5-18T562,1338t7-32Zm342,0q0-16-7-30.5T886,1250t-26-17.5t-31-6.5q-17,0-32,6.5T771,1250t-17.5,25.5T747,1306q0,34 24,58.5t58,24.5q16,0 31-6.5t26-18t18-26.5t7-32Z" />
      <glyph unicode="&#xe5;" glyph-name="aring" horiz-adv-x="980" d="M766,0H720q-19,0-26.5,9T686,31l33,313q-38-80-83.5-145.5T538.5,86T430,13T312-13q-63,0-110,24.5T123.5,81T76,190T60,334q0,87 22,170.5T144.5,663T241,801T364.5,910T509,982t159,26q60,0 112-10.5T883,961L766,0ZM343,66q57,0 112.5,32T561,188.5t94.5,141T735,512l50,405q-59,20-128,20q-67,0-130-22.5T408.5,852t-102-95T226,636.5T173.5,498T155,349q0-134 45.5-208.5T343,66ZM504,1302q0,36 13.5,66t37,51.5t55,34T676,1466t66.5-12.5t55-34T835,1368t14-66t-14-65.5T797.5,1185t-55-34T676,1139t-66.5,12t-55,34t-37,51.5T504,1302Zm58,0q0-50 32-82t83-32q50,0 82,32t32,82t-32,82t-82,32q-51,0-83-32t-32-82Z" />
      <glyph unicode="&#xe6;" glyph-name="ae" horiz-adv-x="1430" d="M1114,1011q55,0 101.5-16t80.5-45.5t53-70t19-88.5q0-58-31-110t-103-91t-191-63T749,502q-3-41-3-82q0-172 69.5-264.5T1006,63q53,0 95.5,11.5T1178,104t59.5,38t45.5,38t34.5,29.5T1343,221q12,0 21-10l22-26q-48-51-94-88.5t-94-62t-99.5-36T989-13Q873-13 794.5,57.5T687,261q-28-77-73.5-130T515,45.5T406.5-1.5T303-16Q247-16 200.5-2.5T120.5,39t-52,71.5T50,214q0,75 35,137.5t110,108T388,532t284,31l11,85q2,20 3.5,37.5T688,720q0,105-46,160T505,935q-66,0-114.5-20T307,871.5T249,828t-37-20q-21,0-28,18l-12,28q81,78 162.5,118T515,1012q114,0 172-60t69-167q57,106 147.5,166t210.5,60ZM664,501q-138-5-237-24.5t-162.5-54t-94-83.5T140,227q0-46 13-79t37-54.5t57-32T319,51q61,0 116.5,22.5t100,65T610,243t40,142l14,116Zm440,439q-71,0-129-27T872.5,836.5t-74-120T756,560q151,5 252,24.5T1170.5,634t87.5,69t26,84q0,72-49,112.5T1104,940Z" />
      <glyph unicode="&#xe7;" glyph-name="ccedilla" horiz-adv-x="861" d="M272-274q5,0 12.5-5.5t19-12t29-12T376-309q51,0 80,25t29,67q0,22-11,37t-31,25t-48,15.5T333-129L382-12Q303-7 245,24.5t-96.5,84T91,231T72,384q0,79 16.5,156.5T136,688t75,129t99,102t119.5,67.5T567,1011q49,0 88.5-9.5t72.5-27T788,932t50-56l-28-33q-9-11-21-11q-10,0-24.5,16t-39,34.5T662,917t-98,16q-84,0-156.5-45t-126-121t-84-175.5T167,384q0-69 15.5-128t48-102T312,87T428,63q53,0 95,11.5T597.5,103t57,37.5T698,178t32.5,28.5T755,218q13,0 21-10l21-26q-50-55-94-91.5T616,32T530,0T440-12L408-92q74-14 113-41.5T560-212q0-33-14.5-59.5t-39.5-45T446.5-345T372-355q-38,0-72,11.5T243-312l13,27q8,11 16,11Z" />
      <glyph unicode="&#xe8;" glyph-name="egrave" horiz-adv-x="895" d="M838,805q0-41-11-78t-39-70t-76-62.5t-123-54t-179-44T166,462q-2-21-3-41.5T162,380q0-149 67.5-233T433,63q53,0 95.5,11.5t76,29.5t59,38T709,180t34.5,29.5T770,221t21-10l22-26q-49-52-95.5-89.5T623.5,34T525-1.5T416-13q-83,0-147.5,27.5T160,92.5t-67,123T70,378q0,75 15,151t44.5,146t73,131T302,912t124,71t147,26q73,0 123.5-20.5t82-51t45.5-66T838,805ZM568,939q-80,0-144.5-34t-114-90.5t-83-131T177,528q127,14 219,32.5t156,39T655.5,644T717,693.5T746.5,746t7.5,56q0,21-9.5,45.5T713,892t-57.5,33.5T568,939ZM454,1431q23,0 33-7.5t18-24.5l115-238H567q-21,0-33,16L365,1431h89Z" />
      <glyph unicode="&#xe9;" glyph-name="eacute" horiz-adv-x="895" d="M838,805q0-41-11-78t-39-70t-76-62.5t-123-54t-179-44T166,462q-2-21-3-41.5T162,380q0-149 67.5-233T433,63q53,0 95.5,11.5t76,29.5t59,38T709,180t34.5,29.5T770,221t21-10l22-26q-49-52-95.5-89.5T623.5,34T525-1.5T416-13q-83,0-147.5,27.5T160,92.5t-67,123T70,378q0,75 15,151t44.5,146t73,131T302,912t124,71t147,26q73,0 123.5-20.5t82-51t45.5-66T838,805ZM568,939q-80,0-144.5-34t-114-90.5t-83-131T177,528q127,14 219,32.5t156,39T655.5,644T717,693.5T746.5,746t7.5,56q0,21-9.5,45.5T713,892t-57.5,33.5T568,939Zm252,492L588,1177q-15-16-37-16H496l173,238q13,17 25,24.5t35,7.5h91Z" />
      <glyph unicode="&#xea;" glyph-name="ecircumflex" horiz-adv-x="895" d="M838,805q0-41-11-78t-39-70t-76-62.5t-123-54t-179-44T166,462q-2-21-3-41.5T162,380q0-149 67.5-233T433,63q53,0 95.5,11.5t76,29.5t59,38T709,180t34.5,29.5T770,221t21-10l22-26q-49-52-95.5-89.5T623.5,34T525-1.5T416-13q-83,0-147.5,27.5T160,92.5t-67,123T70,378q0,75 15,151t44.5,146t73,131T302,912t124,71t147,26q73,0 123.5-20.5t82-51t45.5-66T838,805ZM568,939q-80,0-144.5-34t-114-90.5t-83-131T177,528q127,14 219,32.5t156,39T655.5,644T717,693.5T746.5,746t7.5,56q0,21-9.5,45.5T713,892t-57.5,33.5T568,939Zm250,230H757q-15,0-24,12L610,1345l-8,12l-11-12L427,1181q-5-5-12-8.5t-15-3.5H335l231,246h83l169-246Z" />
      <glyph unicode="&#xeb;" glyph-name="edieresis" horiz-adv-x="895" d="M838,805q0-41-11-78t-39-70t-76-62.5t-123-54t-179-44T166,462q-2-21-3-41.5T162,380q0-149 67.5-233T433,63q53,0 95.5,11.5t76,29.5t59,38T709,180t34.5,29.5T770,221t21-10l22-26q-49-52-95.5-89.5T623.5,34T525-1.5T416-13q-83,0-147.5,27.5T160,92.5t-67,123T70,378q0,75 15,151t44.5,146t73,131T302,912t124,71t147,26q73,0 123.5-20.5t82-51t45.5-66T838,805ZM568,939q-80,0-144.5-34t-114-90.5t-83-131T177,528q127,14 219,32.5t156,39T655.5,644T717,693.5T746.5,746t7.5,56q0,21-9.5,45.5T713,892t-57.5,33.5T568,939Zm-61,367q0-16-7-30.5T481.5,1250T455,1232.5t-31-6.5q-17,0-31.5,6.5t-26,17.5t-18,25.5T342,1306q0,17 6.5,32t18,26.5t26,18T424,1389q16,0 31-6.5t26.5-18T500,1338t7-32Zm342,0q0-16-7-30.5T824,1250t-26-17.5t-31-6.5q-17,0-32,6.5T709,1250t-17.5,25.5T685,1306q0,34 24,58.5t58,24.5q16,0 31-6.5t26-18t18-26.5t7-32Z" />
      <glyph unicode="&#xec;" glyph-name="igrave" horiz-adv-x="455" d="M334,995L213,0H120L241,995h93ZM186,1431q23,0 33-7.5t18-24.5l115-238H299q-21,0-33,16L97,1431h89Z" />
      <glyph unicode="&#xed;" glyph-name="iacute" horiz-adv-x="455" d="M334,995L213,0H120L241,995h93Zm217,436L319,1177q-15-16-37-16H227l173,238q13,17 25,24.5t35,7.5h91Z" />
      <glyph unicode="&#xee;" glyph-name="icircumflex" horiz-adv-x="455" d="M334,995L213,0H120L241,995h93Zm215,174H488q-15,0-24,12L341,1345l-8,12l-11-12L158,1181q-5-5-12-8.5t-15-3.5H66l231,246h83l169-246Z" />
      <glyph unicode="&#xef;" glyph-name="idieresis" horiz-adv-x="455" d="M334,995L213,0H120L241,995h93Zm-96,311q0-16-7-30.5T212.5,1250T186,1232.5t-31-6.5q-17,0-31.5,6.5t-26,17.5t-18,25.5T73,1306q0,17 6.5,32t18,26.5t26,18T155,1389q16,0 31-6.5t26.5-18T231,1338t7-32Zm342,0q0-16-7-30.5T555,1250t-26-17.5t-31-6.5q-17,0-32,6.5T440,1250t-17.5,25.5T416,1306q0,34 24,58.5t58,24.5q16,0 31-6.5t26-18t18-26.5t7-32Z" />
      <glyph unicode="&#xf0;" glyph-name="eth" horiz-adv-x="990" d="M491,1070q-4,8-4,13q0,9 8,17l140,121q-51,35-110,59t-127,41q-23,6-23,23q0,9 4,17l13,30q81-14 158.5-44.5T695,1265l161,136l16-29q3-6 3-13q0-10-10-19L737,1229q43-40 79-91t62-114t40-138t14-164q0-159-32-293.5T804,196T645.5,43T425-12q-76,0-140.5,28.5T173,97T99.5,223T73,388q0,109 32.5,205.5t93,169.5t146,115.5T535,921q49,0 97-13.5t90-42T798.5,793T855,688q0,8 0.5,16.5T856,721q0,161-46,276T679,1187L508,1041l-17,29ZM435,61q162,0 264,126.5T834,569q-9,51-30.5,101t-57,89.5t-86,64T542,848q-90,0-160.5-36T263,714T190,569.5T165,393q0-77 21-138.5T243,150t85.5-66T435,61Z" />
      <glyph unicode="&#xf1;" glyph-name="ntilde" horiz-adv-x="1024" d="M94,0L214,998h43q34,0 34-36L262,674q41,79 90.5,141.5T457,921.5t113,66T687,1010q111,0 167-73t56-209q0-9-0.5-20.5t-3-36.5T899,600.5t-14-123t-22.5-194T829,0H735l75,636q6,46 6,87q0,101-38.5,154T656,930q-56,0-113-28.5t-110.5-81T332,693.5T249,526L188,0H94ZM730,1281q40,0 63,27.5t30,74.5h57q-4-36-16.5-67T831,1262t-47-36t-59-13q-31,0-55.5,16.5t-47,36.5t-44,36.5T533,1319q-38,0-62-29t-31-74H382q4,36 17.5,67.5t34,54t47,35.5t58.5,13q31,0 56-16.5t47-36t43-36t45-16.5Z" />
      <glyph unicode="&#xf2;" glyph-name="ograve" horiz-adv-x="988" d="M434,62q87,0 158.5,45.5T715,228.5t78.5,173T821,602q0,160-71,247T553,936q-58,0-109-20.5T350,858t-77.5-87.5T214.5,660t-36-127T166,396q0-159 70.5-246.5T434,62Zm-8-75q-80,0-145.5,28t-112,81t-72,128.5T71,396q0,121 36,232.5T208.5,825T364,960.5T562,1011q80,0 145.5-28.5t112-81t72-128.5T917,603q0-121-36.5-232T779,174.5T624,38T426-13Zm25,1446q23,0 33-7.5t18-24.5l115-238H564q-21,0-33,16L362,1433h89Z" />
      <glyph unicode="&#xf3;" glyph-name="oacute" horiz-adv-x="988" d="M434,62q87,0 158.5,45.5T715,228.5t78.5,173T821,602q0,160-71,247T553,936q-58,0-109-20.5T350,858t-77.5-87.5T214.5,660t-36-127T166,396q0-159 70.5-246.5T434,62Zm-8-75q-80,0-145.5,28t-112,81t-72,128.5T71,396q0,121 36,232.5T208.5,825T364,960.5T562,1011q80,0 145.5-28.5t112-81t72-128.5T917,603q0-121-36.5-232T779,174.5T624,38T426-13ZM816,1433L584,1179q-15-16-37-16H492l173,238q13,17 25,24.5t35,7.5h91Z" />
      <glyph unicode="&#xf4;" glyph-name="ocircumflex" horiz-adv-x="988" d="M434,62q87,0 158.5,45.5T715,228.5t78.5,173T821,602q0,160-71,247T553,936q-58,0-109-20.5T350,858t-77.5-87.5T214.5,660t-36-127T166,396q0-159 70.5-246.5T434,62Zm-8-75q-80,0-145.5,28t-112,81t-72,128.5T71,396q0,121 36,232.5T208.5,825T364,960.5T562,1011q80,0 145.5-28.5t112-81t72-128.5T917,603q0-121-36.5-232T779,174.5T624,38T426-13ZM814,1171H753q-15,0-24,12L606,1347l-8,12l-11-12L423,1183q-5-5-12-8.5t-15-3.5H331l231,246h83l169-246Z" />
      <glyph unicode="&#xf5;" glyph-name="otilde" horiz-adv-x="988" d="M434,62q87,0 158.5,45.5T715,228.5t78.5,173T821,602q0,160-71,247T553,936q-58,0-109-20.5T350,858t-77.5-87.5T214.5,660t-36-127T166,396q0-159 70.5-246.5T434,62Zm-8-75q-80,0-145.5,28t-112,81t-72,128.5T71,396q0,121 36,232.5T208.5,825T364,960.5T562,1011q80,0 145.5-28.5t112-81t72-128.5T917,603q0-121-36.5-232T779,174.5T624,38T426-13ZM692,1281q40,0 63,27.5t30,74.5h57q-4-36-16.5-67T793,1262t-47-36t-59-13q-31,0-55.5,16.5t-47,36.5t-44,36.5T495,1319q-38,0-62-29t-31-74H344q4,36 17.5,67.5t34,54t47,35.5t58.5,13q31,0 56-16.5t47-36t43-36t45-16.5Z" />
      <glyph unicode="&#xf6;" glyph-name="odieresis" horiz-adv-x="988" d="M434,62q87,0 158.5,45.5T715,228.5t78.5,173T821,602q0,160-71,247T553,936q-58,0-109-20.5T350,858t-77.5-87.5T214.5,660t-36-127T166,396q0-159 70.5-246.5T434,62Zm-8-75q-80,0-145.5,28t-112,81t-72,128.5T71,396q0,121 36,232.5T208.5,825T364,960.5T562,1011q80,0 145.5-28.5t112-81t72-128.5T917,603q0-121-36.5-232T779,174.5T624,38T426-13Zm77,1321q0-16-7-30.5T477.5,1252T451,1234.5t-31-6.5q-17,0-31.5,6.5t-26,17.5t-18,25.5T338,1308q0,17 6.5,32t18,26.5t26,18T420,1391q16,0 31-6.5t26.5-18T496,1340t7-32Zm342,0q0-16-7-30.5T820,1252t-26-17.5t-31-6.5q-17,0-32,6.5T705,1252t-17.5,25.5T681,1308q0,34 24,58.5t58,24.5q16,0 31-6.5t26-18t18-26.5t7-32Z" />
      <glyph unicode="&#xf7;" glyph-name="divide" horiz-adv-x="1160" d="M137,706h938l-8-71H128l9,71Zm416,308q0,21 8,40t22,33.5t32.5,22.5t39.5,8q36,0 59-24.5t23-59.5q0-21-8.5-39.5t-23-32t-33.5-21T633,934q-36,0-58,23.5T553,1014ZM465,302q0,21 8,40t22,33.5T527.5,398t39.5,8q36,0 59-24.5T649,322q0-21-8.5-39.5t-23-32t-33-21T545,222q-35,0-57.5,23.5T465,302Z" />
      <glyph unicode="&#xf8;" glyph-name="oslash" horiz-adv-x="988" d="M426-13Q292-13 203,62L133-34q-13-17-29.5-24.5T70-66H32L159,106q-43,53-65.5,126T71,396q0,121 36,232.5T208.5,825T364,960.5T562,1011q68,0 124.5-20T788,933l61,83q12,16 21,23t29,7h50L832,887q41-53 63-124.5T917,603q0-121-36.5-232T779,174.5T624,38T426-13ZM161,396q0-137 55-224L734,870q-71,71-181,71q-87,0-159-44.5T270,777T189.5,603T161,396ZM434,57q87,0 159.5,45t124,120.5t80,174T826,602q0,66-13.5,121T774,820L256,123q71-66 178-66Z" />
      <glyph unicode="&#xf9;" glyph-name="ugrave" horiz-adv-x="1022" d="M289,995L214,362q-6-47-6-87q0-102 38.5-155.5T368,66q55,0 111,28t109,80.5t100,126T771,466l64,529h94L809,0H765q-19,0-27.5,10T729,37l30,283q-41-79-90.5-141T564.5,74.5T452,9.5T336-13Q225-13 169.5,60.5T114,270q0,9 0.5,19.5t3,36T125,396t14,122.5T161.5,712T195,995h94Zm158,438q23,0 33-7.5t18-24.5l115-238H560q-21,0-33,16L358,1433h89Z" />
      <glyph unicode="&#xfa;" glyph-name="uacute" horiz-adv-x="1022" d="M289,995L214,362q-6-47-6-87q0-102 38.5-155.5T368,66q55,0 111,28t109,80.5t100,126T771,466l64,529h94L809,0H765q-19,0-27.5,10T729,37l30,283q-41-79-90.5-141T564.5,74.5T452,9.5T336-13Q225-13 169.5,60.5T114,270q0,9 0.5,19.5t3,36T125,396t14,122.5T161.5,712T195,995h94Zm523,438L580,1179q-15-16-37-16H488l173,238q13,17 25,24.5t35,7.5h91Z" />
      <glyph unicode="&#xfb;" glyph-name="ucircumflex" horiz-adv-x="1022" d="M289,995L214,362q-6-47-6-87q0-102 38.5-155.5T368,66q55,0 111,28t109,80.5t100,126T771,466l64,529h94L809,0H765q-19,0-27.5,10T729,37l30,283q-41-79-90.5-141T564.5,74.5T452,9.5T336-13Q225-13 169.5,60.5T114,270q0,9 0.5,19.5t3,36T125,396t14,122.5T161.5,712T195,995h94Zm521,176H749q-15,0-24,12L602,1347l-8,12l-11-12L419,1183q-5-5-12-8.5t-15-3.5H327l231,246h83l169-246Z" />
      <glyph unicode="&#xfc;" glyph-name="udieresis" horiz-adv-x="1022" d="M289,995L214,362q-6-47-6-87q0-102 38.5-155.5T368,66q55,0 111,28t109,80.5t100,126T771,466l64,529h94L809,0H765q-19,0-27.5,10T729,37l30,283q-41-79-90.5-141T564.5,74.5T452,9.5T336-13Q225-13 169.5,60.5T114,270q0,9 0.5,19.5t3,36T125,396t14,122.5T161.5,712T195,995h94Zm210,313q0-16-7-30.5T473.5,1252T447,1234.5t-31-6.5q-17,0-31.5,6.5t-26,17.5t-18,25.5T334,1308q0,17 6.5,32t18,26.5t26,18T416,1391q16,0 31-6.5t26.5-18T492,1340t7-32Zm342,0q0-16-7-30.5T816,1252t-26-17.5t-31-6.5q-17,0-32,6.5T701,1252t-17.5,25.5T677,1308q0,34 24,58.5t58,24.5q16,0 31-6.5t26-18t18-26.5t7-32Z" />
      <glyph unicode="&#xfd;" glyph-name="yacute" horiz-adv-x="903" d="M251-324q-14-28-41-28H143L353,37L86,995h74q14,0 20.5-6.5T190,971L400,197q4-15 5.5-30t3.5-30q6,15 12.5,30.5T436,197L837,974q5,11 14,16t18,5h73L251-324ZM773,1433L541,1179q-15-16-37-16H449l173,238q13,17 25,24.5t35,7.5h91Z" />
      <glyph unicode="&#xfe;" glyph-name="thorn" horiz-adv-x="1018" d="M59-352L280,1455h93L275,660q39,78 87,142.5T463.5,913T575,984.5T693,1010q65,0 114-25t82-70.5T939,804t17-145q0-77-16-156.5t-45.5-154T822.5,208T726,93T607.5,15.5T471-13q-81,0-149.5,36T210,130L156-313q-2-17-13.5-28T114-352H59ZM662,933q-57,0-114.5-32t-111-90.5T336.5,670T254,488L219,204q22-39 49.5-66T327,94t64.5-24.5T460,62q63,0 117.5,25.5t99,69.5T756,259.5T814.5,383t36,133.5T863,650q0,134-51.5,208.5T662,933Z" />
      <glyph unicode="&#xff;" glyph-name="ydieresis" horiz-adv-x="903" d="M251-324q-14-28-41-28H143L353,37L86,995h74q14,0 20.5-6.5T190,971L400,197q4-15 5.5-30t3.5-30q6,15 12.5,30.5T436,197L837,974q5,11 14,16t18,5h73L251-324ZM460,1308q0-16-7-30.5T434.5,1252T408,1234.5t-31-6.5q-17,0-31.5,6.5t-26,17.5t-18,25.5T295,1308q0,17 6.5,32t18,26.5t26,18T377,1391q16,0 31-6.5t26.5-18T453,1340t7-32Zm342,0q0-16-7-30.5T777,1252t-26-17.5t-31-6.5q-17,0-32,6.5T662,1252t-17.5,25.5T638,1308q0,34 24,58.5t58,24.5q16,0 31-6.5t26-18t18-26.5t7-32Z" />
      <glyph unicode="&#x2013;" glyph-name="endash" horiz-adv-x="997" d="M151,612H876l-8-69H143l8,69Z" />
      <glyph unicode="&#x2014;" glyph-name="emdash" horiz-adv-x="1467" d="M151,612H1346l-9-69H143l8,69Z" />
      <glyph unicode="&#x2018;" glyph-name="quoteleft" horiz-adv-x="366" d="M227,1059q-23,55-23,114q0,88 46,168t118,146l23-16q6-5 6-12q0-5-2.5-10T384,1436q-41-49-70-108t-29-122q0-47 19-89q2-4 2-11q0-16-17-22l-62-25Z" />
      <glyph unicode="&#x2019;" glyph-name="quoteright" horiz-adv-x="366" d="M325,1475q23-55 23-114q0-88-46-168.5T184,1047l-23,16q-7,5-7,12q0,5 3,9.5t11,13.5q42,49 70,108t28,122q0,23-4,45t-14,44q-2,4-2,11q0,15 17,22l62,25Z" />
      <glyph unicode="&#x201a;" glyph-name="quotesinglbase" horiz-adv-x="389" d="M184,174q23-55 23-114q0-88-46-168.5T43-254L20-238q-7,5-7,12q0,5 3,9.5T27-203Q69-154 97-95T125,27q0,23-4,45t-14,44q-2,4-2,11q0,15 17,22l62,25Z" />
      <glyph unicode="&#x201c;" glyph-name="quotedblleft" horiz-adv-x="615" d="M227,1059q-23,55-23,114q0,88 46,168t118,146l23-16q6-5 6-12q0-5-2.5-10T384,1436q-41-49-70-108t-29-122q0-47 19-89q2-4 2-11q0-16-17-22l-62-25Zm250,0q-23,55-23,114q0,88 46,168t118,146l23-16q6-5 6-12q0-5-2.5-10T634,1436q-41-49-70-108t-29-122q0-47 19-89q2-4 2-11q0-16-17-22l-62-25Z" />
      <glyph unicode="&#x201d;" glyph-name="quotedblright" horiz-adv-x="615" d="M340,1475q23-55 23-114q0-88-46-168.5T199,1047l-23,16q-7,5-7,12q0,5 3,9.5t11,13.5q42,49 70,108t28,122q0,23-4,45t-14,44q-2,4-2,11q0,15 17,22l62,25Zm250,0q23-55 23-114q0-88-46-168.5T449,1047l-23,16q-7,5-7,12q0,5 3,9.5t11,13.5q42,49 70,108t28,122q0,23-4,45t-14,44q-2,4-2,11q0,15 17,22l62,25Z" />
      <glyph unicode="&#x201e;" glyph-name="quotedblbase" horiz-adv-x="615" d="M124,174q23-55 23-114q0-88-46-168.5T-17-254l-23,16q-7,5-7,12q0,5 3,9.5T-33-203Q9-154 37-95T65,27q0,23-4,45T47,116q-2,4-2,11q0,15 17,22l62,25Zm250,0q23-55 23-114q0-88-46-168.5T233-254l-23,16q-7,5-7,12q0,5 3,9.5T217-203q42,49 70,108T315,27q0,23-4,45t-14,44q-2,4-2,11q0,15 17,22l62,25Z" />
      <glyph unicode="&#x2022;" glyph-name="bullet" horiz-adv-x="1160" d="M313,596q0,61 23,115t63,94.5T491.5,869T604,892q61,0 115-23t94-63.5T876,711t23-115q0-60-23-112.5T813,391t-94-63T604,305q-60,0-112.5,23T399,391t-63,92.5T313,596Z" />
      <glyph unicode="&#x2039;" glyph-name="guilsinglleft" horiz-adv-x="581" d="M146,513l2,12L417,903l28-14q13-8 13-21q0-12-11-26L245,547q-17-21-26-28q9-8 18-28L368,196q5-12 5-19q0-19-19-28l-32-15L146,513Z" />
      <glyph unicode="&#x203a;" glyph-name="guilsinglright" horiz-adv-x="581" d="M168,134l-27,15q-14,8-14,21q0,12 9,26L341,491q12,19 23,28q-8,6-17,28L215,842q-4,8-4,16q0,21 20,31l31,14L437,525l-1-12L168,134Z" />
    </font>
</defs>
</svg>
