<?xml version="1.0" standalone="no"?>
<!DOCTYPE svg PUBLIC "-//W3C//DTD SVG 1.1//EN" "http://www.w3.org/Graphics/SVG/1.1/DTD/svg11.dtd">
<svg xmlns="http://www.w3.org/2000/svg">
  <defs>
    <font id="Barlow" horiz-adv-x="518">
      <font-face font-family="Barlow Medium" units-per-em="1000" panose-1="0 0 6 0 0 0 0 0 0 0" ascent="1000" descent="-200" alphabetic="0" />
      <glyph unicode=" " glyph-name="space" horiz-adv-x="200" />
      <glyph unicode="!" glyph-name="exclam" horiz-adv-x="328" d="M136,232q-10,0-10,10l-9,448q0,10 10,10h76q10,0 10-10l-8-448q0-10-10-10H136ZM161,3q-28,0-46,18T97,67t18,46t46,18t46-18t18-46T207,21T161,3Z" />
      <glyph unicode="&quot;" glyph-name="quotedbl" horiz-adv-x="297" d="M45,482q-11,0-11,10L25,686q0,10 9,10h74q10,0 10-10L108,492q0-10-10-10H45Zm156,0q-10,0-10,10l-9,194q0,10 9,10h74q9,0 9-10L264,492q0-10-10-10H201Z" />
      <glyph unicode="#" glyph-name="numbersign" horiz-adv-x="669" d="M605,430q0-10-10-10H518q-5,0-5-4L493,278q0-4 3-4h63q10,0 10-10V201q0-10-10-10H483q-5,0-5-4L453,29q-1-9-10-9l-76,1q-4,0-7,3t-2,8l24,155q0,4-3,4H240q-5,0-5-4L210,29q-1-9-10-9l-76,1q-4,0-7,3t-2,8l24,155q0,4-3,4H73q-10,0-10,10l1,63q0,10 10,10h74q5,0 5,4l21,138q0,4-3,4H110q-10,0-10,10v64q0,10 10,10h74q5,0 5,4l25,158q1,9 10,9l76-1q4,0 7-3t2-8L285,508q0-4 3-4H427q5,0 5,4l25,158q1,9 10,9l76-1q4,0 7-3t2-8L528,508q0-4 3-4h65q10,0 10-10l-1-64ZM391,274q5,0 5,4l21,138q0,4-3,4H275q-5,0-5-4L250,278q0-4 3-4H391Z" />
      <glyph unicode="$" glyph-name="dollar" horiz-adv-x="563" d="M515,183q0-78-49.5-128.5T328-6q-4,0-4-4l1-70q0-10-10-10H249q-10,0-10,10l1,71q0,4-4,4Q147,7 97,57.5T47,187v29q0,10 10,10h69q10,0 10-10V192q0-51 42-84T292,75q65,0 98.5,29T424,180q0,31-17,53t-50,40.5T261,318q-70,28-110,51T84.5,429.5T58,524q0,76 47,123.5T233,706q4,0 4,4l-1,77q0,10 10,10h65q10,0 10-10l-1-78q0-4 4-5q86-12 135.5-64T509,509V489q0-10-10-10H429q-10,0-10,10v15q0,52-39,86.5T271,625q-59,0-91-25.5T148,526q0-33 16.5-54t48-37.5T309,392q68-28 109.5-51.5t69-62T515,183Z" />
      <glyph unicode="%" glyph-name="percent" horiz-adv-x="839" d="M232,413q-41,0-75.5,20T102,487T82,562q0,40 20,74t54.5,53.5T232,709q40,0 74-20t54-53.5T380,562q0-41-20-75t-54-54t-74-20ZM203,0q-6,0-8,3.5t1,8.5L574,693q4,7 12,7h49q6,0 8-3.5t-1-8.5L264,7q-3-7-12-7H203Zm29,472q37,0 62,26t25,64q0,37-25.5,62.5T232,650q-37,0-63-25.5T143,562q0-38 26-64t63-26ZM613-9q-41,0-75.5,20T483,65t-20,74t20,74t54.5,54T613,287q40,0 74-20t54-54t20-74T741,65T687,11T613-9Zm0,59q37,0 62,26t25,63t-25.5,63T613,228q-37,0-63-26t-26-63t26-63t63-26Z" />
      <glyph unicode="&amp;" glyph-name="ampersand" horiz-adv-x="675" d="M615,12q3-3 3-6q0-6-8-6H524q-7,0-12,6L461,64q-2,3-6,1Q408,27 358,9.5T252-8Q162-8 104.5,34.5T47,159q0,69 38.5,116.5T191,367q4,2 1,5q-56,68-74,103.5T100,549q0,45 22.5,81.5t64,57T281,708q82,0 135-45t53-118q0-61-36.5-106.5T332,350q-4-1-1-5q38-46 125-145l4-5q1-2 3-2t3,1q44,55 65,85q5,8 13,3l57-32q9-5 3-14q-44-67-83-108v-2q0-2 3-7q35-42 91-107ZM284,620q-40,0-64-21.5T196,541q0-20 13.5-43.5T267,419q3-3 6-1q49,32 74.5,61T373,543t-25,56t-64,21ZM253,74q71,0 145,55q3,3 0,6l-34,41q-30,34-36,40l-73,82q-1,3-5,1q-52-34-79-66t-27-73q0-40 29.5-63T253,74Z" />
      <glyph unicode="&apos;" glyph-name="quotesingle" horiz-adv-x="145" d="M45,486q-11,0-11,10L25,688q0,10 9,10h79q9,0 9-10L112,496q0-10-10-10H45Z" />
      <glyph unicode="(" glyph-name="parenleft" horiz-adv-x="291" d="M125-100q-7,0-12,6Q61-18 29,92T-3,328q0,129 32.5,240.5T115,756q4,6 12,6h72q6,0 8-3.5t-1-8.5q-44-79-72.5-188.5T105,329T133.5,98T206-88q2-4 2-6q0-6-9-6H125Z" />
      <glyph unicode=")" glyph-name="parenright" horiz-adv-x="291" d="M166,762q7,0 12-6q53-76 85-186t32-236q0-128-32.5-239.5T177-94q-4-6-12-6H92q-6,0-8,3.5T85-88q45,79 73.5,188.5T187,333q0,122-28.5,230.5T85,750q-2,4-2,6q0,6 9,6h74Z" />
      <glyph unicode="*" glyph-name="asterisk" horiz-adv-x="398" d="M180,393q-10,0-10,10V515q0,2-1.5,3t-3.5,0L63,459q-2-1-5-1q-6,0-9,5L30,497q-1,2-1,5q0,6 5,9l103,56q2,1 2,3t-2,3L34,629q-4,2-5,6t1,8l19,34q2,4 6,5t8-1l102-58q2-1 3.5,0t1.5,3V737q0,10 10,10h38q10,0 10-10V626q0-2 1.5-3t3.5,0l102,58q2,1 5,1q6,0 9-5l18-34q1-2 1-5q0-6-5-9L260,573q-2-1-2-3t2-3l103-56q4-2 5-6t-1-8l-18-34q-2-4-6-5t-8,1L233,518q-2,1-3.5,0t-1.5-3V403q0-10-10-10H180Z" />
      <glyph unicode="+" glyph-name="plus" horiz-adv-x="495" d="M450,350q10,0 10-10V277q0-10-10-10H293q-4,0-4-4V109q0-10-10-10H216q-10,0-10,10V263q0,4-4,4H45q-10,0-10,10v63q0,10 10,10H202q4,0 4,4V514q0,10 10,10h63q10,0 10-10V354q0-4 4-4H450Z" />
      <glyph unicode="," glyph-name="comma" horiz-adv-x="264" d="M67-86q-5,0-7.5,3T58-75L98,147q2,9 11,9h66q5,0 7.5-3t1.5-8L125-77q-2-9-11-9H67Z" />
      <glyph unicode="-" glyph-name="hyphen" horiz-adv-x="400" d="M45,264q-10,0-10,10v63q0,10 10,10H354q10,0 10-10V274q0-10-10-10H45Z" />
      <glyph unicode="." glyph-name="period" horiz-adv-x="275" d="M135,0Q107,0 89,18T71,64t18,46t46,18t46-18t18-46T181,18T135,0Z" />
      <glyph unicode="/" glyph-name="slash" horiz-adv-x="426" d="M37,0Q26,0 29,11L264,692q3,8 12,8h75q11,0 8-11L124,8q-3-8-12-8H37Z" />
      <glyph unicode="0" glyph-name="zero" horiz-adv-x="566" d="M282-10Q181-10 121.5,47.5T62,202V498q0,97 59.5,154T282,709t161.5-57T504,498V202q0-97-60.5-154.5T282-10Zm0,83q58,0 92,33.5T408,196V502q0,56-34,89.5T282,625q-56,0-90-33.5T158,502V196q0-56 34-89.5T282,73Z" />
      <glyph unicode="1" glyph-name="one" horiz-adv-x="352" d="M170,697q6,3 13,3h79q10,0 10-10V10q0-10-10-10H186q-10,0-10,10V597q0,2-1.5,3t-3.5,0L66,564q-2-1-5-1q-6,0-7,8l-4,57q0,10 6,12l114,57Z" />
      <glyph unicode="2" glyph-name="two" horiz-adv-x="544" d="M179,88q-1-2 0-3.5t3-1.5H483q10,0 10-10V10q0-10-10-10H64Q54,0 54,10V71q0,7 5,12q34,39 156,183l69,83q93,111 93,172q0,47-31.5,75.5T262,625t-83-29t-30-76V490q0-10-10-10H62q-10,0-10,10v43q2,52 29.5,92T156,686.5T262,708q64,0 112-24t74-66t26-95q0-83-90-196q-40-51-95-114.5T179,88Z" />
      <glyph unicode="3" glyph-name="three" horiz-adv-x="524" d="M447,332q20-49 20-113q0-53-16-98q-22-62-73-95.5T255-8T130.5,29T57,129q-11,28-13,80q0,10 10,10h77q10,0 10-10q2-36 8-53q10-37 37.5-59T255,75q76,0 102,69q13,30 13,78q0,51-16,91q-28,62-100,62q-17,0-43-15q-4-2-6-2q-5,0-8,5l-38,52q-2,4-2,7t3,7L331,612q3,5-2,5H63q-10,0-10,10v63q0,10 10,10H451q10,0 10-10V618q0-5-5-12L304,440q-2-2-1-3.5t4-2.5q51-5 86-31.5T447,332Z" />
      <glyph unicode="4" glyph-name="four" horiz-adv-x="570" d="M504,274q10,0 10-10V198q0-10-10-10H461q-4,0-4-4V10q0-10-10-10H371q-10,0-10,10V184q0,4-4,4H53q-10,0-10,10v54q0,5 3,12L243,693q3,7 11,7h80q5,0 7.5-3.5T342,688L154,279q-1-2 0-3.5t3-1.5H357q4,0 4,4V427q0,10 10,10h76q10,0 10-10V278q0-4 4-4h43Z" />
      <glyph unicode="5" glyph-name="five" horiz-adv-x="523" d="M468,310q11-44 11-91t-12-87Q448,68 394.5,30.5T267-7Q194-7 142,29T69,127q-10,28-11,49v2q0,8 9,8h79q9,0 10-9q1-7 5-21q11-37 38.5-58.5T266,76q41,0 69.5,22.5T374,161q7,21 7,58q0,33-6,61q-7,38-35.5,58.5T269,359q-39,0-70-17.5T159,295q-3-9-11-9H68q-10,0-10,10V690q0,10 10,10H442q10,0 10-10V627q0-10-10-10H158q-4,0-4-4l-1-209q0-6 5-3q24,21 55.5,31.5T280,443q70,0 120.5-35T468,310Z" />
      <glyph unicode="6" glyph-name="six" horiz-adv-x="523" d="M451,345q28-53 28-127q0-61-20-107q-23-57-71.5-87.5T270-7Q196-7 144.5,27T72,123q-15,42-15,97V528q0,82 57,131t149,49q59,0 104.5-22T438,624.5T463,534V514q0-10-10-10H377q-10,0-10,10v9q0,45-29,73t-75,28q-49,0-79.5-29T153,518V392q0-2 1.5-2.5T158,391q43,48 125,48q118,0 168-94ZM368,141q15,32 15,77q0,51-18,82q-29,58-98,58q-35,0-60-15.5T169,298q-16-33-16-85q0-42 13-71q13-32 39-48.5T268,77q73,0 100,64Z" />
      <glyph unicode="7" glyph-name="seven" horiz-adv-x="481" d="M140,0q-5,0-7.5,3.5T132,12L359,612q1,2 0,3.5t-3,1.5H115q-4,0-4-4V566q0-10-10-10H41q-10,0-10,10V690q0,10 10,10H452q10,0 10-10V623q0-4-2-12L234,8q-3-8-11-8H140Z" />
      <glyph unicode="8" glyph-name="eight" horiz-adv-x="527" d="M454,299q21-42 21-100q0-64-28-112q-24-45-71.5-70T264-8T151,17.5T77,91Q50,138 50,200q0,55 22,101t65,69q5,2 0,5q-32,24-48,50q-28,42-28,96q0,59 34,108q25,38 69.5,60T264,711q56,0 99-22t68-60q33-49 33-108q0-54-28-98q-18-28-47-48q-5-3 0-5q42-23 65-71ZM170,572q-14-26-14-51q0-40 19-67q27-45 88-45q60,0 89,46q17,24 17,67q0,28-13,51q-13,25-37,40t-57,15q-31,0-55-15t-37-41ZM355,121q23,32 23,86q0,48-17,79q-28,52-98,52q-68,0-96-49q-19-32-19-83q0-50 21-82q29-48 95-48q62,0 91,45Z" />
      <glyph unicode="9" glyph-name="nine" horiz-adv-x="525" d="M453,577q15-42 15-97V172q0-82-57-131T262-8Q203-8 157.5,14T87,75.5T62,166v20q0,10 10,10h76q10,0 10-10v-9q0-45 29-73t75-28q48,0 79,29t31,77V308q0,2-1.5,3t-3.5-1q-43-49-125-49q-59,0-101.5,24T74,355Q46,408 46,482q0,60 19,107q23,57 72,87.5T255,707q74,0 125-34t73-96ZM356,402q16,33 16,85q0,42-13,71q-13,32-39,48.5T257,623t-62.5-16.5T157,559q-15-31-15-77q0-50 17-82q31-58 98-58q71,0 99,60Z" />
      <glyph unicode=":" glyph-name="colon" horiz-adv-x="348" d="M172,344q-28,0-46,18t-18,46t18,46t46,18t46-18t18-46t-18-46t-46-18Zm0-333q-28,0-46,18T108,75t18,46t46,18t46-18t18-46T218,29T172,11Z" />
      <glyph unicode=";" glyph-name="semicolon" horiz-adv-x="312" d="M158,335q-31,0-51.5,20T86,404q0,28 22,48.5T158,473q29,0 51.5-20.5T232,404q0-29-21.5-49T158,335ZM101-83q-5,0-8,3.5T91-72l27,216q1,9 10,9h68q11,0 9-11L158-74q-1-9-11-9H101Z" />
      <glyph unicode="&lt;" glyph-name="less" horiz-adv-x="495" d="M460,48q0-5-3.5-7.5T448,40L42,226q-7,4-7,11v69q0,7 8,11L448,503l4,1q8,0 8-9V422q0-8-8-11L138,274q-6-3 0-6L452,131q8-3 8-11V48Z" />
      <glyph unicode="=" glyph-name="equal" horiz-adv-x="495" d="M45,369q-10,0-10,10v63q0,10 10,10H450q10,0 10-10V379q0-10-10-10H45Zm0-202q-10,0-10,10v63q0,10 10,10H450q10,0 10-10V177q0-10-10-10H45Z" />
      <glyph unicode="&gt;" glyph-name="greater" horiz-adv-x="495" d="M43,39q-8,0-8,9v72q0,8 8,11L356,268q6,3 0,6L43,411q-8,3-8,11v73q0,5 3.5,7.5T47,503L453,317q7-3 7-11V237q0-7-7-11L47,40l-4-1Z" />
      <glyph unicode="?" glyph-name="question" horiz-adv-x="482" d="M185,208q-10,0-10,10v50q0,45 23,74t67,62q41,31 62,56t21,64q0,45-29.5,71.5T241,622q-49,0-79-27.5T132,522V496q0-10-10-10l-76,4q-10,0-10,10v22q0,55 26,97.5t73.5,66T244,709q91,0 146-50t55-132q0-44-15-76t-36-52.5T340,354q-35-26-51.5-45T272,263V218q0-10-10-10H185ZM221,1q-28,0-46,18T157,65t18,46t46,18t46-18t18-46T267,19T221,1Z" />
      <glyph unicode="@" glyph-name="at" horiz-adv-x="823" d="M452,631q94,0 165-37T727.5,489.5T767,333q0-26-3-53q-13-95-59-147T587,81q-35,0-61.5,12T483,128q-3,5-6,0q-19-21-46-33T376,83q-56,0-91.5,27T243,180q-2,18-2,28q0,23 5,58q6,52 19,85q16,47 54.5,73T405,450q54,0 81-33q2-2 3.5-1t1.5,3l2,17q1,9 10,9h47q5,0 8-3.5t2-7.5L533,233q-1-6-1-17q0-32 16.5-52.5T594,143q38,0 64.5,35T694,277q4,36 4,52q0,112-68.5,176T448,569q-86,0-161-40T166.5,412T121,228q0-75 29.5-133.5t85-91T366-29q50,0 95.5,11.5T531,11q3,2 7,2t7-4l25-30q2-2 2-6q0-5-4-8q-35-26-93-42T357-93q-91,0-159.5,40T91.5,60.5T54,230q0,23 1,35q8,111 65.5,194T266,586.5T452,631ZM377,141q28,0 48,16t30,42q7,15 10,35l6,46q3,27 3,38l-1,17q-2,25-19.5,41T409,392q-28,0-50-16t-32-40q-8-20-15-72q-5-29-5-47q0-8 2-18q2-26 20.5-42T377,141Z" />
      <glyph unicode="A" glyph-name="A" horiz-adv-x="630" d="M507,0q-9,0-12,8L459,125q-1,3-4,3H174q-3,0-4-3L134,8q-3-8-12-8H41Q30,0 33,11L252,692q3,8 12,8H364q9,0 12-8L597,11l1-4q0-7-9-7H507ZM195,209q-1-2 0.5-3.5T199,204H429q2,0 3.5,1.5T433,209L317,580q-1,2-3,2t-3-2L195,209Z" />
      <glyph unicode="B" glyph-name="B" horiz-adv-x="624" d="M455,365q-5-3 0-6q106-45 106-167q0-92-61-142T341,0H92Q82,0 82,10V690q0,10 10,10H333q104,0 161.5-47.5T552,514q0-108-97-149ZM182,617q-4,0-4-4V402q0-4 4-4H333q58,0 91.5,29T458,506q0,51-33.5,81T333,617H182ZM341,84q57,0 90.5,31.5T465,201t-34,85.5T338,318H182q-4,0-4-4V88q0-4 4-4H341Z" />
      <glyph unicode="C" glyph-name="C" horiz-adv-x="607" d="M307-9Q235-9 179.5,19.5t-86,81T63,221V480q0,68 30.5,119.5t86,80T307,708t127-27.5T519.5,603T550,487v-1q0-5-3-8t-7-3l-76-4q-10,0-10,9v3q0,64-40,103T307,625T199.5,586T159,483V217q0-64 40.5-103T307,75t107,39t40,103v2q0,9 10,9l76-4q10,0 10-10q0-66-30.5-116.5T434,19T307-9Z" />
      <glyph unicode="D" glyph-name="D" horiz-adv-x="618" d="M92,0Q82,0 82,10V690q0,10 10,10H334q104,0 166-54.5T562,500V200q0-91-62-145.5T334,0H92Zm86,87q0-4 4-4H338q58,0 92.5,35.5T466,214V486q0,60-34.5,95.5T338,617H182q-4,0-4-4V87Z" />
      <glyph unicode="E" glyph-name="E" horiz-adv-x="598" d="M547,627q0-10-10-10H182q-4,0-4-4V398q0-4 4-4H426q10,0 10-10V321q0-10-10-10H182q-4,0-4-4V87q0-4 4-4H537q10,0 10-10V10q0-10-10-10H92Q82,0 82,10V690q0,10 10,10H537q10,0 10-10V627Z" />
      <glyph unicode="F" glyph-name="F" horiz-adv-x="565" d="M546,627q0-10-10-10H182q-4,0-4-4V398q0-4 4-4H425q10,0 10-10V321q0-10-10-10H182q-4,0-4-4V10q0-10-10-10H92Q82,0 82,10V690q0,10 10,10H536q10,0 10-10V627Z" />
      <glyph unicode="G" glyph-name="G" horiz-adv-x="613" d="M307-8Q235-8 179.5,20.5t-86,81T63,222V478q0,69 30.5,121t86,80.5T307,708t127-28t85.5-77.5T550,491V480q0-10-10-10H464q-10,0-10,10v9q0,60-40.5,97.5T307,624q-67,0-107.5-39T159,481V219q0-65 42-104T311,76q66,0 104.5,34.5T454,205v77q0,4-4,4H315q-10,0-10,10v62q0,10 10,10H540q10,0 10-10V231q0-115-65.5-177T307-8Z" />
      <glyph unicode="H" glyph-name="H" horiz-adv-x="645" d="M471,690q0,10 10,10h76q10,0 10-10V10q0-10-10-10H481q-10,0-10,10V307q0,4-4,4H182q-4,0-4-4V10q0-10-10-10H92Q82,0 82,10V690q0,10 10,10h76q10,0 10-10V398q0-4 4-4H467q4,0 4,4V690Z" />
      <glyph unicode="I" glyph-name="I" horiz-adv-x="260" d="M92,0Q82,0 82,10V690q0,10 10,10h76q10,0 10-10V10q0-10-10-10H92Z" />
      <glyph unicode="J" glyph-name="J" horiz-adv-x="579" d="M261-8Q190-8 136.5,19T54,95T25,208v71q0,10 10,10h76q10,0 10-10V208q0-60 38-96.5T261,75q62,0 101,36.5T401,208V690q0,10 10,10h76q10,0 10-10V208q0-64-29.5-113T384,19T261-8Z" />
      <glyph unicode="K" glyph-name="K" horiz-adv-x="616" d="M92,0Q82,0 82,10V690q0,10 10,10h76q10,0 10-10V371q0-2 2-2.5t3,1.5L469,694q4,6 12,6h87q6,0 8-3.5t-2-8.5L336,407q-1-3 0-6L591,12q2-4 2-6q0-6-8-6H498q-7,0-12,6L270,333q-1,2-3,2t-3-1l-84-94q-2-4-2-5V10q0-10-10-10H92Z" />
      <glyph unicode="L" glyph-name="L" horiz-adv-x="570" d="M92,0Q82,0 82,10V690q0,10 10,10h76q10,0 10-10V87q0-4 4-4H527q10,0 10-10V10q0-10-10-10H92Z" />
      <glyph unicode="M" glyph-name="M" horiz-adv-x="715" d="M535,694q5,6 12,6h76q10,0 10-10V10q0-10-10-10H547q-10,0-10,10V522q0,3-2,4t-3-2L389,306q-4-6-12-6H339q-7,0-12,6L183,522q-1,3-3,2t-2-4V10q0-10-10-10H92Q82,0 82,10V690q0,10 10,10h76q8,0 12-6L355,432q1-1 3-1t3,1L535,694Z" />
      <glyph unicode="N" glyph-name="N" horiz-adv-x="673" d="M494,690q0,10 10,10h76q10,0 10-10V10q0-10-10-10H507q-7,0-12,7L182,518q-1,3-3,2.5t-2-3.5l1-507q0-10-10-10H92Q82,0 82,10V690q0,10 10,10h74q7,0 12-7L490,182q1-3 3-2.5t2,3.5l-1,507Z" />
      <glyph unicode="O" glyph-name="O" horiz-adv-x="622" d="M310-9Q237-9 181,21T94,105.5T63,231V469q0,71 31,125t87,84t129,30q74,0 130-30t87-84t31-125V231q0-71-31-125.5T440,21T310-9Zm0,83q68,0 110,42t42,111V470q0,70-42,112.5T310,625T200.5,582.5T159,470V227q0-69 41.5-111T310,74Z" />
      <glyph unicode="P" glyph-name="P" horiz-adv-x="593" d="M356,701q61,0 107.5-25.5t72-71.5T561,498T535,393t-73.5-70T352,298H176q-4,0-4-4V10q0-10-10-10H86Q76,0 76,10V691q0,10 10,10H356ZM343,376q55,0 88.5,33T465,496q0,55-33.5,88.5T343,618H176q-4,0-4-4V380q0-4 4-4H343Z" />
      <glyph unicode="Q" glyph-name="Q" horiz-adv-x="582" d="M291,708q71,0 125-29.5T500,596t30-123V221q0-90-50.5-150T343-3q-4-1-4-5V-99q0-10-10-10H253q-10,0-10,10V-8q0,4-4,5Q153,11 102.5,71T52,221V473q0,70 30,123t84,82.5T291,708ZM434,478q0,66-39.5,106.5T291,625T187.5,584.5T148,478V222q0-66 39.5-106.5T291,75t103.5,40.5T434,222V478Z" />
      <glyph unicode="R" glyph-name="R" horiz-adv-x="613" d="M481,0q-8,0-11,7L330,306q-1,3-4,3H182q-4,0-4-4V10q0-10-10-10H92Q82,0 82,10V690q0,10 10,10H361q60,0 105.5-25T537,605t25-104q0-70-36.5-118.5T424,317q-4-2-2-5L567,12q1-2 1-5q0-7-8-7H481ZM182,617q-4,0-4-4V389q0-4 4-4H349q53,0 85,31.5T466,500q0,53-32,85t-85,32H182Z" />
      <glyph unicode="S" glyph-name="S" horiz-adv-x="588" d="M298-8Q221-8 164.5,16t-87,68T47,187v29q0,10 10,10h73q10,0 10-10V192q0-51 44-84T305,75q69,0 104,29t35,76q0,31-18,53t-52.5,40.5T273,318q-73,28-115.5,51T87,429.5T59,524q0,86 61.5,135T287,708q74,0 130-25t86.5-70T534,509V489q0-10-10-10H449q-10,0-10,10v15q0,52-41.5,86.5T283,625q-62,0-96-25.5T153,526q0-33 17-54t50.5-37.5T323,392q71-28 115-51.5t73-62T540,183q0-88-64.5-139.5T298-8Z" />
      <glyph unicode="T" glyph-name="T" horiz-adv-x="574" d="M527,700q10,0 10-10V626q0-10-10-10H335q-4,0-4-4V10q0-10-10-10H245q-10,0-10,10V612q0,4-4,4H48q-10,0-10,10v64q0,10 10,10H527Z" />
      <glyph unicode="U" glyph-name="U" horiz-adv-x="641" d="M321-8Q248-8 192.5,20.5t-86.5,81T75,222V690q0,10 10,10h76q10,0 10-10V220q0-65 41.5-105T321,75t108,40t41,105V690q0,10 10,10h76q10,0 10-10V222q0-68-30.5-120.5t-86-81T321-8Z" />
      <glyph unicode="V" glyph-name="V" horiz-adv-x="601" d="M259,0q-9,0-12,8L33,689l-1,4q0,7 9,7h81q9,0 12-8L299,139q1-2 3-2t3,2L470,692q3,8 11,8h79q11,0 8-11L352,8q-3-8-12-8H259Z" />
      <glyph unicode="W" glyph-name="W" horiz-adv-x="878" d="M225,0q-9,0-11,8L26,689l-1,3q0,8 10,8h81q9,0 11-9L258,193q1-2 2.5-2t2.5,2L387,691q2,9 11,9h79q9,0 11-9L619,192q1-2 2-2t2,2L755,691q2,9 11,9h76q5,0 7.5-3t1.5-8L670,9q-2-9-11-9H582q-9,0-11,9L440,525q-1,3-2,3t-2-3L309,9q-1-9-11-9H225Z" />
      <glyph unicode="X" glyph-name="X" horiz-adv-x="604" d="M43,0q-6,0-8,3.5T36,12L242,347q2,3 0,6L36,688q-2,4-2,6q0,6 9,6h83q7,0 12-7L299,428q1-1 3-1t3,1L466,693q5,7 12,7h82q6,0 8-3.5t-1-8.5L362,352q-1-3 0-6L567,12q2-4 2-6q0-6-9-6H478q-7,0-12,7L305,271q-1,2-3,2t-3-2L138,7q-5-7-12-7H43Z" />
      <glyph unicode="Y" glyph-name="Y" horiz-adv-x="585" d="M254,1q-10,0-10,10V292q0,4-1,5L35,688q-1,2-1,5q0,7 8,7h82q9,0 12-7L289,400q1-2 3-2t3,2L448,693q3,7 12,7h83q5,0 7.5-3.5T550,688L341,297q-1-1-1-5V11q0-10-10-10H254Z" />
      <glyph unicode="Z" glyph-name="Z" horiz-adv-x="551" d="M51,0Q41,0 41,10V80q0,8 4,13L395,612q1,1 0,3t-3,2H51q-10,0-10,10v63q0,10 10,10H495q10,0 10-10V620q0-8-4-13L149,88q-1-1 0-3t3-2H495q10,0 10-10V10q0-10-10-10H51Z" />
      <glyph unicode="[" glyph-name="bracketleft" horiz-adv-x="393" d="M43-130q-10,0-10,10V774q0,10 10,10H253q10,0 10-10V710q0-10-10-10H133q-4,0-4-4V-43q0-4 4-4H254q10,0 10-10v-63q0-10-10-10H43Z" />
      <glyph unicode="\" glyph-name="backslash" horiz-adv-x="426" d="M398,7q0-7-9-7H314q-9,0-12,8L67,689l-1,4q0,7 9,7h75q9,0 12-8L397,11l1-4Z" />
      <glyph unicode="]" glyph-name="bracketright" horiz-adv-x="393" d="M360-120q0-10-10-10H139q-10,0-10,10v63q0,10 10,10H260q4,0 4,4V696q0,4-4,4H139q-10,0-10,10v64q0,10 10,10H350q10,0 10-10V-120Z" />
      <glyph unicode="^" glyph-name="asciicircum" horiz-adv-x="458" d="M47,304q-5,0-7.5,3.5T39,316L184,692q3,8 11,8h67q8,0 11-8L419,316l1-4q0-8-9-8H349q-9,0-12,8L232,598q-1,3-3,3t-3-3L121,312q-3-8-12-8H47Z" />
      <glyph unicode="_" glyph-name="underscore" horiz-adv-x="498" d="M35,0Q25,0 25,10V65q0,10 10,10H463q10,0 10-10V10q0-10-10-10H35Z" />
      <glyph unicode="`" glyph-name="grave" horiz-adv-x="209" d="M178,585q1-2 1-5t-2.5-5t-6.5-2H116q-7,0-12,7L34,688q-2,4-2,6q0,6 8,6h67q9,0 12-7l59-108Z" />
      <glyph unicode="a" glyph-name="a" horiz-adv-x="517" d="M256,517q61,0 106.5-21.5t70-60T457,348V10q0-10-10-10H371q-10,0-10,10V46q0,5-5,2Q330,21 292.5,6.5T209-8Q135-8 86.5,29.5T38,143q0,78 54.5,122.5T245,310H357q4,0 4,4v27q0,44-25.5,68.5T258,434q-42,0-68.5-16.5T157,373q-3-10-12-9L64,375q-10,2-9,8q8,59 63,96.5T256,517ZM230,73q53,0 92,28t39,71v59q0,4-4,4H263q-59,0-94-23t-35-64q0-37 26.5-56T230,73Z" />
      <glyph unicode="b" glyph-name="b" horiz-adv-x="553" d="M481,377q16-51 16-121q0-75-19-128Q456,63 408.5,27.5T289-8Q254-8 224,6T172,45q-2,2-3.5,1T167,43V10q0-10-10-10H81Q71,0 71,10V690q0,10 10,10h76q10,0 10-10V467q0-2 1.5-3t3.5,1q22,25 52.5,38.5T289,517q75,0 123-37t69-103ZM375,130q25,47 25,124q0,82-32,132q-29,48-89,48q-56,0-85-51q-26-46-26-128t24-126q30-54 88-54q66,0 95,55Z" />
      <glyph unicode="c" glyph-name="c" horiz-adv-x="526" d="M274-8Q198-8 144,30.5T70,135Q55,181 55,256q0,69 15,121q20,64 74.5,102T274,517t131-38t73-96q6-16 8-33q0-8-9-10l-75-11h-2q-7,0-10,9l-3,16q-8,34-39,57t-75,23q-43,0-73-23t-39-61q-9-36-9-95q0-58 9-94q10-40 39.5-63T273,75q44,0 75.5,23T388,158q1,1 0.5,2.5T389,163v4q3,8 11,6l75-12q8-2 8-8v-4q0-9-5-22q-17-61-73-98T274-8Z" />
      <glyph unicode="d" glyph-name="d" horiz-adv-x="553" d="M386,690q0,10 10,10h76q10,0 10-10V10q0-10-10-10H396q-10,0-10,10V43q0,2-1.5,3T381,45Q359,20 329,6T264-8Q192-8 144.5,27.5T75,128Q56,181 56,256q0,70 16,121q21,66 69,103t123,37q34,0 64.5-13.5T381,465q2-2 3.5-1t1.5,3V690ZM361,129q23,42 23,126T359,383q-29,51-85,51q-60,0-89-48q-32-50-32-132q0-77 25-124q29-55 95-55q58,0 88,54Z" />
      <glyph unicode="e" glyph-name="e" horiz-adv-x="536" d="M482,318q4-41 3-92q0-10-10-10H156q-4,0-4-4q0-34 6-52q11-40 44.5-62.5T287,75q74,0 114,61q5,10 13,3l57-38q7-6 3-13q-28-45-79.5-71T278-9Q205-9 155,23T80,114Q56,173 56,257q0,73 11,111q18,69 72,109t131,40q101,0 151-50.5T482,318ZM270,434q-43,0-71-21.5T161,355q-7-22-9-56q0-4 4-4H385q4,0 4,4q-2,33-6,49q-10,39-39.5,62.5T270,434Z" />
      <glyph unicode="f" glyph-name="f" horiz-adv-x="367" d="M294,616q-50,0-68-19t-18-72V513q0-4 4-4H317q10,0 10-10V431q0-10-10-10H212q-4,0-4-4V10q0-10-10-10H122q-10,0-10,10V417q0,4-4,4H41q-10,0-10,10v68q0,10 10,10h67q4,0 4,4v18q0,66 15.5,102T180,684.5T284,700h34q10,0 10-10V626q0-10-10-10H294Z" />
      <glyph unicode="g" glyph-name="g" horiz-adv-x="543" d="M383,499q0,10 10,10h76q10,0 10-10V26q0-121-68.5-173T227-199q-16,0-50,2q-10,1-10,11l3,69q0,4 3,7t8,2q14-1 41-1q85,0 123,31.5T383,29V47q0,2-1.5,3T378,49Q336,0 255,0Q190,0 137.5,34T65,134Q52,178 52,256q0,83 15,128q19,60 67.5,96.5T249,517q82,0 129-50q2-2 3.5-1.5T383,468v31Zm-6-336q3,16 4.5,34t1.5,60t-1.5,59.5T376,350q-8,37-36,60.5T270,434t-70-23.5T160,350q-11-30-11-93q0-69 10-94q10-37 39.5-60.5T270,79q44,0 71.5,23.5T377,163Z" />
      <glyph unicode="h" glyph-name="h" horiz-adv-x="542" d="M297,516q82,0 130-47.5T475,340V10q0-10-10-10H389q-10,0-10,10V321q0,50-29,81t-77,31q-47,0-77-31t-30-80V10q0-10-10-10H80Q70,0 70,10V690q0,10 10,10h76q10,0 10-10V463q0-2 1.5-3t2.5,1q43,55 127,55Z" />
      <glyph unicode="i" glyph-name="i" horiz-adv-x="255" d="M128,589q-28,0-46,18T64,653t18,46t46,18t46-18t18-46t-18-46t-46-18ZM88,1Q78,1 78,11V499q0,10 10,10h76q10,0 10-10V11q0-10-10-10H88Z" />
      <glyph unicode="j" glyph-name="j" horiz-adv-x="248" d="M121,589q-28,0-46,18T57,653t18,46t46,18q29,0 46.5-17.5T185,653q0-28-18-46t-46-18ZM-34-207q-10,0-10,10v62q0,10 10,10q57,0 82.5,23T74-29L73,499q0,10 10,10h76q10,0 10-10V-28q0-66-20-105T85-190T-34-207Z" />
      <glyph unicode="k" glyph-name="k" horiz-adv-x="512" d="M80,0Q70,0 70,10V690q0,10 10,10h76q10,0 10-10V305q0-2 2-3t3,1L356,504q4,5 12,5h89q6,0 7.5-3.5T462,497L333,348q-2-4-1-6L485,12l1-4q0-8-9-8H397q-8,0-11,8L267,280q-2,5-5,1L168,177q-2-4-2-5V10q0-10-10-10H80Z" />
      <glyph unicode="l" glyph-name="l" horiz-adv-x="235" d="M80,0Q70,0 70,10V690q0,10 10,10h76q10,0 10-10V10q0-10-10-10H80Z" />
      <glyph unicode="m" glyph-name="m" horiz-adv-x="826" d="M599,516q76,0 120-45.5T763,344V10q0-10-10-10H678q-10,0-10,10V324q0,50-27.5,79.5T567,433t-75-29t-29-78V10q0-10-10-10H378q-10,0-10,10V324q0,50-27.5,79.5T267,433t-73.5-29T166,326V10q0-10-10-10H80Q70,0 70,10V499q0,10 10,10h76q10,0 10-10V465q0-2 1.5-3t3.5,1q44,53 128,53q51,0 87-19.5T442,439q3-4 6,0q24,39 63.5,58T599,516Z" />
      <glyph unicode="n" glyph-name="n" horiz-adv-x="542" d="M297,516q82,0 130-47.5T475,340V10q0-10-10-10H389q-10,0-10,10V321q0,50-29,81t-77,31q-47,0-77-31t-30-80V10q0-10-10-10H80Q70,0 70,10V499q0,10 10,10h76q10,0 10-10V463q0-2 1.5-3t2.5,1q43,55 127,55Z" />
      <glyph unicode="o" glyph-name="o" horiz-adv-x="555" d="M278-8Q204-8 149,29.5T72,134Q54,188 54,256q0,71 17,120q22,66 77,103.5T279,517q72,0 125.5-37.5T481,377q18-51 18-120q0-70-18-123Q459,67 405,29.5T278-8Zm0,83q40,0 70,22.5T391,161q11,38 11,94t-10,93q-13,41-43,63.5T276,434q-41,0-71-22.5T162,348q-11-35-11-93t11-94q12-41 42.5-63.5T278,75Z" />
      <glyph unicode="p" glyph-name="p" horiz-adv-x="558" d="M483,381q19-54 19-128q0-70-16-121Q465,65 417,28.5T294-8Q260-8 229.5,5.5T177,44q-2,2-3.5,1T172,42V-181q0-10-10-10H86q-10,0-10,10V499q0,10 10,10h76q10,0 10-10V466q0-2 1.5-3t3.5,1q22,25 52,39t65,14q72,0 119.5-35.5T483,381ZM373,123q32,48 32,132q0,77-25,124q-29,55-95,55q-58,0-88-54q-24-43-24-126q0-84 26-128q29-51 85-51q60,0 89,48Z" />
      <glyph unicode="q" glyph-name="q" horiz-adv-x="558" d="M386,499q0,10 10,10h76q10,0 10-10V-181q0-10-10-10H396q-10,0-10,10V42q0,2-1.5,3T381,44Q359,19 328.5,5.5T264-8Q189-8 141,28.5T72,132Q56,183 56,253q0,74 19,128q22,65 69.5,100.5T264,517q35,0 65-14t52-39q2-2 3.5-1t1.5,3v33ZM359,126q25,43 25,128q0,84-23,126q-30,54-88,54q-66,0-95-55q-25-47-25-124q0-84 32-132q29-48 89-48q56,0 85,51Z" />
      <glyph unicode="r" glyph-name="r" horiz-adv-x="371" d="M293,514q32,0 58-13q7-3 5-12l-16-75q-1-9-12-6q-17,7-40,7l-14-1q-47-2-77.5-32.5T166,302V10q0-10-10-10H80Q70,0 70,10V499q0,10 10,10h76q10,0 10-10V446q0-3 1.5-3.5T170,444q45,70 123,70Z" />
      <glyph unicode="s" glyph-name="s" horiz-adv-x="487" d="M249-6Q189-6 143.5,12T73,61.5T48,131v11q0,10 10,10h72q10,0 10-10v-5q0-28 30.5-49T248,67q45,0 73,19.5T349,136q0,29-26,43.5T239,210q-57,16-95.5,32.5t-65,47T52,368q0,67 52.5,106.5T244,514q58,0 102.5-18.5T415,444t24-74v-3q0-10-10-10H359q-10,0-10,10v3q0,29-28.5,48.5T243,438q-44,0-71.5-17T144,375t26.5-44T256,299q58-16 96.5-31.5t65.5-46T445,142q0-68-53.5-108T249-6Z" />
      <glyph unicode="t" glyph-name="t" horiz-adv-x="369" d="M321,440q0-10-10-10H203q-4,0-4-4V161q0-42 19-60.5T277,82h29q10,0 10-10V10q0-10-10-10q-32-2-46-2Q184-2 145.5,25.5T107,127V426q0,4-4,4H42q-10,0-10,10v59q0,10 10,10h61q4,0 4,4V631q0,10 10,10h72q10,0 10-10V513q0-4 4-4H311q10,0 10-10V440Z" />
      <glyph unicode="u" glyph-name="u" horiz-adv-x="538" d="M373,499q0,10 10,10h75q10,0 10-10V10q0-10-10-10H383q-10,0-10,10V47q0,2-1.5,2.5T368,48Q328-7 245-7q-49,0-90.5,19T88,68T63,158V499q0,10 10,10h75q10,0 10-10V188q0-52 27.5-82T263,76t80,30.5T373,188V499Z" />
      <glyph unicode="v" glyph-name="v" horiz-adv-x="491" d="M204,0q-9,0-12,8L29,498l-1,4q0,7 9,7h84q9,0 12-8L243,139q1-2 3-2t3,2L358,501q3,8 12,8l84-1q11,0 8-11L300,8q-3-8-12-8H204Z" />
      <glyph unicode="w" glyph-name="w" horiz-adv-x="743" d="M183,0q-8,0-11,8L28,498l-1,3q0,8 10,8h78q9,0 11-9l95-363q1-2 2.5-2t2.5,2l97,363q2,9 11,9h69q9,0 11-9l99-362q1-2 2.5-2t2.5,2l99,362q2,9 11,9l77-1q5,0 7.5-3t1.5-8L569,8q-3-8-11-8H480q-8,0-11,8L371,346q-1,2-2.5,2t-2.5-2L273,9q-2-9-11-9H183Z" />
      <glyph unicode="x" glyph-name="x" horiz-adv-x="499" d="M34,0q-6,0-8,3.5T27,12L193,251q2,3 0,6L27,497l-2,5q0,7 9,7h81q8,0 12-6L244,332q1-1 3-1t3,1L366,503q4,6 12,6h87q6,0 8-3.5t-1-8.5L306,257q-1-3 0-6L472,12l2-5q0-7-9-7H383q-8,0-12,6L255,177q-1,2-3,2t-3-2L132,6q-4-6-12-6H34Z" />
      <glyph unicode="y" glyph-name="y" horiz-adv-x="476" d="M55-199q-7,0-7,10v59q0,10 10,10h2q40,1 63,10t38,33.5T190-3q1,1 0.5,3.5T190,3L23,498l-1,4q0,7 9,7h81q9,0 12-8L237,124q1-2 3-2t3,2L355,501q3,8 12,8h79q11,0 8-11L272-35q-23-69-46-102.5T166-185T62-199H55Z" />
      <glyph unicode="z" glyph-name="z" horiz-adv-x="451" d="M40,0Q30,0 30,10V80q0,7 4,12L299,416q2,2 1,3.5t-3,1.5H45q-10,0-10,10v68q0,10 10,10H406q10,0 10-10V428q0-7-4-12L143,92q-2-2-1-3.5t3-1.5H407q10,0 10-10V10q0-10-10-10H40Z" />
      <glyph unicode="{" glyph-name="braceleft" horiz-adv-x="329" d="M212-130q-58,0-85.5,28.5T99-13V200q0,43-13.5,64.5T43,290q-10,1-10,11v57q0,10 10,11q29,4 42.5,25.5T99,458V666q0,60 27.5,89T212,784h73q10,0 10-10V710q0-10-10-10H251q-56,0-56-70V448q0-47-12.5-74.5T142,332q-5-2 0-5q28-13 40.5-41T195,211V24q0-71 56-71h34q10,0 10-10v-63q0-10-10-10H212Z" />
      <glyph unicode="|" glyph-name="bar" horiz-adv-x="179" d="M52-80Q42-80 42-70V750q0,10 10,10h76q10,0 10-10V-70q0-10-10-10H52Z" />
      <glyph unicode="}" glyph-name="braceright" horiz-adv-x="329" d="M43-130q-10,0-10,10v63q0,10 10,10H78q27,0 41.5,18T134,24V211q0,47 12.5,75T187,327q5,3 0,5q-28,14-40.5,41.5T134,448V630q0,70-56,70H43q-10,0-10,10v64q0,10 10,10h74q57,0 85-29t28-89V458q0-43 13-64t42-25q10-1 10-11V301q0-10-10-11q-28-4-41.5-25.5T230,200V-13q0-60-28-88.5T117-130H43Z" />
      <glyph unicode="~" glyph-name="asciitilde" horiz-adv-x="513" d="M349,220q-28,0-49,8t-48,24q-24,13-42,20t-39,7q-44,0-71-37l-2-4q-5-6-12-1L43,265q-8,6-5,13q17,38 52,61.5T168,363q25,0 44.5-6.5T254,337q5-3 22.5-13T310,309t33-5q20,0 34,10t30,29q6,8 14,3l48-32q8-6 4-13q-18-36-51-58.5T349,220Z" />
      <glyph unicode="&#xa0;" glyph-name="uni00A0" horiz-adv-x="200" />
      <glyph unicode="&#xa1;" glyph-name="exclamdown" horiz-adv-x="328" d="M161,708q28,0 46-18t18-46t-18-46t-46-18t-46,18T97,644t18,46t46,18ZM126,468q0,10 10,10h59q10,0 10-10l8-447q0-10-10-10H127q-10,0-10,10l9,447Z" />
      <glyph unicode="&#xa2;" glyph-name="cent" horiz-adv-x="526" d="M388,248q1,1 0.5,2.5T389,253v4q3,8 11,6l75-12q8-2 8-8v-4q0-9-5-22q-15-53-60-88.5T310,84q-4,0-4-4l2-74q0-10-10-10H232Q222-4 222,6l2,77q0,4-4,5q-55,12-94,48T70,225Q55,271 55,346q0,69 15,121q16,52 54.5,86.5T218,601q4,1 4,5l-1,75q0,10 10,10h65q10,0 10-10l-1-72q0-4 4-4q63-9 108.5-45T478,473q6-16 8-33q0-8-9-10l-75-11h-2q-7,0-10,9l-3,16q-8,34-39,57t-75,23q-43,0-73-23t-39-61q-9-36-9-95q0-58 9-94q10-40 39.5-63T273,165q44,0 75.5,23T388,248Z" />
      <glyph unicode="&#xa3;" glyph-name="sterling" horiz-adv-x="609" d="M224,88q-2-2-1-3.5t3-1.5H566q10,0 10-10V10q0-10-10-10H123q-10,0-10,10V75q0,8 7,12q24,15 37,44.5T170,199v98q0,4-4,4H92q-10,0-10,10v58q0,10 10,10h74q4,0 4,4V504q0,96 56.5,150T381,708q71,0 119-37t71-105l1-4q0-6-8-8l-72-13h-3q-6,0-9,7q-14,40-38.5,58.5T381,625q-54,0-84.5-29.5T266,506V383q0-4 4-4H459q10,0 10-10V311q0-10-10-10H270q-4,0-4-4V201q0-69-42-113Z" />
      <glyph unicode="&#xa4;" glyph-name="currency" horiz-adv-x="540" d="M473,302q0-59-32-110q-2-3 1-6l66-65q3-3 3-6q0-4-4-8L459,65q-3-3-6-3q-4,0-8,4l-62,62q-3,3-6,1Q328,97 267,97q-60,0-106,29q-3,2-6-1L95,66q-7-7-14-1L34,107q-7,8-1,14l61,60q3,3 1,6Q59,239 59,302q0,61 33,111q2,3-1,6L26,484q-3,3-3,6q0,4 4,8l47,41q3,3 6,3q4,0 8-4l62-61q3-3 6-1q51,32 111,32q63,0 114-35q3-2 6,1l65,64q8,8 14,1l47-41q8-7 1-14l-70-69q-3-3-1-6q30-49 30-107Zm-330,0q0-33 17-61.5t45.5-45T267,179t61.5,16.5t45,45T390,302t-16.5,61.5t-45,45.5T267,426t-61.5-17T160,363.5T143,302Z" />
      <glyph unicode="&#xa5;" glyph-name="yen" horiz-adv-x="687" d="M596,700q5,0 7.5-3.5T603,688L419,343q-2-5 2-5H529q10,0 10-10V292q0-10-10-10H397q-4,0-4-4V207q0-4 4-4H529q10,0 10-10V157q0-10-10-10H397q-4,0-4-4V11q0-10-10-10H307q-10,0-10,10V143q0,4-4,4H159q-10,0-10,10v36q0,10 10,10H293q4,0 4,4v71q0,4-4,4H159q-10,0-10,10v36q0,10 10,10H269q4,0 2,5L88,688q-1,2-1,5q0,7 8,7h82q9,0 12-7L342,400q1-2 3-2t3,2L502,693q3,7 12,7h82Z" />
      <glyph unicode="&#xa6;" glyph-name="brokenbar" horiz-adv-x="179" d="M52,399q-10,0-10,10V750q0,10 10,10h76q10,0 10-10V409q0-10-10-10H52ZM52-80Q42-80 42-70V271q0,10 10,10h76q10,0 10-10V-70q0-10-10-10H52Z" />
      <glyph unicode="&#xa7;" glyph-name="section" horiz-adv-x="468" d="M230-207q-80,0-126,44.5T56-42L55-14Q55-4 65-4h76q10,0 10-10V-28q0-44 23-70.5T235-125q36,0 60,25.5T319-36q0,31-16.5,50.5T262,45T192,72q-46,17-75,34.5T70,154q-23,38-23,88q0,58 27,98t74,55q6,2 1,5q-42,18-69,56T53,544q0,44 23,81.5T140,685t94,22q77,0 127-45.5T412,543V523q0-10-10-10H326q-10,0-10,10v11q0,40-23.5,65.5T233,625q-37,0-60.5-26T149,535q0-41 30.5-65T267,428q39-13 66.5-27T382,363q37-40 37-106q0-55-26-98q-27-47-72-57q-5-1-1-4q95-47 95-143q0-48-24-84.5t-66-57T230-207Zm2,361q53,0 77,38q14,23 14,57q0,40-18,62q-26,33-72,33q-24,0-44-12t-32-32q-14-21-14-54t14-54q27-38 75-38Z" />
      <glyph unicode="&#xa8;" glyph-name="dieresis" horiz-adv-x="360" d="M271,593q-28,0-46,18t-18,46t18,46t46,18t46-18t18-46t-18-46t-46-18ZM89,593q-28,0-46,18T25,657t18,46t46,18t46-18t18-46t-18-46T89,593Z" />
      <glyph unicode="&#xa9;" glyph-name="copyright" horiz-adv-x="850" d="M424-8Q321-8 239,38.5T110,167T63,351q0,101 47,182.5t129.5,128T424,708q103,0 186-46.5t130-128T787,351q0-102-47-184T610,38.5T424-8Zm0,66q84,0 151,38T680,201t38,150q0,82-38,148.5T575,604T424,642T273.5,604t-104-104.5T132,351q0-83 37.5-150t104-105T424,58Zm2,114q-52,0-83.5,29T311,279V423q0,48 31.5,77T426,529t83.5-28T541,426q0-4-3-6.5t-7-2.5H496q-10,0-10,10q0,24-16.5,39T426,481t-43-14.5T367,427V274q0-24 16-39t43-15q26,0 43,15t17,39q0,10 10,10h35q10,0 10-9q0-46-32-74.5T426,172Z" />
      <glyph unicode="&#xaa;" glyph-name="ordfeminine" horiz-adv-x="326" d="M228,565q4,0 4,4v20q0,31-19.5,51T157,660q-27,0-46-11.5T87,618q-3-9-12-8l-35,3q-11,2-9,11q6,37 40.5,60.5T157,708q60,0 95.5-31T288,596V377q0-10-10-10H242q-10,0-10,10v18q0,2-1.5,2.5T227,396q-32-35-95-35q-50,0-81,24.5T20,456q0,50 37,79.5T157,565h71ZM142,407q38,0 64,19.5T232,477v39q0,4-4,4H164q-41,0-64.5-14.5T76,461q0-27 17.5-40.5T142,407ZM19,297q0,10 10,10H286q10,0 10-10V253q0-10-10-10H29q-10,0-10,10v44Z" />
      <glyph unicode="&#xab;" glyph-name="guillemotleft" horiz-adv-x="529" d="M279,119q2-2 2-6q0-2-2-4t-6-2H198q-8,0-12,6L70,274q-4,7 0,14L186,449q4,6 12,6h75q6,0 8-3.5t-2-8.5L163,284q-1-3 0-6L279,119Zm163,0q2-2 2-6q0-2-2-4t-6-2H361q-8,0-12,6L233,274q-4,7 0,14L349,449q4,6 12,6h75q6,0 8-3.5t-2-8.5L327,284q-1-3 0-6L442,119Z" />
      <glyph unicode="&#xac;" glyph-name="logicalnot" horiz-adv-x="495" d="M35,340q0,10 10,10H450q10,0 10-10V160q0-10-10-10H386q-10,0-10,10V263q0,4-4,4H45q-10,0-10,10v63Z" />
      <glyph unicode="&#xad;" glyph-name="uni00AD" horiz-adv-x="400" d="M45,264q-10,0-10,10v63q0,10 10,10H354q10,0 10-10V274q0-10-10-10H45Z" />
      <glyph unicode="&#xae;" glyph-name="registered" horiz-adv-x="449" d="M224,712q56,0 101.5-25.5t72-70T424,518q0-56-26.5-102t-72-72T224,318q-55,0-100.5,26t-72,72T25,518q0,54 26.5,98.5t72,70T224,712Zm0-350q43,0 78,20.5t55.5,56T378,518q0,41-20.5,75.5T302,648t-78,20q-42,0-77-20T91.5,593.5T71,518q0-44 20-79.5t55.5-56T224,362Zm66,189q0-33-26-46q-3-3-2-6l25-62q1-2 1-5q0-7-8-7H261q-9,0-12,8l-23,63q-1,3-4,3H210q-4,0-4-4V435q0-10-10-10H180q-10,0-10,10V596q0,10 10,10h56q24,0 39-15.5T290,551Zm-80,24q-4,0-4-4V530q0-4 4-4h21q10,0 16.5,6.5T254,550q0,12-6,18.5T231,575H210Z" />
      <glyph unicode="&#xaf;" glyph-name="macron" horiz-adv-x="278" d="M10,588Q0,588 0,598v47q0,10 10,10H268q10,0 10-10V598q0-10-10-10H10Z" />
      <glyph unicode="&#xb0;" glyph-name="degree" horiz-adv-x="379" d="M189,481q-45,0-82.5,22T47,562.5T25,645t22,82.5t59.5,59T189,808q46,0 83.5-21.5t59.5-59T354,645t-22-82.5T272.5,503T189,481Zm0,65q42,0 71,28.5T289,645t-29,71t-71,29q-41,0-70-29T90,645t29-70.5T189,546Z" />
      <glyph unicode="&#xb1;" glyph-name="plusminus" horiz-adv-x="495" d="M450,409q10,0 10-10V336q0-10-10-10H293q-4,0-4-4V168q0-10-10-10H216q-10,0-10,10V322q0,4-4,4H45q-10,0-10,10v63q0,10 10,10H202q4,0 4,4V573q0,10 10,10h63q10,0 10-10V413q0-4 4-4H450ZM45,0Q35,0 35,10V73q0,10 10,10H450q10,0 10-10V10q0-10-10-10H45Z" />
      <glyph unicode="&#xb2;" glyph-name="uni00B2" horiz-adv-x="332" d="M44,433q-10,0-10,10v39q0,7 5,12q53,57 109,123l24,27q55,65 55,100q0,26-18,41.5T162,801t-46.5-16T98,742V729q0-10-10-10H42q-10,0-10,10v23q2,48 38.5,77T162,858q59,0 94.5-32T292,745q0-50-52-116q-48-60-116-135q-1-2 0-3.5t3-1.5H293q10,0 10-10V443q0-10-10-10H44Z" />
      <glyph unicode="&#xb3;" glyph-name="uni00B3" horiz-adv-x="323" d="M277,637q14-31 14-73q0-39-14-69q-14-33-44.5-51T161,426q-44,0-76,23T39,510q-6,17-8,44q0,10 10,10H87q10,0 10-10l3-21q1-7 4-12q6-17 21-27.5T161,483q38,0 53,31q12,21 12,52q0,35-13,57q-15,30-53,30q-10,0-22-6q-2-1-5-1q-5,0-9,4l-21,27q-3,3-3,6q0,4 4,8l97,99q2,2 1,3.5t-3,1.5H47q-10,0-10,10v36q0,10 10,10H277q10,0 10-10V802q0-5-5-12l-85-92q-3-3 3-5q53-7 77-56Z" />
      <glyph unicode="&#xb4;" glyph-name="acute" horiz-adv-x="209" d="M39,573q-6,0-8.5,3.5T31,585L90,693q3,7 12,7h67q6,0 7.5-3.5T175,688L104,580q-5-7-12-7H39Z" />
      <glyph unicode="&#xb5;" glyph-name="uni00B5" horiz-adv-x="548" d="M379,499q0,10 10,10h75q10,0 10-10V10q0-10-10-10H389q-10,0-10,10V45q0,2-1.5,2.5T374,46Q333-7 251-7Q207-7 171,8q-5,2-5-3V-190q0-10-10-10H80q-10,0-10,10V499q0,10 10,10h76q10,0 10-10V169q5-43 31.5-68T269,76q51,0 80.5,30.5T379,188V499Z" />
      <glyph unicode="&#xb6;" glyph-name="paragraph" horiz-adv-x="594" d="M506,700q10,0 10-10V-190q0-10-10-10H454q-10,0-10,10V626q0,4-4,4H322q-4,0-4-4V-190q0-10-10-10H255q-10,0-10,10V246q0,4-4,4q-60,4-108,34.5t-74.5,80T32,475q0,64 29,115t81,80.5T261,700H506Z" />
      <glyph unicode="&#xb7;" glyph-name="periodcentered" horiz-adv-x="219" d="M110,219q-28,0-46,18T46,283t18,46t46,18t46-18t18-46t-18-46t-46-18Z" />
      <glyph unicode="&#xb8;" glyph-name="cedilla" horiz-adv-x="151" d="M9-181q-9,3-7,12l5,33q1,5 4.5,6.5T19-129q11-3 22-3q19,0 31,10.5T84-90q0,38-50,78q-4,3-4,7q0,5 8,5H79q8,0 13-4q59-47 59-100q0-13-3-23q-8-33-33-47T58-188q-24,0-49,7Z" />
      <glyph unicode="&#xb9;" glyph-name="uni00B9" horiz-adv-x="188" d="M76,851q5,2 12,2h49q10,0 10-10V443q0-10-10-10H92q-10,0-10,10V790q0,3-4,3l-44-6H32q-4,0-6.5,2.5T23,796v28q0,9 8,12l45,15Z" />
      <glyph unicode="&#xba;" glyph-name="ordmasculine" horiz-adv-x="358" d="M178,367q-46,0-79,24.5T49,460q-12,32-12,78q0,47 11,78q15,44 49,68t82,24q45,0 78-24t49-67q11-30 11-78q0-47-11-79q-15-44-49-68.5T178,367Zm0,54q24,0 43,15t26,40q8,27 8,62q0,40-7,61q-8,26-27,40.5T177,654t-43-14.5T108,599q-8-24-8-61q0-32 8-62q7-25 25.5-40T178,421ZM38,243q-10,0-10,10v46q0,10 10,10H321q10,0 10-10V253q0-10-10-10H38Z" />
      <glyph unicode="&#xbb;" glyph-name="guillemotright" horiz-adv-x="529" d="M97,107q-6,0-8,3.5t2,8.5L206,278q2,3 0,6L91,443q-2,2-2,6q0,2 2,4t6,2h75q8,0 12-6L300,288q4-7 0-14L184,113q-4-6-12-6H97Zm163,0q-6,0-8,3.5t2,8.5L369,278q2,3 0,6L254,443q-2,2-2,6q0,2 2,4t6,2h75q8,0 12-6L463,288q4-7 0-14L347,113q-4-6-12-6H260Z" />
      <glyph unicode="&#xbc;" glyph-name="onequarter" horiz-adv-x="813" d="M76,698q5,2 12,2h49q10,0 10-10V290q0-10-10-10H92q-10,0-10,10V637q0,3-4,3l-44-6H32q-4,0-6.5,2.5T23,643v28q0,9 8,12l45,15ZM112,0q-6,0-8,3.5t1,8.5L522,693q5,7 12,7h50q6,0 8-3.5t-1-8.5L175,7q-5-7-12-7H112ZM763,169q10,0 10-10V120q0-10-10-10H743q-4,0-4-4V10q0-10-10-10H683q-10,0-10,10v96q0,4-4,4H491q-10,0-10,10v33q0,5 3,12L597,412q3,8 11,8h47q5,0 7.5-3.5T663,408L557,174q-1-2 0-3.5t3-1.5H669q4,0 4,4v81q0,10 10,10h46q10,0 10-10V173q0-4 4-4h20Z" />
      <glyph unicode="&#xbd;" glyph-name="onehalf" horiz-adv-x="798" d="M76,698q5,2 12,2h49q10,0 10-10V290q0-10-10-10H92q-10,0-10,10V637q0,3-4,3l-44-6H32q-4,0-6.5,2.5T23,643v28q0,9 8,12l45,15ZM112,0q-6,0-8,3.5t1,8.5L522,693q5,7 12,7h50q6,0 8-3.5t-1-8.5L175,7q-5-7-12-7H112ZM501,0q-10,0-10,10V49q0,7 5,12q53,57 109,123l24,27q55,65 55,100q0,26-18,41.5T619,368t-46.5-16T555,309V296q0-10-10-10H499q-10,0-10,10v23q2,48 38.5,77T619,425q59,0 94.5-32T749,312q0-50-52-116Q649,136 581,61q-1-2 0-3.5t3-1.5H750q10,0 10-10V10q0-10-10-10H501Z" />
      <glyph unicode="&#xbe;" glyph-name="threequarters" horiz-adv-x="907" d="M277,491q14-31 14-73q0-39-14-69q-14-33-44.5-51T161,280q-44,0-76,23T39,364q-6,17-8,44q0,10 10,10H87q10,0 10-10l3-21q1-7 4-12q6-17 21-27.5T161,337q38,0 53,31q12,21 12,52q0,35-13,57q-15,30-53,30q-10,0-22-6q-2-1-5-1q-5,0-9,4l-21,27q-3,3-3,6q0,4 4,8l97,99q2,2 1,3.5t-3,1.5H47q-10,0-10,10v36q0,10 10,10H277q10,0 10-10V656q0-5-5-12l-85-92q-3-3 3-5q53-7 77-56ZM209,0q-6,0-8,3.5t1,8.5L619,693q5,7 12,7h50q6,0 8-3.5t-1-8.5L272,7q-5-7-12-7H209ZM859,169q10,0 10-10V120q0-10-10-10H839q-4,0-4-4V10q0-10-10-10H779q-10,0-10,10v96q0,4-4,4H587q-10,0-10,10v33q0,5 3,12L693,412q3,8 11,8h47q5,0 7.5-3.5T759,408L653,174q-1-2 0-3.5t3-1.5H765q4,0 4,4v81q0,10 10,10h46q10,0 10-10V173q0-4 4-4h20Z" />
      <glyph unicode="&#xbf;" glyph-name="questiondown" horiz-adv-x="482" d="M261,499q28,0 46-18t18-46t-18-46t-46-18t-46,18t-18,46t18,46t46,18Zm36-207q10,0 10-10V232q0-45-23-74.5T217,96q-41-31-61.5-56T135-24q0-45 29-71.5T241-122q49,0 79.5,28T351-22V4q0,10 10,10l76-4q10,0 10-10V-22q0-55-26.5-97.5t-73.5-66T239-209q-91,0-146,49.5T38-27q0,44 15,76t36,52.5T143,146q35,26 51.5,45T211,237v45q0,10 10,10h76Z" />
      <glyph unicode="&#xc0;" glyph-name="Agrave" horiz-adv-x="630" d="M507,0q-9,0-12,8L459,125q-1,3-4,3H174q-3,0-4-3L134,8q-3-8-12-8H41Q30,0 33,11L252,692q3,8 12,8H364q9,0 12-8L597,11l1-4q0-7-9-7H507ZM195,209q-1-2 0.5-3.5T199,204H429q2,0 3.5,1.5T433,209L317,580q-1,2-3,2t-3-2L195,209ZM351,776q1-2 1-5t-2.5-5t-6.5-2H289q-7,0-12,7L207,879q-2,4-2,6q0,6 8,6h67q9,0 12-7l59-108Z" />
      <glyph unicode="&#xc1;" glyph-name="Aacute" horiz-adv-x="630" d="M507,0q-9,0-12,8L459,125q-1,3-4,3H174q-3,0-4-3L134,8q-3-8-12-8H41Q30,0 33,11L252,692q3,8 12,8H364q9,0 12-8L597,11l1-4q0-7-9-7H507ZM195,209q-1-2 0.5-3.5T199,204H429q2,0 3.5,1.5T433,209L317,580q-1,2-3,2t-3-2L195,209Zm77,555q-6,0-8.5,3.5T264,776l59,108q3,7 12,7h67q6,0 7.5-3.5T408,879L337,771q-5-7-12-7H272Z" />
      <glyph unicode="&#xc2;" glyph-name="Acircumflex" horiz-adv-x="630" d="M507,0q-9,0-12,8L459,125q-1,3-4,3H174q-3,0-4-3L134,8q-3-8-12-8H41Q30,0 33,11L252,692q3,8 12,8H364q9,0 12-8L597,11l1-4q0-7-9-7H507ZM195,209q-1-2 0.5-3.5T199,204H429q2,0 3.5,1.5T433,209L317,580q-1,2-3,2t-3-2L195,209ZM185,764q-6,0-8,3.5t2,8.5l79,109q4,6 13,6h85q9,0 13-6l79-109q2-2 2-6q0-2-2-4t-6-2H383q-8,0-12,6l-53,76q-1,2-3,2t-3-2l-55-76q-4-6-12-6H185Z" />
      <glyph unicode="&#xc3;" glyph-name="Atilde" horiz-adv-x="630" d="M507,0q-9,0-12,8L459,125q-1,3-4,3H174q-3,0-4-3L134,8q-3-8-12-8H41Q30,0 33,11L252,692q3,8 12,8H364q9,0 12-8L597,11l1-4q0-7-9-7H507ZM195,209q-1-2 0.5-3.5T199,204H429q2,0 3.5,1.5T433,209L317,580q-1,2-3,2t-3-2L195,209ZM377,784q-19,0-33,5t-31,15q-19,10-28.5,14T264,822q-32,0-53-22l-4-4q-2-3-5.5-3t-6.5,3l-28,28q-7,7-2,14q17,26 41,40t53,14q17,0 29.5-4.5T312,877t15-8t14.5-8t19-8.5T377,850q31,0 52,27q6,10 14,2l25-28q3-4 3.5-7t-1.5-7q-12-25-37.5-39T377,784Z" />
      <glyph unicode="&#xc4;" glyph-name="Adieresis" horiz-adv-x="630" d="M507,0q-9,0-12,8L459,125q-1,3-4,3H174q-3,0-4-3L134,8q-3-8-12-8H41Q30,0 33,11L252,692q3,8 12,8H364q9,0 12-8L597,11l1-4q0-7-9-7H507ZM195,209q-1-2 0.5-3.5T199,204H429q2,0 3.5,1.5T433,209L317,580q-1,2-3,2t-3-2L195,209ZM404,784q-28,0-46,18t-18,46t18,46t46,18t46-18t18-46t-18-46t-46-18Zm-182,0q-28,0-46,18t-18,46t18,46t46,18t46-18t18-46t-18-46t-46-18Z" />
      <glyph unicode="&#xc5;" glyph-name="Aring" horiz-adv-x="630" d="M507,0q-9,0-12,8L459,125q-1,3-4,3H174q-3,0-4-3L134,8q-3-8-12-8H41Q30,0 33,11L252,692q3,8 12,8H364q9,0 12-8L597,11l1-4q0-7-9-7H507ZM195,209q-1-2 0.5-3.5T199,204H429q2,0 3.5,1.5T433,209L317,580q-1,2-3,2t-3-2L195,209ZM313,764q-48,0-81.5,33T198,878t33.5,80.5T313,991q49,0 82-32.5T428,878t-33-81t-82-33Zm0,54q25,0 43,17.5T374,878t-18,42.5T313,938t-42.5-17.5T253,878t17.5-42.5T313,818Z" />
      <glyph unicode="&#xc6;" glyph-name="AE" horiz-adv-x="935" d="M884,627q0-10-10-10H540q-4,0-4-4V398q0-4 4-4H763q10,0 10-10V321q0-10-10-10H540q-4,0-4-4V87q0-4 4-4H874q10,0 10-10V10q0-10-10-10H450q-10,0-10,10V124q0,4-4,4H204q-2,0-4-3L139,7q-3-7-12-7H42q-5,0-7,3.5T35,12L388,693q3,7 12,7H874q10,0 10-10V627ZM242,209q-2-5 3-5H436q4,0 4,4V584q0,3-1.5,3t-3.5-2L242,209Z" />
      <glyph unicode="&#xc7;" glyph-name="Ccedilla" horiz-adv-x="607" d="M550,482q0-2-3-4.5t-7-2.5l-76-4q-10,0-10,9v3q0,64-40,103T307,625T199.5,586T159,483V217q0-64 40.5-103T307,75t107,39t40,103v2q0,9 10,9l76-4q10,0 10-10q0-63-28-112.5T442.5,23T323-9q-5,0-2-5q46-42 46-88q0-11-3-23q-8-33-33-47t-57-14q-25,0-49,7q-9,3-7,12l5,33q1,5 4.5,6.5T235-127q11-3 22-3q19,0 31,10.5T300-87q0,20-16,41.5T241-4q0,1-5,3Q157,17 110,76.5T63,221V480q0,68 30.5,119.5t86,80T307,708t127-27.5T519.5,603T550,487v-5Z" />
      <glyph unicode="&#xc8;" glyph-name="Egrave" horiz-adv-x="598" d="M547,627q0-10-10-10H182q-4,0-4-4V398q0-4 4-4H426q10,0 10-10V321q0-10-10-10H182q-4,0-4-4V87q0-4 4-4H537q10,0 10-10V10q0-10-10-10H92Q82,0 82,10V690q0,10 10,10H537q10,0 10-10V627ZM348,776q1-2 1-5t-2.5-5t-6.5-2H286q-7,0-12,7L204,879q-2,4-2,6q0,6 8,6h67q9,0 12-7l59-108Z" />
      <glyph unicode="&#xc9;" glyph-name="Eacute" horiz-adv-x="598" d="M547,627q0-10-10-10H182q-4,0-4-4V398q0-4 4-4H426q10,0 10-10V321q0-10-10-10H182q-4,0-4-4V87q0-4 4-4H537q10,0 10-10V10q0-10-10-10H92Q82,0 82,10V690q0,10 10,10H537q10,0 10-10V627ZM269,764q-6,0-8.5,3.5T261,776l59,108q3,7 12,7h67q6,0 7.5-3.5T405,879L334,771q-5-7-12-7H269Z" />
      <glyph unicode="&#xca;" glyph-name="Ecircumflex" horiz-adv-x="598" d="M547,627q0-10-10-10H182q-4,0-4-4V398q0-4 4-4H426q10,0 10-10V321q0-10-10-10H182q-4,0-4-4V87q0-4 4-4H537q10,0 10-10V10q0-10-10-10H92Q82,0 82,10V690q0,10 10,10H537q10,0 10-10V627ZM182,764q-6,0-8,3.5t2,8.5l79,109q4,6 13,6h85q9,0 13-6l79-109q2-2 2-6q0-2-2-4t-6-2H380q-8,0-12,6l-53,76q-1,2-3,2t-3-2l-55-76q-4-6-12-6H182Z" />
      <glyph unicode="&#xcb;" glyph-name="Edieresis" horiz-adv-x="598" d="M547,627q0-10-10-10H182q-4,0-4-4V398q0-4 4-4H426q10,0 10-10V321q0-10-10-10H182q-4,0-4-4V87q0-4 4-4H537q10,0 10-10V10q0-10-10-10H92Q82,0 82,10V690q0,10 10,10H537q10,0 10-10V627ZM402,784q-28,0-46,18t-18,46t18,46t46,18t46-18t18-46t-18-46t-46-18Zm-182,0q-28,0-46,18t-18,46t18,46t46,18t46-18t18-46t-18-46t-46-18Z" />
      <glyph unicode="&#xcc;" glyph-name="Igrave" horiz-adv-x="260" d="M92,0Q82,0 82,10V690q0,10 10,10h76q10,0 10-10V10q0-10-10-10H92Zm75,776q1-2 1-5t-2.5-5t-6.5-2H105q-7,0-12,7L23,879q-2,4-2,6q0,6 8,6H96q9,0 12-7l59-108Z" />
      <glyph unicode="&#xcd;" glyph-name="Iacute" horiz-adv-x="260" d="M92,0Q82,0 82,10V690q0,10 10,10h76q10,0 10-10V10q0-10-10-10H92ZM89,764q-6,0-8.5,3.5T81,776l59,108q3,7 12,7h67q6,0 7.5-3.5T225,879L154,771q-5-7-12-7H89Z" />
      <glyph unicode="&#xce;" glyph-name="Icircumflex" horiz-adv-x="260" d="M92,0Q82,0 82,10V690q0,10 10,10h76q10,0 10-10V10q0-10-10-10H92ZM2,764q-6,0-8,3.5t2,8.5L75,885q4,6 13,6h85q9,0 13-6l79-109q2-2 2-6q0-2-2-4t-6-2H200q-8,0-12,6l-53,76q-1,2-3,2t-3-2L74,770q-4-6-12-6H2Z" />
      <glyph unicode="&#xcf;" glyph-name="Idieresis" horiz-adv-x="260" d="M92,0Q82,0 82,10V690q0,10 10,10h76q10,0 10-10V10q0-10-10-10H92ZM221,784q-28,0-46,18t-18,46t18,46t46,18t46-18t18-46t-18-46t-46-18ZM39,784q-28,0-46,18t-18,46t18,46t46,18t46-18t18-46T85,802T39,784Z" />
      <glyph unicode="&#xd0;" glyph-name="Eth" horiz-adv-x="678" d="M394,700q104,0 166.5-54.5T623,500V200q0-91-62.5-145.5T394,0H153q-10,0-10,10V325q0,4-4,4H92q-10,0-10,10v48q0,10 10,10h47q4,0 4,4V690q0,10 10,10H394ZM527,486q0,60-35,95.5T398,617H243q-4,0-4-4V401q0-4 4-4H348q10,0 10-10V339q0-10-10-10H243q-4,0-4-4V87q0-4 4-4H398q58,0 93,35.5T527,214V486Z" />
      <glyph unicode="&#xd1;" glyph-name="Ntilde" horiz-adv-x="672" d="M494,690q0,10 10,10h76q10,0 10-10V10q0-10-10-10H507q-7,0-12,7L182,518q-1,3-3,2.5t-2-3.5l1-507q0-10-10-10H92Q82,0 82,10V690q0,10 10,10h74q7,0 12-7L490,182q1-3 3-2.5t2,3.5l-1,507Zm-99,94q-19,0-33,5t-31,15q-19,10-28.5,14T282,822q-32,0-53-22l-4-4q-2-3-5.5-3t-6.5,3l-28,28q-7,7-2,14q17,26 41,40t53,14q17,0 29.5-4.5T330,877t15-8t14.5-8t19-8.5T395,850q31,0 52,27q6,10 14,2l25-28q3-4 3.5-7t-1.5-7q-12-25-37.5-39T395,784Z" />
      <glyph unicode="&#xd2;" glyph-name="Ograve" horiz-adv-x="622" d="M310-9Q237-9 181,21T94,105.5T63,231V469q0,71 31,125t87,84t129,30q74,0 130-30t87-84t31-125V231q0-71-31-125.5T440,21T310-9Zm0,83q68,0 110,42t42,111V470q0,70-42,112.5T310,625T200.5,582.5T159,470V227q0-69 41.5-111T310,74Zm37,702q1-2 1-5t-2.5-5t-6.5-2H285q-7,0-12,7L203,879q-2,4-2,6q0,6 8,6h67q9,0 12-7l59-108Z" />
      <glyph unicode="&#xd3;" glyph-name="Oacute" horiz-adv-x="622" d="M310-9Q237-9 181,21T94,105.5T63,231V469q0,71 31,125t87,84t129,30q74,0 130-30t87-84t31-125V231q0-71-31-125.5T440,21T310-9Zm0,83q68,0 110,42t42,111V470q0,70-42,112.5T310,625T200.5,582.5T159,470V227q0-69 41.5-111T310,74ZM268,764q-6,0-8.5,3.5T260,776l59,108q3,7 12,7h67q6,0 7.5-3.5T404,879L333,771q-5-7-12-7H268Z" />
      <glyph unicode="&#xd4;" glyph-name="Ocircumflex" horiz-adv-x="622" d="M310-9Q237-9 181,21T94,105.5T63,231V469q0,71 31,125t87,84t129,30q74,0 130-30t87-84t31-125V231q0-71-31-125.5T440,21T310-9Zm0,83q68,0 110,42t42,111V470q0,70-42,112.5T310,625T200.5,582.5T159,470V227q0-69 41.5-111T310,74ZM181,764q-6,0-8,3.5t2,8.5l79,109q4,6 13,6h85q9,0 13-6l79-109q2-2 2-6q0-2-2-4t-6-2H379q-8,0-12,6l-53,76q-1,2-3,2t-3-2l-55-76q-4-6-12-6H181Z" />
      <glyph unicode="&#xd5;" glyph-name="Otilde" horiz-adv-x="622" d="M310-9Q237-9 181,21T94,105.5T63,231V469q0,71 31,125t87,84t129,30q74,0 130-30t87-84t31-125V231q0-71-31-125.5T440,21T310-9Zm0,83q68,0 110,42t42,111V470q0,70-42,112.5T310,625T200.5,582.5T159,470V227q0-69 41.5-111T310,74Zm63,710q-19,0-33,5t-31,15q-19,10-28.5,14T260,822q-32,0-53-22l-4-4q-2-3-5.5-3t-6.5,3l-28,28q-7,7-2,14q17,26 41,40t53,14q17,0 29.5-4.5T308,877t15-8t14.5-8t19-8.5T373,850q31,0 52,27q6,10 14,2l25-28q3-4 3.5-7t-1.5-7q-12-25-37.5-39T373,784Z" />
      <glyph unicode="&#xd6;" glyph-name="Odieresis" horiz-adv-x="622" d="M310-9Q237-9 181,21T94,105.5T63,231V469q0,71 31,125t87,84t129,30q74,0 130-30t87-84t31-125V231q0-71-31-125.5T440,21T310-9Zm0,83q68,0 110,42t42,111V470q0,70-42,112.5T310,625T200.5,582.5T159,470V227q0-69 41.5-111T310,74Zm91,710q-28,0-46,18t-18,46t18,46t46,18t46-18t18-46t-18-46t-46-18Zm-182,0q-28,0-46,18t-18,46t18,46t46,18t46-18t18-46t-18-46t-46-18Z" />
      <glyph unicode="&#xd7;" glyph-name="multiply" horiz-adv-x="430" d="M388,445q3-3 3-7t-3-7L277,320q-3-3 0-6L386,205q3-3 3-7t-3-7l-44-44q-3-3-7-3t-7,3L219,256q-3,3-6,0L102,145q-3-3-7-3t-7,3L44,189q-3,3-3,7t3,7L155,314q3,3 0,6L42,433q-3,3-3,7t3,7l44,44q3,3 7,3t7-3L213,378q3-3 6,0L330,489q3,3 7,3t7-3l44-44Z" />
      <glyph unicode="&#xd8;" glyph-name="Oslash" horiz-adv-x="622" d="M575,687q8-6 3-14l-49-74q-1-3 0-6q30-52 30-124V231q0-71-31-125.5T441,21T311-9Q223-9 160,34q-4,2-5-1L116-26q-5-8-13-3L44,8q-8,5-3,13l52,80q2,4 0,6Q64,160 64,231V469q0,71 31,125t87,84t129,30q89,0 152-43q4-2 5,1l38,58q2,4 6,5t8-2l55-40ZM160,212q0-3 1.5-3t3.5,2L414,585q2,4-1,5q-43,35-102,35q-68,0-109.5-42.5T160,470V227V212ZM462,489q-2,7-5,2L209,114q-2-4 1-5q38-35 101-35q68,0 110,42t42,111V470l-1,19Z" />
      <glyph unicode="&#xd9;" glyph-name="Ugrave" horiz-adv-x="641" d="M321-8Q248-8 192.5,20.5t-86.5,81T75,222V690q0,10 10,10h76q10,0 10-10V220q0-65 41.5-105T321,75t108,40t41,105V690q0,10 10,10h76q10,0 10-10V222q0-68-30.5-120.5t-86-81T321-8Zm37,784q1-2 1-5t-2.5-5t-6.5-2H296q-7,0-12,7L214,879q-2,4-2,6q0,6 8,6h67q9,0 12-7l59-108Z" />
      <glyph unicode="&#xda;" glyph-name="Uacute" horiz-adv-x="641" d="M321-8Q248-8 192.5,20.5t-86.5,81T75,222V690q0,10 10,10h76q10,0 10-10V220q0-65 41.5-105T321,75t108,40t41,105V690q0,10 10,10h76q10,0 10-10V222q0-68-30.5-120.5t-86-81T321-8ZM279,764q-6,0-8.5,3.5T271,776l59,108q3,7 12,7h67q6,0 7.5-3.5T415,879L344,771q-5-7-12-7H279Z" />
      <glyph unicode="&#xdb;" glyph-name="Ucircumflex" horiz-adv-x="641" d="M321-8Q248-8 192.5,20.5t-86.5,81T75,222V690q0,10 10,10h76q10,0 10-10V220q0-65 41.5-105T321,75t108,40t41,105V690q0,10 10,10h76q10,0 10-10V222q0-68-30.5-120.5t-86-81T321-8ZM192,764q-6,0-8,3.5t2,8.5l79,109q4,6 13,6h85q9,0 13-6l79-109q2-2 2-6q0-2-2-4t-6-2H390q-8,0-12,6l-53,76q-1,2-3,2t-3-2l-55-76q-4-6-12-6H192Z" />
      <glyph unicode="&#xdc;" glyph-name="Udieresis" horiz-adv-x="641" d="M321-8Q248-8 192.5,20.5t-86.5,81T75,222V690q0,10 10,10h76q10,0 10-10V220q0-65 41.5-105T321,75t108,40t41,105V690q0,10 10,10h76q10,0 10-10V222q0-68-30.5-120.5t-86-81T321-8Zm90,792q-28,0-46,18t-18,46t18,46t46,18t46-18t18-46t-18-46t-46-18Zm-182,0q-28,0-46,18t-18,46t18,46t46,18t46-18t18-46t-18-46t-46-18Z" />
      <glyph unicode="&#xdd;" glyph-name="Yacute" horiz-adv-x="585" d="M254,1q-10,0-10,10V292q0,4-1,5L35,688q-1,2-1,5q0,7 8,7h82q9,0 12-7L289,400q1-2 3-2t3,2L448,693q3,7 12,7h83q5,0 7.5-3.5T550,688L341,297q-1-1-1-5V11q0-10-10-10H254Zm-3,763q-6,0-8.5,3.5T243,776l59,108q3,7 12,7h67q6,0 7.5-3.5T387,879L316,771q-5-7-12-7H251Z" />
      <glyph unicode="&#xde;" glyph-name="Thorn" horiz-adv-x="572" d="M335,550q61,0 107.5-25.5t72-71T540,349T513,245t-74.5-70T331,150H176q-4,0-4-4V10q0-10-10-10H86Q76,0 76,10V690q0,10 10,10h76q10,0 10-10V554q0-4 4-4H335ZM322,229q55,0 88.5,32T444,347q0,55-33.5,87T322,466H176q-4,0-4-4V233q0-4 4-4H322Z" />
      <glyph unicode="&#xdf;" glyph-name="germandbls" horiz-adv-x="563" d="M81,0Q71,0 71,10V501q0,97 56.5,152.5T284,709q97,0 156.5-52T500,518q0-50-21-85.5T418,378q-5-2 0-5q42-20 66.5-66T509,200q0-95-61-147.5T276,0H224q-10,0-10,10V72q0,10 10,10h61q59,0 93.5,33.5T413,210q0,58-32,91.5T296,336H243q-10,0-10,10v56q0,10 10,10h53q50,0 79,28.5T404,517q0,49-30,79t-85,30q-54,0-88-31t-34-86V10q0-10-10-10H81Z" />
      <glyph unicode="&#xe0;" glyph-name="agrave" horiz-adv-x="517" d="M256,517q61,0 106.5-21.5t70-60T457,348V10q0-10-10-10H371q-10,0-10,10V46q0,5-5,2Q330,21 292.5,6.5T209-8Q135-8 86.5,29.5T38,143q0,78 54.5,122.5T245,310H357q4,0 4,4v27q0,44-25.5,68.5T258,434q-42,0-68.5-16.5T157,373q-3-10-12-9L64,375q-10,2-9,8q8,59 63,96.5T256,517ZM230,73q53,0 92,28t39,71v59q0,4-4,4H263q-59,0-94-23t-35-64q0-37 26.5-56T230,73Zm65,512q1-2 1-5t-2.5-5t-6.5-2H233q-7,0-12,7L151,688q-2,4-2,6q0,6 8,6h67q9,0 12-7l59-108Z" />
      <glyph unicode="&#xe1;" glyph-name="aacute" horiz-adv-x="517" d="M256,517q61,0 106.5-21.5t70-60T457,348V10q0-10-10-10H371q-10,0-10,10V46q0,5-5,2Q330,21 292.5,6.5T209-8Q135-8 86.5,29.5T38,143q0,78 54.5,122.5T245,310H357q4,0 4,4v27q0,44-25.5,68.5T258,434q-42,0-68.5-16.5T157,373q-3-10-12-9L64,375q-10,2-9,8q8,59 63,96.5T256,517ZM230,73q53,0 92,28t39,71v59q0,4-4,4H263q-59,0-94-23t-35-64q0-37 26.5-56T230,73ZM217,573q-6,0-8.5,3.5T209,585l59,108q3,7 12,7h67q6,0 7.5-3.5T353,688L282,580q-5-7-12-7H217Z" />
      <glyph unicode="&#xe2;" glyph-name="acircumflex" horiz-adv-x="517" d="M256,517q61,0 106.5-21.5t70-60T457,348V10q0-10-10-10H371q-10,0-10,10V46q0,5-5,2Q330,21 292.5,6.5T209-8Q135-8 86.5,29.5T38,143q0,78 54.5,122.5T245,310H357q4,0 4,4v27q0,44-25.5,68.5T258,434q-42,0-68.5-16.5T157,373q-3-10-12-9L64,375q-10,2-9,8q8,59 63,96.5T256,517ZM230,73q53,0 92,28t39,71v59q0,4-4,4H263q-59,0-94-23t-35-64q0-37 26.5-56T230,73ZM130,573q-6,0-8,3.5t2,8.5l79,109q4,6 13,6h85q9,0 13-6l79-109q2-2 2-6q0-2-2-4t-6-2H328q-8,0-12,6l-53,76q-1,2-3,2t-3-2l-55-76q-4-6-12-6H130Z" />
      <glyph unicode="&#xe3;" glyph-name="atilde" horiz-adv-x="517" d="M256,517q61,0 106.5-21.5t70-60T457,348V10q0-10-10-10H371q-10,0-10,10V46q0,5-5,2Q330,21 292.5,6.5T209-8Q135-8 86.5,29.5T38,143q0,78 54.5,122.5T245,310H357q4,0 4,4v27q0,44-25.5,68.5T258,434q-42,0-68.5-16.5T157,373q-3-10-12-9L64,375q-10,2-9,8q8,59 63,96.5T256,517ZM230,73q53,0 92,28t39,71v59q0,4-4,4H263q-59,0-94-23t-35-64q0-37 26.5-56T230,73Zm91,520q-19,0-33,5t-31,15q-19,10-28.5,14T208,631q-32,0-53-22l-4-4q-2-3-5.5-3t-6.5,3l-28,28q-7,7-2,14q17,26 41,40t53,14q17,0 29.5-4.5T256,686t15-8t14.5-8t19-8.5T321,659q31,0 52,27q6,10 14,2l25-28q3-4 3.5-7t-1.5-7q-12-25-37.5-39T321,593Z" />
      <glyph unicode="&#xe4;" glyph-name="adieresis" horiz-adv-x="517" d="M256,517q61,0 106.5-21.5t70-60T457,348V10q0-10-10-10H371q-10,0-10,10V46q0,5-5,2Q330,21 292.5,6.5T209-8Q135-8 86.5,29.5T38,143q0,78 54.5,122.5T245,310H357q4,0 4,4v27q0,44-25.5,68.5T258,434q-42,0-68.5-16.5T157,373q-3-10-12-9L64,375q-10,2-9,8q8,59 63,96.5T256,517ZM230,73q53,0 92,28t39,71v59q0,4-4,4H263q-59,0-94-23t-35-64q0-37 26.5-56T230,73ZM349,593q-28,0-46,18t-18,46t18,46t46,18t46-18t18-46t-18-46t-46-18Zm-182,0q-28,0-46,18t-18,46t18,46t46,18t46-18t18-46t-18-46t-46-18Z" />
      <glyph unicode="&#xe5;" glyph-name="aring" horiz-adv-x="517" d="M256,517q61,0 106.5-21.5t70-60T457,348V10q0-10-10-10H371q-10,0-10,10V46q0,5-5,2Q330,21 292.5,6.5T209-8Q135-8 86.5,29.5T38,143q0,78 54.5,122.5T245,310H357q4,0 4,4v27q0,44-25.5,68.5T258,434q-42,0-68.5-16.5T157,373q-3-10-12-9L64,375q-10,2-9,8q8,59 63,96.5T256,517ZM230,73q53,0 92,28t39,71v59q0,4-4,4H263q-59,0-94-23t-35-64q0-37 26.5-56T230,73Zm28,500q-48,0-81.5,33T143,687t33.5,80.5T258,800q49,0 82-32.5T373,687t-33-81t-82-33Zm0,54q25,0 43,17.5T319,687t-18,42.5T258,747t-42.5-17.5T198,687t17.5-42.5T258,627Z" />
      <glyph unicode="&#xe6;" glyph-name="ae" horiz-adv-x="834" d="M222-8Q140-8 89,27T38,135q0,75 54.5,119T245,298H357q4,0 4,4v32q0,45-27,72.5T254,434q-40,0-68-16.5T152,373q-3-10-12-9L64,375q-10,2-9,11q8,57 63,94t133,37q56,0 100.5-24T414,434q2-5 5,0q19,33 61.5,58T574,517q69,0 124-38.5T771,375q6-20 8.5-53t2.5-95q0-10-10-10H463q-4,0-4-4q0-1 2-39q4-45 39.5-68.5T589,82q43,0 70.5,15.5T703,145q4,9 14,3l50-32q8-6 4-13q-22-47-74-79T576-8q-55,0-98.5,22T413,71q-4,4-5,1q-24-37-74-58.5T222-8ZM458,302q0-4 4-4H683q4,0 4,4q-2,35-5,46q-8,38-38,62t-72,24t-71.5-24T463,348q-3-13-5-46ZM233,68q52,0 90,26t38,75v44q0,4-4,4H262q-60,0-94-18.5T134,142q0-34 27-54t72-20Z" />
      <glyph unicode="&#xe7;" glyph-name="ccedilla" horiz-adv-x="526" d="M388,158q1,1 0.5,2.5T389,163v4q3,8 11,6l75-12q8-2 8-8v-4q0-9-5-22q-15-54-61-89.5T307-6q-6-2-1-5q48-44 48-91q0-11-3-23q-8-33-32.5-47T262-186q-28,0-50,8q-9,3-7,12l5,33q1,5 4.5,6.5T222-126q11-3 22-3q19,0 31,10.5T287-87q0,38-54,81q-1,2-5,2Q170,6 128.5,43T70,135Q55,181 55,256q0,69 15,121q20,64 74.5,102T274,517t131-38t73-96q6-16 8-33q0-8-9-10l-75-11h-2q-7,0-10,9l-3,16q-8,34-39,57t-75,23q-43,0-73-23t-39-61q-9-36-9-95q0-58 9-94q10-40 39.5-63T273,75q44,0 75.5,23T388,158Z" />
      <glyph unicode="&#xe8;" glyph-name="egrave" horiz-adv-x="537" d="M482,318q4-41 3-92q0-10-10-10H156q-4,0-4-4q0-34 6-52q11-40 44.5-62.5T287,75q74,0 114,61q5,10 13,3l57-38q7-6 3-13q-28-45-79.5-71T278-9Q205-9 155,23T80,114Q56,173 56,257q0,73 11,111q18,69 72,109t131,40q101,0 151-50.5T482,318ZM270,434q-43,0-71-21.5T161,355q-7-22-9-56q0-4 4-4H385q4,0 4,4q-2,33-6,49q-10,39-39.5,62.5T270,434Zm35,151q1-2 1-5t-2.5-5t-6.5-2H243q-7,0-12,7L161,688q-2,4-2,6q0,6 8,6h67q9,0 12-7l59-108Z" />
      <glyph unicode="&#xe9;" glyph-name="eacute" horiz-adv-x="537" d="M482,318q4-41 3-92q0-10-10-10H156q-4,0-4-4q0-34 6-52q11-40 44.5-62.5T287,75q74,0 114,61q5,10 13,3l57-38q7-6 3-13q-28-45-79.5-71T278-9Q205-9 155,23T80,114Q56,173 56,257q0,73 11,111q18,69 72,109t131,40q101,0 151-50.5T482,318ZM270,434q-43,0-71-21.5T161,355q-7-22-9-56q0-4 4-4H385q4,0 4,4q-2,33-6,49q-10,39-39.5,62.5T270,434ZM226,573q-6,0-8.5,3.5T218,585l59,108q3,7 12,7h67q6,0 7.5-3.5T362,688L291,580q-5-7-12-7H226Z" />
      <glyph unicode="&#xea;" glyph-name="ecircumflex" horiz-adv-x="537" d="M482,318q4-41 3-92q0-10-10-10H156q-4,0-4-4q0-34 6-52q11-40 44.5-62.5T287,75q74,0 114,61q5,10 13,3l57-38q7-6 3-13q-28-45-79.5-71T278-9Q205-9 155,23T80,114Q56,173 56,257q0,73 11,111q18,69 72,109t131,40q101,0 151-50.5T482,318ZM270,434q-43,0-71-21.5T161,355q-7-22-9-56q0-4 4-4H385q4,0 4,4q-2,33-6,49q-10,39-39.5,62.5T270,434ZM139,573q-6,0-8,3.5t2,8.5l79,109q4,6 13,6h85q9,0 13-6l79-109q2-2 2-6q0-2-2-4t-6-2H337q-8,0-12,6l-53,76q-1,2-3,2t-3-2l-55-76q-4-6-12-6H139Z" />
      <glyph unicode="&#xeb;" glyph-name="edieresis" horiz-adv-x="537" d="M482,318q4-41 3-92q0-10-10-10H156q-4,0-4-4q0-34 6-52q11-40 44.5-62.5T287,75q74,0 114,61q5,10 13,3l57-38q7-6 3-13q-28-45-79.5-71T278-9Q205-9 155,23T80,114Q56,173 56,257q0,73 11,111q18,69 72,109t131,40q101,0 151-50.5T482,318ZM270,434q-43,0-71-21.5T161,355q-7-22-9-56q0-4 4-4H385q4,0 4,4q-2,33-6,49q-10,39-39.5,62.5T270,434Zm89,159q-28,0-46,18t-18,46t18,46t46,18t46-18t18-46t-18-46t-46-18Zm-182,0q-28,0-46,18t-18,46t18,46t46,18t46-18t18-46t-18-46t-46-18Z" />
      <glyph unicode="&#xec;" glyph-name="igrave" horiz-adv-x="221" d="M72,0Q62,0 62,10V499q0,10 10,10h76q10,0 10-10V10q0-10-10-10H72Zm75,585q1-2 1-5t-2.5-5t-6.5-2H85q-7,0-12,7L3,688q-2,4-2,6q0,6 8,6H76q9,0 12-7l59-108Z" />
      <glyph unicode="&#xed;" glyph-name="iacute" horiz-adv-x="221" d="M72,0Q62,0 62,10V499q0,10 10,10h76q10,0 10-10V10q0-10-10-10H72ZM69,573q-6,0-8.5,3.5T61,585l59,108q3,7 12,7h67q6,0 7.5-3.5T205,688L134,580q-5-7-12-7H69Z" />
      <glyph unicode="&#xee;" glyph-name="icircumflex" horiz-adv-x="221" d="M72,0Q62,0 62,10V499q0,10 10,10h76q10,0 10-10V10q0-10-10-10H72ZM-18,573q-6,0-8,3.5t2,8.5L55,694q4,6 13,6h85q9,0 13-6l79-109q2-2 2-6q0-2-2-4t-6-2H180q-8,0-12,6l-53,76q-1,2-3,2t-3-2L54,579q-4-6-12-6H-18Z" />
      <glyph unicode="&#xef;" glyph-name="idieresis" horiz-adv-x="221" d="M72,0Q62,0 62,10V499q0,10 10,10h76q10,0 10-10V10q0-10-10-10H72ZM201,593q-28,0-46,18t-18,46t18,46t46,18t46-18t18-46t-18-46t-46-18ZM19,593q-28,0-46,18t-18,46t18,46t46,18t46-18t18-46T65,611T19,593Z" />
      <glyph unicode="&#xf0;" glyph-name="eth" horiz-adv-x="538" d="M469,359q9-45 9-119q0-75-12-114q-20-60-73.5-97T266-8Q194-8 141,28.5T67,126Q55,164 55,240q0,40 2.5,66T67,354q13,45 47.5,75.5T197,467q27,5 53,5q30,0 57.5-6T352,448q2-2 3.5-1t0.5,4q-23,58-58,105q-2,4-5,2l-97-27l-4-1q-6,0-9,8l-9,33v3q0,7 7,10l72,21q6,2 1,5q-40,43-79,78q-3,3-3,7q0,5 8,5h82q5,0 12-5l24-26q36-39 36-39q2-2 5-1l82,23l4,1q6,0 9-8l9-34v-3q0-7-7-10l-56-16q-4-1-2-4q38-48 61-100.5T469,359ZM374,149q7,27 7,89q0,61-7,86q-10,38-38.5,60.5T266,407t-69.5-22.5T159,324q-7-22-7-86t8-89q9-38 37.5-60.5T266,66t69,22.5T374,149Z" />
      <glyph unicode="&#xf1;" glyph-name="ntilde" horiz-adv-x="542" d="M297,516q82,0 130-47.5T475,340V10q0-10-10-10H389q-10,0-10,10V321q0,50-29,81t-77,31q-47,0-77-31t-30-80V10q0-10-10-10H80Q70,0 70,10V499q0,10 10,10h76q10,0 10-10V463q0-2 1.5-3t2.5,1q43,55 127,55Zm40,77q-19,0-33,5t-31,15q-19,10-28.5,14T224,631q-32,0-53-22l-4-4q-2-3-5.5-3t-6.5,3l-28,28q-7,7-2,14q17,26 41,40t53,14q17,0 29.5-4.5T272,686t15-8t14.5-8t19-8.5T337,659q31,0 52,27q6,10 14,2l25-28q3-4 3.5-7t-1.5-7q-12-25-37.5-39T337,593Z" />
      <glyph unicode="&#xf2;" glyph-name="ograve" horiz-adv-x="541" d="M278-8Q204-8 149,29.5T72,134Q54,188 54,256q0,71 17,120q22,66 77,103.5T279,517q72,0 125.5-37.5T481,377q18-51 18-120q0-70-18-123Q459,67 405,29.5T278-8Zm0,83q40,0 70,22.5T391,161q11,38 11,94t-10,93q-13,41-43,63.5T276,434q-41,0-71-22.5T162,348q-11-35-11-93t11-94q12-41 42.5-63.5T278,75Zm29,510q1-2 1-5t-2.5-5t-6.5-2H245q-7,0-12,7L163,688q-2,4-2,6q0,6 8,6h67q9,0 12-7l59-108Z" />
      <glyph unicode="&#xf3;" glyph-name="oacute" horiz-adv-x="541" d="M278-8Q204-8 149,29.5T72,134Q54,188 54,256q0,71 17,120q22,66 77,103.5T279,517q72,0 125.5-37.5T481,377q18-51 18-120q0-70-18-123Q459,67 405,29.5T278-8Zm0,83q40,0 70,22.5T391,161q11,38 11,94t-10,93q-13,41-43,63.5T276,434q-41,0-71-22.5T162,348q-11-35-11-93t11-94q12-41 42.5-63.5T278,75ZM229,573q-6,0-8.5,3.5T221,585l59,108q3,7 12,7h67q6,0 7.5-3.5T365,688L294,580q-5-7-12-7H229Z" />
      <glyph unicode="&#xf4;" glyph-name="ocircumflex" horiz-adv-x="541" d="M278-8Q204-8 149,29.5T72,134Q54,188 54,256q0,71 17,120q22,66 77,103.5T279,517q72,0 125.5-37.5T481,377q18-51 18-120q0-70-18-123Q459,67 405,29.5T278-8Zm0,83q40,0 70,22.5T391,161q11,38 11,94t-10,93q-13,41-43,63.5T276,434q-41,0-71-22.5T162,348q-11-35-11-93t11-94q12-41 42.5-63.5T278,75ZM142,573q-6,0-8,3.5t2,8.5l79,109q4,6 13,6h85q9,0 13-6l79-109q2-2 2-6q0-2-2-4t-6-2H340q-8,0-12,6l-53,76q-1,2-3,2t-3-2l-55-76q-4-6-12-6H142Z" />
      <glyph unicode="&#xf5;" glyph-name="otilde" horiz-adv-x="541" d="M278-8Q204-8 149,29.5T72,134Q54,188 54,256q0,71 17,120q22,66 77,103.5T279,517q72,0 125.5-37.5T481,377q18-51 18-120q0-70-18-123Q459,67 405,29.5T278-8Zm0,83q40,0 70,22.5T391,161q11,38 11,94t-10,93q-13,41-43,63.5T276,434q-41,0-71-22.5T162,348q-11-35-11-93t11-94q12-41 42.5-63.5T278,75Zm55,518q-19,0-33,5t-31,15q-19,10-28.5,14T220,631q-32,0-53-22l-4-4q-2-3-5.5-3t-6.5,3l-28,28q-7,7-2,14q17,26 41,40t53,14q17,0 29.5-4.5T268,686t15-8t14.5-8t19-8.5T333,659q31,0 52,27q6,10 14,2l25-28q3-4 3.5-7t-1.5-7q-12-25-37.5-39T333,593Z" />
      <glyph unicode="&#xf6;" glyph-name="odieresis" horiz-adv-x="541" d="M278-8Q204-8 149,29.5T72,134Q54,188 54,256q0,71 17,120q22,66 77,103.5T279,517q72,0 125.5-37.5T481,377q18-51 18-120q0-70-18-123Q459,67 405,29.5T278-8Zm0,83q40,0 70,22.5T391,161q11,38 11,94t-10,93q-13,41-43,63.5T276,434q-41,0-71-22.5T162,348q-11-35-11-93t11-94q12-41 42.5-63.5T278,75Zm83,518q-28,0-46,18t-18,46t18,46t46,18t46-18t18-46t-18-46t-46-18Zm-182,0q-28,0-46,18t-18,46t18,46t46,18t46-18t18-46t-18-46t-46-18Z" />
      <glyph unicode="&#xf7;" glyph-name="divide" horiz-adv-x="495" d="M247,432q-24,0-41.5,17T188,490t17.5,41T247,548q23,0 40.5-17T305,490t-17.5-41T247,432ZM45,279q-10,0-10,10v62q0,10 10,10H450q10,0 10-10V289q0-10-10-10H45ZM247,107q-24,0-41.5,17T188,165q0,23 17.5,40.5T247,223q23,0 40.5-17.5T305,165q0-24-17.5-41T247,107Z" />
      <glyph unicode="&#xf8;" glyph-name="oslash" horiz-adv-x="530" d="M472,377q18-51 18-120q0-70-18-123Q450,67 396,29.5T269-8Q208-8 158,18q-4,2-5-1L118-34q-6-9-14-2L50,7q-7,6-2,14L87,78q2,3 0,6q-11,16-24,50Q46,185 46,256q0,73 16,120q23,66 77.5,103.5T270,517q56,0 100-22q4-2 5,1l35,51q6,9 14,2l54-42q7-6 2-14l-37-54q-1-3 0-6q16-21 29-56ZM143,255q0-44 6-79q1-2 3-2.5t3,1.5L322,417q2,5-2,6q-22,11-52,11q-42,0-72-22.5T153,348q-10-31-10-93Zm239-94q11,33 11,94q0,52-8,87v1l-2,7h-1L206,95q-2-4 2-5q27-15 61-15q40,0 70,22.5T382,161Z" />
      <glyph unicode="&#xf9;" glyph-name="ugrave" horiz-adv-x="541" d="M373,499q0,10 10,10h75q10,0 10-10V10q0-10-10-10H383q-10,0-10,10V47q0,2-1.5,2.5T368,48Q328-7 245-7q-49,0-90.5,19T88,68T63,158V499q0,10 10,10h75q10,0 10-10V188q0-52 27.5-82T263,76t80,30.5T373,188V499Zm-66,86q1-2 1-5t-2.5-5t-6.5-2H245q-7,0-12,7L163,688q-2,4-2,6q0,6 8,6h67q9,0 12-7l59-108Z" />
      <glyph unicode="&#xfa;" glyph-name="uacute" horiz-adv-x="541" d="M373,499q0,10 10,10h75q10,0 10-10V10q0-10-10-10H383q-10,0-10,10V47q0,2-1.5,2.5T368,48Q328-7 245-7q-49,0-90.5,19T88,68T63,158V499q0,10 10,10h75q10,0 10-10V188q0-52 27.5-82T263,76t80,30.5T373,188V499ZM228,573q-6,0-8.5,3.5T220,585l59,108q3,7 12,7h67q6,0 7.5-3.5T364,688L293,580q-5-7-12-7H228Z" />
      <glyph unicode="&#xfb;" glyph-name="ucircumflex" horiz-adv-x="541" d="M373,499q0,10 10,10h75q10,0 10-10V10q0-10-10-10H383q-10,0-10,10V47q0,2-1.5,2.5T368,48Q328-7 245-7q-49,0-90.5,19T88,68T63,158V499q0,10 10,10h75q10,0 10-10V188q0-52 27.5-82T263,76t80,30.5T373,188V499ZM142,573q-6,0-8,3.5t2,8.5l79,109q4,6 13,6h85q9,0 13-6l79-109q2-2 2-6q0-2-2-4t-6-2H340q-8,0-12,6l-53,76q-1,2-3,2t-3-2l-55-76q-4-6-12-6H142Z" />
      <glyph unicode="&#xfc;" glyph-name="udieresis" horiz-adv-x="541" d="M373,499q0,10 10,10h75q10,0 10-10V10q0-10-10-10H383q-10,0-10,10V47q0,2-1.5,2.5T368,48Q328-7 245-7q-49,0-90.5,19T88,68T63,158V499q0,10 10,10h75q10,0 10-10V188q0-52 27.5-82T263,76t80,30.5T373,188V499Zm-12,94q-28,0-46,18t-18,46t18,46t46,18t46-18t18-46t-18-46t-46-18Zm-182,0q-28,0-46,18t-18,46t18,46t46,18t46-18t18-46t-18-46t-46-18Z" />
      <glyph unicode="&#xfd;" glyph-name="yacute" horiz-adv-x="476" d="M55-199q-7,0-7,10v59q0,10 10,10h2q40,1 63,10t38,33.5T190-3q1,1 0.5,3.5T190,3L23,498l-1,4q0,7 9,7h81q9,0 12-8L237,124q1-2 3-2t3,2L355,501q3,8 12,8h79q11,0 8-11L272-35q-23-69-46-102.5T166-185T62-199H55ZM196,579q-6,0-8.5,3.5T188,591l59,108q3,7 12,7h67q6,0 7.5-3.5T332,694L261,586q-5-7-12-7H196Z" />
      <glyph unicode="&#xfe;" glyph-name="thorn" horiz-adv-x="544" d="M476,383q8-26 10.5-56t2.5-73q0-42-2-69t-8-50Q462,70 412,31T296-8Q214-8 171,53q-1,2-3,1t-2-3V-190q0-10-10-10H80q-10,0-10,10V690q0,10 10,10h76q10,0 10-10V461q0-2 2-3t3,1q40,58 122,58q68,0 117-37.5T476,383ZM380,158q5,17 7,35.5t2,61.5t-2,61.5T380,351q-9,37-38.5,60T271,434t-68-22.5T168,354l-1-3l-1-2V160q0-3 1-4q9-35 36-58t68-23q42,0 71.5,23T380,158Z" />
      <glyph unicode="&#xff;" glyph-name="ydieresis" horiz-adv-x="476" d="M55-199q-7,0-7,10v59q0,10 10,10h2q40,1 63,10t38,33.5T190-3q1,1 0.5,3.5T190,3L23,498l-1,4q0,7 9,7h81q9,0 12-8L237,124q1-2 3-2t3,2L355,501q3,8 12,8h79q11,0 8-11L272-35q-23-69-46-102.5T166-185T62-199H55ZM329,599q-28,0-46,18t-18,46t18,46t46,18t46-18t18-46t-18-46t-46-18Zm-182,0q-28,0-46,18T83,663t18,46t46,18t46-18t18-46t-18-46t-46-18Z" />
      <glyph unicode="&#x2013;" glyph-name="endash" horiz-adv-x="460" d="M45,241q-10,0-10,10v64q0,10 10,10H414q10,0 10-10V251q0-10-10-10H45Z" />
      <glyph unicode="&#x2014;" glyph-name="emdash" horiz-adv-x="676" d="M45,242q-10,0-10,10v63q0,10 10,10H631q10,0 10-10V252q0-10-10-10H45Z" />
      <glyph unicode="&#x2018;" glyph-name="quoteleft" horiz-adv-x="163" d="M13,488q-5,0-7.5,3.5T5,500L83,692q3,8 11,8h57q5,0 7.5-3t1.5-8L102,496q-3-8-12-8H13Z" />
      <glyph unicode="&#x2019;" glyph-name="quoteright" horiz-adv-x="163" d="M150,700q5,0 7.5-3.5T158,688L80,496q-3-8-11-8H12q-5,0-7.5,3T3,499L61,692q3,8 12,8h77Z" />
      <glyph unicode="&#x201a;" glyph-name="quotesinglbase" horiz-adv-x="600" d="M67-86q-5,0-7.5,3T58-75L98,147q2,9 11,9h66q5,0 7.5-3t1.5-8L125-77q-2-9-11-9H67Z" />
      <glyph unicode="&#x201c;" glyph-name="quotedblleft" horiz-adv-x="301" d="M12,488q-5,0-7.5,3.5T4,500L76,692q3,8 11,8h54q5,0 7.5-3t1.5-8L97,497q-2-9-11-9H12Zm149,0q-5,0-7.5,3.5T153,500l71,192q3,8 11,8h54q5,0 7.5-3t1.5-8L246,497q-2-9-11-9H161Z" />
      <glyph unicode="&#x201d;" glyph-name="quotedblright" horiz-adv-x="301" d="M140,700q5,0 7.5-3.5T148,688L77,496q-3-8-11-8H12q-5,0-7.5,3T3,499L55,691q2,9 11,9h74Zm149,0q5,0 7.5-3.5T297,688L225,496q-3-8-11-8H160q-5,0-7.5,3t-1.5,8l53,192q2,9 11,9h74Z" />
      <glyph unicode="&#x201e;" glyph-name="quotedblbase" horiz-adv-x="313" d="M140,128q5,0 7.5-3.5T148,116L77-76q-3-8-11-8H12q-5,0-7.5,3T3-73L55,119q2,9 11,9h74Zm149,0q5,0 7.5-3.5T297,116L225-76q-3-8-11-8H160q-5,0-7.5,3T151-73l53,192q2,9 11,9h74Z" />
      <glyph unicode="&#x2022;" glyph-name="bullet" horiz-adv-x="311" d="M156,150q-50,0-85.5,35.5T35,271t35.5,84.5T156,390t85-34.5T276,271t-35-85.5T156,150Z" />
      <glyph unicode="&#x2039;" glyph-name="guilsinglleft" horiz-adv-x="353" d="M262,119q2-2 2-6q0-2-2-4t-6-2H181q-8,0-12,6L54,274q-4,7 0,14L169,449q4,6 12,6h75q6,0 8-3.5t-2-8.5L147,284q-1-3 0-6L262,119Z" />
      <glyph unicode="&#x203a;" glyph-name="guilsinglright" horiz-adv-x="383" d="M97,107q-6,0-8,3.5t2,8.5L206,278q2,3 0,6L91,443q-2,2-2,6q0,2 2,4t6,2h75q8,0 12-6L300,288q4-7 0-14L184,113q-4-6-12-6H97Z" />
    </font>
</defs>
</svg>
