<?xml version="1.0" standalone="no"?>
<!DOCTYPE svg PUBLIC "-//W3C//DTD SVG 1.1//EN" "http://www.w3.org/Graphics/SVG/1.1/DTD/svg11.dtd">
<svg xmlns="http://www.w3.org/2000/svg">
  <defs>
    <font id="Poppins" horiz-adv-x="873">
      <font-face font-family="Poppins" units-per-em="1000" panose-1="0 0 8 0 0 0 0 0 0 0" ascent="1050" descent="-350" alphabetic="0" />
      <glyph unicode=" " glyph-name="space" horiz-adv-x="212" />
      <glyph unicode="!" glyph-name="exclam" horiz-adv-x="392" d="M287,727L267,248H122L102,727H287ZM197-8q-45,0-73.5,26.5T95,84q0,40 28.5,67T197,178q44,0 72.5-27T298,84q0-39-28.5-65.5T197-8Z" />
      <glyph unicode="&quot;" glyph-name="quotedbl" horiz-adv-x="411" d="M181,800L168,579H53L40,800H181Zm190,0L358,579H243L230,800H371Z" />
      <glyph unicode="#" glyph-name="numbersign" horiz-adv-x="904" d="M715,438L687,307H807V153H654L621,0H461l33,153H328L295,0H135l33,153H20V307H201l28,131H84V592H261l32,148H453L421,592H587l32,148H779L747,592H871V438H715Zm-160,0H389L361,307H527l28,131Z" />
      <glyph unicode="$" glyph-name="dollar" horiz-adv-x="658" d="M593,204q0-55-28.5-101.5t-84-76T349-6V-87H285V-5Q179,4 114,58.5T45,207H227q6-60 58-77V288q-78,20-124.5,39T79,388T44,503q0,91 67.5,146T285,711v81h64V711q105-8 166-61t68-147H400q-6,54-51,70V418q83-23 128-41t80.5-59.5T593,204ZM225,511q0-25 15.5-42T285,439V578q-28-5-44-21.5T225,511ZM349,127q30,5 47.5,24T414,198q0,26-16.5,42.5T349,269V127Z" />
      <glyph unicode="%" glyph-name="percent" horiz-adv-x="870" d="M31,546q0,81 46.5,125T198,715t120-44t46-125T318,421T198,377T77.5,421T31,546ZM710,704L325,0H160L545,704H710ZM197,615q-48,0-48-69q0-68 48-68q23,0 36,17t13,51q0,69-49,69ZM507,158q0,81 46,125t120,44t120-44t46-125T793,33T673-11T553,33T507,158Zm165,69q-23,0-35.5-17T624,158q0-68 48-68q23,0 36,17t13,51t-13,51.5T672,227Z" />
      <glyph unicode="&amp;" glyph-name="ampersand" horiz-adv-x="798" d="M599,0L534,63Q437-11 302-11q-81,0-141,26.5t-92.5,75T36,204q0,66 35.5,119.5T178,411q-26,32-37,61.5T130,537q0,50 26,91t75.5,64.5T349,716q69,0 117-25t72-67t22-92H399q1,27-13.5,41.5T347,588t-40-14t-16-36q0-21 13.5-44T347,441L518,274q2,5 5.5,12t7.5,16l37,63H739l-48-87q-27-59-62-112L798,0H599ZM310,127q67,0 119,38L273,316q-72-37-72-100q0-38 29.5-63.5T310,127Z" />
      <glyph unicode="&apos;" glyph-name="quotesingle" horiz-adv-x="221" d="M181,800L168,579H53L40,800H181Z" />
      <glyph unicode="(" glyph-name="parenleft" horiz-adv-x="477" d="M292-209Q195-116 141,31T87,348q0,172 56,321.5T302,913H470V897Q365,793 308,647.5T251,348q0-153 55-295T461-193v-16H292Z" />
      <glyph unicode=")" glyph-name="parenright" horiz-adv-x="477" d="M16-209v16Q116-89 171,53t55,295q0,154-57,299.5T7,897v16H175q103-94 159-243.5T390,348q0-170-54-317T185-209H16Z" />
      <glyph unicode="*" glyph-name="asterisk" horiz-adv-x="534" d="M407,695l56-102L340,550l123-42L403,402L303,490l25-130H211l24,130l-99-89L74,509l123,43L75,592l57,103l104-87L210,740H329L303,608l104,87Z" />
      <glyph unicode="+" glyph-name="plus" horiz-adv-x="628" d="M569,273H395V95H233V273H59V426H233V605H395V426H569V273Z" />
      <glyph unicode="," glyph-name="comma" horiz-adv-x="287" d="M246,158L135-129H26L84,158H246Z" />
      <glyph unicode="-" glyph-name="hyphen" horiz-adv-x="580" d="M492,422V280H52V422H492Z" />
      <glyph unicode="." glyph-name="period" horiz-adv-x="282" d="M142-8Q97-8 68.5,18.5T40,84q0,40 28.5,67T142,178q44,0 72.5-27T243,84q0-39-28.5-65.5T142-8Z" />
      <glyph unicode="/" glyph-name="slash" horiz-adv-x="453" d="M443,950L175-187H10L278,950H443Z" />
      <glyph unicode="0" glyph-name="zero" horiz-adv-x="652" d="M45,375q0,172 66.5,271T326,745t214.5-99T607,375q0-174-66.5-273T326,3T111.5,102T45,375Zm394,0q0,101-22,155.5T326,585t-91-54.5T213,375q0-68 8-112.5t32.5-72T326,163t72.5,27.5t32.5,72T439,375Z" />
      <glyph unicode="1" glyph-name="one" horiz-adv-x="376" d="M27,571V730H304V0H126V571H27Z" />
      <glyph unicode="2" glyph-name="two" horiz-adv-x="571" d="M39,137q34,27 31,25q98,81 154.5,133T320,404t39,111q0,41-19,64t-57,23t-59.5-28.5T202,493H37q2,85 36.5,142t91,84T290,746q119,0 179.5-61T530,526q0-107-73-198.5T271,149H541V10H39V137Z" />
      <glyph unicode="3" glyph-name="three" horiz-adv-x="605" d="M51,524q4,107 70,165t179,58q75,0 128.5-26t81-71T537,549q0-66-33-107.5T427,385v-4q57-19 90-63t33-113q0-62-28.5-109.5T438.5,21T309-6Q189-6 117.5,53T42,231H208q1-44 25-69.5T303,136q39,0 60.5,22.5T385,218q0,48-30.5,69.5T257,309H225V448h32q51,0 82.5,17.5T371,528q0,36-20,56t-55,20q-38,0-56.5-23T218,524H51Z" />
      <glyph unicode="4" glyph-name="four" horiz-adv-x="677" d="M49,130V268L365,720H556V278h82V130H556V0H385V130H49ZM397,532L229,278H397V532Z" />
      <glyph unicode="5" glyph-name="five" horiz-adv-x="650" d="M559,581H247V443q20,22 56,36t78,14q75,0 124.5-34T578,371t23-117q0-117-66-185.5T349,0Q269,0 210,27.5T119,104T84,217H251q6-31 29-51.5T343,145q47,0 70,30t23,80q0,49-24,75t-70,26q-34,0-56-16.5T257,296H92V731H559V581Z" />
      <glyph unicode="6" glyph-name="six" horiz-adv-x="637" d="M406,533q-8,37-28,55.5T321,607q-57,0-82-49.5T213,401q22,35 63.5,55T368,476q98,0 157.5-62T585,241q0-73-29.5-128t-86-86T336-4Q182-4 122,92.5T62,370q0,190 63.5,282.5T329,745q75,0 126.5-29.5t78-77.5T565,533H406ZM327,341q-43,0-71.5-25.5T227,243q0-48 26.5-75T329,141q44,0 69.5,26.5T424,240q0,47-25,74t-72,27Z" />
      <glyph unicode="7" glyph-name="seven" horiz-adv-x="535" d="M511,602L260,0H85L339,583H28V729H511V602Z" />
      <glyph unicode="8" glyph-name="eight" horiz-adv-x="648" d="M165,392Q71,442 71,549q0,54 28,98.5t85,71T324,745t139.5-26.5t84.5-71T576,549t-25.5-94T482,392q54-26 83-71.5T594,214q0-71-36-122.5T460.5,13T324-14T187.5,13T90,91.5T54,214q0,62 29,107.5T165,392ZM410,523q0,41-23.5,63.5T324,609t-62.5-23T238,522q0-39 24-61.5T324,438t62,23t24,62ZM324,318q-47,0-76-25.5T219,222q0-42 28.5-69T324,126t75.5,27T427,222q0,44-28.5,70T324,318Z" />
      <glyph unicode="9" glyph-name="nine" horiz-adv-x="615" d="M229,214q15-79 92-79q53,0 75,47t22,153q-22-31-60-48t-85-17q-64,0-114,26.5t-78.5,79T52,503q0,74 30.5,129t87,85T303,747q148,0 207-92t59-271q0-130-23.5-214.5T466.5,41T315-3Q239-3 185.5,27t-82,79T71,214H229Zm83,191q42,0 67,25.5T404,500q0,48-26,74t-70,26t-69.5-26.5T213,501q0-43 25.5-69.5T312,405Z" />
      <glyph unicode=":" glyph-name="colon" horiz-adv-x="284" d="M142-8Q97-8 68.5,18.5T40,84q0,40 28.5,67T142,178q44,0 72.5-27T243,84q0-39-28.5-65.5T142-8Zm0,407q-45,0-73.5,26.5T40,491q0,40 28.5,67T142,585q44,0 72.5-27T243,491q0-39-28.5-65.5T142,399Z" />
      <glyph unicode=";" glyph-name="semicolon" horiz-adv-x="347" d="M171,391q-45,0-73.5,26.5T69,483q0,40 28.5,67T171,577q44,0 72.5-27T272,483q0-39-28.5-65.5T171,391Zm99-233L159-129H50l58,287H270Z" />
      <glyph unicode="&lt;" glyph-name="less" horiz-adv-x="551" d="M260,129L57,350L260,571H475L271,350L475,129H260Z" />
      <glyph unicode="=" glyph-name="equal" horiz-adv-x="696" d="M628,553V402H68V553H628Zm0-255V147H68V298H628Z" />
      <glyph unicode="&gt;" glyph-name="greater" horiz-adv-x="541" d="M63,571H278L481,350L278,129H63L267,350L63,571Z" />
      <glyph unicode="?" glyph-name="question" horiz-adv-x="538" d="M267,741q107,0 171.5-56T503,527q0-94-61.5-146.5T279,327l-5-75H124l-5,186h60q77,0 117.5,19T337,526q0,35-19,55t-53,20q-36,0-56-20.5T189,525H28q-2,61 25.5,110t82,77.5T267,741ZM201-8q-45,0-73.5,26.5T99,84q0,40 28.5,67T201,178q44,0 72.5-27T302,84q0-39-28.5-65.5T201-8Z" />
      <glyph unicode="@" glyph-name="at" horiz-adv-x="1080" d="M618,668q118,0 206-44.5t135.5-125T1007,313q0-85-29.5-158t-87-116.5T754-5q-53,0-87.5,21T620,75q-28-39-72-60.5T452-7Q378-7 335.5,37.5T293,159q0,73 30,137.5T406,400t119,39q84,0 114-60l9,53H786L742,181q-3-18-3-32q0-44 39-44q48,0 73.5,61.5T877,308q0,115-72.5,180T601,553q-112,0-203.5-54T254,351.5T202,146q0-121 70.5-188T470-109q99,0 177,36l27-109q-98-43-220-43q-114,0-200.5,44T120-56T73,133q0,151 71,273.5t195.5,192T618,668ZM508,116q28,0 52.5,17t39,45.5T614,240q0,34-19,55.5T543,317q-44,0-73-38t-29-90q0-33 17-53t50-20Z" />
      <glyph unicode="A" glyph-name="A" horiz-adv-x="737" d="M499,124H237L195,0H16L270,702H468L722,0H541L499,124ZM455,256L368,513L282,256H455Z" />
      <glyph unicode="B" glyph-name="B" horiz-adv-x="659" d="M487,360q61-13 98-60.5T622,191q0-88-61.5-139.5T389,0H62V702H378q107,0 167.5-49T606,520q0-62-32.5-103T487,360ZM233,418H345q42,0 64.5,18.5T432,491t-22.5,55T345,565H233V418ZM359,138q43,0 66.5,19.5T449,214t-24.5,58T357,293H233V138H359Z" />
      <glyph unicode="C" glyph-name="C" horiz-adv-x="762" d="M33,352q0,104 45,185.5t125.5,127T386,710q125,0 214-66T719,464H531q-21,44-59.5,67T384,554q-79,0-128-55T207,352t49-147t128-55q49,0 87.5,23T531,240H719Q689,126 600,60.5T386-5Q284-5 203.5,40.5T78,167T33,352Z" />
      <glyph unicode="D" glyph-name="D" horiz-adv-x="727" d="M325,702q111,0 194-44T647.5,534.5T693,351q0-103-45.5-183T518.5,44T325,0H62V702H325ZM314,148q97,0 151,53t54,150T465,502T314,556H233V148h81Z" />
      <glyph unicode="E" glyph-name="E" horiz-adv-x="541" d="M233,565V423H462V291H233V137H492V0H62V702H492V565H233Z" />
      <glyph unicode="F" glyph-name="F" horiz-adv-x="547" d="M519,702V565H233V417H447V284H233V0H62V702H519Z" />
      <glyph unicode="G" glyph-name="G" horiz-adv-x="762" d="M528,480q-19,35-54.5,53.5T390,552q-83,0-133-54.5T207,352q0-97 52.5-151.5T404,146q63,0 106.5,32T574,270H357V396H729V237q-19-64-64.5-119T549,29T391-5Q287-5 205.5,40.5T78.5,167T33,352T78.5,537.5T205,664.5T390,710q126,0 212.5-61T717,480H528Z" />
      <glyph unicode="H" glyph-name="H" horiz-adv-x="731" d="M670,702V0H499V289H233V0H62V702H233V427H499V702H670Z" />
      <glyph unicode="I" glyph-name="I" horiz-adv-x="295" d="M233,702V0H62V702H233Z" />
      <glyph unicode="J" glyph-name="J" horiz-adv-x="578" d="M502,702V224q0-111-62.5-171T271-7Q160-7 93,56T26,235H196q0-44 18-66.5T266,146q31,0 48,20t17,58V702H502Z" />
      <glyph unicode="K" glyph-name="K" horiz-adv-x="697" d="M469,0L233,310V0H62V702H233V394L467,702H668L396,358L678,0H469Z" />
      <glyph unicode="L" glyph-name="L" horiz-adv-x="477" d="M233,132H457V0H62V702H233V132Z" />
      <glyph unicode="M" glyph-name="M" horiz-adv-x="918" d="M857,702V0H686V421L529,0H391L233,422V0H62V702H264L461,216L656,702H857Z" />
      <glyph unicode="N" glyph-name="N" horiz-adv-x="752" d="M690,0H519L233,433V0H62V702H233L519,267V702H690V0Z" />
      <glyph unicode="O" glyph-name="O" horiz-adv-x="786" d="M394-7Q295-7 212.5,39T81.5,167.5T33,353T81.5,538t131,128T394,712t181.5-46t130-128T753,353T705,167.5T575,39T394-7Zm0,156q84,0 134.5,56T579,353q0,93-50.5,148.5T394,557q-85,0-135.5-55T208,353q0-93 50.5-148.5T394,149Z" />
      <glyph unicode="P" glyph-name="P" horiz-adv-x="624" d="M597,476q0-61-28-111.5T483,283T339,252H233V0H62V702H339q84,0 142-29t87-80t29-117ZM326,388q49,0 73,23t24,65t-24,65t-73,23H233V388h93Z" />
      <glyph unicode="Q" glyph-name="Q" horiz-adv-x="788" d="M562-120L472,1q-40-8-78-8Q295-7 212.5,39T81.5,167.5T33,353T81.5,538t131,128T394,712t181.5-46t130-128T753,353q0-90-36.5-164.5T615,65L769-120H562ZM208,353q0-93 50.5-148.5T394,149q84,0 134.5,56T579,353q0,93-50.5,148.5T394,557q-85,0-135.5-55T208,353Z" />
      <glyph unicode="R" glyph-name="R" horiz-adv-x="652" d="M420,0L274,265H233V0H62V702H349q83,0 141.5-29T578,593.5T607,481q0-70-39.5-125T451,278L613,0H420ZM233,386H339q47,0 70.5,23T433,474q0,40-23.5,63T339,560H233V386Z" />
      <glyph unicode="S" glyph-name="S" horiz-adv-x="615" d="M316-7Q239-7 178,18T80.5,92T42,210H224q4-39 27-59.5T311,130q38,0 60,17.5T393,196q0,26-17.5,43t-43,28T260,292q-68,21-111,42T75,396T44,503q0,98 71,153.5T300,712q116,0 187-55.5T563,502H378q-2,34-25,53.5T294,575q-31,0-50-16.5T225,511q0-34 32-53t100-41q68-23 110.5-44T541,312t31-103q0-60-30.5-109T453,22T316-7Z" />
      <glyph unicode="T" glyph-name="T" horiz-adv-x="591" d="M567,702V565H381V0H210V565H24V702H567Z" />
      <glyph unicode="U" glyph-name="U" horiz-adv-x="705" d="M230,702V282q0-63 31-97t91-34t92,34t32,97V702H647V283q0-94-40-159T499.5,26T349-7T200.5,25.5T97,123.5T59,283V702H230Z" />
      <glyph unicode="V" glyph-name="V" horiz-adv-x="730" d="M721,702L472,0H258L9,702H191L365,172L540,702H721Z" />
      <glyph unicode="W" glyph-name="W" horiz-adv-x="1052" d="M1028,702L845,0H638L526,462L410,0H203L25,702H208L309,191L434,702H622L742,191L844,702h184Z" />
      <glyph unicode="X" glyph-name="X" horiz-adv-x="715" d="M492,0L349,215L223,0H29L254,357L24,702H223L364,490L488,702H682L459,348L691,0H492Z" />
      <glyph unicode="Y" glyph-name="Y" horiz-adv-x="671" d="M664,702L421,232V0H250V232L7,702H201L337,408L472,702H664Z" />
      <glyph unicode="Z" glyph-name="Z" horiz-adv-x="596" d="M244,140H546V0H50V130L350,562H50V702H546V572L244,140Z" />
      <glyph unicode="[" glyph-name="bracketleft" horiz-adv-x="510" d="M420,913V775H280V-70H420V-209H120V913H420Z" />
      <glyph unicode="\" glyph-name="backslash" horiz-adv-x="802" d="M451-187L183,950H348L616-187H451Z" />
      <glyph unicode="]" glyph-name="bracketright" horiz-adv-x="510" d="M390-209H90V-70H230V775H90V913H390V-209Z" />
      <glyph unicode="^" glyph-name="asciicircum" horiz-adv-x="709" d="M202,165H30L272,704H438L679,165H507L355,506L202,165Z" />
      <glyph unicode="_" glyph-name="underscore" horiz-adv-x="780" d="M705-41V-205H85V-41H705Z" />
      <glyph unicode="`" glyph-name="grave" horiz-adv-x="291" d="M251,714V596L10,697V830L251,714Z" />
      <glyph unicode="a" glyph-name="a" horiz-adv-x="679" d="M28,280q0,86 32.5,151T149,531t125,35q59,0 103.5-24T446,479v79H617V0H446V79q-25-39-69.5-63T273-8Q205-8 149,27.5t-88.5,101T28,280Zm418-1q0,64-35.5,101T324,417t-86.5-36.5T202,280t35.5-101.5T324,141t86.5,37T446,279Z" />
      <glyph unicode="b" glyph-name="b" horiz-adv-x="679" d="M233,479q24,39 69,63t103,24q69,0 125-35t88.5-100T651,280T618.5,128.5T530,27.5T405-8Q346-8 302,15.5T233,78V0H62V740H233V479ZM477,280q0,64-35.5,100.5T354,417q-51,0-86.5-37T232,279t35.5-101T354,141t87,37.5T477,280Z" />
      <glyph unicode="c" glyph-name="c" horiz-adv-x="605" d="M28,279q0,87 35.5,152t99,100T308,566q105,0 175.5-55T576,356H394q-23,64-89,64q-47,0-75-36.5T202,279t28-104.5T305,138q66,0 89,64H576q-22-98-93-154T308-8Q226-8 162.5,27t-99,100T28,279Z" />
      <glyph unicode="d" glyph-name="d" horiz-adv-x="679" d="M28,280q0,86 32.5,151T149,531t125,35q55,0 100.5-23T446,481V740H617V0H446V80q-24-40-68.5-64T274-8Q205-8 149,27.5t-88.5,101T28,280Zm418-1q0,64-35.5,101T324,417t-86.5-36.5T202,280t35.5-101.5T324,141t86.5,37T446,279Z" />
      <glyph unicode="e" glyph-name="e" horiz-adv-x="616" d="M588,288q0-24-3-50H198q4-52 33.5-79.5T304,131q64,0 89,54H575q-14-55-50.5-99T433,17T310-8Q228-8 164,27T64,127T28,279T63.5,431T163,531t147,35q81,0 144-34t98.5-97T588,288ZM413,333q0,44-30,70t-75,26q-43,0-72.5-25T199,333H413Z" />
      <glyph unicode="f" glyph-name="f" horiz-adv-x="360" d="M342,416H250V0H79V416H17V558H79v16q0,103 59,156.5T311,784q19,0 28-1V638q-49,3-69-14t-20-61v-5h92V416Z" />
      <glyph unicode="g" glyph-name="g" horiz-adv-x="679" d="M274,566q59,0 103.5-24T446,479v79H617V1q0-77-30.5-139.5t-93-99.5T338-275q-124,0-201,58.5T49-58H218q8-32 38-50.5T330-127q53,0 84.5,30.5T446,1V80q-25-39-69-63.5T274-8Q205-8 149,27.5t-88.5,101T28,280T60.5,431T149,531t125,35ZM446,279q0,64-35.5,101T324,417t-86.5-36.5T202,280t35.5-101.5T324,141t86.5,37T446,279Z" />
      <glyph unicode="h" glyph-name="h" horiz-adv-x="674" d="M405,564q96,0 154-63.5T617,326V0H447V303q0,56-29,87t-78,31t-78-31t-29-87V0H62V740H233V483q26,37 71,59t101,22Z" />
      <glyph unicode="i" glyph-name="i" horiz-adv-x="295" d="M148,616q-45,0-73.5,26.5T46,708q0,40 28.5,66.5T148,801q44,0 72.5-26.5T249,708q0-39-28.5-65.5T148,616Zm85-58V0H62V558H233Z" />
      <glyph unicode="j" glyph-name="j" horiz-adv-x="294" d="M147,616q-45,0-73.5,26.5T45,708q0,40 28.5,66.5T147,801q44,0 72.5-26.5T248,708q0-39-28.5-65.5T147,616ZM233-72q0-103-52-148.5T36-266H-31v145H10q28,0 40,11T62-74V558H233V-72Z" />
      <glyph unicode="k" glyph-name="k" horiz-adv-x="618" d="M403,0L233,234V0H62V740H233V331L402,558H613L381,278L615,0H403Z" />
      <glyph unicode="l" glyph-name="l" horiz-adv-x="295" d="M233,740V0H62V740H233Z" />
      <glyph unicode="m" glyph-name="m" horiz-adv-x="1059" d="M774,564q104,0 165.5-63T1001,326V0H831V303q0,54-28.5,83.5T724,416t-78.5-29.5T617,303V0H447V303q0,54-28.5,83.5T340,416t-78.5-29.5T233,303V0H62V558H233V488q26,35 68,55.5T396,564q63,0 112.5-27T586,460q29,46 79,75t109,29Z" />
      <glyph unicode="n" glyph-name="n" horiz-adv-x="674" d="M402,564q98,0 156.5-63.5T617,326V0H447V303q0,56-29,87t-78,31t-78-31t-29-87V0H62V558H233V484q26,37 70,58.5T402,564Z" />
      <glyph unicode="o" glyph-name="o" horiz-adv-x="637" d="M316-8Q234-8 168.5,27T65.5,127T28,279q0,86 38,151.5T170,531t148,35t148-35T570,430.5T608,279T569.5,127.5T464.5,27T316-8Zm0,148q49,0 83.5,36T434,279T400.5,382T318,418q-50,0-83-35.5T202,279q0-67 32.5-103T316,140Z" />
      <glyph unicode="p" glyph-name="p" horiz-adv-x="679" d="M233,479q25,39 69,63t103,24q69,0 125-35t88.5-100T651,280T618.5,128.5T530,27.5T405-8Q347-8 302.5,16T233,78V-266H62V558H233V479ZM477,280q0,64-35.5,100.5T354,417q-51,0-86.5-37T232,279t35.5-101T354,141t87,37.5T477,280Z" />
      <glyph unicode="q" glyph-name="q" horiz-adv-x="679" d="M28,278q0,83 34.5,148t93,101.5T283,564q53,0 95-18.5T446,494v64H617V-266H446V70q-29-35-70.5-56T281-7Q213-7 155,29T62.5,130T28,278Zm418,1q0,45-17.5,75.5t-45.5,46T324,416q-30,0-58-15.5T220,354t-18-76t18-75.5t46-46T324,141t58.5,15.5t46,46.5T446,279Z" />
      <glyph unicode="r" glyph-name="r" horiz-adv-x="428" d="M233,465q30,46 75,72.5T408,564V383H361q-64,0-96-27.5T233,259V0H62V558H233V465Z" />
      <glyph unicode="s" glyph-name="s" horiz-adv-x="558" d="M289-8Q216-8 159,17T69,85.5T32,183H201q3-29 27-47t59-18q32,0 49.5,12.5T354,163q0,24-25,35.5T248,224q-60,14-100,29.5t-69,49T50,393q0,48 26.5,87.5t78,62.5T277,566q105,0 165.5-52T512,376H354q-4,29-25.5,46T272,439q-30,0-46-11.5T210,396q0-24 25.5-36T315,336q62-16 101-31.5t68.5-50T515,162q0-49-27.5-87.5T408.5,14T289-8Z" />
      <glyph unicode="t" glyph-name="t" horiz-adv-x="406" d="M373,145V0H286Q193,0 141,45.5T89,194V416H21V558H89V694H260V558H372V416H260V192q0-25 12-36t40-11h61Z" />
      <glyph unicode="u" glyph-name="u" horiz-adv-x="674" d="M613,558V0H442V76q-26-37-70.5-59.5T273-6Q209-6 160,22.5T84,105T57,232V558H227V255q0-56 29-87t78-31q50,0 79,31t29,87V558H613Z" />
      <glyph unicode="v" glyph-name="v" horiz-adv-x="626" d="M313,160L434,558H616L418,0H207L9,558H192L313,160Z" />
      <glyph unicode="w" glyph-name="w" horiz-adv-x="866" d="M863,558L712,0H523L435,362L344,0H156L4,558H175l79-399l94,399H529l95-397l78,397H863Z" />
      <glyph unicode="x" glyph-name="x" horiz-adv-x="588" d="M392,0L285,155L195,0H10L194,285L5,558H197L304,404l90,154H579L392,277L584,0H392Z" />
      <glyph unicode="y" glyph-name="y" horiz-adv-x="632" d="M632,558L282-265H98L226,19L-1,558H190L319,209L447,558H632Z" />
      <glyph unicode="z" glyph-name="z" horiz-adv-x="496" d="M222,141H464V0H31V136L263,417H33V558H459V422L222,141Z" />
      <glyph unicode="{" glyph-name="braceleft" horiz-adv-x="499" d="M91,420q49,2 72,21.5T186,497q0,27-10,107q-1,8-6,51.5T165,734q0,85 52,132.5T356,914h72V774H389q-32,0-46-14t-14-43q0-22 8-100q9-97 9-127q0-55-26.5-91T239,353v-2q54-11 80.5-46.5T346,213q0-30-9-127q-8-76-8-99q0-29 14-43.5T389-71h39V-211H356q-87,0-139,47.5T165-30q0,35 5,78.5t6,51.5q10,80 10,107q0,34-23,54.5T91,284V420Z" />
      <glyph unicode="|" glyph-name="bar" horiz-adv-x="291" d="M231-129H60V815H231V-129Z" />
      <glyph unicode="}" glyph-name="braceright" horiz-adv-x="499" d="M408,284q-49-2-72-22.5T313,207q0-27 10-107q1-8 6-51.5T334-30q0-86-52-133.5T143-211H71V-71h39q32,0 46,14.5T170-13q0,23-8,99q-9,97-9,127q0,56 26.5,91.5T260,351v2q-54,10-80.5,46T153,490q0,30 9,127q8,78 8,100q0,29-14,43t-46,14H71V914h72q87,0 139-47.5T334,734q0-35-5-78.5T323,604q-10-80-10-107q0-36 23-55.5T408,420V284Z" />
      <glyph unicode="~" glyph-name="asciitilde" horiz-adv-x="636" d="M28,208Q46,319 97.5,372T227,425q32,0 57.5-9.5T343,387q24-14 41-21t35-7q54,0 63,66H609q-18-111-70-164T409,208q-32,0-57.5,10T293,246q-25,14-41.5,21T217,274q-54,0-64-66H28Z" />
      <glyph unicode="&#xa0;" glyph-name="uni00A0" horiz-adv-x="212" />
      <glyph unicode="&#xa1;" glyph-name="exclamdown" horiz-adv-x="392" d="M197,572q44,0 72.5-26.5T298,480q0-40-28.5-67T197,386q-45,0-73.5,27T95,480q0,39 28.5,65.5T197,572ZM122,316H267l20-479H102l20,479Z" />
      <glyph unicode="&#xa2;" glyph-name="cent" horiz-adv-x="631" d="M314,133q35,0 59,15t32,42H562q-7-83-68-134.5T343-4V-85H279V-4Q167,6 104.5,75.5T42,256t62.5,180.5T279,516v81h64V516q90-8 151-59.5T562,322H405q-19,57-91,57q-51,0-80-32.5T205,256t29-90.5T314,133Z" />
      <glyph unicode="&#xa3;" glyph-name="sterling" horiz-adv-x="663" d="M588,130V-4H78L54,80q47,42 69,89t22,116v2H36V402h81Q98,470 98,527q0,68 30.5,118T214,721t126,26q116,0 178-63t66-164H427q-2,40-22,63.5T344,607q-40,0-62-24.5T260,510q0-23 5.5-47T282,402H463V287H307v-3q0-39-16-81t-50-73H588Z" />
      <glyph unicode="&#xa4;" glyph-name="currency" horiz-adv-x="577" d="M498,378q0-61-35-107l54-54l-66-67l-64,64q-43-18-98-18t-99,18l-64-64L60,217l55,55Q82,318 82,378q0,62 34,107L60,541l66,67l67-67q45,17 97,17q50,0 95-16l66,66l66-67l-54-54q35-46 35-109ZM289,296q31,0 52.5,20.5T363,377t-21,61t-53,21q-31,0-52-21t-21-61t21-60.5T289,296Z" />
      <glyph unicode="&#xa5;" glyph-name="yen" horiz-adv-x="671" d="M521,425H621V310l-160-1l-32-61H621V134H421V0H250V134H50V248H242l-32,61L50,310V425H150L7,702H201L337,391L472,702H664L521,425Z" />
      <glyph unicode="&#xa6;" glyph-name="brokenbar" horiz-adv-x="381" d="M105,815H276V405H105V815ZM276-129H105V281H276V-129Z" />
      <glyph unicode="&#xa7;" glyph-name="section" horiz-adv-x="587" d="M450,94q71-59 71-139q0-51-27.5-92T414-201T291-224q-101,0-161,51.5T66-35H235q4-69 58-69q56,0 56,49q0,21-13.5,37t-45,33T196,59Q114,94 72,138.5T30,244q0,50 25.5,89.5T137,394Q66,453 66,533q0,51 27.5,92T173,689t123,23q101,0 161-51.5T521,523H352q-4,69-58,69q-56,0-56-49q0-21 13.5-37t45-33T391,429q82-35 124-79.5T557,244q0-49-25.5-86.5T450,94ZM294,166q38,0 60.5,22.5T377,244t-22.5,55.5T294,322t-60.5-22.5T211,244t22.5-55.5T294,166Z" />
      <glyph unicode="&#xa8;" glyph-name="dieresis" horiz-adv-x="367" d="M83,620q-31,0-52,21T10,693t21,52.5T83,767q32,0 53-21t21-53q0-31-21.5-52T83,620Zm200,0q-31,0-52,21t-21,52t21,52.5T283,767q32,0 53-21t21-53q0-31-21.5-52T283,620Z" />
      <glyph unicode="&#xa9;" glyph-name="copyright" horiz-adv-x="779" d="M390,712q103,0 183-45.5T697.5,539T742,353T697.5,167T573,39T390-7T207,39T82.5,167T38,353T82.5,539T207,666.5T390,712Zm0-56q-89,0-155-37T133.5,513.5T98,353q0-91 35.5-160T235,86.5T390,49T545,86.5T646.5,193T682,353q0,92-35.5,160.5T545,619T390,656Zm1-78q-64,0-114.5-27.5t-79-78.5T169,353t28.5-119t79-78.5T391,128q79,0 136,45t73,119H453q-17-49-67-49q-37,0-58,28t-21,82t21,82t58,28q25,0 42.5-13T453,414H600q-16,76-72.5,120T391,578Z" />
      <glyph unicode="&#xaa;" glyph-name="ordfeminine" horiz-adv-x="469" d="M25,530q0,55 22,96t60,63t84,22q78,0 119-49v44H439V354H310v42q-39-47-116-47q-48,0-86.5,22T47,434T25,530Zm133-1q0-37 22-58t54-21t54,21.5T310,530t-22,58t-54,21t-54-21.5T158,529Z" />
      <glyph unicode="&#xab;" glyph-name="guillemotleft" horiz-adv-x="557" d="M129,120L45,295l84,175H287L200,295l87-175H129Zm225,0L270,295l84,175H512L425,295l87-175H354Z" />
      <glyph unicode="&#xac;" glyph-name="logicalnot" horiz-adv-x="717" d="M662,442V180H491V312H47V442H662Z" />
      <glyph unicode="&#xad;" glyph-name="uni00AD" horiz-adv-x="580" d="M492,422V280H52V422H492Z" />
      <glyph unicode="&#xae;" glyph-name="registered" horiz-adv-x="514" d="M257,713q63,0 112.5-27.5t77-76.5T474,497q0-62-27.5-111.5t-77-77T257,281T144.5,308.5T67,385.5T39,497q0,63 28,112t77.5,76.5T257,713Zm0-376q72,0 115,44t43,116T372,613T257,657T142,613T99,497t43-116t115-44Zm97,200q0-21-10.5-37T315,476l51-82H284l-40,74h-6V394H166V606H277q35,0 56-19t21-50ZM237,517h28q16,0 16,15q0,14-16,14H237V517Z" />
      <glyph unicode="&#xaf;" glyph-name="macron" horiz-adv-x="420" d="M410,746V628H10V746H410Z" />
      <glyph unicode="&#xb0;" glyph-name="degree" horiz-adv-x="463" d="M25,529q0,83 57,131.5T232,709t149.5-48.5T438,529T381.5,396.5T233,347q-61,0-108,22.5T51.5,433T25,529Zm281-1q0,43-22,66t-52,23q-31,0-53-23t-22-66t22.5-65.5T233,440q30,0 51.5,22.5T306,528Z" />
      <glyph unicode="&#xb1;" glyph-name="plusminus" horiz-adv-x="629" d="M396,357V262H570V111H60V262H234v95H60V509H234V626H396V509H570V357H396Z" />
      <glyph unicode="&#xb2;" glyph-name="twosuperior" horiz-adv-x="383" d="M174,452H348V352H39v96l122,74q56,35 56,72q0,13-7,20.5T192,622q-27,0-30-36H34q3,58 48.5,93T205,714q72,0 110-33t38-78q0-36-27-63t-91-58l-61-30Z" />
      <glyph unicode="&#xb3;" glyph-name="threesuperior" horiz-adv-x="374" d="M21,592q2,52 44,87t124,35q69,0 111.5-29.5T343,609q0-31-18-50t-50-26v-3q74-20 74-81q0-46-44-73.5T189,348q-85,0-127.5,32T15,470H148q3-31 33-31q14,0 22.5,8t8.5,24q0,17-10.5,25.5T173,505H139v56h28q39,0 39,33q0,14-8,21.5T175,623q-28,0-32-31H21Z" />
      <glyph unicode="&#xb4;" glyph-name="acute" horiz-adv-x="261" d="M251,697L10,596V714L251,830V697Z" />
      <glyph unicode="&#xb5;" glyph-name="uni00B5" horiz-adv-x="705" d="M630,558V0H459V82q-25-41-68.5-64.5T290-6q-23,0-45,8V-266H75V558H245V255q0-54 28.5-83.5T352,142t78.5,29.5T459,255V558H630Z" />
      <glyph unicode="&#xb6;" glyph-name="paragraph" horiz-adv-x="708" d="M633,0H492V572H430V0H289V273H266q-81,0-134.5,29.5T53,380.5T28,487T53,594t78.5,78.5T266,702H633V0Z" />
      <glyph unicode="&#xb7;" glyph-name="periodcentered" horiz-adv-x="299" d="M152,222q-45,0-73.5,26.5T50,314q0,40 28.5,67T152,408q44,0 72.5-27T253,314q0-39-28.5-65.5T152,222Z" />
      <glyph unicode="&#xb8;" glyph-name="cedilla" horiz-adv-x="313" d="M173-37q52,0 91-28.5T303-151t-41-86.5T164-267H10v94H141q20,0 30,6t10,20t-10,19.5T141-122H70V7H173V-37Z" />
      <glyph unicode="&#xb9;" glyph-name="onesuperior" horiz-adv-x="249" d="M20,605v99H209V352H80V605H20Z" />
      <glyph unicode="&#xba;" glyph-name="ordmasculine" horiz-adv-x="458" d="M25,529q0,53 25.5,93.5t72,63.5T229,709t106.5-23t72-63.5T433,529t-26-94t-72.5-64.5T228,347T122,370.5T50.5,435T25,529Zm276-1q0,40-21,61t-52,21q-30,0-50.5-21T157,528q0-39 20-60t51-21t52,21.5T301,528Z" />
      <glyph unicode="&#xbb;" glyph-name="guillemotright" horiz-adv-x="557" d="M137,295L50,470H208l84-175L208,120H50l87,175Zm225,0L275,470H433l84-175L433,120H275l87,175Z" />
      <glyph unicode="&#xbc;" glyph-name="onequarter" horiz-adv-x="786" d="M40,605v99H229V352H100V605H40Zm598,97L253,0H88L473,702H638ZM756,62H716V0H587V62H392v68L538,352H716V135h40V62ZM593,267L515,138h78V267Z" />
      <glyph unicode="&#xbd;" glyph-name="onehalf" horiz-adv-x="821" d="M100,605H40v99H229V352H100V605Zm538,99L253,0H88L473,704H638ZM583,99H757V-1H448V95l122,74q56,35 56,72q0,13-7,20.5T601,269q-27,0-30-36H443q3,58 48.5,93T614,361q72,0 110-33t38-78q0-36-27-63t-91-58L583,99Z" />
      <glyph unicode="&#xbe;" glyph-name="threequarters" horiz-adv-x="891" d="M56,592q2,52 44,87t124,35q69,0 111.5-29.5T378,609q0-31-18-50t-50-26v-3q74-20 74-81q0-46-44-73.5T224,348q-85,0-127.5,32T50,470H183q3-31 33-31q14,0 22.5,8t8.5,24q0,17-10.5,25.5T208,505H174v56h28q39,0 39,33q0,14-8,21.5T210,623q-28,0-32-31H56ZM753,704L368,0H203L588,704H753ZM871,62H831V0H702V62H507v68L642,352H831V135h40V62ZM708,277L630,135h78V277Z" />
      <glyph unicode="&#xbf;" glyph-name="questiondown" horiz-adv-x="538" d="M336,572q45,0 73.5-26.5T438,480q0-40-28.5-67T336,386q-44,0-72.5,27T235,480q0,39 28.5,65.5T336,572ZM270-177q-107,0-171.5,56T34,37q0,94 61.5,146.5T258,237l5,75H413l5-186H358q-78,0-118.5-19.5T200,36q0-34 19.5-53.5T272-37q36,0 56,20.5T348,39H509q2-61-25.5-110t-82-77.5T270-177Z" />
      <glyph unicode="&#xc0;" glyph-name="Agrave" horiz-adv-x="737" d="M499,124H237L195,0H16L270,702H468L722,0H541L499,124ZM455,256L368,513L282,256H455Zm30,604V742L244,843V976L485,860Z" />
      <glyph unicode="&#xc1;" glyph-name="Aacute" horiz-adv-x="737" d="M499,124H237L195,0H16L270,702H468L722,0H541L499,124ZM455,256L368,513L282,256H455Zm30,587L244,742V860L485,976V843Z" />
      <glyph unicode="&#xc2;" glyph-name="Acircumflex" horiz-adv-x="737" d="M499,124H237L195,0H16L270,702H468L722,0H541L499,124ZM455,256L368,513L282,256H455ZM369,824L214,742V860l155,79l155-79V742L369,824Z" />
      <glyph unicode="&#xc3;" glyph-name="Atilde" horiz-adv-x="737" d="M499,124H237L195,0H16L270,702H468L722,0H541L499,124ZM455,256L368,513L282,256H455ZM169,751q24,148 138,148q22,0 38.5-6.5T386,873q18-10 29-14.5t23-4.5q37,0 43,45h88Q545,751 431,751q-22,0-38.5,6.5T352,777q-18,10-29,14.5T300,796q-37,0-44-45H169Z" />
      <glyph unicode="&#xc4;" glyph-name="Adieresis" horiz-adv-x="737" d="M499,124H237L195,0H16L270,702H468L722,0H541L499,124ZM455,256L368,513L282,256H455ZM268,766q-31,0-52,21t-21,52t21,52.5T268,913q32,0 53-21t21-53q0-31-21.5-52T268,766Zm200,0q-31,0-52,21t-21,52t21,52.5T468,913q32,0 53-21t21-53q0-31-21.5-52T468,766Z" />
      <glyph unicode="&#xc5;" glyph-name="Aring" horiz-adv-x="737" d="M499,124H237L195,0H16L270,702H468L722,0H541L499,124ZM455,256L368,513L282,256H455Zm37,610q0-55-35.5-88T369,745t-87,33t-35,88t35,88t87,33t87.5-33T492,866Zm-75,0q0,22-13.5,35.5T369,915q-20,0-33.5-13.5T322,866q0-21 13.5-35T369,817q21,0 34.5,14T417,866Z" />
      <glyph unicode="&#xc6;" glyph-name="AE" horiz-adv-x="955" d="M653,567V423H876V293H653V135H906V0H482V118H251L191,0H6L365,702H906V567H653ZM482,248V575L317,248H482Z" />
      <glyph unicode="&#xc7;" glyph-name="Ccedilla" horiz-adv-x="762" d="M384,150q49,0 87.5,23T531,240H719Q692,139 618.5,75.5T440-2V-41q52,0 91-28.5T570-155t-41-86.5T431-271H277v94H408q20,0 30,6t10,20t-10,19.5T408-126H337V-2Q247,8 178,55.5T71,180T33,352q0,104 45,185.5t125.5,127T386,710q125,0 214-66T719,464H531q-21,44-59.5,67T384,554q-79,0-128-55T207,352t49-147t128-55Z" />
      <glyph unicode="&#xc8;" glyph-name="Egrave" horiz-adv-x="541" d="M233,565V423H462V291H233V137H492V0H62V702H492V565H233ZM389,860V742L148,843V976L389,860Z" />
      <glyph unicode="&#xc9;" glyph-name="Eacute" horiz-adv-x="541" d="M233,565V423H462V291H233V137H492V0H62V702H492V565H233ZM389,843L148,742V860L389,976V843Z" />
      <glyph unicode="&#xca;" glyph-name="Ecircumflex" horiz-adv-x="541" d="M233,565V423H462V291H233V137H492V0H62V702H492V565H233Zm39,259L117,742V860l155,79l155-79V742L272,824Z" />
      <glyph unicode="&#xcb;" glyph-name="Edieresis" horiz-adv-x="541" d="M233,565V423H462V291H233V137H492V0H62V702H492V565H233ZM172,766q-31,0-52,21T99,839t21,52.5T172,913q32,0 53-21t21-53q0-31-21.5-52T172,766Zm200,0q-31,0-52,21t-21,52t21,52.5T372,913q32,0 53-21t21-53q0-31-21.5-52T372,766Z" />
      <glyph unicode="&#xcc;" glyph-name="Igrave" horiz-adv-x="295" d="M233,702V0H62V702H233Zm31,158V742L23,843V976L264,860Z" />
      <glyph unicode="&#xcd;" glyph-name="Iacute" horiz-adv-x="295" d="M233,702V0H62V702H233Zm31,141L23,742V860L264,976V843Z" />
      <glyph unicode="&#xce;" glyph-name="Icircumflex" horiz-adv-x="295" d="M233,702V0H62V702H233ZM148,824L-7,742V860l155,79l155-79V742L148,824Z" />
      <glyph unicode="&#xcf;" glyph-name="Idieresis" horiz-adv-x="295" d="M233,702V0H62V702H233ZM47,766q-31,0-52,21t-21,52t21,52.5T47,913q32,0 53-21t21-53q0-31-21.5-52T47,766Zm200,0q-31,0-52,21t-21,52t21,52.5T247,913q32,0 53-21t21-53q0-31-21.5-52T247,766Z" />
      <glyph unicode="&#xd0;" glyph-name="Eth" horiz-adv-x="732" d="M330,702q111,0 194.5-44T653,534.5T698,351q0-103-45-183T524.5,44T330,0H67V280H4V422H67V702H330ZM320,146q96,0 150,54t54,151T470,502T320,556H239V422H391V280H239V146h81Z" />
      <glyph unicode="&#xd1;" glyph-name="Ntilde" horiz-adv-x="752" d="M690,0H519L233,433V0H62V702H233L519,267V702H690V0ZM176,751q24,148 138,148q22,0 38.5-6.5T393,873q18-10 29-14.5t23-4.5q37,0 43,45h88Q552,751 438,751q-22,0-38.5,6.5T359,777q-18,10-29,14.5T307,796q-37,0-44-45H176Z" />
      <glyph unicode="&#xd2;" glyph-name="Ograve" horiz-adv-x="786" d="M394-7Q295-7 212.5,39T81.5,167.5T33,353T81.5,538t131,128T394,712t181.5-46t130-128T753,353T705,167.5T575,39T394-7Zm0,156q84,0 134.5,56T579,353q0,93-50.5,148.5T394,557q-85,0-135.5-55T208,353q0-93 50.5-148.5T394,149ZM510,860V742L269,843V976L510,860Z" />
      <glyph unicode="&#xd3;" glyph-name="Oacute" horiz-adv-x="786" d="M394-7Q295-7 212.5,39T81.5,167.5T33,353T81.5,538t131,128T394,712t181.5-46t130-128T753,353T705,167.5T575,39T394-7Zm0,156q84,0 134.5,56T579,353q0,93-50.5,148.5T394,557q-85,0-135.5-55T208,353q0-93 50.5-148.5T394,149ZM510,843L269,742V860L510,976V843Z" />
      <glyph unicode="&#xd4;" glyph-name="Ocircumflex" horiz-adv-x="786" d="M394-7Q295-7 212.5,39T81.5,167.5T33,353T81.5,538t131,128T394,712t181.5-46t130-128T753,353T705,167.5T575,39T394-7Zm0,156q84,0 134.5,56T579,353q0,93-50.5,148.5T394,557q-85,0-135.5-55T208,353q0-93 50.5-148.5T394,149Zm-1,675L238,742V860l155,79l155-79V742L393,824Z" />
      <glyph unicode="&#xd5;" glyph-name="Otilde" horiz-adv-x="786" d="M394-7Q295-7 212.5,39T81.5,167.5T33,353T81.5,538t131,128T394,712t181.5-46t130-128T753,353T705,167.5T575,39T394-7Zm0,156q84,0 134.5,56T579,353q0,93-50.5,148.5T394,557q-85,0-135.5-55T208,353q0-93 50.5-148.5T394,149ZM193,751q24,148 138,148q22,0 38.5-6.5T410,873q18-10 29-14.5t23-4.5q37,0 43,45h88Q569,751 455,751q-22,0-38.5,6.5T376,777q-18,10-29,14.5T324,796q-37,0-44-45H193Z" />
      <glyph unicode="&#xd6;" glyph-name="Odieresis" horiz-adv-x="786" d="M394-7Q295-7 212.5,39T81.5,167.5T33,353T81.5,538t131,128T394,712t181.5-46t130-128T753,353T705,167.5T575,39T394-7Zm0,156q84,0 134.5,56T579,353q0,93-50.5,148.5T394,557q-85,0-135.5-55T208,353q0-93 50.5-148.5T394,149ZM293,766q-31,0-52,21t-21,52t21,52.5T293,913q32,0 53-21t21-53q0-31-21.5-52T293,766Zm200,0q-31,0-52,21t-21,52t21,52.5T493,913q32,0 53-21t21-53q0-31-21.5-52T493,766Z" />
      <glyph unicode="&#xd7;" glyph-name="multiply" horiz-adv-x="637" d="M456,106L317,245L180,107L69,217L206,356L73,489L185,600L318,467L449,600L561,490L428,357L568,217L456,106Z" />
      <glyph unicode="&#xd8;" glyph-name="Oslash" horiz-adv-x="786" d="M664,594q42-47 65-108.5T752,353q0-103-48-185.5T574,39T393-7Q333-7 278.5,10T179,60L126,1H22L122,111Q79,158 55.5,220T32,353q0,103 48.5,185t131,128T393,712q120,0 214-66l53,58H764L664,594ZM207,353q0-67 28-117L499,527q-46,30-106,30q-85,0-135.5-55T207,353Zm371,0q0,67-27,116L287,179q46-30 106-30q84,0 134.5,56T578,353Z" />
      <glyph unicode="&#xd9;" glyph-name="Ugrave" horiz-adv-x="705" d="M230,702V282q0-63 31-97t91-34t92,34t32,97V702H647V283q0-94-40-159T499.5,26T349-7T200.5,25.5T97,123.5T59,283V702H230ZM469,860V742L228,843V976L469,860Z" />
      <glyph unicode="&#xda;" glyph-name="Uacute" horiz-adv-x="705" d="M230,702V282q0-63 31-97t91-34t92,34t32,97V702H647V283q0-94-40-159T499.5,26T349-7T200.5,25.5T97,123.5T59,283V702H230ZM469,843L228,742V860L469,976V843Z" />
      <glyph unicode="&#xdb;" glyph-name="Ucircumflex" horiz-adv-x="705" d="M230,702V282q0-63 31-97t91-34t92,34t32,97V702H647V283q0-94-40-159T499.5,26T349-7T200.5,25.5T97,123.5T59,283V702H230ZM353,824L198,742V860l155,79l155-79V742L353,824Z" />
      <glyph unicode="&#xdc;" glyph-name="Udieresis" horiz-adv-x="705" d="M230,702V282q0-63 31-97t91-34t92,34t32,97V702H647V283q0-94-40-159T499.5,26T349-7T200.5,25.5T97,123.5T59,283V702H230Zm22,64q-31,0-52,21t-21,52t21,52.5T252,913q32,0 53-21t21-53q0-31-21.5-52T252,766Zm200,0q-31,0-52,21t-21,52t21,52.5T452,913q32,0 53-21t21-53q0-31-21.5-52T452,766Z" />
      <glyph unicode="&#xdd;" glyph-name="Yacute" horiz-adv-x="671" d="M664,702L421,232V0H250V232L7,702H201L337,408L472,702H664ZM452,843L211,742V860L452,976V843Z" />
      <glyph unicode="&#xde;" glyph-name="Thorn" horiz-adv-x="624" d="M597,352q0-59-28-109t-86-80T339,133H233V0H62V702H231V572H339q84,0 142-28.5t87-78T597,352ZM326,262q49,0 73,24t24,66t-24,66t-73,24H233V262h93Z" />
      <glyph unicode="&#xdf;" glyph-name="germandbls" horiz-adv-x="760" d="M49,534q0,69 34.5,122T182,738.5T333,768q75,0 132.5-24.5t89-66.5T586,586q0-45-20-76.5T511,444q-3-3-14-14.5t-16-20T476,394q0-14 17.5-26T568,335q77-29 110.5-68T712,168q0-53-27-93T608.5,12.5T494-10q-99,0-160,49.5T261,181H418q4-31 23-49t50-18q27,0 41.5,11T547,158q0,23-17,38.5T464,229q-86,31-122.5,61.5T305,366q0,31 15.5,55T367,478q25,27 37,44.5T416,560q0,31-25,48.5T324,626q-53,0-79-27t-26-77V0H49V534Z" />
      <glyph unicode="&#xe0;" glyph-name="agrave" horiz-adv-x="679" d="M28,280q0,86 32.5,151T149,531t125,35q59,0 103.5-24T446,479v79H617V0H446V79q-25-39-69.5-63T273-8Q205-8 149,27.5t-88.5,101T28,280Zm418-1q0,64-35.5,101T324,417t-86.5-36.5T202,280t35.5-101.5T324,141t86.5,37T446,279Zm13,435V596L218,697V830L459,714Z" />
      <glyph unicode="&#xe1;" glyph-name="aacute" horiz-adv-x="679" d="M28,280q0,86 32.5,151T149,531t125,35q59,0 103.5-24T446,479v79H617V0H446V79q-25-39-69.5-63T273-8Q205-8 149,27.5t-88.5,101T28,280Zm418-1q0,64-35.5,101T324,417t-86.5-36.5T202,280t35.5-101.5T324,141t86.5,37T446,279Zm13,418L218,596V714L459,830V697Z" />
      <glyph unicode="&#xe2;" glyph-name="acircumflex" horiz-adv-x="679" d="M28,280q0,86 32.5,151T149,531t125,35q59,0 103.5-24T446,479v79H617V0H446V79q-25-39-69.5-63T273-8Q205-8 149,27.5t-88.5,101T28,280Zm418-1q0,64-35.5,101T324,417t-86.5-36.5T202,280t35.5-101.5T324,141t86.5,37T446,279ZM343,678L188,596V714l155,79l155-79V596L343,678Z" />
      <glyph unicode="&#xe3;" glyph-name="atilde" horiz-adv-x="679" d="M28,280q0,86 32.5,151T149,531t125,35q59,0 103.5-24T446,479v79H617V0H446V79q-25-39-69.5-63T273-8Q205-8 149,27.5t-88.5,101T28,280Zm418-1q0,64-35.5,101T324,417t-86.5-36.5T202,280t35.5-101.5T324,141t86.5,37T446,279ZM143,605q24,148 138,148q22,0 38.5-6.5T360,727q18-10 29-14.5t23-4.5q37,0 43,45h88Q519,605 405,605q-22,0-38.5,6.5T326,631q-18,10-29,14.5T274,650q-37,0-44-45H143Z" />
      <glyph unicode="&#xe4;" glyph-name="adieresis" horiz-adv-x="679" d="M28,280q0,86 32.5,151T149,531t125,35q59,0 103.5-24T446,479v79H617V0H446V79q-25-39-69.5-63T273-8Q205-8 149,27.5t-88.5,101T28,280Zm418-1q0,64-35.5,101T324,417t-86.5-36.5T202,280t35.5-101.5T324,141t86.5,37T446,279ZM242,620q-31,0-52,21t-21,52t21,52.5T242,767q32,0 53-21t21-53q0-31-21.5-52T242,620Zm200,0q-31,0-52,21t-21,52t21,52.5T442,767q32,0 53-21t21-53q0-31-21.5-52T442,620Z" />
      <glyph unicode="&#xe5;" glyph-name="aring" horiz-adv-x="679" d="M28,280q0,86 32.5,151T149,531t125,35q59,0 103.5-24T446,479v79H617V0H446V79q-25-39-69.5-63T273-8Q205-8 149,27.5t-88.5,101T28,280Zm418-1q0,64-35.5,101T324,417t-86.5-36.5T202,280t35.5-101.5T324,141t86.5,37T446,279Zm20,441q0-55-35.5-88T343,599t-87,33t-35,88t35,88t87,33t87.5-33T466,720Zm-75,0q0,22-13.5,35.5T343,769q-20,0-33.5-13.5T296,720q0-21 13.5-35T343,671q21,0 34.5,14T391,720Z" />
      <glyph unicode="&#xe6;" glyph-name="ae" horiz-adv-x="1069" d="M1041,289q0-21-5-49H622q7-55 40.5-83T742,129q40,0 66,15t37,41h182q-21-85-83-139T793-8Q733-8 685.5,15.5T611,80V0H448V80q-27-40-72-64T274-8Q205-8 149,27.5t-88.5,101T28,280T60.5,431T150,531t127,35q56,0 100-22t73-64v78H611V480q61,86 182,86q72,0 128.5-34.5t88-97.5T1041,289ZM866,327q-1,47-35,74.5T746,429q-47,0-81-26t-43-76H866ZM324,141q51,0 86.5,37T446,279T410.5,380T324,417t-86.5-36.5T202,280t35.5-101.5T324,141Z" />
      <glyph unicode="&#xe7;" glyph-name="ccedilla" horiz-adv-x="605" d="M305,138q66,0 89,64H576q-19-85-76-139T358-4V-41q52,0 91-28.5T488-155t-41-86.5T349-271H195v94H326q20,0 30,6t10,20t-10,19.5T326-126H255V-4Q152,12 90,87.5T28,279q0,87 35.5,152t99,100T308,566q105,0 175.5-55T576,356H394q-23,64-89,64q-47,0-75-36.5T202,279t28-104.5T305,138Z" />
      <glyph unicode="&#xe8;" glyph-name="egrave" horiz-adv-x="616" d="M588,288q0-24-3-50H198q4-52 33.5-79.5T304,131q64,0 89,54H575q-14-55-50.5-99T433,17T310-8Q228-8 164,27T64,127T28,279T63.5,431T163,531t147,35q81,0 144-34t98.5-97T588,288ZM413,333q0,44-30,70t-75,26q-43,0-72.5-25T199,333H413Zm12,385V600L184,701V834L425,718Z" />
      <glyph unicode="&#xe9;" glyph-name="eacute" horiz-adv-x="616" d="M588,288q0-24-3-50H198q4-52 33.5-79.5T304,131q64,0 89,54H575q-14-55-50.5-99T433,17T310-8Q228-8 164,27T64,127T28,279T63.5,431T163,531t147,35q81,0 144-34t98.5-97T588,288ZM413,333q0,44-30,70t-75,26q-43,0-72.5-25T199,333H413Zm12,368L184,600V718L425,834V701Z" />
      <glyph unicode="&#xea;" glyph-name="ecircumflex" horiz-adv-x="616" d="M588,288q0-24-3-50H198q4-52 33.5-79.5T304,131q64,0 89,54H575q-14-55-50.5-99T433,17T310-8Q228-8 164,27T64,127T28,279T63.5,431T163,531t147,35q81,0 144-34t98.5-97T588,288ZM413,333q0,44-30,70t-75,26q-43,0-72.5-25T199,333H413ZM308,682L153,600V718l155,79l155-79V600L308,682Z" />
      <glyph unicode="&#xeb;" glyph-name="edieresis" horiz-adv-x="616" d="M588,288q0-24-3-50H198q4-52 33.5-79.5T304,131q64,0 89,54H575q-14-55-50.5-99T433,17T310-8Q228-8 164,27T64,127T28,279T63.5,431T163,531t147,35q81,0 144-34t98.5-97T588,288ZM413,333q0,44-30,70t-75,26q-43,0-72.5-25T199,333H413ZM207,624q-31,0-52,21t-21,52t21,52.5T207,771q32,0 53-21t21-53q0-31-21.5-52T207,624Zm200,0q-31,0-52,21t-21,52t21,52.5T407,771q32,0 53-21t21-53q0-31-21.5-52T407,624Z" />
      <glyph unicode="&#xec;" glyph-name="igrave" horiz-adv-x="321" d="M246,558V0H75V558H246Zm31,156V596L36,697V830L277,714Z" />
      <glyph unicode="&#xed;" glyph-name="iacute" horiz-adv-x="321" d="M246,558V0H75V558H246Zm31,139L36,596V714L277,830V697Z" />
      <glyph unicode="&#xee;" glyph-name="icircumflex" horiz-adv-x="321" d="M246,558V0H75V558H246ZM161,678L6,596V714l155,79l155-79V596L161,678Z" />
      <glyph unicode="&#xef;" glyph-name="idieresis" horiz-adv-x="321" d="M246,558V0H75V558H246ZM60,620q-31,0-52,21t-21,52T8,745.5T60,767q32,0 53-21t21-53q0-31-21.5-52T60,620Zm200,0q-31,0-52,21t-21,52t21,52.5T260,767q32,0 53-21t21-53q0-31-21.5-52T260,620Z" />
      <glyph unicode="&#xf0;" glyph-name="eth" horiz-adv-x="640" d="M490,657q58-76 90-162.5T612,317q0-103-38.5-176T469,30.5T321-7Q240-7 173,28.5T67,129T28,280T64.5,430.5t99.5,99T304,564q60,0 117-31q-22,47-52,87L264,588v67l62,19q-33,35-69,66H414l30-30l95,29V672l-49-15ZM321,139q48,0 82,36t34,104T402,382.5T320,418q-48,0-82.5-35.5T203,279t35-104t83-36Z" />
      <glyph unicode="&#xf1;" glyph-name="ntilde" horiz-adv-x="674" d="M402,564q98,0 156.5-63.5T617,326V0H447V303q0,56-29,87t-78,31t-78-31t-29-87V0H62V558H233V484q26,37 70,58.5T402,564ZM161,605q24,148 138,148q22,0 38.5-6.5T378,727q18-10 29-14.5t23-4.5q37,0 43,45h88Q537,605 423,605q-22,0-38.5,6.5T344,631q-18,10-29,14.5T292,650q-37,0-44-45H161Z" />
      <glyph unicode="&#xf2;" glyph-name="ograve" horiz-adv-x="637" d="M316-8Q234-8 168.5,27T65.5,127T28,279q0,86 38,151.5T170,531t148,35t148-35T570,430.5T608,279T569.5,127.5T464.5,27T316-8Zm0,148q49,0 83.5,36T434,279T400.5,382T318,418q-50,0-83-35.5T202,279q0-67 32.5-103T316,140ZM448,718V600L207,701V834L448,718Z" />
      <glyph unicode="&#xf3;" glyph-name="oacute" horiz-adv-x="637" d="M316-8Q234-8 168.5,27T65.5,127T28,279q0,86 38,151.5T170,531t148,35t148-35T570,430.5T608,279T569.5,127.5T464.5,27T316-8Zm0,148q49,0 83.5,36T434,279T400.5,382T318,418q-50,0-83-35.5T202,279q0-67 32.5-103T316,140ZM448,701L207,600V718L448,834V701Z" />
      <glyph unicode="&#xf4;" glyph-name="ocircumflex" horiz-adv-x="637" d="M316-8Q234-8 168.5,27T65.5,127T28,279q0,86 38,151.5T170,531t148,35t148-35T570,430.5T608,279T569.5,127.5T464.5,27T316-8Zm0,148q49,0 83.5,36T434,279T400.5,382T318,418q-50,0-83-35.5T202,279q0-67 32.5-103T316,140Zm16,542L177,600V718l155,79l155-79V600L332,682Z" />
      <glyph unicode="&#xf5;" glyph-name="otilde" horiz-adv-x="637" d="M316-8Q234-8 168.5,27T65.5,127T28,279q0,86 38,151.5T170,531t148,35t148-35T570,430.5T608,279T569.5,127.5T464.5,27T316-8Zm0,148q49,0 83.5,36T434,279T400.5,382T318,418q-50,0-83-35.5T202,279q0-67 32.5-103T316,140ZM131,609q24,148 138,148q22,0 38.5-6.5T348,731q18-10 29-14.5t23-4.5q37,0 43,45h88Q507,609 393,609q-22,0-38.5,6.5T314,635q-18,10-29,14.5T262,654q-37,0-44-45H131Z" />
      <glyph unicode="&#xf6;" glyph-name="odieresis" horiz-adv-x="637" d="M316-8Q234-8 168.5,27T65.5,127T28,279q0,86 38,151.5T170,531t148,35t148-35T570,430.5T608,279T569.5,127.5T464.5,27T316-8Zm0,148q49,0 83.5,36T434,279T400.5,382T318,418q-50,0-83-35.5T202,279q0-67 32.5-103T316,140ZM231,624q-31,0-52,21t-21,52t21,52.5T231,771q32,0 53-21t21-53q0-31-21.5-52T231,624Zm200,0q-31,0-52,21t-21,52t21,52.5T431,771q32,0 53-21t21-53q0-31-21.5-52T431,624Z" />
      <glyph unicode="&#xf7;" glyph-name="divide" horiz-adv-x="611" d="M312,484q-45,0-73.5,26.5T210,576q0,40 28.5,67T312,670q44,0 72.5-27T413,576q0-39-28.5-65.5T312,484Zm252-58V275H53V426H564ZM312,31q-45,0-73.5,26.5T210,123q0,40 28.5,67T312,217q44,0 72.5-27T413,123q0-39-28.5-65.5T312,31Z" />
      <glyph unicode="&#xf8;" glyph-name="oslash" horiz-adv-x="629" d="M537,472q67-78 67-193q0-86-38.5-151.5T460.5,27T312-8Q215-8 142,40L105,0H13L91,85Q24,163 24,279q0,86 38,151.5T166,531t148,35q99,0 172-49l38,41h92l-79-86ZM198,279q0-37 11-65L378,398q-27,20-64,20q-50,0-83-35.5T198,279Zm232,0q0,36-11,64L250,158q27-18 62-18q49,0 83.5,36T430,279Z" />
      <glyph unicode="&#xf9;" glyph-name="ugrave" horiz-adv-x="674" d="M613,558V0H442V76q-26-37-70.5-59.5T273-6Q209-6 160,22.5T84,105T57,232V558H227V255q0-56 29-87t78-31q50,0 79,31t29,87V558H613ZM454,714V596L213,697V830L454,714Z" />
      <glyph unicode="&#xfa;" glyph-name="uacute" horiz-adv-x="674" d="M613,558V0H442V76q-26-37-70.5-59.5T273-6Q209-6 160,22.5T84,105T57,232V558H227V255q0-56 29-87t78-31q50,0 79,31t29,87V558H613ZM454,697L213,596V714L454,830V697Z" />
      <glyph unicode="&#xfb;" glyph-name="ucircumflex" horiz-adv-x="674" d="M613,558V0H442V76q-26-37-70.5-59.5T273-6Q209-6 160,22.5T84,105T57,232V558H227V255q0-56 29-87t78-31q50,0 79,31t29,87V558H613ZM338,678L183,596V714l155,79l155-79V596L338,678Z" />
      <glyph unicode="&#xfc;" glyph-name="udieresis" horiz-adv-x="674" d="M613,558V0H442V76q-26-37-70.5-59.5T273-6Q209-6 160,22.5T84,105T57,232V558H227V255q0-56 29-87t78-31q50,0 79,31t29,87V558H613ZM237,620q-31,0-52,21t-21,52t21,52.5T237,767q32,0 53-21t21-53q0-31-21.5-52T237,620Zm200,0q-31,0-52,21t-21,52t21,52.5T437,767q32,0 53-21t21-53q0-31-21.5-52T437,620Z" />
      <glyph unicode="&#xfd;" glyph-name="yacute" horiz-adv-x="632" d="M632,558L282-265H98L226,19L-1,558H190L319,209L447,558H632ZM432,697L191,596V714L432,830V697Z" />
      <glyph unicode="&#xfe;" glyph-name="thorn" horiz-adv-x="679" d="M233,485q57,79 164,79q69,0 127.5-36.5T617,426t34-148T617,130T524.5,29T397-7Q293-7 233,81V-266H62V740H233V485ZM477,278q0,45-17.5,76t-46,46.5T355,416q-31,0-59-15.5t-45.5-46T233,279t17.5-76t46-46.5T355,141q31,0 59,15.5t45.5,46T477,278Z" />
      <glyph unicode="&#xff;" glyph-name="ydieresis" horiz-adv-x="632" d="M632,558L282-265H98L226,19L-1,558H190L319,209L447,558H632ZM215,620q-31,0-52,21t-21,52t21,52.5T215,767q32,0 53-21t21-53q0-31-21.5-52T215,620Zm200,0q-31,0-52,21t-21,52t21,52.5T415,767q32,0 53-21t21-53q0-31-21.5-52T415,620Z" />
      <glyph unicode="&#x2013;" glyph-name="endash" horiz-adv-x="695" d="M625,422V280H70V422H625Z" />
      <glyph unicode="&#x2014;" glyph-name="emdash" horiz-adv-x="930" d="M860,422V280H70V422H860Z" />
      <glyph unicode="&#x2018;" glyph-name="quoteleft" horiz-adv-x="314" d="M213,434H38L150,702H265L213,434Z" />
      <glyph unicode="&#x2019;" glyph-name="quoteright" horiz-adv-x="314" d="M101,702H276L164,434H49l52,268Z" />
      <glyph unicode="&#x201a;" glyph-name="quotesinglbase" horiz-adv-x="292" d="M77,163H252L140-105H25L77,163Z" />
      <glyph unicode="&#x201c;" glyph-name="quotedblleft" horiz-adv-x="541" d="M213,434H38L150,702H265L213,434Zm227,0H266L378,702H492L440,434Z" />
      <glyph unicode="&#x201d;" glyph-name="quotedblright" horiz-adv-x="541" d="M101,702H276L164,434H49l52,268Zm227,0H503L391,434H276l52,268Z" />
      <glyph unicode="&#x201e;" glyph-name="quotedblbase" horiz-adv-x="520" d="M78,163H253L141-105H26L78,163Zm227,0H479L367-105H253l52,268Z" />
      <glyph unicode="&#x2022;" glyph-name="bullet" horiz-adv-x="501" d="M250,183q-41,0-75.5,20T120,257.5T100,333q0,42 20,76.5T174.5,464T250,484q42,0 76.5-20T381,409.5T401,333q0-41-20-75.5T326.5,203T250,183Z" />
      <glyph unicode="&#x2039;" glyph-name="guilsinglleft" horiz-adv-x="337" d="M129,120L45,295l84,175H287L200,295l87-175H129Z" />
      <glyph unicode="&#x203a;" glyph-name="guilsinglright" horiz-adv-x="337" d="M137,295L50,470H208l84-175L208,120H50l87,175Z" />
    </font>
</defs>
</svg>
