<?xml version="1.0" standalone="no"?>
<!DOCTYPE svg PUBLIC "-//W3C//DTD SVG 1.1//EN" "http://www.w3.org/Graphics/SVG/1.1/DTD/svg11.dtd">
<svg xmlns="http://www.w3.org/2000/svg">
  <defs>
    <font id="Poppins" horiz-adv-x="874">
      <font-face font-family="Poppins" units-per-em="1000" panose-1="0 0 8 0 0 0 0 0 0 0" ascent="1050" descent="-350" alphabetic="0" />
      <glyph unicode=" " glyph-name="space" horiz-adv-x="231" />
      <glyph unicode="!" glyph-name="exclam" horiz-adv-x="392" d="M365,727L260,248H115l65,479H365ZM145-8Q105-8 81.5,13.5T58,68q0,46 34.5,78T178,178q39,0 62-21.5T263,101q0-45-34.5-77T145-8Z" />
      <glyph unicode="&quot;" glyph-name="quotedbl" horiz-adv-x="411" d="M271,800L220,579H105l25,221H271Zm191,0L410,579H295l25,221H462Z" />
      <glyph unicode="#" glyph-name="numbersign" horiz-adv-x="904" d="M741,438L690,307H811L783,153H630L570,0H410l60,153H304L244,0H84l60,153H-4L24,307H204l51,131H111l27,154H315l58,148H533L475,592H641l58,148H859L801,592H925L898,438H741Zm-160,0H415L364,307H530l51,131Z" />
      <glyph unicode="$" glyph-name="dollar" horiz-adv-x="658" d="M438,503q4,54-39,70L372,418q72-21 110.5-36.5t69-49T582,243q0-11-4-39q-9-55-46-101.5t-97.5-76T297-6L283-87H220L234-5Q139,4 84,49.5T29,174q0,22 2,33H213q-6-62 45-77l28,158q-68,18-107.5,34t-70,50T78,462q0,21 4,41q16,91 94,146.5T361,711l14,81h63l-14-81q95-8 147-53.5T623,532q0-9-2-29H438Zm-174,8q-1-4-1-12q0-38 50-60l24,139q-29-5-48.5-22T264,511ZM398,198q1,4 1,11q0,39-53,59L321,127q31,5 51.5,24T398,198Z" />
      <glyph unicode="%" glyph-name="percent" horiz-adv-x="814" d="M75,546q15,80 69,124t128,44q64,0 102.5-33.5T413,585q0-20-4-39q-14-80-67.5-124T214,378q-65,0-103.5,34T72,508q0,19 3,38ZM756,704L246,0H81L591,704H756ZM254,613q-48,0-60-67q-2-18-2-23q0-44 38-44q23,0 39,16.5T291,546q2,16 2,22q0,45-39,45ZM429,158q14,80 68,124t128,44q64,0 102-33t38-95q0-21-4-40Q747,78 693.5,34T566-10q-64,0-102.5,33.5T425,119q0,20 4,39Zm178,67q-23,0-39-16.5T546,158q-2-18-2-23q0-44 39-44q23,0 38.5,17T643,158q2,16 2,22q0,45-38,45Z" />
      <glyph unicode="&amp;" glyph-name="ampersand" horiz-adv-x="808" d="M691,278q-44-69-83-113L748,0H549L495,63Q386-11 250-11Q140-11 76.5,37.5T13,169q0,79 51.5,141T202,409q-31,48-31,94q0,61 32,108.5T292,685t129,26q90,0 138.5-41T608,566q0-13-3-30H445q1,4 1,12q0,19-13,29.5T400,588q-27,0-46-17.5T335,526q0-35 40-85L516,274l18,28l48,63H754l-63-87ZM284,127q67,0 124,37L279,315q-43-20-67-49.5T188,201q0-33 25.5-53.5T284,127Z" />
      <glyph unicode="&apos;" glyph-name="quotesingle" horiz-adv-x="221" d="M271,800L220,579H105l25,221H271Z" />
      <glyph unicode="(" glyph-name="parenleft" horiz-adv-x="477" d="M206-209q-60,69-91,169T84,179q0,137 40,275.5T238.5,713T413,913H582l-3-16q-99-83-173-195.5T291.5,461T251,206q0-115 32.5-217.5T378-193l-3-16H206Z" />
      <glyph unicode=")" glyph-name="parenright" horiz-adv-x="477" d="M-70-209l3,16Q30-108 101.5,3.5T212,240t39,249q0,118-34.5,223T115,897l3,16H287q64-70 97-173t33-225q0-134-38.5-270.5T268-11T99-209H-70Z" />
      <glyph unicode="*" glyph-name="asterisk" horiz-adv-x="534" d="M478,695l39-102L387,550l116-42L424,402l-85,88l2-130H224l46,130L156,401L113,509l130,43L129,592l75,103l88-87l-2,132H409L360,608l118,87Z" />
      <glyph unicode="+" glyph-name="plus" horiz-adv-x="628" d="M566,272H393L362,95H198l31,177H56L83,427H257l31,178H452L421,427H594L566,272Z" />
      <glyph unicode="," glyph-name="comma" horiz-adv-x="290" d="M234,162L72-128H-40L60,162H234Z" />
      <glyph unicode="-" glyph-name="hyphen" horiz-adv-x="580" d="M516,422L490,280H50L76,422H516Z" />
      <glyph unicode="." glyph-name="period" horiz-adv-x="282" d="M90-8Q50-8 26.5,13.5T3,68q0,46 34.5,78T123,178q39,0 62-21.5T208,101q0-45-34.5-77T90-8Z" />
      <glyph unicode="/" glyph-name="slash" horiz-adv-x="453" d="M561,950L91-187H-74L395,950H561Z" />
      <glyph unicode="0" glyph-name="zero" horiz-adv-x="652" d="M59,364Q88,530 171.5,627.5T403,725q119,0 174.5-64.5T633,481q0-47-12-117Q592,198 508,100.5T276,3Q157,3 102.5,67.5T48,247q0,53 11,117Zm393,0q11,62 11,97q0,50-20,77t-68,27q-69,0-100.5-53T227,364q-11-62-11-97q0-50 20-77t68-27q69,0 100.5,53T452,364Z" />
      <glyph unicode="1" glyph-name="one" horiz-adv-x="376" d="M73,550l28,159H378L253,0H75l97,550H73Z" />
      <glyph unicode="2" glyph-name="two" horiz-adv-x="571" d="M51,165q109,78 174,129T337.5,398.5T393,501q3,14 3,26q0,29-15.5,44T334,586q-77,0-98-109H70Q96,603 178.5,666.5T368,730q104,0 154.5-47T573,559q0-24-4-44Q551,413 463.5,325T247,149H517L492,10H-10L12,137l39,28Z" />
      <glyph unicode="3" glyph-name="three" horiz-adv-x="605" d="M93,524q23,107 99,165t189,58q99,0 152-45t53-117q0-18-3-36q-12-66-52-107.5T444,385v-4q45-16 70-49.5T539,247q0-22-4-42q-17-94-91-152.5T258-6Q151-6 89.5,41T28,184q0,13 4,47H198q-2-16-2-22q0-35 20-54t60-19q45,0 72,29t27,74q0,37-27.5,53.5T261,309H229l25,139h32q113,0 128,80q2,12 2,18q0,28-16.5,43T352,604q-38,0-61-23t-32-57H93Z" />
      <glyph unicode="4" glyph-name="four" horiz-adv-x="677" d="M22,130L46,268L441,720H633L555,278h82L611,130H529L506,0H334l24,130H22ZM441,532L228,278H396l45,254Z" />
      <glyph unicode="5" glyph-name="five" horiz-adv-x="650" d="M611,581H299L275,443q24,22 62,36t80,14q94,0 138.5-51T600,310q0-24-5-56Q574,137 496,68.5T298,0Q188,0 129,50.5T70,186q0,9 2,31H238q1-31 21-51.5T318,145q47,0 75,30t38,80q2,10 2,27q0,74-79,74q-34,0-58.5-16.5T259,296H94l76,435H637L611,581Z" />
      <glyph unicode="6" glyph-name="six" horiz-adv-x="637" d="M449,533q-2,37-18.5,55.5T377,607q-57,0-90.5-49T232,401q29,35 74,55t95,20q84,0 132-46t48-130q0-33-5-59q-13-73-52-128T423.5,27T284-4Q165-4 113.5,55T62,225q0,58 15,145q34,190 113.5,282.5T409,745q102,0 151-52.5T609,559q0-17-1-26H449ZM336,341q-48,0-83.5-32T217,218q0-37 22-57t64-20q44,0 74.5,26.5T416,240q2,16 2,24q0,36-21,56.5T336,341Z" />
      <glyph unicode="7" glyph-name="seven" horiz-adv-x="535" d="M566,595L200,0H21L390,576H80l26,145H588L566,595Z" />
      <glyph unicode="8" glyph-name="eight" horiz-adv-x="648" d="M184,397q-69,40-69,121q0,17 3,36q9,52 45.5,98T262,726t144,28q73,0 122.5-22.5T602,671t24-84q0-16-3-33q-9-54-41.5-94T502,397q40-21 61.5-56.5T585,258q0-22-4-42q-13-72-57.5-124t-111-79T270-14Q167-14 102.5,35T38,171q0,24 4,45q11,63 48,109t94,72ZM381,614q-38,0-65.5-23T281,527q-2-14-2-19q0-31 19.5-48.5T351,442q43,0 73,29t30,77q0,32-19.5,49T381,614ZM330,323q-47,0-80.5-26T208,225q-2-14-2-21q0-35 23-56.5T295,126q55,0 89,34.5T418,246q0,36-23.5,56.5T330,323Z" />
      <glyph unicode="9" glyph-name="nine" horiz-adv-x="615" d="M216,214q2-39 20.5-59T294,135q53,0 83.5,47T426,335q-26-31-67.5-48T270,270q-85,0-135,45T85,445q0,31 5,56q20,112 98.5,178T383,745t166.5-57T600,522q0-60-14-139q-23-130-61-214T424,41T267-3Q161-3 108.5,51T56,188q0,17 1,26H216ZM332,405q49,0 80.5,33T444,526q0,36-21,55t-60,19q-44,0-74-26.5T251,501q-2-16-2-22q0-34 21-54t62-20Z" />
      <glyph unicode=":" glyph-name="colon" horiz-adv-x="284" d="M90-8Q50-8 26.5,13.5T3,68q0,46 34.5,78T123,178q39,0 62-21.5T208,101q0-45-34.5-77T90-8Zm0,407q-40,0-63.5,21.5T3,475q0,46 34.5,78T123,585q39,0 62-21.5T208,508q0-45-34.5-77T90,399Z" />
      <glyph unicode=";" glyph-name="semicolon" horiz-adv-x="347" d="M188,391q-40,0-63.5,21.5T101,467q0,46 34.5,78T221,577q39,0 62-21.5T306,500q0-45-34.5-77T188,391Zm55-229L81-128H-31L69,162H243Z" />
      <glyph unicode="&lt;" glyph-name="less" horiz-adv-x="551" d="M232,129L68,350L310,571H525L282,350L447,129H232Z" />
      <glyph unicode="=" glyph-name="equal" horiz-adv-x="696" d="M676,554L648,400H87l28,154H676ZM630,299L603,145H43L70,299H630Z" />
      <glyph unicode="&gt;" glyph-name="greater" horiz-adv-x="541" d="M113,571H328L492,350L250,129H35L278,350L113,571Z" />
      <glyph unicode="?" glyph-name="question" horiz-adv-x="538" d="M348,741q93,0 147.5-44T550,572q0-24-4-45q-17-94-88-146.5T286,327l-18-75H118l27,186h60q78,0 122.5,19.5T380,528q1,5 1,15q0,27-16,42.5T320,601q-36,0-59.5-20.5T231,525H70q10,61 46,110t95.5,77.5T348,741ZM149-8Q109-8 85.5,13.5T62,68q0,46 34.5,78T182,178q39,0 62-21.5T267,101q0-45-34.5-77T149-8Z" />
      <glyph unicode="@" glyph-name="at" horiz-adv-x="1072" d="M610,668q118,0 205.5-44.5t135-125T998,313q0-85-29.5-158t-87-116.5T745-5q-52,0-86.5,21T611,75q-27-39-71-60.5T444-7Q369-7 327,37T285,159q0,73 29.5,137.5T397,400t120,39q84,0 114-60l9,53H778L733,181q-3-16-3-31q0-22 9-33.5T770,105q48,0 73.5,61.5T869,308q0,114-73,179.5T593,553q-112,0-203.5-54t-144-147.5T193,146q0-121 71-188t198-67q98,0 176,36l28-109q-98-43-220-43q-115,0-201,44T112-56T65,133q0,151 71,273.5t195.5,192T610,668ZM499,116q44,0 75,36.5T605,240q0,35-18.5,56T535,317q-45,0-74-38t-29-90q0-33 17.5-53T499,116Z" />
      <glyph unicode="A" glyph-name="A" horiz-adv-x="737" d="M470,124H208L144,0H-35L343,702H541L671,0H490L470,124ZM450,254L409,514L275,254H450Z" />
      <glyph unicode="B" glyph-name="B" horiz-adv-x="659" d="M647,520q-11-62-51-103t-96-57q50-11 79-49t29-89q0-16-3-31q-15-88-86-139.5T338,0H11L135,702H451q95,0 147-39t52-108q0-17-3-35ZM367,417q43,0 69,19t32,55q1,6 1,16q0,29-19,44.5T394,567H282L256,417H367Zm68-203q2,12 2,18q0,29-21,45.5T358,294H234L206,136H332q44,0 70,20t33,58Z" />
      <glyph unicode="C" glyph-name="C" horiz-adv-x="762" d="M45,352q18,104 77.5,185.5T270,664.5T460,710q125,0 202.5-66T750,464H562q-13,43-47.5,65.5T430,552q-79,0-137-54.5T219,352q-5-28-5-49q0-70 39-111t107-41q49,0 91.5,23T523,240H711Q661,126 560,60.5T334-5Q244-5 177,30T74,129T38,278q0,38 7,74Z" />
      <glyph unicode="D" glyph-name="D" horiz-adv-x="727" d="M398,702q97,0 167.5-34.5t108-97T711,424q0-29-7-73q-18-103-77.5-183T475.5,44T274,0H11L135,702H398ZM289,146q97,0 161,54t80,151q5,30 5,50q0,74-45,114.5T362,556H280L208,146h81Z" />
      <glyph unicode="E" glyph-name="E" horiz-adv-x="541" d="M282,567L257,421H486L463,292H234L206,135H465L441,0H11L135,702H565L541,567H282Z" />
      <glyph unicode="F" glyph-name="F" horiz-adv-x="547" d="M592,702L568,567H282L256,416H470L446,286H232L182,0H11L135,702H592Z" />
      <glyph unicode="G" glyph-name="G" horiz-adv-x="762" d="M45,352q18,104 77.5,185.5T271,664.5T464,710q126,0 202.5-61T750,480H562q-13,35-45.5,53.5T437,552q-83,0-142.5-54.5T219,352q-5-30-5-52q0-74 43-114t122-40q64,0 113,32.5T571,271H355l21,125H748L720,237q-30-64-85.5-119T503,29T339-5Q248-5 179.5,30.5T74.5,130T38,279q0,29 7,73Z" />
      <glyph unicode="H" glyph-name="H" horiz-adv-x="731" d="M743,702L619,0H448l51,291H233L182,0H11L135,702H306L257,426H523l49,276H743Z" />
      <glyph unicode="I" glyph-name="I" horiz-adv-x="295" d="M306,702L182,0H11L135,702H306Z" />
      <glyph unicode="J" glyph-name="J" horiz-adv-x="578" d="M575,702L491,224Q471,113 398,53T219-7Q123-7 67.5,41T12,179q0,31 5,56H187q-3-16-3-29q0-30 15-45t42-15q31,0 51.5,19.5T320,224l84,478H575Z" />
      <glyph unicode="K" glyph-name="K" horiz-adv-x="697" d="M408,358L627,0H418L237,310L182,0H11L135,702H306L252,394L541,702H741L408,358Z" />
      <glyph unicode="L" glyph-name="L" horiz-adv-x="477" d="M205,130H429L406,0H11L135,702H306L205,130Z" />
      <glyph unicode="M" glyph-name="M" horiz-adv-x="918" d="M930,702L806,0H635l75,421L478,0H340L256,423L182,0H11L135,702H337L449,216L729,702H930Z" />
      <glyph unicode="N" glyph-name="N" horiz-adv-x="752" d="M639,0H468L259,433L182,0H11L135,702H306L515,267l77,435H763L639,0Z" />
      <glyph unicode="O" glyph-name="O" horiz-adv-x="786" d="M345-7Q256-7 188.5,30T84,134T47,288q0,123 53,219.5T247.5,658T462,712q90,0 158-36.5t105-103T762,420q0-123-53-220.5T561,47.5T345-7Zm26,158q66,0 116,34t77.5,91.5T592,401q0,72-40,113T440,555q-66,0-116.5-34t-78-90.5T218,306q0-72 40-113.5T371,151Z" />
      <glyph unicode="P" glyph-name="P" horiz-adv-x="624" d="M630,476q-10-61-47-111.5T482.5,283T333,252H227L182,0H11L135,702H412q110,0 166-48.5T634,522q0-25-4-46ZM343,386q96,0 113,90q2,16 2,23q0,32-20.5,49.5T375,566H282L251,386h92Z" />
      <glyph unicode="Q" glyph-name="Q" horiz-adv-x="788" d="M762,420q0-117-48-211.5T580,59L697-120H490L423-1q-37-6-78-6Q256-7 188.5,30T84,134T47,288q0,123 53,219.5T247.5,658T462,712q90,0 158-36.5t105-103T762,420ZM218,306q0-72 40-113.5T371,151q66,0 116,34t77.5,91.5T592,401q0,72-40,113T440,555q-66,0-116.5-34t-78-90.5T218,306Z" />
      <glyph unicode="R" glyph-name="R" horiz-adv-x="652" d="M422,702q109,0 166-49.5T645,524q0-23-4-43q-12-70-61-125T449,278L562,0H369L270,265H229L182,0H11L135,702H422Zm44-228q2,16 2,21q0,32-20.5,49.5T387,562H281L250,386H356q47,0 74.5,23T466,474Z" />
      <glyph unicode="S" glyph-name="S" horiz-adv-x="622" d="M290-7Q176-7 104.5,42.5T33,183q0,9 2,27H213q-3-38 18-60t64-22q39,0 61.5,17T379,193q0,32-28.5,52T262,290q-58,24-94.5,45.5T104,394T77,487q-1,69 34,120t97,78t142,27q72,0 128-22.5t87-65T596,524q0-15-1-22H413q1,4 1,12q0,28-19.5,45.5T341,577q-36,0-58.5-17.5T260,512t28-50.5T375,414t96.5-50T536,302.5T563,208q0-62-33-111T435,20.5T290-7Z" />
      <glyph unicode="T" glyph-name="T" horiz-adv-x="591" d="M640,702L617,567H430L330,0H159L259,567H73L97,702H640Z" />
      <glyph unicode="U" glyph-name="U" horiz-adv-x="705" d="M303,702L229,283q-4-26-4-36q0-46 26-70.5T328,152q60,0 98,34t49,97l74,419H720L646,283q-17-95-67.5-160.5T455.5,25T298-7Q188-7 120.5,50T53,215q0,32 6,68l73,419H303Z" />
      <glyph unicode="V" glyph-name="V" horiz-adv-x="730" d="M264,702l81-530L612,702H794L421,0H207L82,702H264Z" />
      <glyph unicode="W" glyph-name="W" horiz-adv-x="1052" d="M1101,702L794,0H587L556,461L359,0H152L98,702H281l11-511L507,702H696l30-508L917,702h184Z" />
      <glyph unicode="X" glyph-name="X" horiz-adv-x="715" d="M469,348L640,0H441L336,215L172,0H-22L266,357L97,702H296L400,490L561,702H755L469,348Z" />
      <glyph unicode="Y" glyph-name="Y" horiz-adv-x="671" d="M737,702L412,232L370,0H199l42,232L80,702H274l84-293L545,702H737Z" />
      <glyph unicode="Z" glyph-name="Z" horiz-adv-x="596" d="M218,140H520L495,0H-1L22,130L398,562H98l25,140H619L596,572L218,140Z" />
      <glyph unicode="[" glyph-name="bracketleft" horiz-adv-x="510" d="M531,918L507,780H367L218-65H358L333-204H33L231,918H531Z" />
      <glyph unicode="\" glyph-name="backslash" horiz-adv-x="564" d="M240-187L192,950H357L405-187H240Z" />
      <glyph unicode="]" glyph-name="bracketright" horiz-adv-x="510" d="M304-209H4L28-70H168L317,775H178l24,138H502L304-209Z" />
      <glyph unicode="^" glyph-name="asciicircum" horiz-adv-x="709" d="M181,165H9L346,704H512L658,165H485L394,506L181,165Z" />
      <glyph unicode="_" glyph-name="underscore" horiz-adv-x="780" d="M647-41L619-205H-1L27-41H647Z" />
      <glyph unicode="`" glyph-name="grave" horiz-adv-x="291" d="M327,714L305,596L83,697l23,133L327,714Z" />
      <glyph unicode="a" glyph-name="a" horiz-adv-x="679" d="M27,280q15,86 59,151T192,531t131,35q59,0 99-24t58-63l14,79H665L566,0H395l15,79q-32-39-81-63T221-8T116.5,19T46,95.5T21,212q0,32 6,68Zm418-1q3,18 3,33q0,49-28.5,77T347,417q-51,0-93-36.5T201,280q-3-18-3-33q0-49 28.5-77.5T298,141q51,0 93,37t54,101Z" />
      <glyph unicode="b" glyph-name="b" horiz-adv-x="679" d="M266,479q32,39 81,63t107,24q90,0 145.5-58.5T655,348q0-32-6-68q-15-86-59-151.5T484,27.5T353-8q-59,0-99,23.5T196,78L182,0H11L142,740H313L266,479ZM476,280q3,17 3,31q0,50-28.5,78T378,417q-51,0-93-37T231,279q-3-18-3-33q0-49 28-77t72-28q51,0 93.5,37.5T476,280Z" />
      <glyph unicode="c" glyph-name="c" horiz-adv-x="605" d="M27,279q15,87 62,152T205.5,531T357,566q105,0 166-55t65-155H406q-11,64-78,64q-47,0-81-36.5T201,279q-4-21-4-44q0-47 22-72t60-25q66,0 99,64H561Q522,104 441,48T256-8Q148-8 84.5,51.5T21,214q0,31 6,65Z" />
      <glyph unicode="d" glyph-name="d" horiz-adv-x="679" d="M27,280q15,86 59,151T192,531t131,35q55,0 96.5-23T480,481l46,259H697L566,0H395l14,80q-32-40-80-64T222-8T117.5,19t-71,77T21,213q0,31 6,67Zm418-1q3,18 3,33q0,49-28.5,77T347,417q-51,0-93-36.5T201,280q-3-18-3-33q0-49 28.5-77.5T298,141q51,0 93,37t54,101Z" />
      <glyph unicode="e" glyph-name="e" horiz-adv-x="616" d="M359,566q108,0 171.5-58.5T594,348q0-33-5-59q-4-23-12-49H190q-1-6-1-19q0-44 24-67t64-23q64,0 98,54H557Q521,100 440,46T258-8Q150-8 85.5,52T21,215q0,31 6,64q15,87 62,152T206,531t153,35Zm62-239q2,14 2,19q0,40-25,61.5T332,429q-44,0-77.5-26.5T206,327H421Z" />
      <glyph unicode="f" glyph-name="f" horiz-adv-x="360" d="M401,638q-49,3-71.5-14T299,563l-1-5h92L365,416H273L200,0H28l73,416H39L64,558h62l3,16q19,103 87.5,156.5T399,784q18,0 27-1L401,638Z" />
      <glyph unicode="g" glyph-name="g" horiz-adv-x="679" d="M323,566q59,0 100-24t57-63l14,79H665L567,1q-14-77-55.5-139.5T400.5-238T239-275q-124,0-191,58.5T-12-58H157q3-32 29.5-50.5T257-127q53,0 90,30.5T396,1l14,79q-32-39-80.5-63.5T222-8T117.5,19t-71,77T21,213q0,31 6,67q15,86 59,151T192,531t131,35ZM445,279q3,18 3,33q0,49-28.5,77T347,417q-51,0-93-36.5T201,280q-3-18-3-33q0-49 28.5-77.5T298,141q51,0 93,37t54,101Z" />
      <glyph unicode="h" glyph-name="h" horiz-adv-x="674" d="M453,564q82,0 129.5-47T630,386q0-28-6-60L566,0H396l54,303q3,17 3,30q0,42-23.5,65T364,421q-50,0-84-31t-44-87v2L182,0H11L142,740H313L268,484q33,37 81,58.5T453,564Z" />
      <glyph unicode="i" glyph-name="i" horiz-adv-x="295" d="M206,616q-40,0-63.5,21.5T119,692q0,45 35,77t85,32q40,0 63-21.5T325,724q0-44-35-76t-84-32Zm74-58L182,0H11l98,558H280Z" />
      <glyph unicode="j" glyph-name="j" horiz-adv-x="294" d="M205,616q-40,0-63.5,21.5T118,692q0,45 35,77t85,32q39,0 62.5-21T324,726q0-45-34.5-77.5T205,616ZM169-72Q136-266-62-266h-67l26,145h41q28,0 41.5,11T-2-74L109,558H280L169-72Z" />
      <glyph unicode="k" glyph-name="k" horiz-adv-x="618" d="M379,278L564,0H352L223,233L182,0H11L142,740H313L241,332L449,558H660L379,278Z" />
      <glyph unicode="l" glyph-name="l" horiz-adv-x="295" d="M313,740L182,0H11L142,740H313Z" />
      <glyph unicode="m" glyph-name="m" horiz-adv-x="1059" d="M823,564q90,0 140.5-47.5T1014,384q0-26-6-58L950,0H780l54,303q2,10 2,27q0,42-23.5,64T747,416q-50,0-84-29.5T620,303L566,0H396l54,303q2,10 2,27q0,42-23.5,64T363,416q-50,0-84-29.5T236,303v5L182,0H11l98,558H280l-12-71q32,36 77.5,56.5T444,564q64,0 108.5-27T616,459q37,47 92,76t115,29Z" />
      <glyph unicode="n" glyph-name="n" horiz-adv-x="674" d="M450,564q84,0 132-47t48-131q0-28-6-60L566,0H396l54,303q3,17 3,30q0,42-23.5,65T364,421q-50,0-84-31t-44-87v5L182,0H11l98,558H280l-13-75q33,37 80.5,59T450,564Z" />
      <glyph unicode="o" glyph-name="o" horiz-adv-x="637" d="M266-8Q194-8 138,21T51.5,103T21,226q0,95 45,173T190,521.5T366,566q72,0 128.5-29.5T582,454t31-123q0-96-45.5-173.5T442.5,36T266-8Zm24,147q42,0 75.5,25.5t52,66T436,315q0,50-27,77t-68,27q-43,0-75.5-25.5T215,327t-18-86q0-49 26-75.5T290,139Z" />
      <glyph unicode="p" glyph-name="p" horiz-adv-x="679" d="M266,479q32,39 80.5,63T454,566q90,0 145.5-59T655,347q0-31-6-67q-15-86-59-151.5T484,27.5T353-8q-58,0-98,24T196,78L135-266H-36L109,558H280l-14-79ZM476,280q3,17 3,31q0,50-28.5,78T378,417q-51,0-93-37T231,279q-3-18-3-33q0-49 28-77t72-28q51,0 93.5,37.5T476,280Z" />
      <glyph unicode="q" glyph-name="q" horiz-adv-x="679" d="M26,278q15,83 60.5,148T197,527.5T331,564q54,0 92-18.5T483,494l11,64H665L520-266H349L408,70q-35-35-80.5-56T229-7Q169-7 121.5,21T47,99.5T20,217q0,30 6,61Zm419,1q3,17 3,32q0,51-29.5,78T347,416q-30,0-61-15.5T231.5,354T200,278q-3-16-3-31q0-51 30-78.5T298,141q30,0 61,15.5T413.5,203T445,279Z" />
      <glyph unicode="r" glyph-name="r" horiz-adv-x="428" d="M262,457q39,50 89.5,78.5T457,564L425,383H378q-64,0-101-27.5T228,259L182,0H11l98,558H280L262,457Z" />
      <glyph unicode="s" glyph-name="s" horiz-adv-x="558" d="M243-8Q177-8 124.5,13T42,71.5T12,158q0,7 2,25H179q-2-31 18.5-49.5T256,115q32,0 53,12t21,34q0,21-22.5,33.5T233,225q-54,18-90.5,35.5T80,311T54,394q0,49 29,88.5T164.5,544T286,566t120-22.5T485,481t28-90l-1-15H357q2,30-18,48t-57,18q-29,0-47.5-12T216,397q0-22 24.5-36.5T317,328q54-18 89.5-35.5t61-49T493,165q0-54-32.5-93t-89-59.5T243-8Z" />
      <glyph unicode="t" glyph-name="t" horiz-adv-x="406" d="M243,192q-1-5-1-13q0-18 10.5-26t34.5-8h61L322,0H235Q67,0 67,141q0,21 5,53l40,222H44L69,558h68l24,136H332L308,558H420L395,416H283L243,192Z" />
      <glyph unicode="u" glyph-name="u" horiz-adv-x="674" d="M660,558L562,0H391l13,76q-33-37-80.5-59.5T222-6Q138-6 90,41.5T42,174q0,32 5,58l58,326H275L222,255q-3-16-3-31q0-42 23.5-64.5T308,137q48,0 81.5,28.5T434,247l55,311H660Z" />
      <glyph unicode="v" glyph-name="v" horiz-adv-x="626" d="M290,160L482,558H665L368,0H156L57,558H239l51-398Z" />
      <glyph unicode="w" glyph-name="w" horiz-adv-x="866" d="M911,558L661,0H472L448,362L293,0H105L52,558H223l8-399L396,558H577l25-399L750,558H911Z" />
      <glyph unicode="x" glyph-name="x" horiz-adv-x="588" d="M390,276L533,0H341L261,154L144,0H-41L193,285L52,558H244l80-155L441,558H626L390,276Z" />
      <glyph unicode="y" glyph-name="y" horiz-adv-x="632" d="M237,558l68-349L495,558H680L185-265H1L179,19L47,558H237Z" />
      <glyph unicode="z" glyph-name="z" horiz-adv-x="496" d="M196,141H439L413,0H-20L5,136L286,417H56L81,558H506L482,422L196,141Z" />
      <glyph unicode="{" glyph-name="braceleft" horiz-adv-x="499" d="M116,420q97,4 109,77q6,31 10,113q4,87 11,124q15,85 75,132.5T468,914h72L515,774H477q-32,0-49.5-14T405,717q-3-18-5.5-50T396,623q-6-87-14-133q-9-55-41.5-91T253,353l-1-2q85-17 85-95q0-24-8-61T302,85Q276-10 276-32q0-39 52-39h39L342-211H270q-76,0-119.5,36.5T107-70q0,29 10.5,72T148,110q11,36 19.5,68t8.5,46q0,28-20,43T92,284l24,136Z" />
      <glyph unicode="|" glyph-name="bar" horiz-adv-x="291" d="M158-129H-13L153,815H324L158-129Z" />
      <glyph unicode="}" glyph-name="braceright" horiz-adv-x="499" d="M409,284q-96-4-109-77q-5-30-9-105q-4-85-12-132q-15-86-75-133.5T57-211H-15L10-71H48q32,0 49,14.5T119-13q4,20 6.5,54.5T129,86q6,92 13,127q10,56 42.5,91.5T272,351l1,2q-86,17-86,103q0,16 3,34q8,42 31,122q23,82 26,105q2,12 2,17q0,20-12.5,30T197,774H158l25,140h72q76,0 119.5-36.5T418,774q0-21-4-40q-7-38-34-128q-3-10-14-47t-15-62q-2-12-2-17q0-56 84-60L409,284Z" />
      <glyph unicode="~" glyph-name="asciitilde" horiz-adv-x="636" d="M13,208q38,111 99,164t139,53q33,0 56.5-9.5T361,387q23-14 38.5-21t32.5-7q54,0 74,66H633q-37-111-98.5-164T395,208q-32,0-55.5,9.5T286,246q-23,14-38.5,21T214,274q-53,0-75-66H13Z" />
      <glyph unicode="&#xa0;" glyph-name="uni00A0" horiz-adv-x="231" />
      <glyph unicode="&#xa1;" glyph-name="exclamdown" horiz-adv-x="411" d="M254,572q40,0 63.5-21.5T341,496q0-46-34.5-78T221,386q-39,0-62,21.5T136,463q0,45 34.5,77T254,572ZM34-163L139,316H284L219-163H34Z" />
      <glyph unicode="&#xa2;" glyph-name="cent" horiz-adv-x="631" d="M331,379q-52,0-86.5-32.5T199,256q-3-18-3-33q0-43 23.5-66.5T287,133q35,0 61.5,15T387,190H545q-21-82-90.5-134T293-4L279-85H215L229-4Q133,4 82,57.5T31,199q0,24 5,57q20,112 95,181t190,79l14,81h64l-14-81q82-8 133-54.5T569,341q0-13-1-19H411q-9,57-80,57Z" />
      <glyph unicode="&#xa3;" glyph-name="sterling" horiz-adv-x="663" d="M469,520q1,6 1,19q0,68-70,68q-39,0-65.5-24.5T300,510q-3-18-3-37q0-23 6-71H484L464,287H307v-3q-7-39-30.5-81T213,130H560L537-4H27L18,80q55,42 85,89t42,116v2H37L57,402h80q-3,24-3,53q0,33 6,72q18,103 95.5,161.5T421,747q104,0 155.5-51T628,560q0-19-3-40H469Z" />
      <glyph unicode="&#xa4;" glyph-name="currency" horiz-adv-x="577" d="M498,486q19-32 19-73q0-17-3-35q-10-62-54-107l45-54l-78-67l-53,64q-46-18-102-18q-55,0-95,18l-75-64L48,217l64,55q-17,31-17,71q0,17 3,35q12,65 53,107l-46,56l78,67l55-67q46,17 99,17q50,0 93-16l78,66l54-67l-64-55ZM230,377q-2-14-2-20q0-31 17.5-46.5T290,295q32,0 58,21t33,61q2,16 2,22q0,31-17.5,46.5T320,461q-32,0-57.5-21.5T230,377Z" />
      <glyph unicode="&#xa5;" glyph-name="yen" horiz-adv-x="671" d="M545,425H645L625,310l-160-1l-42-61H614L594,134H394L370,0H199l24,134H23L43,248H236l-21,61L54,310L74,425H175L80,702H274l81-311L545,702H737L545,425Z" />
      <glyph unicode="&#xa6;" glyph-name="brokenbar" horiz-adv-x="381" d="M198,815H369L297,405H125l73,410Zm4-944H31l73,410H275L202-129Z" />
      <glyph unicode="&#xa7;" glyph-name="section" horiz-adv-x="587" d="M394,523q1,6 1,16q0,53-47,53q-56,0-65-49q-1-4-1-11q0-25 28.5-46.5T416,429q67-31 101.5-69T552,273q0-14-3-29q-8-49-39.5-86.5T417,94q48-48 48-108q0-15-3-31q-9-51-43.5-92T328-201T200-224q-91,0-142,43T7-64q0,9 2,29H178q-1-6-1-16q0-53 47-53q27,0 43.5,12T288-55q1,4 1,11q0,25-28.5,46T156,59Q89,90 54.5,128.5T20,217q0,18 2,27Q43,354 156,394q-49,48-49,111q0,18 2,28q9,51 43.5,92t91,64T372,712q92,0 142.5-43T565,551q0-8-2-28H394ZM301,322q-43,0-71-27t-28-65q0-28 19-46t52-18q38,0 64.5,22.5T369,244q2,12 2,17q0,27-18.5,44T301,322Z" />
      <glyph unicode="&#xa8;" glyph-name="dieresis" horiz-adv-x="367" d="M142,620q-27,0-44.5,17T80,680q0,36 26.5,61.5T168,767q28,0 45-17t17-43q0-36-26.5-61.5T142,620Zm200,0q-27,0-44.5,17T280,680q0,36 26.5,61.5T368,767q28,0 45-17t17-43q0-36-26.5-61.5T342,620Z" />
      <glyph unicode="&#xa9;" glyph-name="copyright" horiz-adv-x="779" d="M465,712q90,0 157-35.5T725,577t36-149q0-39-7-75q-18-104-77-186T529.5,39T338-7Q248-7 181,28.5T78,128.5T42,278q0,39 7,75q19,104 78,186T274,666.5T465,712Zm-9-55q-90,0-162.5-37.5t-120-106T110,353q-6-36-6-70q0-109 64-172T348,48q89,0 161.5,38T630,193t63,160q7,44 7,72q0,108-64.5,170T456,657Zm-14-79q-64,0-119.5-27.5t-93-78.5T180,353q-4-23-4-48q0-82 51-129.5T363,128q79,0 144,45t93,119H454q-26-49-76-49q-30,0-46.5,19.5T315,319q0,16 3,34q9,54 36,82t63,28q26,0 40.5-13T475,414H622q-1,76-50.5,120T442,578Z" />
      <glyph unicode="&#xaa;" glyph-name="ordfeminine" horiz-adv-x="469" d="M68,530q10,55 39,96t70.5,63T266,711q82,0 108-61l10,56H512L451,354H322l10,55q-49-60-129-60q-62,0-100.5,38T64,489q0,22 4,41Zm287,17q0,30-18,46t-46,16q-36,0-64-26t-28-71q0-30 18-46t46-16q36,0 64,26t28,71Z" />
      <glyph unicode="&#xab;" glyph-name="guillemotleft" horiz-adv-x="557" d="M99,120L46,295L161,470H319L201,295l56-175H99Zm225,0L271,295L386,470H544L426,295l56-175H324Z" />
      <glyph unicode="&#xac;" glyph-name="logicalnot" horiz-adv-x="772" d="M740,442L694,180H523l23,132H35L58,442H740Z" />
      <glyph unicode="&#xad;" glyph-name="uni00AD" horiz-adv-x="580" d="M516,422L490,280H50L76,422H516Z" />
      <glyph unicode="&#xae;" glyph-name="registered" horiz-adv-x="514" d="M334,713q84,0 133.5-47.5T517,540q0-23-4-43q-11-62-47.5-111.5t-90.5-77T258,281q-83,0-133.5,47.5T74,453q0,24 4,44q11,63 47.5,112t91,76.5T334,713ZM452,497q3,18 3,36q0,57-34.5,90.5T324,657q-72,0-122-44T139,497q-3-18-3-34q0-58 34.5-92T267,337q71,0 122,44.5T452,497ZM335,606q31,0 48.5-15T401,550q0-25-13.5-44.5T350,476l36-82H302l-28,74h-1l-13-74H186l38,212H335Zm-54-87h24q14,0 17,13v2q0,10-12,10H285l-4-25Z" />
      <glyph unicode="&#xaf;" glyph-name="macron" horiz-adv-x="420" d="M491,746L470,628H70L91,746H491Z" />
      <glyph unicode="&#xb0;" glyph-name="degree" horiz-adv-x="463" d="M68,529q15,83 80.5,131.5T307,709q82,0 129.5-38.5T484,564q0-17-3-35q-15-83-80-132.5T244,347q-82,0-130.5,39.5T65,494q0,17 3,35Zm280-1q2,16 2,23q0,33-17,49.5T290,617q-30,0-56-23t-34-66q-2-16-2-22q0-32 18-49t44-17q30,0 55.5,22.5T348,528Z" />
      <glyph unicode="&#xb1;" glyph-name="plusminus" horiz-adv-x="629" d="M409,356l-16-93H566L538,109H28L56,263H229l16,93H72L99,510H272l20,116H456L436,510H609L582,356H409Z" />
      <glyph unicode="&#xb2;" glyph-name="twosuperior" horiz-adv-x="383" d="M280,714q65,0 97.5-27.5T410,619q0-11-1-16q-7-36-39-63T269,482l-66-30H377L359,352H50l17,96l136,74q61,35 68,72l1,7q0,10-5.5,15.5T251,622q-27,0-36-36H87q13,57 64.5,92.5T280,714Z" />
      <glyph unicode="&#xb3;" glyph-name="threesuperior" horiz-adv-x="374" d="M75,592q11,52 59.5,87T264,714q63,0 100-25t37-66q0-36-22.5-59T318,533l-1-3q62-17 62-66q0-53-50.5-84.5T200,348Q47,348 47,453q0,11 1,17H180q-3-31 28-31q16,0 27,10t11,30q0,13-9,19.5T211,505H178l9,56h28q39,0 45,33q5,29-25,29q-15,0-24-7.5T197,592H75Z" />
      <glyph unicode="&#xb4;" glyph-name="acute" horiz-adv-x="261" d="M324,697L64,596L85,714L347,830L324,697Z" />
      <glyph unicode="&#xb5;" glyph-name="uni00B5" horiz-adv-x="705" d="M678,558L579,0H408l14,81q-31-41-78.5-64T239-6q-23,0-44,8L148-266H-22L123,558H293L239,255q-2-10-2-27q0-42 23.5-64T326,142q50,0 84,29.5T453,255v-2l54,305H678Z" />
      <glyph unicode="&#xb6;" glyph-name="paragraph" horiz-adv-x="708" d="M582,0H441L542,572H480L379,0H238l49,273H264q-104,0-154.5,47.5T59,444q0,15 4,43q11,58 44.5,107T200,672.5T339,702H706L582,0Z" />
      <glyph unicode="&#xb7;" glyph-name="periodcentered" horiz-adv-x="299" d="M100,222q-40,0-63.5,21.5T13,298q0,46 34.5,78T133,408q39,0 62-21.5T218,331q0-45-34.5-77T100,222Z" />
      <glyph unicode="&#xb8;" glyph-name="cedilla" horiz-adv-x="313" d="M116-37q46,0 78.5-22.5T227-127q0-15-2-24q-10-57-56-86.5T66-267H-88l17,94H59q20,0 31.5,6T104-147q3,14-6,19.5T69-122H-2L21,7H124l-8-44Z" />
      <glyph unicode="&#xb9;" glyph-name="onesuperior" horiz-adv-x="249" d="M76,605l17,99H282L220,352H91l45,253H76Z" />
      <glyph unicode="&#xba;" glyph-name="ordmasculine" horiz-adv-x="458" d="M68,529q14,80 78.5,130T302,709q81,0 128.5-40T478,563q0-16-3-34q-9-53-41.5-94t-83-64.5T240,347q-81,0-128,40.5T65,495q0,16 3,34Zm276-1q2,14 2,19q0,31-17.5,48T285,612q-31,0-55-21.5T199,528q-2-14-2-20q0-30 16.5-46.5T257,445q31,0 55.5,21.5T344,528Z" />
      <glyph unicode="&#xbb;" glyph-name="guillemotright" horiz-adv-x="557" d="M138,295L82,470H240l53-175L178,120H20L138,295Zm225,0L307,470H465l53-175L403,120H245L363,295Z" />
      <glyph unicode="&#xbc;" glyph-name="onequarter" horiz-adv-x="786" d="M96,605l17,99H302L240,352H111l45,253H96Zm615,97L202,0H37L547,702H711Zm6-640H677L665,0H536l12,62H353l11,68L549,352H728L690,135h39L717,62ZM589,267L489,138h78l22,129Z" />
      <glyph unicode="&#xbd;" glyph-name="onehalf" horiz-adv-x="821" d="M712,704L202,0H37L547,704H712ZM156,605H96l17,99H302L240,352H111l45,253ZM689,361q65,0 97.5-27.5T819,266q0-11-1-16q-7-36-39-63T678,129L612,99H786L768-1H459l17,96l136,74q61,35 68,72l1,7q0,10-5.5,15.5T660,269q-27,0-36-36H496q13,57 64.5,92.5T689,361Z" />
      <glyph unicode="&#xbe;" glyph-name="threequarters" horiz-adv-x="891" d="M110,592q11,52 59.5,87T299,714q63,0 100-25t37-66q0-36-22.5-59T353,533l-1-3q62-17 62-66q0-53-50.5-84.5T235,348Q82,348 82,453q0,11 1,17H215q-3-31 28-31q16,0 27,10t11,30q0,13-9,19.5T246,505H213l9,56h28q39,0 45,33q5,29-25,29q-15,0-24-7.5T232,592H110ZM827,704L317,0H153L662,704H827Zm4-642H792L780,0H652l11,62H467l12,68L654,352H843L804,135h40L831,62ZM707,277L603,135h78l26,142Z" />
      <glyph unicode="&#xbf;" glyph-name="questiondown" horiz-adv-x="538" d="M388,572q40,0 63.5-21.5T475,496q0-46-34.5-78T355,386q-39,0-62,21.5T270,463q0,45 34.5,77T388,572ZM189-177q-93,0-147.5,44T-13-8q0,24 4,45Q8,131 79,183.5T251,237l18,75H419L392,126H332q-78,0-122.5-19.5T157,36q-1-5-1-15q0-27 16-42.5T217-37q36,0 59.5,20.5T306,39H467Q457-22 421-71t-95.5-77.5T189-177Z" />
      <glyph unicode="&#xc0;" glyph-name="Agrave" horiz-adv-x="737" d="M470,124H208L144,0H-35L343,702H541L671,0H490L470,124ZM450,254L409,514L275,254H450ZM587,860L565,742L343,843l23,133L587,860Z" />
      <glyph unicode="&#xc1;" glyph-name="Aacute" horiz-adv-x="737" d="M470,124H208L144,0H-35L343,702H541L671,0H490L470,124ZM450,254L409,514L275,254H450ZM584,843L324,742l21,118L607,976L584,843Z" />
      <glyph unicode="&#xc2;" glyph-name="Acircumflex" horiz-adv-x="737" d="M470,124H208L144,0H-35L343,702H541L671,0H490L470,124ZM450,254L409,514L275,254H450Zm15,573L294,740l21,118l170,84l140-84L604,740L465,827Z" />
      <glyph unicode="&#xc3;" glyph-name="Atilde" horiz-adv-x="737" d="M470,124H208L144,0H-35L343,702H541L671,0H490L470,124ZM450,254L409,514L275,254H450ZM252,756q49,148 164,148q22,0 38-6.5T490,878q15-10 26-14.5t23-4.5q38,0 51,45h88Q629,756 514,756q-22,0-38,6.5T440,782q-15,10-26,14.5T391,801q-36,0-52-45H252Z" />
      <glyph unicode="&#xc4;" glyph-name="Adieresis" horiz-adv-x="737" d="M470,124H208L144,0H-35L343,702H541L671,0H490L470,124ZM450,254L409,514L275,254H450ZM353,766q-27,0-44.5,17T291,826q0,36 26.5,61.5T379,913q28,0 45-17t17-43q0-36-26.5-61.5T353,766Zm200,0q-27,0-44.5,17T491,826q0,36 26.5,61.5T579,913q28,0 45-17t17-43q0-36-26.5-61.5T553,766Z" />
      <glyph unicode="&#xc5;" glyph-name="Aring" horiz-adv-x="737" d="M470,124H208L144,0H-35L343,702H541L671,0H490L470,124ZM450,254L409,514L275,254H450ZM350,866q10,55 50.5,88T493,987q45,0 73.5-25.5T595,892q0-43-20-76.5t-53.5-52T450,745q-45,0-73.5,26T348,841q0,7 2,25Zm171,11q0,17-11.5,27.5T480,915q-23,0-40.5-16.5T422,857q0-18 11.5-29T463,817q23,0 40.5,17T521,877Z" />
      <glyph unicode="&#xc6;" glyph-name="AE" horiz-adv-x="955" d="M702,567L676,423H900L878,293H654L626,135H879L855,0H431l21,118H221L141,0H-45L439,702H979L955,567H702ZM475,248l57,327L310,248H475Z" />
      <glyph unicode="&#xc7;" glyph-name="Ccedilla" horiz-adv-x="762" d="M360,151q49,0 91.5,23T523,240H711Q667,139 582,75.5T389-2l-7-39q46,0 78.5-22.5T493-131q0-15-2-24q-10-57-56-86.5T332-271H178l17,94H325q20,0 31.5,6T370-151q3,14-6,19.5T335-126H264L286-2Q171,11 104.5,86.5T38,278q0,29 7,74q18,104 77.5,185.5T270,664.5T460,710q125,0 202.5-66T750,464H562q-13,43-47.5,65.5T430,552q-79,0-137-54.5T219,352q-5-28-5-49q0-70 39-111t107-41Z" />
      <glyph unicode="&#xc8;" glyph-name="Egrave" horiz-adv-x="541" d="M282,567L257,421H486L463,292H234L206,135H465L441,0H11L135,702H565L541,567H282ZM491,860L469,742L247,843l23,133L491,860Z" />
      <glyph unicode="&#xc9;" glyph-name="Eacute" horiz-adv-x="541" d="M282,567L257,421H486L463,292H234L206,135H465L441,0H11L135,702H565L541,567H282ZM488,843L228,742l21,118L511,976L488,843Z" />
      <glyph unicode="&#xca;" glyph-name="Ecircumflex" horiz-adv-x="541" d="M282,567L257,421H486L463,292H234L206,135H465L441,0H11L135,702H565L541,567H282Zm86,260L197,740l21,118l170,84l140-84L507,740L368,827Z" />
      <glyph unicode="&#xcb;" glyph-name="Edieresis" horiz-adv-x="541" d="M282,567L257,421H486L463,292H234L206,135H465L441,0H11L135,702H565L541,567H282ZM257,766q-27,0-44.5,17T195,826q0,36 26.5,61.5T283,913q28,0 45-17t17-43q0-36-26.5-61.5T257,766Zm200,0q-27,0-44.5,17T395,826q0,36 26.5,61.5T483,913q28,0 45-17t17-43q0-36-26.5-61.5T457,766Z" />
      <glyph unicode="&#xcc;" glyph-name="Igrave" horiz-adv-x="295" d="M306,702L182,0H11L135,702H306Zm60,158L344,742L122,843l23,133L366,860Z" />
      <glyph unicode="&#xcd;" glyph-name="Iacute" horiz-adv-x="295" d="M306,702L182,0H11L135,702H306Zm57,141L103,742l21,118L386,976L363,843Z" />
      <glyph unicode="&#xce;" glyph-name="Icircumflex" horiz-adv-x="295" d="M306,702L182,0H11L135,702H306ZM244,827L73,740L94,858l170,84l140-84L383,740L244,827Z" />
      <glyph unicode="&#xcf;" glyph-name="Idieresis" horiz-adv-x="295" d="M306,702L182,0H11L135,702H306ZM132,766q-27,0-44.5,17T70,826q0,36 26.5,61.5T158,913q28,0 45-17t17-43q0-36-26.5-61.5T132,766Zm200,0q-27,0-44.5,17T270,826q0,36 26.5,61.5T358,913q28,0 45-17t17-43q0-36-26.5-61.5T332,766Z" />
      <glyph unicode="&#xd0;" glyph-name="Eth" horiz-adv-x="732" d="M403,702q98,0 168.5-34.5t107.5-97T716,424q0-38-7-73q-18-103-77-183T481.5,44T279,0H16L65,280H3L29,422H91l49,280H403ZM535,351q5,30 5,50q0,74-45,114.5T367,556H286L262,422H415L390,280H238L214,146h81q97,0 160.5,54T535,351Z" />
      <glyph unicode="&#xd1;" glyph-name="Ntilde" horiz-adv-x="752" d="M639,0H468L259,433L182,0H11L135,702H306L515,267l77,435H763L639,0ZM259,756q49,148 164,148q22,0 38-6.5T497,878q15-10 26-14.5t23-4.5q38,0 51,45h88Q636,756 521,756q-22,0-38,6.5T447,782q-15,10-26,14.5T398,801q-36,0-52-45H259Z" />
      <glyph unicode="&#xd2;" glyph-name="Ograve" horiz-adv-x="786" d="M345-7Q256-7 188.5,30T84,134T47,288q0,123 53,219.5T247.5,658T462,712q90,0 158-36.5t105-103T762,420q0-123-53-220.5T561,47.5T345-7Zm26,158q66,0 116,34t77.5,91.5T592,401q0,72-40,113T440,555q-66,0-116.5-34t-78-90.5T218,306q0-72 40-113.5T371,151ZM610,864L588,746L366,847l23,133L610,864Z" />
      <glyph unicode="&#xd3;" glyph-name="Oacute" horiz-adv-x="786" d="M345-7Q256-7 188.5,30T84,134T47,288q0,123 53,219.5T247.5,658T462,712q90,0 158-36.5t105-103T762,420q0-123-53-220.5T561,47.5T345-7Zm26,158q66,0 116,34t77.5,91.5T592,401q0,72-40,113T440,555q-66,0-116.5-34t-78-90.5T218,306q0-72 40-113.5T371,151ZM607,847L347,746l21,118L630,980L607,847Z" />
      <glyph unicode="&#xd4;" glyph-name="Ocircumflex" horiz-adv-x="786" d="M345-7Q256-7 188.5,30T84,134T47,288q0,123 53,219.5T247.5,658T462,712q90,0 158-36.5t105-103T762,420q0-123-53-220.5T561,47.5T345-7Zm26,158q66,0 116,34t77.5,91.5T592,401q0,72-40,113T440,555q-66,0-116.5-34t-78-90.5T218,306q0-72 40-113.5T371,151ZM488,831L317,744l21,118l170,84l140-84L627,744L488,831Z" />
      <glyph unicode="&#xd5;" glyph-name="Otilde" horiz-adv-x="786" d="M345-7Q256-7 188.5,30T84,134T47,288q0,123 53,219.5T247.5,658T462,712q90,0 158-36.5t105-103T762,420q0-123-53-220.5T561,47.5T345-7Zm26,158q66,0 116,34t77.5,91.5T592,401q0,72-40,113T440,555q-66,0-116.5-34t-78-90.5T218,306q0-72 40-113.5T371,151ZM275,760q49,148 164,148q22,0 38-6.5T513,882q15-10 26-14.5t23-4.5q38,0 51,45h88Q652,760 537,760q-22,0-38,6.5T463,786q-15,10-26,14.5T414,805q-36,0-52-45H275Z" />
      <glyph unicode="&#xd6;" glyph-name="Odieresis" horiz-adv-x="786" d="M345-7Q256-7 188.5,30T84,134T47,288q0,123 53,219.5T247.5,658T462,712q90,0 158-36.5t105-103T762,420q0-123-53-220.5T561,47.5T345-7Zm26,158q66,0 116,34t77.5,91.5T592,401q0,72-40,113T440,555q-66,0-116.5-34t-78-90.5T218,306q0-72 40-113.5T371,151Zm5,619q-27,0-44.5,17T314,830q0,36 26.5,61.5T402,917q28,0 45-17t17-43q0-36-26.5-61.5T376,770Zm200,0q-27,0-44.5,17T514,830q0,36 26.5,61.5T602,917q28,0 45-17t17-43q0-36-26.5-61.5T576,770Z" />
      <glyph unicode="&#xd7;" glyph-name="multiply" horiz-adv-x="637" d="M441,357L556,217L424,106L310,245L148,107L56,217L218,355L108,489L240,600L349,467L505,600l92-110L441,357Z" />
      <glyph unicode="&#xd8;" glyph-name="Oslash" horiz-adv-x="786" d="M714,590q47-72 47-170q0-123-53-220.5T560,47.5T344-7Q283-7 231.5,11T141,62L75,1H-29L95,115Q46,187 46,288q0,123 53,219.5T246.5,658T461,712q126,0 206-69l67,61H837L714,590ZM217,306q0-37 11-68L539,525q-39,30-100,30q-66,0-116.5-34t-78-90.5T217,306Zm374,95q0,36-11,66L270,181q39-30 100-30q66,0 116,34t77.5,91.5T591,401Z" />
      <glyph unicode="&#xd9;" glyph-name="Ugrave" horiz-adv-x="705" d="M303,702L229,283q-4-26-4-36q0-46 26-70.5T328,152q60,0 98,34t49,97l74,419H720L646,283q-17-95-67.5-160.5T455.5,25T298-7Q188-7 120.5,50T53,215q0,32 6,68l73,419H303ZM571,860L549,742L327,843l23,133L571,860Z" />
      <glyph unicode="&#xda;" glyph-name="Uacute" horiz-adv-x="705" d="M303,702L229,283q-4-26-4-36q0-46 26-70.5T328,152q60,0 98,34t49,97l74,419H720L646,283q-17-95-67.5-160.5T455.5,25T298-7Q188-7 120.5,50T53,215q0,32 6,68l73,419H303ZM568,843L308,742l21,118L591,976L568,843Z" />
      <glyph unicode="&#xdb;" glyph-name="Ucircumflex" horiz-adv-x="705" d="M303,702L229,283q-4-26-4-36q0-46 26-70.5T328,152q60,0 98,34t49,97l74,419H720L646,283q-17-95-67.5-160.5T455.5,25T298-7Q188-7 120.5,50T53,215q0,32 6,68l73,419H303ZM449,827L278,740l21,118l170,84l140-84L588,740L449,827Z" />
      <glyph unicode="&#xdc;" glyph-name="Udieresis" horiz-adv-x="705" d="M303,702L229,283q-4-26-4-36q0-46 26-70.5T328,152q60,0 98,34t49,97l74,419H720L646,283q-17-95-67.5-160.5T455.5,25T298-7Q188-7 120.5,50T53,215q0,32 6,68l73,419H303Zm34,64q-27,0-44.5,17T275,826q0,36 26.5,61.5T363,913q28,0 45-17t17-43q0-36-26.5-61.5T337,766Zm200,0q-27,0-44.5,17T475,826q0,36 26.5,61.5T563,913q28,0 45-17t17-43q0-36-26.5-61.5T537,766Z" />
      <glyph unicode="&#xdd;" glyph-name="Yacute" horiz-adv-x="671" d="M737,702L412,232L370,0H199l42,232L80,702H274l84-293L545,702H737ZM551,843L291,742l21,118L574,976L551,843Z" />
      <glyph unicode="&#xde;" glyph-name="Thorn" horiz-adv-x="624" d="M609,352q-11-60-48-109.5T460.5,163T311,133H205L182,0H11L135,702H304L282,572H389q110,0 167-48.5T613,395q0-23-4-43ZM321,262q49,0 77.5,24T434,352q2,16 2,23q0,32-20.5,49.5T353,442H260L228,262h93Z" />
      <glyph unicode="&#xdf;" glyph-name="germandbls" horiz-adv-x="730" d="M94,534q19,107 102.5,170.5T413,768q71,0 123-21t79-56.5T642,611q0-52-28-90t-74-78q-23-21-34-33t-11-22q0-12 15-22t68-31q63-25 90-58.5T695,187q0-58-31.5-103T576,14.5T449-10Q347-10 293,40.5T244,181H401q-2-31 14.5-49T462,114q31,0 48,13.5T527,167q0,19-15.5,33T455,229q-72,27-104,54.5T319,351q0,34 21,62t61,64q34,31 50,51t16,43q0,25-21.5,40T386,626q-54,0-85-27t-39-77L170,0H0L94,534Z" />
      <glyph unicode="&#xe0;" glyph-name="agrave" horiz-adv-x="679" d="M27,280q15,86 59,151T192,531t131,35q59,0 99-24t58-63l14,79H665L566,0H395l15,79q-32-39-81-63T221-8T116.5,19T46,95.5T21,212q0,32 6,68Zm418-1q3,18 3,33q0,49-28.5,77T347,417q-51,0-93-36.5T201,280q-3-18-3-33q0-49 28.5-77.5T298,141q51,0 93,37t54,101Zm90,435L513,596L291,697l23,133L535,714Z" />
      <glyph unicode="&#xe1;" glyph-name="aacute" horiz-adv-x="679" d="M27,280q15,86 59,151T192,531t131,35q59,0 99-24t58-63l14,79H665L566,0H395l15,79q-32-39-81-63T221-8T116.5,19T46,95.5T21,212q0,32 6,68Zm418-1q3,18 3,33q0,49-28.5,77T347,417q-51,0-93-36.5T201,280q-3-18-3-33q0-49 28.5-77.5T298,141q51,0 93,37t54,101Zm87,418L272,596l21,118L555,830L532,697Z" />
      <glyph unicode="&#xe2;" glyph-name="acircumflex" horiz-adv-x="679" d="M27,280q15,86 59,151T192,531t131,35q59,0 99-24t58-63l14,79H665L566,0H395l15,79q-32-39-81-63T221-8T116.5,19T46,95.5T21,212q0,32 6,68Zm418-1q3,18 3,33q0,49-28.5,77T347,417q-51,0-93-36.5T201,280q-3-18-3-33q0-49 28.5-77.5T298,141q51,0 93,37t54,101ZM413,681L242,594l21,118l170,84l140-84L552,594L413,681Z" />
      <glyph unicode="&#xe3;" glyph-name="atilde" horiz-adv-x="679" d="M27,280q15,86 59,151T192,531t131,35q59,0 99-24t58-63l14,79H665L566,0H395l15,79q-32-39-81-63T221-8T116.5,19T46,95.5T21,212q0,32 6,68Zm418-1q3,18 3,33q0,49-28.5,77T347,417q-51,0-93-36.5T201,280q-3-18-3-33q0-49 28.5-77.5T298,141q51,0 93,37t54,101ZM200,610q49,148 164,148q22,0 38-6.5T438,732q15-10 26-14.5t23-4.5q38,0 51,45h88Q577,610 462,610q-22,0-38,6.5T388,636q-15,10-26,14.5T339,655q-36,0-52-45H200Z" />
      <glyph unicode="&#xe4;" glyph-name="adieresis" horiz-adv-x="679" d="M27,280q15,86 59,151T192,531t131,35q59,0 99-24t58-63l14,79H665L566,0H395l15,79q-32-39-81-63T221-8T116.5,19T46,95.5T21,212q0,32 6,68Zm418-1q3,18 3,33q0,49-28.5,77T347,417q-51,0-93-36.5T201,280q-3-18-3-33q0-49 28.5-77.5T298,141q51,0 93,37t54,101ZM301,620q-27,0-44.5,17T239,680q0,36 26.5,61.5T327,767q28,0 45-17t17-43q0-36-26.5-61.5T301,620Zm200,0q-27,0-44.5,17T439,680q0,36 26.5,61.5T527,767q28,0 45-17t17-43q0-36-26.5-61.5T501,620Z" />
      <glyph unicode="&#xe5;" glyph-name="aring" horiz-adv-x="679" d="M27,280q15,86 59,151T192,531t131,35q59,0 99-24t58-63l14,79H665L566,0H395l15,79q-32-39-81-63T221-8T116.5,19T46,95.5T21,212q0,32 6,68Zm418-1q3,18 3,33q0,49-28.5,77T347,417q-51,0-93-36.5T201,280q-3-18-3-33q0-49 28.5-77.5T298,141q51,0 93,37t54,101ZM298,720q10,55 50.5,88T441,841q45,0 73.5-25.5T543,746q0-43-20-76.5t-53.5-52T398,599q-45,0-73.5,26T296,695q0,7 2,25Zm171,11q0,17-11.5,27.5T428,769q-23,0-40.5-16.5T370,711q0-18 11.5-29T411,671q23,0 40.5,17T469,731Z" />
      <glyph unicode="&#xe6;" glyph-name="ae" horiz-adv-x="1069" d="M842,566q94,0 149.5-57.5T1047,353q0-31-6-64q-5-26-13-49H614q-2-55 26.5-83T714,129q40,0 68.5,15T826,185h183Q973,100 901.5,46T741-8Q681-8 638,15.5T577,80L563,0H396l14,80q-33-40-82-64T222-8Q163-8 117.5,19t-71,77T21,213q0,31 6,67q15,86 59,151T193,531t133,35q56,0 95.5-22T481,480l13,78H662l-14-78q73,86 194,86Zm31-239q2,12 2,18q0,39-29.5,61.5T770,429t-84.5-26T630,327H873ZM445,279q3,18 3,33q0,49-28.5,77T347,417q-51,0-93-36.5T201,280q-3-18-3-33q0-49 28.5-77.5T298,141q51,0 93,37t54,101Z" />
      <glyph unicode="&#xe7;" glyph-name="ccedilla" horiz-adv-x="605" d="M279,138q66,0 99,64H561Q526,117 460,63T307-4l-7-37q46,0 78.5-22.5T411-131q0-15-2-24q-10-57-56-86.5T250-271H96l17,94H243q20,0 31.5,6T288-151q3,14-6,19.5T253-126H182L204-4Q119,10 70,67.5T21,215q0,31 6,64q15,87 62,152T205.5,531T357,566q105,0 166-55t65-155H406q-11,64-78,64q-47,0-81-36.5T201,279q-4-21-4-44q0-47 22-72t60-25Z" />
      <glyph unicode="&#xe8;" glyph-name="egrave" horiz-adv-x="616" d="M359,566q108,0 171.5-58.5T594,348q0-33-5-59q-4-23-12-49H190q-1-6-1-19q0-44 24-67t64-23q64,0 98,54H557Q521,100 440,46T258-8Q150-8 85.5,52T21,215q0,31 6,64q15,87 62,152T206,531t153,35Zm62-239q2,14 2,19q0,40-25,61.5T332,429q-44,0-77.5-26.5T206,327H421Zm87,387L486,596L264,697l23,133L508,714Z" />
      <glyph unicode="&#xe9;" glyph-name="eacute" horiz-adv-x="616" d="M359,566q108,0 171.5-58.5T594,348q0-33-5-59q-4-23-12-49H190q-1-6-1-19q0-44 24-67t64-23q64,0 98,54H557Q521,100 440,46T258-8Q150-8 85.5,52T21,215q0,31 6,64q15,87 62,152T206,531t153,35Zm62-239q2,14 2,19q0,40-25,61.5T332,429q-44,0-77.5-26.5T206,327H421Zm84,370L245,596l21,118L528,830L505,697Z" />
      <glyph unicode="&#xea;" glyph-name="ecircumflex" horiz-adv-x="616" d="M359,566q108,0 171.5-58.5T594,348q0-33-5-59q-4-23-12-49H190q-1-6-1-19q0-44 24-67t64-23q64,0 98,54H557Q521,100 440,46T258-8Q150-8 85.5,52T21,215q0,31 6,64q15,87 62,152T206,531t153,35Zm62-239q2,14 2,19q0,40-25,61.5T332,429q-44,0-77.5-26.5T206,327H421ZM386,681L215,594l21,118l170,84l140-84L525,594L386,681Z" />
      <glyph unicode="&#xeb;" glyph-name="edieresis" horiz-adv-x="616" d="M359,566q108,0 171.5-58.5T594,348q0-33-5-59q-4-23-12-49H190q-1-6-1-19q0-44 24-67t64-23q64,0 98,54H557Q521,100 440,46T258-8Q150-8 85.5,52T21,215q0,31 6,64q15,87 62,152T206,531t153,35Zm62-239q2,14 2,19q0,40-25,61.5T332,429q-44,0-77.5-26.5T206,327H421ZM274,620q-27,0-44.5,17T212,680q0,36 26.5,61.5T300,767q28,0 45-17t17-43q0-36-26.5-61.5T274,620Zm200,0q-27,0-44.5,17T412,680q0,36 26.5,61.5T500,767q28,0 45-17t17-43q0-36-26.5-61.5T474,620Z" />
      <glyph unicode="&#xec;" glyph-name="igrave" horiz-adv-x="321" d="M294,558L195,0H24l99,558H294Zm59,156L331,596L109,697l23,133L353,714Z" />
      <glyph unicode="&#xed;" glyph-name="iacute" horiz-adv-x="321" d="M294,558L195,0H24l99,558H294Zm56,139L90,596l21,118L373,830L350,697Z" />
      <glyph unicode="&#xee;" glyph-name="icircumflex" horiz-adv-x="321" d="M294,558L195,0H24l99,558H294ZM231,681L60,594L81,712l170,84l140-84L370,594L231,681Z" />
      <glyph unicode="&#xef;" glyph-name="idieresis" horiz-adv-x="321" d="M294,558L195,0H24l99,558H294ZM119,620q-27,0-44.5,17T57,680q0,36 26.5,61.5T145,767q28,0 45-17t17-43q0-36-26.5-61.5T119,620Zm200,0q-27,0-44.5,17T257,680q0,36 26.5,61.5T345,767q28,0 45-17t17-43q0-36-26.5-61.5T319,620Z" />
      <glyph unicode="&#xf0;" glyph-name="eth" horiz-adv-x="640" d="M555,657q69-118 69-255q0-44-7-85q-18-103-69.5-176T423.5,30.5T269-7Q197-7 141,21T53.5,101T22,223q0,24 5,57q15,86 63,150.5t116.5,99T352,564q62,0 112-31q-12,45-36,87L317,588l12,67l65,19q-26,35-57,66H494q9-10 25-30l100,29l-12-67l-52-15ZM436,279q3,20 3,35q0,51-27.5,77.5T343,418q-48,0-89-35.5T201,279q-3-19-3-35q0-51 28-78t69-27q48,0 88,36t53,104Z" />
      <glyph unicode="&#xf1;" glyph-name="ntilde" horiz-adv-x="674" d="M450,564q84,0 132-47t48-131q0-28-6-60L566,0H396l54,303q3,17 3,30q0,42-23.5,65T364,421q-50,0-84-31t-44-87v5L182,0H11l98,558H280l-13-75q33,37 80.5,59T450,564ZM218,610q49,148 164,148q22,0 38-6.5T456,732q15-10 26-14.5t23-4.5q38,0 51,45h88Q595,610 480,610q-22,0-38,6.5T406,636q-15,10-26,14.5T357,655q-36,0-52-45H218Z" />
      <glyph unicode="&#xf2;" glyph-name="ograve" horiz-adv-x="637" d="M266-8Q194-8 138,21T51.5,103T21,226q0,95 45,173T190,521.5T366,566q72,0 128.5-29.5T582,454t31-123q0-96-45.5-173.5T442.5,36T266-8Zm24,147q42,0 75.5,25.5t52,66T436,315q0,50-27,77t-68,27q-43,0-75.5-25.5T215,327t-18-86q0-49 26-75.5T290,139ZM511,722L489,604L267,705l23,133L511,722Z" />
      <glyph unicode="&#xf3;" glyph-name="oacute" horiz-adv-x="637" d="M266-8Q194-8 138,21T51.5,103T21,226q0,95 45,173T190,521.5T366,566q72,0 128.5-29.5T582,454t31-123q0-96-45.5-173.5T442.5,36T266-8Zm24,147q42,0 75.5,25.5t52,66T436,315q0,50-27,77t-68,27q-43,0-75.5-25.5T215,327t-18-86q0-49 26-75.5T290,139ZM508,705L248,604l21,118L531,838L508,705Z" />
      <glyph unicode="&#xf4;" glyph-name="ocircumflex" horiz-adv-x="637" d="M266-8Q194-8 138,21T51.5,103T21,226q0,95 45,173T190,521.5T366,566q72,0 128.5-29.5T582,454t31-123q0-96-45.5-173.5T442.5,36T266-8Zm24,147q42,0 75.5,25.5t52,66T436,315q0,50-27,77t-68,27q-43,0-75.5-25.5T215,327t-18-86q0-49 26-75.5T290,139Zm98,550L217,602l21,118l170,84l140-84L527,602L388,689Z" />
      <glyph unicode="&#xf5;" glyph-name="otilde" horiz-adv-x="637" d="M266-8Q194-8 138,21T51.5,103T21,226q0,95 45,173T190,521.5T366,566q72,0 128.5-29.5T582,454t31-123q0-96-45.5-173.5T442.5,36T266-8Zm24,147q42,0 75.5,25.5t52,66T436,315q0,50-27,77t-68,27q-43,0-75.5-25.5T215,327t-18-86q0-49 26-75.5T290,139ZM175,618q49,148 164,148q22,0 38-6.5T413,740q15-10 26-14.5t23-4.5q38,0 51,45h88Q552,618 437,618q-22,0-38,6.5T363,644q-15,10-26,14.5T314,663q-36,0-52-45H175Z" />
      <glyph unicode="&#xf6;" glyph-name="odieresis" horiz-adv-x="637" d="M266-8Q194-8 138,21T51.5,103T21,226q0,95 45,173T190,521.5T366,566q72,0 128.5-29.5T582,454t31-123q0-96-45.5-173.5T442.5,36T266-8Zm24,147q42,0 75.5,25.5t52,66T436,315q0,50-27,77t-68,27q-43,0-75.5-25.5T215,327t-18-86q0-49 26-75.5T290,139ZM277,628q-27,0-44.5,17T215,688q0,36 26.5,61.5T303,775q28,0 45-17t17-43q0-36-26.5-61.5T277,628Zm200,0q-27,0-44.5,17T415,688q0,36 26.5,61.5T503,775q28,0 45-17t17-43q0-36-26.5-61.5T477,628Z" />
      <glyph unicode="&#xf7;" glyph-name="divide" horiz-adv-x="611" d="M344,484q-40,0-63.5,21.5T257,560q0,46 34.5,78T377,670q39,0 62-21.5T462,593q0-45-34.5-77T344,484Zm244-57L561,273H51L78,427H588ZM248,31q-40,0-63.5,21.5T161,107q0,46 34.5,78T281,217q39,0 62-21.5T366,140q0-45-34.5-77T248,31Z" />
      <glyph unicode="&#xf8;" glyph-name="oslash" horiz-adv-x="629" d="M567,470q42-58 42-139q0-96-45.5-173.5T438.5,36T262-8T100,43L54,0H-38L58,88Q17,146 17,226q0,95 45,173T186,521.5T362,566q98,0 163-51l47,43h91l-96-88ZM193,241q0-11 2-27L398,399q-26,20-61,20q-43,0-75.5-25.5T211,327t-18-86Zm239,74q0,16-3,29L227,158q23-19 59-19q42,0 75.5,25.5t52,66T432,315Z" />
      <glyph unicode="&#xf9;" glyph-name="ugrave" horiz-adv-x="674" d="M660,558L562,0H391l13,76q-33-37-80.5-59.5T222-6Q138-6 90,41.5T42,174q0,32 5,58l58,326H275L222,255q-3-16-3-31q0-42 23.5-64.5T308,137q48,0 81.5,28.5T434,247l55,311H660ZM530,714L508,596L286,697l23,133L530,714Z" />
      <glyph unicode="&#xfa;" glyph-name="uacute" horiz-adv-x="674" d="M660,558L562,0H391l13,76q-33-37-80.5-59.5T222-6Q138-6 90,41.5T42,174q0,32 5,58l58,326H275L222,255q-3-16-3-31q0-42 23.5-64.5T308,137q48,0 81.5,28.5T434,247l55,311H660ZM527,697L267,596l21,118L550,830L527,697Z" />
      <glyph unicode="&#xfb;" glyph-name="ucircumflex" horiz-adv-x="674" d="M660,558L562,0H391l13,76q-33-37-80.5-59.5T222-6Q138-6 90,41.5T42,174q0,32 5,58l58,326H275L222,255q-3-16-3-31q0-42 23.5-64.5T308,137q48,0 81.5,28.5T434,247l55,311H660ZM408,681L237,594l21,118l170,84l140-84L547,594L408,681Z" />
      <glyph unicode="&#xfc;" glyph-name="udieresis" horiz-adv-x="674" d="M660,558L562,0H391l13,76q-33-37-80.5-59.5T222-6Q138-6 90,41.5T42,174q0,32 5,58l58,326H275L222,255q-3-16-3-31q0-42 23.5-64.5T308,137q48,0 81.5,28.5T434,247l55,311H660ZM296,620q-27,0-44.5,17T234,680q0,36 26.5,61.5T322,767q28,0 45-17t17-43q0-36-26.5-61.5T296,620Zm200,0q-27,0-44.5,17T434,680q0,36 26.5,61.5T522,767q28,0 45-17t17-43q0-36-26.5-61.5T496,620Z" />
      <glyph unicode="&#xfd;" glyph-name="yacute" horiz-adv-x="632" d="M237,558l68-349L495,558H680L185-265H1L179,19L47,558H237ZM505,697L245,596l21,118L528,830L505,697Z" />
      <glyph unicode="&#xfe;" glyph-name="thorn" horiz-adv-x="679" d="M268,485q71,79 177,79q61,0 108.5-28T628,457t27-117q0-30-6-62q-15-83-60.5-148T478.5,29T345-7Q242-7 196,81L135-266H-36L142,740H313L268,485ZM475,278q3,18 3,33q0,50-29.5,77.5T378,416q-48,0-91.5-35.5T231,279q-3-16-3-31q0-52 29.5-79.5T329,141q31,0 61.5,15.5t53.5,46T475,278Z" />
      <glyph unicode="&#xff;" glyph-name="ydieresis" horiz-adv-x="632" d="M237,558l68-349L495,558H680L185-265H1L179,19L47,558H237Zm37,62q-27,0-44.5,17T212,680q0,36 26.5,61.5T300,767q28,0 45-17t17-43q0-36-26.5-61.5T274,620Zm200,0q-27,0-44.5,17T412,680q0,36 26.5,61.5T500,767q28,0 45-17t17-43q0-36-26.5-61.5T474,620Z" />
      <glyph unicode="&#x2013;" glyph-name="endash" horiz-adv-x="695" d="M649,422L624,280H69L94,422H649Z" />
      <glyph unicode="&#x2014;" glyph-name="emdash" horiz-adv-x="930" d="M884,422L859,280H69L94,422H884Z" />
      <glyph unicode="&#x2018;" glyph-name="quoteleft" horiz-adv-x="314" d="M232,434H57L217,702H331L232,434Z" />
      <glyph unicode="&#x2019;" glyph-name="quoteright" horiz-adv-x="314" d="M183,702H358L199,434H84l99,268Z" />
      <glyph unicode="&#x201a;" glyph-name="quotesinglbase" horiz-adv-x="294" d="M63,163H238L78-105H-36L63,163Z" />
      <glyph unicode="&#x201c;" glyph-name="quotedblleft" horiz-adv-x="548" d="M232,434H57L217,702H331L232,434Zm234,0H291L450,702H565L466,434Z" />
      <glyph unicode="&#x201d;" glyph-name="quotedblright" horiz-adv-x="548" d="M183,702H358L199,434H84l99,268Zm234,0H592L433,434H318l99,268Z" />
      <glyph unicode="&#x201e;" glyph-name="quotedblbase" horiz-adv-x="524" d="M63,163H238L78-105H-36L63,163Zm230,0H467L308-105H193L293,163Z" />
      <glyph unicode="&#x2022;" glyph-name="bullet" horiz-adv-x="501" d="M232,183q-56,0-91,34.5T106,306q0,48 25,89t66.5,65T285,484q56,0 91-34.5T411,361q0-47-25-88t-66.5-65.5T232,183Z" />
      <glyph unicode="&#x2039;" glyph-name="guilsinglleft" horiz-adv-x="337" d="M99,120L46,295L161,470H319L201,295l56-175H99Z" />
      <glyph unicode="&#x203a;" glyph-name="guilsinglright" horiz-adv-x="337" d="M138,295L82,470H240l53-175L178,120H20L138,295Z" />
    </font>
</defs>
</svg>
