<?xml version="1.0" standalone="no"?>
<!DOCTYPE svg PUBLIC "-//W3C//DTD SVG 1.1//EN" "http://www.w3.org/Graphics/SVG/1.1/DTD/svg11.dtd">
<svg xmlns="http://www.w3.org/2000/svg">
  <defs>
    <font id="Poppins" horiz-adv-x="836">
      <font-face font-family="Poppins ExtraLight" units-per-em="1000" panose-1="0 0 3 0 0 0 0 0 0 0" ascent="1050" descent="-350" alphabetic="0" />
      <glyph unicode=" " glyph-name="space" horiz-adv-x="282" />
      <glyph unicode="!" glyph-name="exclam" horiz-adv-x="251" d="M148,702l-5-531H104L98,702h50ZM126-3Q109-3 98,8T87,36T98,64t28,11q16,0 27-11t11-28T153,8T126-3Z" />
      <glyph unicode="&quot;" glyph-name="quotedbl" horiz-adv-x="230" d="M89,794L80,608H48L38,794H89Zm102,0l-8-186H150l-9,186h50Z" />
      <glyph unicode="#" glyph-name="numbersign" horiz-adv-x="777" d="M572,463L531,271H680V231H522L473,0H429l49,231H242L193,0H149l49,231H38v40H207l41,192H90v40H256l51,237h44L300,503H536l51,237h44L580,503H732V463H572Zm-44,0H292L251,271H487l41,192Z" />
      <glyph unicode="$" glyph-name="dollar" horiz-adv-x="566" d="M494,177q0-46-21.5-88t-67-69T293-7V-87H261V-6Q175,2 121,52.5T62,173h47q6-48 44.5-90T261,33V341q-66,19-106,37T87.5,433T60,532q0,50 23.5,90t69,63.5T261,709v87h32V708q80-8 128-53t59-107H433q-9,41-44,77t-96,44V374q64-18 105-37t68.5-57.5T494,177ZM106,534q0-46 20.5-75t53-45.5T261,383V671q-71-1-113-36.5T106,534ZM293,31q75,1 115.5,42T449,175q0,68-40.5,101T293,331V31Z" />
      <glyph unicode="%" glyph-name="percent" horiz-adv-x="688" d="M43,574q0,60 38,98t96,38t96-38t38-98t-38-98t-96-38T81,476T43,574ZM575,702L158,0H112L528,702h47ZM177,679q-42,0-68.5-28.5T82,574q0-47 26.5-76T177,469t68.5,29T272,574q0,48-26.5,76.5T177,679ZM377,127q0,60 38,98t96,38t95.5-38T644,127T606.5,29T511-9T415,29t-38,98ZM510,232q-42,0-68.5-28.5T415,127q0-47 26.5-75.5T510,23q43,0 69.5,28.5T606,127q0,48-26.5,76.5T510,232Z" />
      <glyph unicode="&amp;" glyph-name="ampersand" horiz-adv-x="696" d="M607,243q-36-63-69-107L670,0H613L512,103Q461,44 403.5,16.5T273-11q-67,0-120,26.5t-82.5,74T41,199q0,75 42.5,129.5T207,414q-39,41-56.5,76.5T133,566q0,64 45.5,104T298,710q44,0 81-18t58-51t21-77H413q0,50-34,79t-82,29q-53,0-86-29.5T178,566q0-35 18-66.5T253,428L508,166q28,40 63,98l56,97h48L607,243ZM273,29q64,0 113.5,25T482,134L236,384l-3-1Q86,329 86,200q0-49 24-88t66.5-61T273,29Z" />
      <glyph unicode="&apos;" glyph-name="quotesingle" horiz-adv-x="133" d="M94,794L83,608H51L38,794H94Z" />
      <glyph unicode="(" glyph-name="parenleft" horiz-adv-x="379" d="M279-186Q187-92 132,52.5T77,371q0,175 56,322T284,934h48v-5Q229,825 175,679.5T121,371q0-162 53-305T327-181v-5H279Z" />
      <glyph unicode=")" glyph-name="parenright" horiz-adv-x="379" d="M52-186v5Q152-77 205,66t53,305q0,163-54,308.5T47,929v5H95q95-94 151-241t56-322q0-174-55-318.5T100-186H52Z" />
      <glyph unicode="*" glyph-name="asterisk" horiz-adv-x="449" d="M376,652l19-35L251,546l146-71l-20-35L240,524l7-164H207l7,164L77,439L56,475l146,71L58,617l19,35l137-85l-7,163h40l-7-163l136,85Z" />
      <glyph unicode="+" glyph-name="plus" horiz-adv-x="622" d="M566,356H332V120H289V356H56v38H289V630h43V394H566V356Z" />
      <glyph unicode="," glyph-name="comma" horiz-adv-x="143" d="M112,105L18-151H-16L60,105h52Z" />
      <glyph unicode="-" glyph-name="hyphen" horiz-adv-x="482" d="M374,395V356H-2v39H374Z" />
      <glyph unicode="." glyph-name="period" horiz-adv-x="149" d="M75-3Q58-3 47,8T36,36T47,64T75,75q16,0 27-11t11-28T102,8T75-3Z" />
      <glyph unicode="/" glyph-name="slash" horiz-adv-x="400" d="M360,937L83-161H38L314,937h46Z" />
      <glyph unicode="0" glyph-name="zero" horiz-adv-x="602" d="M67,359q0,173 50,266.5T301,719q133,0 183-93.5T534,359q0-175-50-269.5T301-5Q167-5 117,89.5T67,359Zm423,0q0,100-14.5,169t-56,109.5T301,678T182.5,637.5T126.5,528T112,359q0-102 14.5-171.5T182.5,77T301,36T419.5,77t56,110.5T490,359Z" />
      <glyph unicode="1" glyph-name="one" horiz-adv-x="259" d="M23,670v41H171V0H126V670H23Z" />
      <glyph unicode="2" glyph-name="two" horiz-adv-x="570" d="M50,33Q238,163 346.5,284T455,516q0,73-38.5,119T291,681T158,628T106,488H62q7,110 68,171t161,61q91,0 149.5-51T499,517q0-125-114.5-252T123,41H522V3H50V33Z" />
      <glyph unicode="3" glyph-name="three" horiz-adv-x="580" d="M64,525q9,91 70.5,143T297,720q65,0 111-23.5T478,633t24-91q0-64-39-110.5T344,376v-6q77-12 124-59t47-126q0-84-55.5-137.5T297-6Q196-6 130.5,48T52,201H96q12-74 64-120.5T297,34q86,0 130.5,43T472,188q0,82-62.5,123T231,352H212v39h20q226,1 226,148q0,64-42.5,103T296,681q-75,0-126.5-39.5T108,525H64Z" />
      <glyph unicode="4" glyph-name="four" horiz-adv-x="593" d="M27,180v35L408,708h51V219H573V180H459V0H415V180H27ZM416,654L80,219H416V654Z" />
      <glyph unicode="5" glyph-name="five" horiz-adv-x="605" d="M510,671H126V384q27,38 79,62.5T318,471q81,0 132.5-32.5T525,354t23-113q0-68-25-123.5t-78.5-89T310-5Q212-5 148.5,48.5T71,193h44q15-77 67-117.5T310,35q97,0 146,56.5T505,240q0,90-49.5,141T314,432q-63,0-112.5-28T125,327H83V711H510V671Z" />
      <glyph unicode="6" glyph-name="six" horiz-adv-x="621" d="M491,532q-11,72-53,111.5T323,683q-103,0-157.5-76T111,361l1-39q16,69 77,109.5T331,472q108,0 169-65t61-178q0-64-24-117T461,27T331-5Q181-5 126,89.5T71,350q0,179 59.5,275T323,721q93,0 146.5-51.5T534,532H491ZM324,433q-51,0-98-21t-76.5-63.5T120,245q0-56 22.5-104.5t69.5-78T329,33q86,0 137,52t51,143q0,98-51,151.5T324,433Z" />
      <glyph unicode="7" glyph-name="seven" horiz-adv-x="517" d="M478,674L198,0H152L436,671H18v39H478V674Z" />
      <glyph unicode="8" glyph-name="eight" horiz-adv-x="616" d="M216,367q-70,18-105,62T76,535q0,82 61.5,133T308,719t170.5-51T540,535q0-61-35-105.5T400,367q75-16 117.5-64T560,183q0-95-67.5-150.5T308-23T124,32.5T57,183q0,72 42.5,120.5T216,367ZM496,532q0,71-51,110T308,681T171,642.5T120,531q0-69 51-108.5T308,383t137,40t51,109ZM308,347q-91,0-149.5-40T100,184q0-79 56.5-124T308,15T459,60t56,124q0,82-58,122.5T308,347Z" />
      <glyph unicode="9" glyph-name="nine" horiz-adv-x="620" d="M134,186q10-73 53.5-113T305,33q101,0 153.5,75T511,351l-1,39q-15-66-74.5-105T297,246q-108,0-170,64T65,487q0,100 57.5,166.5T296,720q146,0 200.5-93T551,368q0-183-57-278.5T303-6Q209-6 155,46.5T91,186h43Zm168,98q51,0 97,21.5T473.5,369T502,471q0,57-22,105t-68.5,77T296,682q-85,0-136.5-52.5T108,487q0-97 51-150t143-53Z" />
      <glyph unicode=":" glyph-name="colon" horiz-adv-x="150" d="M75-3Q58-3 47,8T36,36T47,64T75,75q16,0 27-11t11-28T102,8T75-3Zm0,444q-17,0-28,11T36,480t11,28t28,11q16,0 27-11t11-28t-11-28T75,441Z" />
      <glyph unicode=";" glyph-name="semicolon" horiz-adv-x="184" d="M102,443q-17,0-28,11T63,482t11,28t28,11q16,0 27-11t11-28t-11-28t-27-11Zm32-338L40-151H6L82,105h52Z" />
      <glyph unicode="&lt;" glyph-name="less" horiz-adv-x="442" d="M319,141L55,375L319,610h57L112,375L376,141H319Z" />
      <glyph unicode="=" glyph-name="equal" horiz-adv-x="620" d="M558,490V451H62v39H558Zm0-190V261H62v39H558Z" />
      <glyph unicode="&gt;" glyph-name="greater" horiz-adv-x="437" d="M59,610h57L380,375L116,141H59L323,375L59,610Z" />
      <glyph unicode="?" glyph-name="question" horiz-adv-x="497" d="M241,709q62,0 110.5-25t76-70T455,509q0-211-255-213l-2-128H160l-3,162h20q107,0 171,37t64,142q0,74-47,118T242,671q-77,0-122.5-42T74,516H31q0,59 27,103t75,67t108,23ZM179-3Q162-3 151,8T140,36t11,28t28,11q16,0 27-11t11-28T206,8T179-3Z" />
      <glyph unicode="@" glyph-name="at" horiz-adv-x="988" d="M555,630q106,0 186.5-42t125-117T911,299q0-78-23.5-148T820,37.5T716-6q-48,0-71.5,29.5T623,102q-30-51-79.5-79.5T438-6Q363-6 320.5,40T278,164q0,73 30.5,136.5t85.5,102T518,441q54,0 90.5-26T658,340l15,88h40L662,135q-3-16-3-32q0-35 16.5-55T723,28q45,0 79,40t52,101.5T872,294q0,92-39.5,160T720,559T549,596q-121,0-220-60.5t-155.5-164T117,145q0-94 39-161.5T267.5-120T436-156q89,0 165,33l7-34q-85-34-182-34q-103,0-182,40.5T121-35.5T77,139q0,137 62,249T310,565t245,65ZM450,31q46,0 86,23.5t67.5,68T639,227q4,20 4,42q0,61-32.5,98.5T516,405q-58,0-102.5-33.5T345,284T321,170q0-64 34-101.5T450,31Z" />
      <glyph unicode="A" glyph-name="A" horiz-adv-x="627" d="M480,180H147L80,0H31L289,686h50L596,0H547L480,180Zm-14,38L314,627L161,218H466Z" />
      <glyph unicode="B" glyph-name="B" horiz-adv-x="579" d="M385,363q61-11 102.5-60T529,188q0-54-25.5-96.5t-76-67T305,0H82V702H301q105,0 158.5-48.5T513,528q0-67-36-108.5T385,363ZM127,383H303q79,0 121.5,37.5T467,524q0,64-42,101T298,662H127V383ZM302,39q85,0 133.5,40.5T484,191q0,70-49.5,111.5T299,344H127V39H302Z" />
      <glyph unicode="C" glyph-name="C" horiz-adv-x="770" d="M54,350q0,104 43.5,185.5T217.5,663T389,709q120,0 202-56T711,496H659q-30,80-99.5,126.5T389,669q-81,0-147-38.5t-104-111T100,350q0-96 38-167.5T242,72T389,33q101,0 170.5,46.5T659,206h52Q673,105 591,49T389-7Q294-7 217.5,38.5t-120,127T54,350Z" />
      <glyph unicode="D" glyph-name="D" horiz-adv-x="704" d="M279,702q178,0 274.5-93T650,350T553.5,92T279,0H82V702H279Zm0-664q159,0 242,82.5T604,350q0,148-83,231T279,664H127V38H279Z" />
      <glyph unicode="E" glyph-name="E" horiz-adv-x="491" d="M127,664V371H407V333H127V38H437V0H82V702H437V664H127Z" />
      <glyph unicode="F" glyph-name="F" horiz-adv-x="481" d="M444,702V664H127V371H404V333H127V0H82V702H444Z" />
      <glyph unicode="G" glyph-name="G" horiz-adv-x="787" d="M659,495q-30,79-99.5,126T395,668q-83,0-150-39T139,518T100,350t39-168T245,71.5T395,33q80,0 145,36T644,171.5T687,327H374v38H733V335q-3-98-47-176T566,37T395-7Q298-7 220,38.5T98,165.5T54,350q0,104 44,185.5t122,127T395,708q113,0 195.5-56.5T711,495H659Z" />
      <glyph unicode="H" glyph-name="H" horiz-adv-x="665" d="M582,702V0H537V340H127V0H82V702h45V378H537V702h45Z" />
      <glyph unicode="I" glyph-name="I" horiz-adv-x="210" d="M127,702V0H82V702h45Z" />
      <glyph unicode="J" glyph-name="J" horiz-adv-x="463" d="M375,702V157q0-73-45-118.5T208-7Q127-7 80.5,42.5T34,179H79q0-64 31-105t98-41q64,0 92.5,36.5T329,157V702h46Z" />
      <glyph unicode="K" glyph-name="K" horiz-adv-x="531" d="M450,0L127,331V0H82V702h45V368L450,702h58L166,350L509,0H450Z" />
      <glyph unicode="L" glyph-name="L" horiz-adv-x="408" d="M127,38H388V0H82V702h45V38Z" />
      <glyph unicode="M" glyph-name="M" horiz-adv-x="820" d="M737,687V0H692V593L428,0H392L127,593V0H82V687h48L410,59L690,687h47Z" />
      <glyph unicode="N" glyph-name="N" horiz-adv-x="667" d="M584,0H539L127,628V0H82V701h45L539,75V701h45V0Z" />
      <glyph unicode="O" glyph-name="O" horiz-adv-x="790" d="M395-8Q298-8 220,37.5T98,165T54,350q0,104 44,185.5t122,127T395,708t175-45.5t122-127T736,350q0-103-44-185T570,37.5T395-8Zm0,40q83,0 150,39T650.5,182T689,350q0,97-38.5,169T545,630T395,669T245,630T139,519T100,350q0-96 39-168T245,71T395,32Z" />
      <glyph unicode="P" glyph-name="P" horiz-adv-x="546" d="M507,504q0-93-58-144.5T277,308H127V0H82V702H277q116,0 173-53.5T507,504ZM277,348q185,0 185,156q0,77-44,117.5T277,662H127V348H277Z" />
      <glyph unicode="Q" glyph-name="Q" horiz-adv-x="791" d="M683-143L505,9Q452-8 395-8Q298-8 220,37.5T98,165T54,350q0,104 44,185.5t122,127T395,708t175-45.5t122-127T736,350q0-111-50.5-196T549,26L747-143H683ZM100,350q0-96 39-168T245,71T395,32T545,71T650.5,182T689,350q0,97-38.5,169T545,630T395,669T245,630T139,519T100,350Z" />
      <glyph unicode="R" glyph-name="R" horiz-adv-x="561" d="M461,0L281,299h-4H127V0H82V702H275q117,0 175.5-55T509,501q0-81-45.5-133.5T331,303L515,0H461ZM127,337H277q93,0 139,45t46,119q0,161-187,161H127V337Z" />
      <glyph unicode="S" glyph-name="S" horiz-adv-x="554" d="M285-7Q217-7 166,17T86.5,82T54,173h47q8-55 51.5-98T285,32q52,0 90.5,19T435,103t21,73q0,51-24.5,81t-61,45T272,334q-68,18-109.5,36t-70,55.5T64,528q0,50 26.5,91.5T166,685t113,24q93,0 150-46t68-113H449q-6,27-26.5,55t-58,46.5T275,670q-70,0-118-38.5T109,529q0-51 25-81.5t61.5-46T294,370q69-19 109.5-36.5t69-55T501,177q0-47-25-89T402.5,19.5T285-7Z" />
      <glyph unicode="T" glyph-name="T" horiz-adv-x="495" d="M470,702V664H270V0H225V664H25v38H470Z" />
      <glyph unicode="U" glyph-name="U" horiz-adv-x="645" d="M123,702V263q0-119 54-174.5T324,33q92,0 145,55t53,175V702h45V264q0-137-66-204T324-7T145.5,60.5T78,264V702h45Z" />
      <glyph unicode="V" glyph-name="V" horiz-adv-x="639" d="M612,702L344,0H294L27,702H76L319,53L564,702h48Z" />
      <glyph unicode="W" glyph-name="W" horiz-adv-x="929" d="M899,702L705,0H656L464,632L269,0H222L31,702H79L247,63L440,702h50L681,59L850,702h49Z" />
      <glyph unicode="X" glyph-name="X" horiz-adv-x="543" d="M296,351L507,0H456L267,315L86,0H36L244,354L35,702H86L273,390L457,702h51L296,351Z" />
      <glyph unicode="Y" glyph-name="Y" horiz-adv-x="541" d="M515,702L294,284V0H249V284L26,702H77L271,326L464,702h51Z" />
      <glyph unicode="Z" glyph-name="Z" horiz-adv-x="506" d="M91,40H467V0H39V38L408,661H49v41H460V663L91,40Z" />
      <glyph unicode="[" glyph-name="bracketleft" horiz-adv-x="300" d="M226,934V896H145V-147h81v-38H102V934H226Z" />
      <glyph unicode="\" glyph-name="backslash" horiz-adv-x="539" d="M405-161L66,937h46L450-161H405Z" />
      <glyph unicode="]" glyph-name="bracketright" horiz-adv-x="300" d="M198-185H74v38h81V896H74v38H198V-185Z" />
      <glyph unicode="^" glyph-name="asciicircum" horiz-adv-x="579" d="M85,172H39L271,686h37L540,172H494L291,628L85,172Z" />
      <glyph unicode="_" glyph-name="underscore" horiz-adv-x="603" d="M544-33V-74H63v41H544Z" />
      <glyph unicode="`" glyph-name="grave" horiz-adv-x="264" d="M228,624V587L32,711v44L228,624Z" />
      <glyph unicode="a" glyph-name="a" horiz-adv-x="673" d="M54,272q0,84 33.5,147t93,97T316,550q86,0 146-42t84-107V543h45V0H546V143Q522,77 461.5,34.5T316-8Q240-8 180.5,26.5t-93,98T54,272Zm492,0q0,71-29.5,125.5t-80.5,84T322,511q-66,0-116-28.5T128,400T100,272t28-128t78.5-83T322,32q63,0 114.5,29.5t80.5,84T546,272Z" />
      <glyph unicode="b" glyph-name="b" horiz-adv-x="673" d="M127,400q25,66 85,108t145,42q76,0 135.5-34t93-97T619,272T585.5,124.5t-93-98T357-8Q272-8 211.5,34T127,142V0H82V740h45V400ZM573,272q0,74-28,128t-78.5,82.5T350,511q-63,0-114-29.5t-80-84T127,272q0-72 29-126.5t80-84T350,32q66,0 116.5,29T545,144t28,128Z" />
      <glyph unicode="c" glyph-name="c" horiz-adv-x="621" d="M54,272q0,85 33.5,148t93,96.5T317,550q102,0 167.5-51T566,362H519q-13,70-67.5,110T317,512q-60,0-109-26.5t-78.5-81T100,272q0-79 29.5-133T208,58T317,31q80,0 134.5,40T519,181h47Q550,96 484,44T317-8Q240-8 180.5,26t-93,97.5T54,272Z" />
      <glyph unicode="d" glyph-name="d" horiz-adv-x="673" d="M54,272q0,84 33.5,147t93,97T316,550q83,0 144-41.5T546,401V740h45V0H546V144Q522,77 462,34.5T316-8Q240-8 180.5,26.5t-93,98T54,272Zm492,0q0,71-29.5,125.5t-80.5,84T322,511q-66,0-116-28.5T128,400T100,272t28-128t78.5-83T322,32q63,0 114.5,29.5t80.5,84T546,272Z" />
      <glyph unicode="e" glyph-name="e" horiz-adv-x="625" d="M571,308q0-36-2-54H100q2-73 32-123t79-75T318,31q80,0 134,39.5T520,178h47Q551,95 485,43.5T318-8Q242-8 182,26T88,123.5T54,272T87.5,420T181,516.5T318,550q78,0 135.5-33.5t87.5-89T571,308Zm-45-17q3,72-25.5,122T423,487.5T317,512T211.5,487.5t-79-74.5T100,291H526Z" />
      <glyph unicode="f" glyph-name="f" horiz-adv-x="322" d="M289,503H148V0H103V503H21v40h82v38q0,85 43,126.5T287,749V709q-78,0-108.5-30T148,581V543H289V503Z" />
      <glyph unicode="g" glyph-name="g" horiz-adv-x="673" d="M316,550q86,0 146-41.5T546,402V543h45V-17q0-75-33-131.5t-89-87T344-266q-102,0-169,49T87-85h45q20-65 75-103.5T344-227q57,0 103,25.5t72.5,73T546-17V142Q522,77 461.5,34.5T316-8Q240-8 180.5,26.5t-93,98T54,272T87.5,419t93,97T316,550ZM546,272q0,71-29.5,125.5t-80.5,84T322,511q-66,0-116-28.5T128,400T100,272t28-128t78.5-83T322,32q63,0 114.5,29.5t80.5,84T546,272Z" />
      <glyph unicode="h" glyph-name="h" horiz-adv-x="623" d="M328,554q96,0 157-59.5T546,318V0H502V315q0,97-49,148.5T320,515q-88,0-140.5-56T127,293V0H82V740h45V428q23,61 77,93.5T328,554Z" />
      <glyph unicode="i" glyph-name="i" horiz-adv-x="210" d="M105,664q-16,0-27,10.5T67,703q0,17 11,28t27,11t27-11t11-28q0-18-11-28.5T105,664Zm22-121V0H82V543h45Z" />
      <glyph unicode="j" glyph-name="j" horiz-adv-x="217" d="M112,664q-16,0-27,10.5T74,703q0,17 11,28t27,11t27.5-11T151,703t-11.5-28T112,664Zm23-804q0-58-28.5-87T16-256H-26v40H11q42,0 60.5,17.5T90-136V543h45V-140Z" />
      <glyph unicode="k" glyph-name="k" horiz-adv-x="437" d="M364,0L127,249V0H82V740h45V297L360,543h63L160,273L426,0H364Z" />
      <glyph unicode="l" glyph-name="l" horiz-adv-x="210" d="M127,740V0H82V740h45Z" />
      <glyph unicode="m" glyph-name="m" horiz-adv-x="1013" d="M724,554q93,0 152-59.5T935,318V0H891V315q0,97-46.5,148.5T717,515q-84,0-135-58T531,289V0H487V315q0,97-46.5,148.5T313,515q-84,0-135-58T127,289V0H82V543h45V425q23,64 74.5,96.5T320,554q74,0 127.5-38.5T521,402q19,75 74,113.5T724,554Z" />
      <glyph unicode="n" glyph-name="n" horiz-adv-x="623" d="M327,554q97,0 158-59.5T546,318V0H502V315q0,97-49,148.5T320,515q-88,0-140.5-56T127,293V0H82V543h45V428q23,61 76.5,93.5T327,554Z" />
      <glyph unicode="o" glyph-name="o" horiz-adv-x="645" d="M321-8Q245-8 184,26T88.5,123.5T54,272q0,84 35,147.5t96.5,97T323,550t137-33.5T555.5,420T590,272T555,123.5T458.5,26T321-8Zm0,40q59,0 110.5,26.5T514,139t31,133q0,78-31,132t-82,80.5T322,511T212.5,484.5T131,404T100,272q0-79 30.5-133t81-80.5T321,32Z" />
      <glyph unicode="p" glyph-name="p" horiz-adv-x="673" d="M127,400q23,66 83.5,108T357,550q76,0 135.5-34t93-97T619,272T585.5,124.5t-93-98T357-8Q272-8 211.5,34.5T127,142V-256H82V543h45V400ZM573,272q0,74-28,128t-78.5,82.5T350,511q-63,0-114-29.5t-80-84T127,272q0-72 29-126.5t80-84T350,32q66,0 116.5,29T545,144t28,128Z" />
      <glyph unicode="q" glyph-name="q" horiz-adv-x="673" d="M54,272q0,84 33.5,147t93,97T316,550q86,0 146.5-42T546,401V543h45V-256H546V142Q523,77 462,34.5T315-8Q240-8 180.5,26.5t-93,98T54,272Zm492,0q0,71-29.5,125.5t-80.5,84T322,511q-66,0-116-28.5T128,400T100,272t28-128t78.5-83T322,32q63,0 114.5,29.5t80.5,84T546,272Z" />
      <glyph unicode="r" glyph-name="r" horiz-adv-x="350" d="M127,431q20,60 71,91.5T328,554V507H313q-80,0-133-45.5T127,313V0H82V543h45V431Z" />
      <glyph unicode="s" glyph-name="s" horiz-adv-x="497" d="M263-8Q172-8 114.5,32T50,146H96q5-53 48.5-84T263,31q62,0 98.5,31.5T398,140q0,32-19.5,52.5T330,224t-79,24q-60,16-97,31.5T91,326T65,409q0,38 23,70.5T152,531t93,19q85,0 137.5-42.5T439,390H394q-3,54-42,88T244,512q-58,0-96-30t-38-73q0-38 21.5-61.5t53-36T268,285q57-15 91.5-29.5t58.5-42T442,140q0-42-23-76T355,11T263-8Z" />
      <glyph unicode="t" glyph-name="t" horiz-adv-x="347" d="M149,504V145q0-60 22-82.5T249,40h61V0H242Q171,0 137.5,33.5T104,145V504H22v39h82V681h45V543H310V504H149Z" />
      <glyph unicode="u" glyph-name="u" horiz-adv-x="623" d="M541,543V0H496V118q-23-62-76.5-94.5T297-9Q200-9 138.5,50.5T77,227V543h44V230q0-97 49-148.5T303,30q88,0 140.5,56T496,252V543h45Z" />
      <glyph unicode="v" glyph-name="v" horiz-adv-x="531" d="M266,49L466,543h48L289,0H242L17,543H66L266,49Z" />
      <glyph unicode="w" glyph-name="w" horiz-adv-x="809" d="M792,543L621,0H578L405,481L231,0H188L17,543H64L210,51L384,543h43L600,53L746,543h46Z" />
      <glyph unicode="x" glyph-name="x" horiz-adv-x="438" d="M369,0L216,239L66,0H18L193,274L20,543H71L222,309L370,543h47L244,273L420,0H369Z" />
      <glyph unicode="y" glyph-name="y" horiz-adv-x="524" d="M506,543L190-255H144L245,0L17,543H66L270,50L460,543h46Z" />
      <glyph unicode="z" glyph-name="z" horiz-adv-x="424" d="M84,38H390V0H34V38L332,505H41v38H383V505L84,38Z" />
      <glyph unicode="{" glyph-name="braceleft" horiz-adv-x="354" d="M63,393q65,18 87,52.5T172,524q0,46-13,126q-1,8-7,53t-6,86q0,73 37.5,107.5T289,931h40V891H295q-51,0-77.5-24.5T191,787q0-31 4-68.5t9-72.5q5-32 8.5-65t3.5-58q0-57-28.5-96T100,374v-2q59-14 87.5-53.5T216,222q0-25-3.5-58T204,99q-5-35-9-72.5T191-42q0-55 26.5-79.5T295-146h34v-40H289q-68,0-105.5,34.5T146-44q0,41 6,86t7,53q13,80 13,126q0,44-22,78.5T63,352v41Z" />
      <glyph unicode="|" glyph-name="bar" horiz-adv-x="226" d="M135-93H90V784h45V-93Z" />
      <glyph unicode="}" glyph-name="braceright" horiz-adv-x="354" d="M291,352q-65-18-87-52.5T182,221q0-46 13-126q1-8 7-53t6-86q0-73-37.5-107.5T65-186H25v40H59q51,0 77.5,24.5T163-42q0,31-4,68.5T150,99q-5,32-8.5,65T138,222q0,57 28.5,96.5T254,372v2q-59,14-87.5,53T138,523q0,25 3.5,58t8.5,65q5,35 9,72.5t4,68.5q0,55-26.5,79.5T59,891H25v40H65q68,0 105.5-34.5T208,789q0-41-6-86t-7-53q-13-80-13-126q0-44 22-78.5T291,393V352Z" />
      <glyph unicode="~" glyph-name="asciitilde" horiz-adv-x="450" d="M39,268Q60,377 144,377q25,0 45.5-9.5T237,340q24-16 39.5-23.5T309,309q28,0 44.5,18.5T374,376h37Q394,268 307,268q-24,0-43.5,9T217,304q-24,16-40.5,24T141,336q-27,0-44-19.5T75,268H39Z" />
      <glyph unicode="&#xa0;" glyph-name="uni00A0" horiz-adv-x="282" />
      <glyph unicode="&#xa1;" glyph-name="exclamdown" horiz-adv-x="251" d="M126,557q16,0 27-11t11-28t-11-28t-27-11q-17,0-28,11T87,518t11,28t28,11ZM104,383h39l5-531H98l6,531Z" />
      <glyph unicode="&#xa2;" glyph-name="cent" horiz-adv-x="615" d="M308,55q75,0 125,39.5T495,203h43q-12-81-70.5-132.5T318,16V-92H286V17Q184,24 123,91.5T62,267t61,175.5T286,517V619h32V518q91-3 149.5-54T538,332H495q-12,68-62,108T308,480q-56,0-102-24t-73.5-72T105,267t27.5-117T206,78.5T308,55Z" />
      <glyph unicode="&#xa3;" glyph-name="sterling" horiz-adv-x="568" d="M226,221q0-52-19-95T147,39H518V-1H107L98,30q44,52 65,91.5T184,217q0,46-21,104H48v34H151q-18,46-28,83t-10,80q0,57 25,101.5T208,689t104,25q92,0 146.5-55.5T521,518H479q-6,69-50.5,113T312,675q-66,0-110.5-40T157,517q0-40 9.5-74T195,355H388V321H207q19-55 19-100Z" />
      <glyph unicode="&#xa4;" glyph-name="currency" horiz-adv-x="514" d="M417,377q0-65-35-111l61-60l-23-23l-59,59q-45-39-105-39q-63,0-105,39L93,183L69,206l61,60Q97,312 97,377t34,112L69,550l24,23l60-60q44,38 103,38t103-38l61,60l23-23l-61-61q35-46 35-112ZM256,236q32,0 59.5,17T360,302t17,75t-16.5,75.5T316,502t-60,17q-52,0-85.5-38.5T137,377q0-66 33.5-103.5T256,236Z" />
      <glyph unicode="&#xa5;" glyph-name="yen" horiz-adv-x="574" d="M352,359H512V324l-179-1l-21-39V227H512V191H312V0H267V191H67v36H267v57l-21,39L67,324v35H227L44,702H96L289,327L482,702h51L352,359Z" />
      <glyph unicode="&#xa6;" glyph-name="brokenbar" horiz-adv-x="226" d="M90,784h45V424H90V784ZM135-93H90V268h45V-93Z" />
      <glyph unicode="&#xa7;" glyph-name="section" horiz-adv-x="569" d="M328,120q73-21 117-54t44-91q0-60-49-99.5T306-164q-91,0-149,43.5T91,1h45q7-56 48.5-93.5T306-130q64,0 101,26t37,77q0,45-37,72.5T276,99q-71,19-118,40.5T83,196T55,285q0,41 22,77.5t64.5,60T243,450q-72,20-117,54T81,597q0,60 50,99t136,39q89,0 146-44t65-122H433q-4,52-45.5,91.5T267,700q-65,0-103-25t-38-75q0-46 37-74.5T293,472q71-19 118-40.5t75-57T514,285q0-41-21.5-77t-64-59.5T328,120ZM101,285q0-60 49.5-97.5T287,150q57,0 98,18.5T447,218t21,67q0,61-49.5,98.5T282,421q-57,0-98-18.5T122,353t-21-68Z" />
      <glyph unicode="&#xa8;" glyph-name="dieresis" horiz-adv-x="317" d="M87,625q-16,0-27,11T49,663t11,27t27,11q15,0 26.5-11T125,663t-11.5-27T87,625Zm144,0q-16,0-27,11t-11,27t11,27t27,11t26.5-11T268,663t-10.5-27T231,625Z" />
      <glyph unicode="&#xa9;" glyph-name="copyright" horiz-adv-x="799" d="M400,703q101,0 179-45T700,533t43-182T700,169T579,44T400-1T221,44T99.5,169T56,351T99.5,533T221,658t179,45Zm0-27q-95,0-167-41.5T122.5,519T84,351t38.5-168T233,67T400,25T566.5,67t110,116T715,351T676.5,519t-110,115.5T400,676Zm2-89q-59,0-108.5-27.5t-78.5-81T186,352q0-74 29-127.5T293.5,143T402,115q72,0 127.5,40.5T605,268H562q-18-56-61-86.5T402,151q-47,0-87,23t-63.5,68T228,350q0,64 23.5,109.5T315,528t87,23q55,0 99-30.5T562,434h43q-20,73-75,113T402,587Z" />
      <glyph unicode="&#xaa;" glyph-name="ordfeminine" horiz-adv-x="439" d="M38,529q0,52 20.5,93t58,64T201,709q55,0 91.5-25.5T344,615v88h38V354H344v87q-15-43-51.5-68.5T202,347q-48,0-85,23T59,434.5T38,529Zm39-1q0-68 37-108.5T208,379q60,0 98,40.5T344,528T306,636.5T208,677q-57,0-94-40.5T77,528Z" />
      <glyph unicode="&#xab;" glyph-name="guillemotleft" horiz-adv-x="405" d="M148,120L45,295L148,470h49L92,295L197,120H148Zm158,0L203,295L306,470h49L249,295L355,120H306Z" />
      <glyph unicode="&#xac;" glyph-name="logicalnot" horiz-adv-x="653" d="M608,427V243H564V389H50v38H608Z" />
      <glyph unicode="&#xad;" glyph-name="uni00AD" horiz-adv-x="482" d="M374,395V356H-2v39H374Z" />
      <glyph unicode="&#xae;" glyph-name="registered" horiz-adv-x="494" d="M247,709q55,0 98.5-25.5t68-70T438,514T413.5,414t-68-70.5T247,318t-98.5,25.5T80.5,414T56,514t24.5,99.5t68,70T247,709Zm0-365q48,0 85.5,22t58,61T411,514t-20.5,86.5t-58,60.5T247,683q-73,0-118-47.5T84,514q0-48 20.5-87T162,366t85-22Zm85,215q0-26-16-42.5T273,497l64-89l-37-1l-62,90H207V407H175V621h88q32,0 50.5-16T332,559ZM207,524h53q41,0 41,35q0,17-11,25.5T260,593H207V524Z" />
      <glyph unicode="&#xaf;" glyph-name="macron" horiz-adv-x="388" d="M356,688V653H32v35H356Z" />
      <glyph unicode="&#xb0;" glyph-name="degree" horiz-adv-x="375" d="M29,521q0,78 44,125.5T188,694q70,0 113.5-47.5T345,521T301.5,395T187,347T72.5,395T29,521Zm278,0q0,66-33,104t-87,38q-53,0-86-38T68,521q0-68 32.5-105.5T187,378t87,38t33,105Z" />
      <glyph unicode="&#xb1;" glyph-name="plusminus" horiz-adv-x="623" d="M566,425V386H333V165H290V386H57v39H290V631h43V425H566ZM57,139H566V101H57v38Z" />
      <glyph unicode="&#xb2;" glyph-name="twosuperior" horiz-adv-x="311" d="M271,384V352H37v25L149,481q36,33 54.5,60.5T222,605t-19.5,54T153,677q-34,0-54-20T75,600H37q2,47 32,77.5T154,708q48,0 78-28t30-73q0-42-22-75t-69-73L85,384H271Z" />
      <glyph unicode="&#xb3;" glyph-name="threesuperior" horiz-adv-x="313" d="M36,616q6,41 38,66.5T158,708q49,0 82-27.5T273,610q0-31-17-52.5T208,528v-2q30-10 48.5-31.5T275,441q0-38-32-66t-88-28q-53,0-84.5,25.5T34,447H72q9-69 82-69q38,0 59,18t21,48q0,32-23,50t-59,18H97v29h56q36,0 58,17.5T233,608q0,30-21,49t-56,19t-56-16T73,616H36Z" />
      <glyph unicode="&#xb4;" glyph-name="acute" horiz-adv-x="260" d="M228,711L32,587v37L228,755V711Z" />
      <glyph unicode="&#xb5;" glyph-name="uni00B5" horiz-adv-x="628" d="M546,543V0H501V130Q479,60 426.5,24.5T307-11q-62,0-110.5,29.5T126,115V-256H82V543h44V258q0-113 52-171.5T317,28q84,0 134,56t50,166V543h45Z" />
      <glyph unicode="&#xb6;" glyph-name="paragraph" horiz-adv-x="527" d="M444,0H403V650H306V0H264V293h-4q-116,0-176,53.5T24,489q0,90 60.5,144T260,687H444V0Z" />
      <glyph unicode="&#xb7;" glyph-name="periodcentered" horiz-adv-x="148" d="M76,314q-17,0-28,11T37,353t11,28t28,11q16,0 27-11t11-28t-11-28T76,314Z" />
      <glyph unicode="&#xb8;" glyph-name="cedilla" horiz-adv-x="257" d="M98-78q61,3 94-19.5T225-164q0-42-29.5-67T113-256H32v33h73q43,0 61.5,15T185-164q0,55-80,55H63V7H98V-78Z" />
      <glyph unicode="&#xb9;" glyph-name="onesuperior" horiz-adv-x="169" d="M35,673v31h92V352H89V673H35Z" />
      <glyph unicode="&#xba;" glyph-name="ordmasculine" horiz-adv-x="421" d="M38,527q0,54 22.5,95t62,64T211,709t88.5-23t62-64T384,527t-22.5-95.5t-62-64.5T210,344q-49,0-88.5,23T60,431.5T38,527Zm307-1q0,70-38.5,110T211,676q-58,0-96-40T77,526t37.5-109.5T210,377t96.5,39.5T345,526Z" />
      <glyph unicode="&#xbb;" glyph-name="guillemotright" horiz-adv-x="405" d="M156,295L50,470h50L202,295L100,120H50L156,295Zm158,0L208,470h49L360,295L257,120H208L314,295Z" />
      <glyph unicode="&#xbc;" glyph-name="onequarter" horiz-adv-x="557" d="M46,673v31h92V352H100V673H46Zm413,29L102,0H59L416,702h43ZM525,74H472V0H434V74H258v26L428,354h44V103h53V74ZM435,303L300,103H435V303Z" />
      <glyph unicode="&#xbd;" glyph-name="onehalf" horiz-adv-x="622" d="M95,673H41v31h92V352H95V673Zm349,29L90,0H46L400,702h44ZM566,31V-1H332V24L444,128q36,33 54.5,60.5T517,252t-19.5,54T448,324q-34,0-54-20t-24-57H332q2,47 32,77.5T449,355q48,0 78-28t30-73q0-42-22-75t-69-73L380,31H566Z" />
      <glyph unicode="&#xbe;" glyph-name="threequarters" horiz-adv-x="644" d="M43,616q6,41 38,66.5T165,708q49,0 82-27.5T280,610q0-31-17-52.5T215,528v-2q30-10 48.5-31.5T282,441q0-38-32-66t-88-28q-53,0-84.5,25.5T41,447H79q9-69 82-69q38,0 59,18t21,48q0,32-23,50t-59,18H104v29h56q36,0 58,17.5T240,608q0,30-21,49t-56,19t-56-16T80,616H43Zm513,86L193,0H150L512,702h44ZM615,74H563V0H525V74H349v26L519,354h44V103h52V74ZM525,303L390,103H525V303Z" />
      <glyph unicode="&#xbf;" glyph-name="questiondown" horiz-adv-x="482" d="M311,545q17,0 28-11t11-28t-11-28t-28-11q-16,0-27,11t-11,28t11,28t27,11ZM249-167q-62,0-110.5,25t-76,70T35,33q0,211 255,213l2,128h38l3-162H313q-107,0-171-37T78,33q0-74 47-118t123-44q77,0 122.5,42T416,26h43q0-59-27-103t-75-67T249-167Z" />
      <glyph unicode="&#xc0;" glyph-name="Agrave" horiz-adv-x="627" d="M480,180H147L80,0H31L289,686h50L596,0H547L480,180Zm-14,38L314,627L161,218H466ZM400,768V731L204,855v44L400,768Z" />
      <glyph unicode="&#xc1;" glyph-name="Aacute" horiz-adv-x="627" d="M480,180H147L80,0H31L289,686h50L596,0H547L480,180Zm-14,38L314,627L161,218H466ZM400,855L204,731v37L400,899V855Z" />
      <glyph unicode="&#xc2;" glyph-name="Acircumflex" horiz-adv-x="627" d="M480,180H147L80,0H31L289,686h50L596,0H547L480,180Zm-14,38L314,627L161,218H466ZM314,838L185,756v38l129,82l128-82V756L314,838Z" />
      <glyph unicode="&#xc3;" glyph-name="Atilde" horiz-adv-x="627" d="M480,180H147L80,0H31L289,686h50L596,0H547L480,180Zm-14,38L314,627L161,218H466ZM200,749q5,38 24.5,59T274,829q17,0 30-6.5T333,803q15-12 25.5-17.5T384,780q17,0 29,12t15,34h30q-3-36-24-57.5T383,747q-19,0-32.5,7T320,774q-14,11-24,16.5T273,796q-37,0-43-47H200Z" />
      <glyph unicode="&#xc4;" glyph-name="Adieresis" horiz-adv-x="627" d="M480,180H147L80,0H31L289,686h50L596,0H547L480,180Zm-14,38L314,627L161,218H466ZM243,769q-16,0-27,11t-11,27t11,27t27,11q15,0 26.5-11T281,807t-11.5-27T243,769Zm144,0q-16,0-27,11t-11,27t11,27t27,11t26.5-11T424,807t-10.5-27T387,769Z" />
      <glyph unicode="&#xc5;" glyph-name="Aring" horiz-adv-x="627" d="M480,180H147L80,0H31L289,686h50L596,0H547L480,180Zm-14,38L314,627L161,218H466ZM410,851q0-43-27.5-69T314,756q-40,0-68,26t-28,69q0,44 28,70t68,26q41,0 68.5-26T410,851Zm-32,1q0,30-18,48t-46,18t-46-18t-18-48t18-48.5T314,785t46,18.5T378,852Z" />
      <glyph unicode="&#xc6;" glyph-name="AE" horiz-adv-x="859" d="M496,665V370H775V334H496V37H805V0H451V180H168L60,0H11L430,702H805V665H496ZM451,217V654L190,217H451Z" />
      <glyph unicode="&#xc7;" glyph-name="Ccedilla" horiz-adv-x="770" d="M389,33q101,0 170.5,46.5T659,206h52Q676,113 603,57.5T424-6V-78q61,3 94-19.5T551-164q0-42-29.5-67T439-256H358v33h73q43,0 61.5,15T511-164q0,55-80,55H389V-7Q294-7 217.5,38.5t-120,127T54,350q0,104 43.5,185.5T217.5,663T389,709q120,0 202-56T711,496H659q-30,80-99.5,126.5T389,669q-81,0-147-38.5t-104-111T100,350q0-96 38-167.5T242,72T389,33Z" />
      <glyph unicode="&#xc8;" glyph-name="Egrave" horiz-adv-x="491" d="M127,664V371H407V333H127V38H437V0H82V702H437V664H127ZM327,768V731L131,855v44L327,768Z" />
      <glyph unicode="&#xc9;" glyph-name="Eacute" horiz-adv-x="491" d="M127,664V371H407V333H127V38H437V0H82V702H437V664H127ZM327,855L131,731v37L327,899V855Z" />
      <glyph unicode="&#xca;" glyph-name="Ecircumflex" horiz-adv-x="491" d="M127,664V371H407V333H127V38H437V0H82V702H437V664H127ZM241,838L112,756v38l129,82l128-82V756L241,838Z" />
      <glyph unicode="&#xcb;" glyph-name="Edieresis" horiz-adv-x="491" d="M127,664V371H407V333H127V38H437V0H82V702H437V664H127Zm43,105q-16,0-27,11t-11,27t11,27t27,11q15,0 26.5-11T208,807t-11.5-27T170,769Zm144,0q-16,0-27,11t-11,27t11,27t27,11t26.5-11T351,807t-10.5-27T314,769Z" />
      <glyph unicode="&#xcc;" glyph-name="Igrave" horiz-adv-x="210" d="M127,702V0H82V702h45Zm64,66V731L-5,855v44L191,768Z" />
      <glyph unicode="&#xcd;" glyph-name="Iacute" horiz-adv-x="210" d="M127,702V0H82V702h45Zm64,153L-5,731v37L191,899V855Z" />
      <glyph unicode="&#xce;" glyph-name="Icircumflex" horiz-adv-x="210" d="M127,702V0H82V702h45ZM105,838L-24,756v38l129,82l128-82V756L105,838Z" />
      <glyph unicode="&#xcf;" glyph-name="Idieresis" horiz-adv-x="210" d="M127,702V0H82V702h45ZM34,769q-16,0-27,11T-4,807T7,834t27,11q15,0 26.5-11T72,807T60.5,780T34,769Zm144,0q-16,0-27,11t-11,27t11,27t27,11t26.5-11T215,807t-10.5-27T178,769Z" />
      <glyph unicode="&#xd0;" glyph-name="Eth" horiz-adv-x="736" d="M311,702q178,0 274.5-93T682,350T585.5,92T311,0H115V330H10v41H115V702H311Zm0-666q160,0 242.5,83T636,350T553.5,581T311,664H160V371H378V330H160V36H311Z" />
      <glyph unicode="&#xd1;" glyph-name="Ntilde" horiz-adv-x="667" d="M584,0H539L127,628V0H82V701h45L539,75V701h45V0ZM220,749q5,38 24.5,59T294,829q17,0 30-6.5T353,803q15-12 25.5-17.5T404,780q17,0 29,12t15,34h30q-3-36-24-57.5T403,747q-19,0-32.5,7T340,774q-14,11-24,16.5T293,796q-37,0-43-47H220Z" />
      <glyph unicode="&#xd2;" glyph-name="Ograve" horiz-adv-x="790" d="M395-8Q298-8 220,37.5T98,165T54,350q0,104 44,185.5t122,127T395,708t175-45.5t122-127T736,350q0-103-44-185T570,37.5T395-8Zm0,40q83,0 150,39T650.5,182T689,350q0,97-38.5,169T545,630T395,669T245,630T139,519T100,350q0-96 39-168T245,71T395,32Zm94,736V731L293,855v44L489,768Z" />
      <glyph unicode="&#xd3;" glyph-name="Oacute" horiz-adv-x="790" d="M395-8Q298-8 220,37.5T98,165T54,350q0,104 44,185.5t122,127T395,708t175-45.5t122-127T736,350q0-103-44-185T570,37.5T395-8Zm0,40q83,0 150,39T650.5,182T689,350q0,97-38.5,169T545,630T395,669T245,630T139,519T100,350q0-96 39-168T245,71T395,32Zm94,823L293,731v37L489,899V855Z" />
      <glyph unicode="&#xd4;" glyph-name="Ocircumflex" horiz-adv-x="790" d="M395-8Q298-8 220,37.5T98,165T54,350q0,104 44,185.5t122,127T395,708t175-45.5t122-127T736,350q0-103-44-185T570,37.5T395-8Zm0,40q83,0 150,39T650.5,182T689,350q0,97-38.5,169T545,630T395,669T245,630T139,519T100,350q0-96 39-168T245,71T395,32Zm8,806L274,756v38l129,82l128-82V756L403,838Z" />
      <glyph unicode="&#xd5;" glyph-name="Otilde" horiz-adv-x="790" d="M395-8Q298-8 220,37.5T98,165T54,350q0,104 44,185.5t122,127T395,708t175-45.5t122-127T736,350q0-103-44-185T570,37.5T395-8Zm0,40q83,0 150,39T650.5,182T689,350q0,97-38.5,169T545,630T395,669T245,630T139,519T100,350q0-96 39-168T245,71T395,32ZM289,749q5,38 24.5,59T363,829q17,0 30-6.5T422,803q15-12 25.5-17.5T473,780q17,0 29,12t15,34h30q-3-36-24-57.5T472,747q-19,0-32.5,7T409,774q-14,11-24,16.5T362,796q-37,0-43-47H289Z" />
      <glyph unicode="&#xd6;" glyph-name="Odieresis" horiz-adv-x="790" d="M395-8Q298-8 220,37.5T98,165T54,350q0,104 44,185.5t122,127T395,708t175-45.5t122-127T736,350q0-103-44-185T570,37.5T395-8Zm0,40q83,0 150,39T650.5,182T689,350q0,97-38.5,169T545,630T395,669T245,630T139,519T100,350q0-96 39-168T245,71T395,32ZM332,769q-16,0-27,11t-11,27t11,27t27,11q15,0 26.5-11T370,807t-11.5-27T332,769Zm144,0q-16,0-27,11t-11,27t11,27t27,11t26.5-11T513,807t-10.5-27T476,769Z" />
      <glyph unicode="&#xd7;" glyph-name="multiply" horiz-adv-x="530" d="M438,173L265,346L92,173L63,203L236,376L63,548l30,29L265,405L437,577l30-30L295,375L468,202l-30-29Z" />
      <glyph unicode="&#xd8;" glyph-name="Oslash" horiz-adv-x="790" d="M645,601q44-47 67.5-111.5T736,350q0-103-44-185T570,37.5T395-8Q328-8 269.5,14T166,78L94,0H52l92,100q-43,48-66.5,111.5T54,350q0,104 44,185.5t122,127T395,708q67,0 125-22t104-63l72,79h42L645,601ZM100,350q0-132 73-218L595,592q-39,38-90.5,57.5T395,669q-83,0-150-39T139,519T100,350Zm589,0q0,132-72,220L194,109q39-37 90.5-57T395,32q83,0 150,39T650.5,182T689,350Z" />
      <glyph unicode="&#xd9;" glyph-name="Ugrave" horiz-adv-x="645" d="M123,702V263q0-119 54-174.5T324,33q92,0 145,55t53,175V702h45V264q0-137-66-204T324-7T145.5,60.5T78,264V702h45Zm285,66V731L212,855v44L408,768Z" />
      <glyph unicode="&#xda;" glyph-name="Uacute" horiz-adv-x="645" d="M123,702V263q0-119 54-174.5T324,33q92,0 145,55t53,175V702h45V264q0-137-66-204T324-7T145.5,60.5T78,264V702h45ZM408,855L212,731v37L408,899V855Z" />
      <glyph unicode="&#xdb;" glyph-name="Ucircumflex" horiz-adv-x="645" d="M123,702V263q0-119 54-174.5T324,33q92,0 145,55t53,175V702h45V264q0-137-66-204T324-7T145.5,60.5T78,264V702h45ZM322,838L193,756v38l129,82l128-82V756L322,838Z" />
      <glyph unicode="&#xdc;" glyph-name="Udieresis" horiz-adv-x="645" d="M123,702V263q0-119 54-174.5T324,33q92,0 145,55t53,175V702h45V264q0-137-66-204T324-7T145.5,60.5T78,264V702h45Zm128,67q-16,0-27,11t-11,27t11,27t27,11q15,0 26.5-11T289,807t-11.5-27T251,769Zm144,0q-16,0-27,11t-11,27t11,27t27,11t26.5-11T432,807t-10.5-27T395,769Z" />
      <glyph unicode="&#xdd;" glyph-name="Yacute" horiz-adv-x="541" d="M515,702L294,284V0H249V284L26,702H77L271,326L464,702h51ZM357,855L161,731v37L357,899V855Z" />
      <glyph unicode="&#xde;" glyph-name="Thorn" horiz-adv-x="546" d="M507,351q0-94-58-145.5T277,154H127V0H82V702h45V548H277q116,0 173-53t57-144ZM277,194q185,0 185,157q0,77-44,118T277,510H127V194H277Z" />
      <glyph unicode="&#xdf;" glyph-name="germandbls" horiz-adv-x="646" d="M73,559q0,94 55,150.5T281,766q61,0 105.5-20t68-55T478,613q0-44-23-74.5T389,471q-33-27-49-46.5T324,382q0-29 26.5-48.5T449,290q69-22 100-57t31-90q0-69-44.5-110.5T414-9Q335-9 283,37.5T222,164h46q6-62 45-99T414,28q56,0 88.5,30.5T535,140q0,44-27,70.5T420,257q-79,26-110,52t-31,69q0,34 19,58.5T356,495q38,31 57.5,56.5T433,611q0,52-41,84T281,727q-78,0-120.5-46.5T118,555V0H73V559Z" />
      <glyph unicode="&#xe0;" glyph-name="agrave" horiz-adv-x="673" d="M54,272q0,84 33.5,147t93,97T316,550q86,0 146-42t84-107V543h45V0H546V143Q522,77 461.5,34.5T316-8Q240-8 180.5,26.5t-93,98T54,272Zm492,0q0,71-29.5,125.5t-80.5,84T322,511q-66,0-116-28.5T128,400T100,272t28-128t78.5-83T322,32q63,0 114.5,29.5t80.5,84T546,272ZM425,624V587L229,711v44L425,624Z" />
      <glyph unicode="&#xe1;" glyph-name="aacute" horiz-adv-x="673" d="M54,272q0,84 33.5,147t93,97T316,550q86,0 146-42t84-107V543h45V0H546V143Q522,77 461.5,34.5T316-8Q240-8 180.5,26.5t-93,98T54,272Zm492,0q0,71-29.5,125.5t-80.5,84T322,511q-66,0-116-28.5T128,400T100,272t28-128t78.5-83T322,32q63,0 114.5,29.5t80.5,84T546,272ZM425,711L229,587v37L425,755V711Z" />
      <glyph unicode="&#xe2;" glyph-name="acircumflex" horiz-adv-x="673" d="M54,272q0,84 33.5,147t93,97T316,550q86,0 146-42t84-107V543h45V0H546V143Q522,77 461.5,34.5T316-8Q240-8 180.5,26.5t-93,98T54,272Zm492,0q0,71-29.5,125.5t-80.5,84T322,511q-66,0-116-28.5T128,400T100,272t28-128t78.5-83T322,32q63,0 114.5,29.5t80.5,84T546,272ZM339,694L210,612v38l129,82l128-82V612L339,694Z" />
      <glyph unicode="&#xe3;" glyph-name="atilde" horiz-adv-x="673" d="M54,272q0,84 33.5,147t93,97T316,550q86,0 146-42t84-107V543h45V0H546V143Q522,77 461.5,34.5T316-8Q240-8 180.5,26.5t-93,98T54,272Zm492,0q0,71-29.5,125.5t-80.5,84T322,511q-66,0-116-28.5T128,400T100,272t28-128t78.5-83T322,32q63,0 114.5,29.5t80.5,84T546,272ZM225,605q5,38 24.5,59T299,685q17,0 30-6.5T358,659q15-12 25.5-17.5T409,636q17,0 29,12t15,34h30q-3-36-24-57.5T408,603q-19,0-32.5,7T345,630q-14,11-24,16.5T298,652q-37,0-43-47H225Z" />
      <glyph unicode="&#xe4;" glyph-name="adieresis" horiz-adv-x="673" d="M54,272q0,84 33.5,147t93,97T316,550q86,0 146-42t84-107V543h45V0H546V143Q522,77 461.5,34.5T316-8Q240-8 180.5,26.5t-93,98T54,272Zm492,0q0,71-29.5,125.5t-80.5,84T322,511q-66,0-116-28.5T128,400T100,272t28-128t78.5-83T322,32q63,0 114.5,29.5t80.5,84T546,272ZM268,625q-16,0-27,11t-11,27t11,27t27,11q15,0 26.5-11T306,663t-11.5-27T268,625Zm144,0q-16,0-27,11t-11,27t11,27t27,11t26.5-11T449,663t-10.5-27T412,625Z" />
      <glyph unicode="&#xe5;" glyph-name="aring" horiz-adv-x="673" d="M54,272q0,84 33.5,147t93,97T316,550q86,0 146-42t84-107V543h45V0H546V143Q522,77 461.5,34.5T316-8Q240-8 180.5,26.5t-93,98T54,272Zm492,0q0,71-29.5,125.5t-80.5,84T322,511q-66,0-116-28.5T128,400T100,272t28-128t78.5-83T322,32q63,0 114.5,29.5t80.5,84T546,272ZM435,707q0-43-27.5-69T339,612q-40,0-68,26t-28,69q0,44 28,70t68,26q41,0 68.5-26T435,707Zm-32,1q0,30-18,48t-46,18t-46-18t-18-48t18-48.5T339,641t46,18.5T403,708Z" />
      <glyph unicode="&#xe6;" glyph-name="ae" horiz-adv-x="1122" d="M1068,309q0-30-4-54H591q2-73 33.5-123.5t81-75.5T812,31q81,0 136,39.5T1016,178h48q-17-83-82-134.5T817-8Q736-8 673,33.5T587,151V0H547V150Q522,79 461.5,35.5T316-8Q240-8 180.5,26.5t-93,98T54,272T87.5,419T181,516t137,34q84,0 144-42t86-114V543h39V394q26,76 87.5,116T817,550q78,0 135-33.5t86.5-89T1068,309Zm-45-19q3,72-25.5,122t-78,75T812,512T704.5,487T624,412T591,290h432ZM322,32q63,0 114.5,29.5t80.5,84T546,272q0,71-29.5,125.5t-80.5,84T322,511q-66,0-116-28.5T128,400T100,272t28-128t78.5-83T322,32Z" />
      <glyph unicode="&#xe7;" glyph-name="ccedilla" horiz-adv-x="621" d="M317,31q80,0 134.5,40T519,181h47Q551,99 489.5,47.5T332-8V-78q61,3 94-19.5T459-164q0-42-29.5-67T347-256H266v33h73q43,0 61.5,15T419-164q0,55-80,55H297V-7Q226-3 171,32T85,129T54,272q0,85 33.5,148t93,96.5T317,550q102,0 167.5-51T566,362H519q-13,70-67.5,110T317,512q-60,0-109-26.5t-78.5-81T100,272q0-79 29.5-133T208,58T317,31Z" />
      <glyph unicode="&#xe8;" glyph-name="egrave" horiz-adv-x="625" d="M571,308q0-36-2-54H100q2-73 32-123t79-75T318,31q80,0 134,39.5T520,178h47Q551,95 485,43.5T318-8Q242-8 182,26T88,123.5T54,272T87.5,420T181,516.5T318,550q78,0 135.5-33.5t87.5-89T571,308Zm-45-17q3,72-25.5,122T423,487.5T317,512T211.5,487.5t-79-74.5T100,291H526ZM399,624V587L203,711v44L399,624Z" />
      <glyph unicode="&#xe9;" glyph-name="eacute" horiz-adv-x="625" d="M571,308q0-36-2-54H100q2-73 32-123t79-75T318,31q80,0 134,39.5T520,178h47Q551,95 485,43.5T318-8Q242-8 182,26T88,123.5T54,272T87.5,420T181,516.5T318,550q78,0 135.5-33.5t87.5-89T571,308Zm-45-17q3,72-25.5,122T423,487.5T317,512T211.5,487.5t-79-74.5T100,291H526ZM399,711L203,587v37L399,755V711Z" />
      <glyph unicode="&#xea;" glyph-name="ecircumflex" horiz-adv-x="625" d="M571,308q0-36-2-54H100q2-73 32-123t79-75T318,31q80,0 134,39.5T520,178h47Q551,95 485,43.5T318-8Q242-8 182,26T88,123.5T54,272T87.5,420T181,516.5T318,550q78,0 135.5-33.5t87.5-89T571,308Zm-45-17q3,72-25.5,122T423,487.5T317,512T211.5,487.5t-79-74.5T100,291H526ZM313,694L184,612v38l129,82l128-82V612L313,694Z" />
      <glyph unicode="&#xeb;" glyph-name="edieresis" horiz-adv-x="625" d="M571,308q0-36-2-54H100q2-73 32-123t79-75T318,31q80,0 134,39.5T520,178h47Q551,95 485,43.5T318-8Q242-8 182,26T88,123.5T54,272T87.5,420T181,516.5T318,550q78,0 135.5-33.5t87.5-89T571,308Zm-45-17q3,72-25.5,122T423,487.5T317,512T211.5,487.5t-79-74.5T100,291H526ZM241,625q-16,0-27,11t-11,27t11,27t27,11q15,0 26.5-11T279,663t-11.5-27T241,625Zm144,0q-16,0-27,11t-11,27t11,27t27,11t26.5-11T422,663t-10.5-27T385,625Z" />
      <glyph unicode="&#xec;" glyph-name="igrave" horiz-adv-x="210" d="M127,543V0H82V543h45Zm64,81V587L-5,711v44L191,624Z" />
      <glyph unicode="&#xed;" glyph-name="iacute" horiz-adv-x="210" d="M127,543V0H82V543h45Zm64,168L-5,587v37L191,755V711Z" />
      <glyph unicode="&#xee;" glyph-name="icircumflex" horiz-adv-x="210" d="M127,543V0H82V543h45ZM105,694L-24,612v38l129,82l128-82V612L105,694Z" />
      <glyph unicode="&#xef;" glyph-name="idieresis" horiz-adv-x="210" d="M127,543V0H82V543h45ZM34,625q-16,0-27,11T-4,663T7,690t27,11q15,0 26.5-11T72,663T60.5,636T34,625Zm144,0q-16,0-27,11t-11,27t11,27t27,11t26.5-11T215,663t-10.5-27T178,625Z" />
      <glyph unicode="&#xf0;" glyph-name="eth" horiz-adv-x="643" d="M435,670q79-79 116.5-167.5T589,310T555,134.5t-94.5-107T321-8Q240-8 179.5,28.5T86.5,131T54,283q0,81 33,142t93.5,95T319,554t137.5-40.5T543,391q-15,79-47.5,142T401,658L255,606v29l124,44q-25,24-71,61h47q32-24 58-49l142,51V712L435,670ZM321,31q62,0 112.5,28.5t80,83T543,272q0,76-30,131t-80.5,83.5T321,515q-63,0-113-27t-79-79.5T100,283q0-79 28.5-135.5T207,61T321,31Z" />
      <glyph unicode="&#xf1;" glyph-name="ntilde" horiz-adv-x="623" d="M327,554q97,0 158-59.5T546,318V0H502V315q0,97-49,148.5T320,515q-88,0-140.5-56T127,293V0H82V543h45V428q23,61 76.5,93.5T327,554ZM182,605q5,38 24.5,59T256,685q17,0 30-6.5T315,659q15-12 25.5-17.5T366,636q17,0 29,12t15,34h30q-3-36-24-57.5T365,603q-19,0-32.5,7T302,630q-14,11-24,16.5T255,652q-37,0-43-47H182Z" />
      <glyph unicode="&#xf2;" glyph-name="ograve" horiz-adv-x="645" d="M321-8Q245-8 184,26T88.5,123.5T54,272q0,84 35,147.5t96.5,97T323,550t137-33.5T555.5,420T590,272T555,123.5T458.5,26T321-8Zm0,40q59,0 110.5,26.5T514,139t31,133q0,78-31,132t-82,80.5T322,511T212.5,484.5T131,404T100,272q0-79 30.5-133t81-80.5T321,32Zm90,594V589L215,713v44L411,626Z" />
      <glyph unicode="&#xf3;" glyph-name="oacute" horiz-adv-x="645" d="M321-8Q245-8 184,26T88.5,123.5T54,272q0,84 35,147.5t96.5,97T323,550t137-33.5T555.5,420T590,272T555,123.5T458.5,26T321-8Zm0,40q59,0 110.5,26.5T514,139t31,133q0,78-31,132t-82,80.5T322,511T212.5,484.5T131,404T100,272q0-79 30.5-133t81-80.5T321,32Zm90,681L215,589v37L411,757V713Z" />
      <glyph unicode="&#xf4;" glyph-name="ocircumflex" horiz-adv-x="645" d="M321-8Q245-8 184,26T88.5,123.5T54,272q0,84 35,147.5t96.5,97T323,550t137-33.5T555.5,420T590,272T555,123.5T458.5,26T321-8Zm0,40q59,0 110.5,26.5T514,139t31,133q0,78-31,132t-82,80.5T322,511T212.5,484.5T131,404T100,272q0-79 30.5-133t81-80.5T321,32Zm4,664L196,614v38l129,82l128-82V614L325,696Z" />
      <glyph unicode="&#xf5;" glyph-name="otilde" horiz-adv-x="645" d="M321-8Q245-8 184,26T88.5,123.5T54,272q0,84 35,147.5t96.5,97T323,550t137-33.5T555.5,420T590,272T555,123.5T458.5,26T321-8Zm0,40q59,0 110.5,26.5T514,139t31,133q0,78-31,132t-82,80.5T322,511T212.5,484.5T131,404T100,272q0-79 30.5-133t81-80.5T321,32ZM211,607q5,38 24.5,59T285,687q17,0 30-6.5T344,661q15-12 25.5-17.5T395,638q17,0 29,12t15,34h30q-3-36-24-57.5T394,605q-19,0-32.5,7T331,632q-14,11-24,16.5T284,654q-37,0-43-47H211Z" />
      <glyph unicode="&#xf6;" glyph-name="odieresis" horiz-adv-x="645" d="M321-8Q245-8 184,26T88.5,123.5T54,272q0,84 35,147.5t96.5,97T323,550t137-33.5T555.5,420T590,272T555,123.5T458.5,26T321-8Zm0,40q59,0 110.5,26.5T514,139t31,133q0,78-31,132t-82,80.5T322,511T212.5,484.5T131,404T100,272q0-79 30.5-133t81-80.5T321,32ZM254,627q-16,0-27,11t-11,27t11,27t27,11q15,0 26.5-11T292,665t-11.5-27T254,627Zm144,0q-16,0-27,11t-11,27t11,27t27,11t26.5-11T435,665t-10.5-27T398,627Z" />
      <glyph unicode="&#xf7;" glyph-name="divide" horiz-adv-x="613" d="M310,552q-17,0-28,11t-11,28t11,28t28,11q16,0 27-11t11-28t-11-28t-27-11ZM563,395V356H53v39H563ZM310,123q-17,0-28,11t-11,28t11,28t28,11q16,0 27-11t11-28t-11-28t-27-11Z" />
      <glyph unicode="&#xf8;" glyph-name="oslash" horiz-adv-x="645" d="M521,468q33-36 51-86t18-110q0-85-35-148.5T458.5,26T321-8Q217-8 144,54L95,0H58l66,73q-34,37-52,87.5T54,272q0,84 35,147.5t96.5,97T323,550q52,0 97.5-16T501,487l51,56h37l-68-75ZM100,272q0-103 54-167L473,456q-30,27-69.5,41T322,511q-59,0-109.5-26.5T131,404T100,272ZM321,32q59,0 110.5,26.5T514,139t31,133q0,101-53,164L173,85q29-26 67.5-39.5T321,32Z" />
      <glyph unicode="&#xf9;" glyph-name="ugrave" horiz-adv-x="623" d="M541,543V0H496V118q-23-62-76.5-94.5T297-9Q200-9 138.5,50.5T77,227V543h44V230q0-97 49-148.5T303,30q88,0 140.5,56T496,252V543h45ZM399,624V587L203,711v44L399,624Z" />
      <glyph unicode="&#xfa;" glyph-name="uacute" horiz-adv-x="623" d="M541,543V0H496V118q-23-62-76.5-94.5T297-9Q200-9 138.5,50.5T77,227V543h44V230q0-97 49-148.5T303,30q88,0 140.5,56T496,252V543h45ZM399,711L203,587v37L399,755V711Z" />
      <glyph unicode="&#xfb;" glyph-name="ucircumflex" horiz-adv-x="623" d="M541,543V0H496V118q-23-62-76.5-94.5T297-9Q200-9 138.5,50.5T77,227V543h44V230q0-97 49-148.5T303,30q88,0 140.5,56T496,252V543h45ZM312,694L183,612v38l129,82l128-82V612L312,694Z" />
      <glyph unicode="&#xfc;" glyph-name="udieresis" horiz-adv-x="623" d="M541,543V0H496V118q-23-62-76.5-94.5T297-9Q200-9 138.5,50.5T77,227V543h44V230q0-97 49-148.5T303,30q88,0 140.5,56T496,252V543h45ZM241,625q-16,0-27,11t-11,27t11,27t27,11q15,0 26.5-11T279,663t-11.5-27T241,625Zm144,0q-16,0-27,11t-11,27t11,27t27,11t26.5-11T422,663t-10.5-27T385,625Z" />
      <glyph unicode="&#xfd;" glyph-name="yacute" horiz-adv-x="524" d="M506,543L190-255H144L245,0L17,543H66L270,50L460,543h46ZM349,711L153,587v37L349,755V711Z" />
      <glyph unicode="&#xfe;" glyph-name="thorn" horiz-adv-x="673" d="M127,389q22,72 83,116.5T357,550q76,0 135.5-34t93-97T619,272T585.5,124.5t-93-98T357-8Q271-8 210.5,37T127,155V-256H82V740h45V389ZM573,272q0,74-28,128t-78.5,82.5T350,511q-63,0-114-29.5t-80-84T127,272q0-72 29-126.5t80-84T350,32q66,0 116.5,29T545,144t28,128Z" />
      <glyph unicode="&#xff;" glyph-name="ydieresis" horiz-adv-x="524" d="M506,543L190-255H144L245,0L17,543H66L270,50L460,543h46ZM192,625q-16,0-27,11t-11,27t11,27t27,11q15,0 26.5-11T230,663t-11.5-27T192,625Zm144,0q-16,0-27,11t-11,27t11,27t27,11t26.5-11T373,663t-10.5-27T336,625Z" />
      <glyph unicode="&#x2013;" glyph-name="endash" horiz-adv-x="615" d="M563,395V356H53v39H563Z" />
      <glyph unicode="&#x2014;" glyph-name="emdash" horiz-adv-x="807" d="M754,395V356H53v39H754Z" />
      <glyph unicode="&#x2018;" glyph-name="quoteleft" horiz-adv-x="172" d="M79,497H23l78,205h34L79,497Z" />
      <glyph unicode="&#x2019;" glyph-name="quoteright" horiz-adv-x="172" d="M86,702h57L65,497H31L86,702Z" />
      <glyph unicode="&#x201a;" glyph-name="quotesinglbase" horiz-adv-x="128" d="M41,74H98L20-130H-15L41,74Z" />
      <glyph unicode="&#x201c;" glyph-name="quotedblleft" horiz-adv-x="297" d="M79,497H23l78,205h34L79,497Zm126,0H148l78,205h35L205,497Z" />
      <glyph unicode="&#x201d;" glyph-name="quotedblright" horiz-adv-x="297" d="M86,702h57L65,497H31L86,702Zm126,0h57L191,497H156l56,205Z" />
      <glyph unicode="&#x201e;" glyph-name="quotedblbase" horiz-adv-x="256" d="M40,74H97L19-130H-16L40,74Zm129,0h56L147-130H113L169,74Z" />
      <glyph unicode="&#x2022;" glyph-name="bullet" horiz-adv-x="311" d="M155,227q-44,0-75,31T49,333q0,45 31,76.5T155,441q45,0 76-31.5T262,333q0-44-31-75t-76-31Z" />
      <glyph unicode="&#x2039;" glyph-name="guilsinglleft" horiz-adv-x="247" d="M148,120L45,295L148,470h49L92,295L197,120H148Z" />
      <glyph unicode="&#x203a;" glyph-name="guilsinglright" horiz-adv-x="247" d="M156,295L50,470h50L202,295L100,120H50L156,295Z" />
    </font>
</defs>
</svg>
