<?xml version="1.0" standalone="no"?>
<!DOCTYPE svg PUBLIC "-//W3C//DTD SVG 1.1//EN" "http://www.w3.org/Graphics/SVG/1.1/DTD/svg11.dtd">
<svg xmlns="http://www.w3.org/2000/svg">
  <defs>
    <font id="Barlow" horiz-adv-x="511">
      <font-face font-family="Barlow" units-per-em="1000" panose-1="0 0 8 0 0 0 0 0 0 0" ascent="1000" descent="-200" alphabetic="0" />
      <glyph unicode=" " glyph-name="space" horiz-adv-x="194" />
      <glyph unicode="!" glyph-name="exclam" horiz-adv-x="333" d="M134,240q-5,0-8,3.5t-2,8.5l41,436q1,5 4.5,8.5T178,700H292q5,0 8-3.5t2-8.5L234,252q-1-5-4.5-8.5T221,240H134ZM143,1Q113,1 94,20T75,68q0,40 25,65.5T162,159q31,0 49-18t18-48q0-38-25.5-65T143,1Z" />
      <glyph unicode="&quot;" glyph-name="quotedbl" horiz-adv-x="348" d="M78,471q-5,0-8.5,3.5T67,483L79,686q2,12 13,12H200q12,0 9-12L172,483q-1-12-14-12H78Zm192,0q-5,0-8.5,3.5T259,483l12,203q2,12 13,12H391q12,0 9-12L363,483q-1-12-14-12H270Z" />
      <glyph unicode="#" glyph-name="numbersign" horiz-adv-x="666" d="M652,416q-1-5-5-8.5t-9-3.5H566q-5,0-7-5l-26-99q-2-5 3-5h54q5,0 8-3.5t2-8.5l-12-96q0-5-4-8.5t-9-3.5H504q-5,0-7-5L462,38q-3-11-14-11H334q-12,0-9,13l35,130q2,5-3,5H260q-6,0-6-5L218,38q-3-11-14-11H91q-13,0-9,13l35,130q0,5-3,5H59q-5,0-8,3.5T49,187l12,96q1,5 4.5,8.5T74,295h72q6,0 6,5l27,99q0,5-3,5H123q-5,0-8,3.5t-2,8.5l12,97q1,5 4.5,8.5T138,525h71q6,0 6,5l36,132q3,11 14,11H378q13,0 10-13L352,530q0-5 3-5h96q2,0 4.5,1.5T458,530l36,132q1,11 13,11H621q12,0 9-13L595,530q-2-5 3-5h56q5,0 8-3.5t2-8.5l-12-97ZM389,295q5,0 7,5l26,99q2,5-3,5H322q-6,0-6-5l-27-99q0-5 3-5h97Z" />
      <glyph unicode="$" glyph-name="dollar" horiz-adv-x="554" d="M522,195q-10-80-64-132T320-3q-5-2-6-6l-7-65q-1-5-4.5-8.5T294-86H197q-5,0-8,3.5T187-74l9,66q0,5-4,6Q119,13 78.5,58.5T38,172q0,9 2,29l3,22q1,5 4.5,8.5T56,235H161q5,0 8-3.5t2-8.5l-2-15q-5-40 26-67.5T285,113q52,0 79.5,25.5T392,200q0,21-14,36t-37,26.5T268,295q-56,22-93.5,43.5T111,396T85,484q0,8 2,26q10,77 61,127.5T277,703q6,2 6,6l7,73q1,5 4.5,8.5T303,794h97q5,0 8-3.5t2-8.5l-10-75q0-5 4-6q71-15 111.5-62.5T556,522q0-9-2-29l-2-15q0-5-4-8.5t-9-3.5H434q-11,0-11,12l1,8q1,4 1,13q0,37-28,62.5T317,587q-47,0-74.5-22.5T215,502q0-22 13.5-37t39-28T346,403q58-24 91.5-42t60-52.5T524,221q0-8-2-26Z" />
      <glyph unicode="%" glyph-name="percent" horiz-adv-x="800" d="M243,393q-60,0-98.5,39.5T106,532q0,46 24.5,87T196,684.5T282,709q58,0 96.5-39.5T417,571q0-48-24-88.5t-64-65T243,393ZM157,0q-9,0-9,6q0,4 3,8L600,692q6,8 16,8h71q9,0 9-6q0-3-3-8L245,8q-5-8-15-8H157Zm96,475q33,0 57.5,26T335,562q0,28-18,46t-45,18q-33,0-58.5-25T188,541q0-28 18.5-47T253,475ZM572-9q-59,0-97.5,40T436,131q0,46 24.5,87t65,65T611,307q58,0 97-39t39-98q0-48-24-89T658.5,15.5T572-9Zm10,83q34,0 58.5,26T665,161q0,28-18.5,46T601,225q-33,0-58-25t-25-60q0-29 18-47.5T582,74Z" />
      <glyph unicode="&amp;" glyph-name="ampersand" horiz-adv-x="684" d="M617,15q3-3 3-7q0-8-12-8H481q-8,0-14,7L435,49q-2,3-7,1Q331-8 227-8Q143-8 88.5,30T34,143q0,7 2,25q8,67 48.5,113T190,364q6,4 2,7q-35,51-48,82t-13,60q0,53 28.5,97.5t79,71T352,708q83,0 133.5-43.5T536,549q0-70-40-120.5T388,336q-6-3-3-7l31-42l44-59q3-4 7,0q40,38 70,80q8,11 16,4l79-49q5-3 5-8q0-3-3-8q-47-64-99-115q-2-2 1-9L617,15ZM339,580q-31,0-51-17.5T268,517q0-13 8-30t33-53q2-4 7-2q40,25 61,47.5T398,530q0,23-16,36.5T339,580ZM246,110q46,0 109,34q6,4 2,7l-29,39l-16,21q-4,5-43,56q-1,3-6,1q-37-22-58.5-42T177,180q-2-12-2-17q0-25 19-39t52-14Z" />
      <glyph unicode="&apos;" glyph-name="quotesingle" horiz-adv-x="163" d="M78,473q-5,0-8.5,3.5T67,485L80,687q0,12 12,12H207q12,0 9-12L179,485q-1-12-14-12H78Z" />
      <glyph unicode="(" glyph-name="parenleft" horiz-adv-x="337" d="M108-91q-9,0-13,7Q14,45 14,229q0,49 6,103Q36,463 84,569.5T198,752q7,7 15,7H323q7,0 9-4t-2-10Q201,559 174,333q-7-55-7-109q0-164 62-301q1-2 1-5q0-4-3-6.5T219-91H108Z" />
      <glyph unicode=")" glyph-name="parenright" horiz-adv-x="337" d="M272,759q9,0 13-7q38-59 59.5-137.5T366,441q0-54-7-106Q343,204 295.5,98T182-84q-7-7-16-7H57q-7,0-9,4t2,10Q179,110 206,335q7,53 7,108q0,159-62,302q-1,2-1,5q0,4 3,6.5t8,2.5H272Z" />
      <glyph unicode="*" glyph-name="asterisk" horiz-adv-x="387" d="M195,393q-5,0-8,3.5t-2,8.5l12,90q0,3-2,4t-4-1l-87-49q-4-2-7-2q-6,0-9,7L67,506q-1,2-1,5q0,9 8,12l87,45q4,3 1,6L85,617q-5,3-5,8t3,9l33,52q4,5 8.5,6.5T133,691l76-48q2-1 4,0t2,4l10,88q1,5 4.5,8.5T238,747h55q5,0 8.5-3.5T304,735l-12-88q-1-3 1-4.5t4,0.5l88,48q4,2 6,2q6,0 9-7l21-52q1-2 1-6q0-7-8-10l-87-44q-6-3-1-6l77-45q5-2 5-9q0-5-2-8l-34-52q-4-5-8.5-6.5T355,449l-76,49q-2,2-3.5,1t-2.5-4l-10-90q-1-5-4.5-8.5T250,393H195Z" />
      <glyph unicode="+" glyph-name="plus" horiz-adv-x="471" d="M457,361q5,0 8-3.5t2-8.5l-12-97q-1-5-4.5-8.5T442,240H309q-4,0-6-5L287,100q-1-5-4.5-8.5T274,88H181q-11,0-11,12l17,135q0,5-4,5H50q-5,0-8,3.5T40,252l12,97q0,5 4,8.5t9,3.5H198q2,0 3.5,1.5T203,366l17,138q1,5 4.5,8.5T233,516h93q5,0 8-3.5t2-8.5L319,366q0-5 5-5H457Z" />
      <glyph unicode="," glyph-name="comma" horiz-adv-x="257" d="M19-98Q7-98 10-85L70,147q3,11 14,11h99q12,0 8-13L103-88Q99-98 88-98H19Z" />
      <glyph unicode="-" glyph-name="hyphen" horiz-adv-x="397" d="M49,235q-5,0-8,3.5T39,247l12,97q1,5 4.5,8.5T64,356H381q5,0 8-3.5t2-8.5l-11-97q-1-5-5-8.5t-9-3.5H49Z" />
      <glyph unicode="." glyph-name="period" horiz-adv-x="262" d="M106-4Q76-4 57,15.5T38,65q0,38 25.5,63.5T126,154q31,0 49.5-18.5T194,86q0-38-26-64T106-4Z" />
      <glyph unicode="/" glyph-name="slash" horiz-adv-x="458" d="M14,0Q0,0 6,14L338,691q5,9 15,9H465q14,0 8-14L141,9q-4-9-15-9H14Z" />
      <glyph unicode="0" glyph-name="zero" horiz-adv-x="553" d="M255-11q-97,0-151,51T50,181q0,24 2,37L84,482q13,104 82.5,165T343,708q97,0 151.5-50.5T549,519q0-24-2-37L515,218Q502,112 432,50.5T255-11Zm15,121q43,0 72,27t35,74l34,275q1,6 1,16q0,40-22,62.5T328,587q-43,0-72-27.5T222,486L188,211q-1-6-1-18q0-39 22-61t61-22Z" />
      <glyph unicode="1" glyph-name="one" horiz-adv-x="343" d="M212,697q5,3 15,3H344q5,0 8-3.5t2-8.5L271,12q-1-5-4.5-8.5T258,0H145q-11,0-11,12l68,548q0,2-2,4t-4,1L97,538l-4-1q-9,0-7,11l7,86q2,9 11,14l108,49Z" />
      <glyph unicode="2" glyph-name="two" horiz-adv-x="543" d="M222,127q-2-2-1.5-4t3.5-2H487q5,0 8-3.5t2-8.5L486,12q-1-5-5-8.5T472,0H36q-5,0-8,3.5T26,12l11,92q2,10 8,15q72,66 177,172q66,66 66,66Q388,457 395,507l1,11q0,31-21.5,50T317,587q-39,0-65.5-22.5T220,505l-3-25q-1-5-4.5-8.5T204,468H89q-5,0-8,3.5T79,480l6,47q15,82 84,131.5T332,708q63,0 109-22.5t70-62T535,534q0-48-26-98T430,329q-33-37-83-85T246,149l-24-22Z" />
      <glyph unicode="3" glyph-name="three" horiz-adv-x="523" d="M484,334q9-30 9-68q0-25-2-38q-7-53-30-100Q429,64 370.5,28T237-8Q163-8 112,30T44,133q-6,29-6,59q0,17 1,25q1,6 4.5,9t8.5,3H167q12,0 10-12q0-31 5-49q5-26 23-40.5T251,113q54,0 80,49q17,30 22,70q2,22 2,32q0,27-7,45q-17,47-69,47q-16,0-53-25q-4-3-8-3q-5,0-8,6l-47,83q-2,4-2,6q0,7 6,11L338,573q2,2 2,4t-3,2H109q-5,0-8,3.5T99,591l12,97q1,5 4.5,8.5T124,700H528q5,0 8-3.5t2-8.5L525,578q-1-9-9-15L374,443q-2-2-1.5-4t3.5-2q82-17 108-103Z" />
      <glyph unicode="4" glyph-name="four" horiz-adv-x="587" d="M548,305q5,0 8-3.5t2-8.5L545,192q0-5-4-8.5t-9-3.5H491q-4,0-6-5L465,12q-1-5-4.5-8.5T452,0H339q-11,0-11,12l20,163q2,5-4,5H46q-5,0-8,3.5T36,192l10,80q2,8 5,15L275,691q5,9 15,9H411q7,0 9-3.5T418,686L210,311q-2-6 2-6H359q6,0 6,5l15,124q1,5 4.5,8.5T393,446H507q5,0 8-3.5t2-8.5L502,310q-2-5 4-5h42Z" />
      <glyph unicode="5" glyph-name="five" horiz-adv-x="522" d="M496,319q5-25 5-58q0-25-2-37q-6-50-27-92Q443,69 381.5,31T245-7Q171-7 120,29.5T53,129q-6,22-8,55q0,13 13,13H176q9,0 11-11q2-10 4-17q6-26 24-40t44-14q27,0 49,15t35,42q12,19 16,52q1,7 1,21q0,15-3,31q-4,26-22,40t-46,14t-53-13t-34-34q-5-10-14-10H68q-5,0-8,3.5T58,285l50,403q1,5 4.5,8.5T121,700H521q5,0 8.5-3.5T532,688l-12-97q-1-5-4.5-8.5T507,579H236q-5,0-5-5L211,426q0-7 6-3q46,29 104,29q67,0 114-35.5T496,319Z" />
      <glyph unicode="6" glyph-name="six" horiz-adv-x="521" d="M488,339q12-31 12-73q0-19-3-42q-7-58-31-104q-33-59-90.5-93T246-7Q171-7 121,28.5T54,127q-7,25-7,60q0,12 2,38L86,526q6,54 39,95.5t85.5,64T327,708q88,0 140-42.5T519,552q0-15-1-23l-3-28q-1-5-5-8.5t-9-3.5H388q-5,0-8,3.5t-2,8.5l1,9q4,33-15,55t-52,22q-36,0-62-22.5T220,507l-11-94q-1-3 1-3.5t4,1.5q45,35 110,35q58,0 101-27.5T488,339ZM338,159q23,36 23,83q0,29-8,46q-20,40-66,40q-52,0-78-41q-17-25-23-67q-1-7-1-21q0-22 6-40q16-44 69-44q50,0 78,44Z" />
      <glyph unicode="7" glyph-name="seven" horiz-adv-x="481" d="M101,0Q87,0 93,14L372,573q2,6-3,6H187q-2,0-3.5-1.5T182,574l-6-46q0-5-4-8.5t-9-3.5H75q-5,0-8,3.5T65,528L85,688q1,5 5,8.5t9,3.5H522q11,0 11-12L520,587q0-5-5-15L237,9q-4-9-15-9H101Z" />
      <glyph unicode="8" glyph-name="eight" horiz-adv-x="525" d="M484,308q12-33 12-74q0-9-2-29q-9-62-37-103q-32-51-87.5-80.5T242-8Q174-8 123,20.5T52,103q-12,33-12,72q0,11 2,31q7,56 35,103q19,34 55,57q5,3 1,7q-20,19-34,48q-13,31-13,65q0,41 14.5,78.5T141,631q33,39 82.5,60.5T331,713q59,0 102.5-22T499,631q26-41 26-93q0-66-38-120q-20-27-45-44q-5-4-1-7q30-22 43-59ZM238,548q-12-18-15-42q-1-6-1-16q0-18 7-36q18-36 65-36t75,36q16,22 19,53q1,4 1,13q0,12-5,29q-8,20-25.5,31.5T314,592q-23,0-43.5-11.5T238,548Zm93-400q28,37 28,90q0,21-7,42q-17,42-70,42q-50,0-77-41q-24-34-24-85q0-25 10-45q18-38 66-38q47,0 74,35Z" />
      <glyph unicode="9" glyph-name="nine" horiz-adv-x="515" d="M508,573q7-24 7-56q0-21-3-42L475,174q-6-54-38.5-95.5T352,14.5T236-8Q148-8 95,34.5T42,148q0,15 1,23l4,28q1,5 4.5,8.5T60,211H173q11,0 11-12l-2-9q-4-33 15.5-55T251,113q35,0 60,22.5T341,193l11,93q1,3-1,4t-4-1q-44-35-109-35q-58,0-101,27.5T74,361q-12,33-12,76q0,26 2,39q7,59 32,104q32,59 90,93t131,34q74,0 124-35.5T508,573ZM276,372q50,0 77,41q17,25 23,67q1,7 1,21q0,22-6,40q-16,44-68,44q-51,0-79-44q-24-36-24-80q0-29 10-49q18-40 66-40Z" />
      <glyph unicode=":" glyph-name="colon" horiz-adv-x="353" d="M195,332q-30,0-49,19.5T127,401q0,38 25.5,63.5T215,490q31,0 49.5-18.5T283,422q0-38-26-64t-62-26ZM154,5q-30,0-49,19.5T86,74q0,38 25.5,63.5T174,163q31,0 49.5-18.5T242,95q0-38-26-64T154,5Z" />
      <glyph unicode=";" glyph-name="semicolon" horiz-adv-x="306" d="M173,313q-35,0-56.5,21.5T95,389q0,26 15,48t38,35.5T195,486q32,0 55.5-22T274,410q0-40-29.5-68.5T173,313ZM53-97q-6,0-8.5,3.5T43-84L94,145q3,11 13,11h99q13,0 9-13L135-87q-4-10-14-10H53Z" />
      <glyph unicode="&lt;" glyph-name="less" horiz-adv-x="471" d="M429,39q-1-7-5.5-9.5T414,30L43,209q-8,5-7,14L49,325q0,9 10,14L474,518q4,2 6,2q3,0 5-3t1-8L473,400q-2-10-10-14L190,277q-6-3-1-6L435,163q9-4 7-14L429,39Z" />
      <glyph unicode="=" glyph-name="equal" horiz-adv-x="471" d="M61,333q-5,0-8,3.5T51,345l12,97q0,5 4,8.5t9,3.5H468q5,0 8-3.5t2-8.5l-12-97q-1-5-4.5-8.5T453,333H61ZM38,141q-5,0-8,3.5T28,153l12,97q0,5 4,8.5t9,3.5H445q5,0 8-3.5t2-8.5l-12-97q-1-5-4.5-8.5T430,141H38Z" />
      <glyph unicode="&gt;" glyph-name="greater" horiz-adv-x="471" d="M26,30q-4-2-6-2q-8,0-6,11L27,149q2,10 10,14L310,271q6,3 0,6L65,386q-9,4-7,14L71,509q1,7 5.5,9.5T86,518L457,339q8-5 7-14L451,223q0-9-10-14L26,30Z" />
      <glyph unicode="?" glyph-name="question" horiz-adv-x="506" d="M187,222q-5,0-8,3.5t-2,8.5l4,32q6,50 34.5,80.5T295,411q42,28 63,48.5T382,510q4,32-17,51.5T306,581q-41,0-68-21t-31-54l-2-16q-1-11-13-11L79,484q-5,0-8,3.5T69,496l1,10q7,60 42,106.5t90,72T325,710q92,0 145-45.5T523,542q0-9-2-27q-5-44-24-75.5T454.5,388T394,344q-38-26-56.5-43.5T316,257l-3-23q-1-5-4.5-8.5T300,222H187ZM212-2q-31,0-49.5,19T144,67q0,38 25.5,63T231,155q31,0 49.5-18.5T299,88q0-38-25.5-64T212-2Z" />
      <glyph unicode="@" glyph-name="at" horiz-adv-x="795" d="M507,659q86,0 148.5-32.5t95.5-91T784,399q0-49-13-100q-24-98-77-152.5T562,92q-34,0-59.5,10.5T463,133q-3,4-7,0q-22-20-51-30T347,93q-54,0-84,30t-30,78q0,33 12,76q10,46 29,83q23,49 63.5,75.5T422,462q48,0 70-30q2-3 4-2.5t2,3.5l4,16q3,11 14,11h68q12,0 9-13L546,261q-5-20-5-34q0-22 10-35t29-13q29,0 52,29.5T669,293q13,51 13,95q0,87-51.5,133T489,567q-79,0-149-35T220.5,430.5T151,274q-10-41-10-82q0-89 52-138T337,5q46,0 86.5,11T490,44q3,2 8,2q6,0 8-5l32-54q2-4 2-6q0-6-6-10q-39-28-99-44.5T315-90q-81,0-142.5,32.5T77,36.5T43,181q0,48 12,102q25,111 93,196.5T310.5,612T507,659ZM371,173q39,0 63,42q14,23 23,63q7,35 9,61q0,19-12,30.5T422,381t-37.5-11.5T357,339q-10-16-24-66q-10-38-8-58t13.5-31T371,173Z" />
      <glyph unicode="A" glyph-name="A" horiz-adv-x="651" d="M471,0q-9,0-11,10l-17,98q0,1-1,2.5t-3,1.5H200q-3,0-5-4L154,10Q151,0 141,0H17Q11,0 8.5,4T9,14L302,690q5,10 14,10H468q9,0 12-10L606,14V11q0-5-3-8t-8-3H471ZM244,227q-1-6 3-6H418q5,0 5,6L372,524q-1,4-3,3.5t-3-3.5L244,227Z" />
      <glyph unicode="B" glyph-name="B" horiz-adv-x="601" d="M487,365q-6-3-1-6q75-41 75-132q0-9-2-31Q547,99 476.5,49.5T303,0H51q-5,0-8,3.5T41,12l83,676q1,5 4.5,8.5T137,700H381q208,0 208-157q0-23-2-35q-11-99-100-143ZM252,579q-2,0-3.5-1.5T247,574L228,418q-2-5 4-5H346q45,0 73,21.5T452,495l1,12q0,34-22.5,53T366,579H252Zm66-457q49,0 77.5,27.5T424,225q0,35-22.5,54T338,298H218q-5,0-5-5L192,127q0-5 4-5H318Z" />
      <glyph unicode="C" glyph-name="C" horiz-adv-x="590" d="M277-8Q173-8 113,48T53,198q0,24 2,37L83,466q9,72 47,127t99,85t136,30q104,0 164.5-54T590,510q0-11-2-33q-2-10-13-11l-114-7h-2q-10,0-8,11q1,6 1,17q0,46-27.5,73T350,587q-52,0-87.5-32.5T221,470L191,229q-1-6-1-17q0-45 27-72t75-27q52,0 87,32t42,84q2,11 13,11l113-5q5,0 8-2.5t2-7.5q-8-69-46-122T412.5,21T277-8Z" />
      <glyph unicode="D" glyph-name="D" horiz-adv-x="599" d="M51,0q-5,0-8,3.5T41,12l83,676q1,5 4.5,8.5T137,700H380q100,0 159-49.5T598,518q0-10-2-30L562,212q-7-63-43-111T424.5,26.5T294,0H51ZM192,126q0-5 4-5H314q45,0 76,31t38,83l29,230q1,7 1,19q0,44-23.5,69.5T369,579H252q-2,0-3.5-1.5T247,574L192,126Z" />
      <glyph unicode="E" glyph-name="E" horiz-adv-x="567" d="M584,591q-1-5-4.5-8.5T571,579H252q-2,0-3.5-1.5T247,574L228,419q0-5 4-5H441q5,0 8-3.5t2-8.5l-12-97q-1-5-4.5-8.5T426,293H217q-5,0-5-5L192,126q0-5 4-5H514q11,0 11-12L513,12q-1-5-4.5-8.5T500,0H51q-5,0-8,3.5T41,12l83,676q1,5 4.5,8.5T137,700H585q5,0 8.5-3.5T596,688l-12-97Z" />
      <glyph unicode="F" glyph-name="F" horiz-adv-x="543" d="M583,591q-1-5-4.5-8.5T570,579H252q-2,0-3.5-1.5T247,574L228,419q0-5 4-5H441q5,0 8-3.5t2-8.5l-12-97q-1-5-4.5-8.5T426,293H217q-5,0-5-5L178,12q-1-5-4.5-8.5T165,0H51q-5,0-8,3.5T41,12l83,676q1,5 4.5,8.5T137,700H585q5,0 8-3.5t2-8.5l-12-97Z" />
      <glyph unicode="G" glyph-name="G" horiz-adv-x="594" d="M277-8Q174-8 113.5,49T53,201q0,24 2,37L83,462q9,73 47,129t99,86.5T365,708q68,0 119-25.5T562.5,612T590,510q0-10-2-28l-1-7q-1-5-4.5-8.5T574,463H460q-5,0-8,3.5t-2,8.5l1,3q1,5 1,14q0,42-27,68.5T350,587q-52,0-87.5-33.5T220,466L192,234q-1-6-1-18q0-46 29.5-74.5T297,113q51,0 84,27.5T420,217l6,45q0,5-4,5H313q-5,0-8,3.5t-2,8.5l11,92q1,5 4.5,8.5T327,383H564q5,0 8-3.5t2-8.5L558,239Q544,124 467.5,58T277-8Z" />
      <glyph unicode="H" glyph-name="H" horiz-adv-x="609" d="M485,688q1,5 4.5,8.5T498,700H612q5,0 8-3.5t2-8.5L539,12q-1-5-4.5-8.5T526,0H412q-5,0-8,3.5T402,12l34,276q0,5-4,5H217q-5,0-5-5L178,12q-1-5-4.5-8.5T165,0H51q-5,0-8,3.5T41,12l83,676q1,5 4.5,8.5T137,700H251q5,0 8-3.5t2-8.5L228,419q0-5 4-5H447q5,0 5,5l33,269Z" />
      <glyph unicode="I" glyph-name="I" horiz-adv-x="255" d="M51,0q-5,0-8,3.5T41,12l83,676q1,5 4.5,8.5T137,700H251q5,0 8-3.5t2-8.5L178,12q-1-5-4.5-8.5T165,0H51Z" />
      <glyph unicode="J" glyph-name="J" horiz-adv-x="566" d="M242-8Q141-8 82.5,44.5T24,186q0,10 2,34l8,63q1,5 4.5,8.5T47,295H160q11,0 11-12l-8-63q-1-6-1-18q0-41 25-65t69-24q48,0 82,29.5T378,220l58,468q0,5 4,8.5t9,3.5H561q5,0 8-3.5t2-8.5L514,220q-8-68-45.5-119.5T372,20.5T242-8Z" />
      <glyph unicode="K" glyph-name="K" horiz-adv-x="607" d="M51,0q-5,0-8,3.5T41,12l83,676q1,5 4.5,8.5T137,700H251q5,0 8-3.5t2-8.5L227,408q-1-3 1-3.5t4,1.5L492,693q6,7 15,7H635q10,0 10-7q0-4-4-8L390,400q-4-4-2-7L570,14q1-2 1-6q0-8-10-8H433q-10,0-13,8L283,296q-1,2-3,2t-4-2l-71-79l-3-6L178,12q-1-5-4.5-8.5T165,0H51Z" />
      <glyph unicode="L" glyph-name="L" horiz-adv-x="555" d="M51,0q-5,0-8,3.5T41,12l83,676q1,5 4.5,8.5T137,700H251q5,0 8-3.5t2-8.5L192,126q0-5 4-5H513q11,0 11-12L512,12q-1-5-4.5-8.5T499,0H51Z" />
      <glyph unicode="M" glyph-name="M" horiz-adv-x="693" d="M561,692q6,8 15,8H689q5,0 8-3.5t2-8.5L616,12q0-5-4-8.5T603,0H490q-5,0-8,3.5T480,12l54,441q0,4-2,4t-4-3L405,288q-6-8-15-8H333q-9,0-12,8L238,454q-1,3-3,2.5t-3-4.5L178,12q-1-5-4.5-8.5T165,0H51q-5,0-8,3.5T41,12l83,676q1,5 4.5,8.5T137,700H251q9,0 12-8L380,459q3-6 6,0L561,692Z" />
      <glyph unicode="N" glyph-name="N" horiz-adv-x="646" d="M514,688q1,5 4.5,8.5T527,700H641q5,0 8-3.5t2-8.5L568,12q-1-5-4.5-8.5T555,0H445q-9,0-12,8L234,436q-1,3-3,2.5t-3-4.5L178,12q-1-5-4.5-8.5T165,0H51q-5,0-8,3.5T41,12l83,676q1,5 4.5,8.5T137,700H247q9,0 13-8L458,266q1-3 3-2.5t3,4.5l50,420Z" />
      <glyph unicode="O" glyph-name="O" horiz-adv-x="603" d="M280-11Q176-11 114.5,47.5T53,204q0,18 3,39L82,457q9,74 48,131t100.5,88.5T368,708q105,0 166.5-58T596,496q0-19-3-39L567,243q-9-75-48-132.5T418,21T280-11Zm15,121q54,0 90.5,35T430,238l27,220q1,7 1,21q0,50-28,79t-77,29q-53,0-90-35.5T219,458L192,238q-1-7-1-21q0-49 28-78t76-29Z" />
      <glyph unicode="P" glyph-name="P" horiz-adv-x="579" d="M406,701q87,0 138.5-49.5T596,518q0-10-2-34q-8-63-41.5-111T466,298.5T348,272H210q-4,0-6-5L173,12q-1-5-4.5-8.5T160,0H47Q36,0 36,12l84,677q0,5 4,8.5t9,3.5H406ZM347,385q48,0 80,31.5T459,496q0,38-24,60.5T371,579H248q-4,0-6-5L220,390q-2-5 4-5H347Z" />
      <glyph unicode="Q" glyph-name="Q" horiz-adv-x="576" d="M355,708q101,0 160.5-57.5T575,497q0-19-3-40L545,233q-11-89-65.5-150.5T342,1q-5-2-5-5L327-86q-1-5-4.5-8.5T314-98H200q-5,0-8,3.5T190-86L200-5q1,4-3,5Q127,17 87,69.5T47,197q0,24 2,36L76,457q9,75 47.5,132T222,677t133,31Zm81-244q1,7 1,21q0,46-26,74t-71,28q-49,0-84-34t-42-89L186,236q-1-7-1-20q0-47 26-75t71-28q50,0 84.5,34T408,236l28,228Z" />
      <glyph unicode="R" glyph-name="R" horiz-adv-x="595" d="M412,0q-9,0-12,9L313,286q-2,4-6,4H217q-5,0-5-5L178,12q-1-5-4.5-8.5T165,0H51q-5,0-8,3.5T41,12l83,676q1,5 4.5,8.5T137,700H415q85,0 134-48t49-129q0-10-2-34q-8-68-47-116.5T449,304q-6-2-4-7L542,14q1-2 1-5q0-9-11-9H412ZM252,579q-2,0-3.5-1.5T247,574L226,403q0-5 4-5H357q45,0 75,28.5T462,500q0,36-22.5,57.5T380,579H252Z" />
      <glyph unicode="S" glyph-name="S" horiz-adv-x="577" d="M272-8Q163-8 100.5,41T38,174q0,9 2,27l3,22q1,5 4.5,8.5T56,235H167q5,0 8-3.5t2-8.5l-2-15q-5-40 27.5-67.5T296,113q56,0 84.5,25T409,199q0,22-14.5,37t-39,26.5T278,295q-58,22-98,43.5T113,396T86,485q0,7 2,25q11,91 83,144.5T349,708q68,0 120.5-23.5t81-66T579,519q0-8-2-26l-2-15q-1-5-4.5-8.5T562,466H450q-5,0-8,3.5t-2,8.5l1,8q5,42-24.5,71.5T328,587q-49,0-78-22.5T221,503q0-22 14-37t41.5-28T360,403q62-25 96.5-42.5T519,308t28-88q0-7-2-25q-12-94-85.5-148.5T272-8Z" />
      <glyph unicode="T" glyph-name="T" horiz-adv-x="567" d="M594,700q5,0 8-3.5t2-8.5l-12-98q0-5-4-8.5t-9-3.5H406q-4,0-6-5L331,12q-1-5-4.5-8.5T318,0H205q-5,0-8,3.5T195,12l68,561q2,5-4,5H90q-5,0-8,3.5T80,590l12,98q1,5 4.5,8.5T105,700H594Z" />
      <glyph unicode="U" glyph-name="U" horiz-adv-x="611" d="M285-8Q182-8 121.5,48T61,198q0,10 2,34l56,456q1,5 5,8.5t9,3.5H246q5,0 8-3.5t2-8.5L200,231q-1-7-1-19q0-45 27-72t74-27q51,0 86.5,32.5T429,231l56,457q1,5 4.5,8.5T498,700H612q5,0 8-3.5t2-8.5L566,232q-9-71-47-125.5T420.5,22T285-8Z" />
      <glyph unicode="V" glyph-name="V" horiz-adv-x="604" d="M220,0q-9,0-11,10L92,686v2q0,5 3,8.5t8,3.5H226q11,0 12-10l69-488q1-3 3-3t3,3L500,690q4,10 15,10H634q6,0 8-4t0-10L356,10Q353,0 342,0H220Z" />
      <glyph unicode="W" glyph-name="W" horiz-adv-x="851" d="M190,0q-11,0-12,10L89,687v2q0,11 11,11H221q10,0 11-10l42-407q1-4 3-4t3,4L419,689q5,11 14,11H551q11,0 12-10l47-407q0-3 2.5-3.5T616,283L755,689q5,11 14,11H883q13,0 9-13L650,10Q646,0 635,0H520q-10,0-11,10L463,443q-1,4-2.5,4t-3.5-4L312,11Q309,0 298,0H190Z" />
      <glyph unicode="X" glyph-name="X" horiz-adv-x="612" d="M20,0q-6,0-8.5,4T13,14L242,347q3,3 1,6L96,686q-1,2-1,5q0,9 11,9H230q4,0 8-2t5-6l98-229q2-3 3-3t3,3L501,692q6,8 16,8H639q10,0 10-6q0-3-3-8L417,353q-2-4-1-6L563,14q1-2 1-6q0-8-11-8H431q-11,0-14,8L319,236q-1,6-6,0L158,8q-2-4-6.5-6T143,0H20Z" />
      <glyph unicode="Y" glyph-name="Y" horiz-adv-x="599" d="M223,1q-5,0-8,3.5T213,13l31,253q0,1 0.5,2.5T244,272L95,686q-1,2-1,5q0,9 11,9H228q9,0 12-9l89-266q2-7 5,0L488,691q5,9 15,9H627q7,0 9-3.5T634,686L382,272q-2-2-2-6L349,13q-1-5-4.5-8.5T336,1H223Z" />
      <glyph unicode="Z" glyph-name="Z" horiz-adv-x="540" d="M23,0q-5,0-8,3.5T13,12L26,120q1,7 7,15L400,573q2,2 1,4t-4,2H94q-5,0-8,3.5T84,591l12,97q1,5 4.5,8.5T109,700H558q11,0 11-12L555,580q0-7-6-15L181,127q-1-2 0-4t4-2H487q5,0 8-3.5t2-8.5L486,12q-1-5-5-8.5T472,0H23Z" />
      <glyph unicode="[" glyph-name="bracketleft" horiz-adv-x="404" d="M8-147q-5,0-8,3.5T-2-135L111,788q1,5 4.5,8.5T124,800H354q5,0 8-3.5t2-8.5l-11-97q-1-5-5-8.5t-9-3.5H240q-6,0-6-5L149-20q-2-5 4-5H254q5,0 8-3.5t2-8.5l-12-98q-1-5-4.5-8.5T239-147H8Z" />
      <glyph unicode="\" glyph-name="backslash" horiz-adv-x="458" d="M418,10q0-10-12-10H294q-10,0-13,9L115,686v4q0,10 12,10H238q12,0 13-9L418,14V10Z" />
      <glyph unicode="]" glyph-name="bracketright" horiz-adv-x="404" d="M335-135q-1-5-5-8.5t-9-3.5H91q-11,0-11,12L92-37q1,5 5,8.5t9,3.5H206q6,0 6,5l85,694q0,5-4,5H192q-5,0-8,3.5t-2,8.5l12,97q1,5 4.5,8.5T207,800H438q5,0 8-3.5t2-8.5L335-135Z" />
      <glyph unicode="^" glyph-name="asciicircum" horiz-adv-x="459" d="M60,298q-6,0-8.5,3.5T52,312L232,690q4,10 15,10h95q11,0 12-10l91-378v-4q0-10-12-10H341q-9,0-11,10L280,551q0,3-2,3t-4-3L166,308q-5-10-14-10H60Z" />
      <glyph unicode="_" glyph-name="underscore" horiz-adv-x="507" d="M11,0Q6,0 3,3.5T1,12L11,95q1,5 4.5,8.5T24,107H471q5,0 8-3.5t2-8.5L471,12q-1-5-4.5-8.5T458,0H11Z" />
      <glyph unicode="`" glyph-name="grave" horiz-adv-x="226" d="M253,590q1-2 1-5q0-4-3-6.5t-7-2.5H162q-9,0-12,8L93,685q-2,4-2,6q0,4 3.5,6.5T103,700h98q10,0 13-9l39-101Z" />
      <glyph unicode="a" glyph-name="a" horiz-adv-x="547" d="M402,502q1,5 4.5,8.5T415,514H529q5,0 8-3.5t2-8.5L479,12q-1-5-4.5-8.5T466,0H352q-5,0-8,3.5T342,12l5,43q1,4-1,4.5T342,57Q294-8 212-8Q148-8 103,32.5T48,142q-3,21-3,43q0,30 5,73q10,78 32,128q27,60 80.5,98T283,522q80,0 109-58q2-3 3.5-3t2.5,4l4,37ZM350,172q8,15 13,33t9,51q4,27 4,47q0,17-6,41q-5,26-23,41.5T301,401q-29,0-51.5-16T215,343q-16-30-22-86q-4-28-4-49q0-19 5-36q5-27 24-43t48-16t50.5,16T350,172Z" />
      <glyph unicode="b" glyph-name="b" horiz-adv-x="549" d="M519,383q7-31 7-69q0-26-3-55q-10-69-32-121Q461,70 407,31T286-8Q215-8 181,47q-1,2-3,1.5T175,45l-4-33q-1-5-4.5-8.5T158,0H45Q34,0 34,12l83,676q1,5 5,8.5t9,3.5H244q5,0 8-3.5t2-8.5L228,474q-1-3 1-4t4,2q45,50 114,50q71,0 114.5-37.5T519,383ZM348,156q25,37 33,100q2,14 2,38q0,43-13,68q-18,39-64,39q-42,0-69-39q-26-37-35-105q-3-21-3-41q0-37 10-60q19-43 63-43q47,0 76,43Z" />
      <glyph unicode="c" glyph-name="c" horiz-adv-x="521" d="M249-8Q172-8 120,32T52,142q-6,29-6,61q0,17 4,57q8,64 31,116q32,68 94,107t139,39q78,0 131.5-40T511,381q4-15 4-36q0-5-3.5-8.5T503,332L390,315h-2q-10,0-10,10l-1,16q-4,26-25,43t-53,17q-31,0-54.5-16T209,341q-15-32-21-82q-3-25-3-46q0-22 3-36q5-30 24-47t51-17q31,0 55.5,16.5T355,175q2,4 2,6q1,1 1,3q3,12 15,10l109-18q11-2 9-13q-4-16-10-28Q452,68 389,30T249-8Z" />
      <glyph unicode="d" glyph-name="d" horiz-adv-x="549" d="M425,688q1,5 4.5,8.5T438,700H552q5,0 8-3.5t2-8.5L479,12q-1-5-4.5-8.5T466,0H352q-5,0-8,3.5T342,12l4,33q0,7-6,2Q293-8 222-8Q154-8 110,31T53,138q-6,30-6,63q0,18 4,58q10,72 33,124q30,64 83,101.5T290,522q69,0 103-50q1-3 3-2t3,4l26,214ZM339,156q24,36 32,101q3,23 3,42q0,36-11,63q-19,39-61,39q-46,0-73-39q-29-38-38-106q-2-22-2-33q0-39 11-67q19-43 66-43q43,0 73,43Z" />
      <glyph unicode="e" glyph-name="e" horiz-adv-x="530" d="M510,310q1-31-6-85q-3-12-14-12H190q-5,0-5-5q1-22 6-40q20-56 96-56q61,1 105,52q8,11 15,2l62-71q3-4 3-8q0-5-4-9q-37-41-90.5-63.5T264-8Q181-8 128,31T58,140q-8,28-8,71q0,24 3,51q4,56 27,106q31,71 92.5,113T310,523q97,0 148-58t52-155ZM296,401q-62,0-88-59q-8-20-11-32q0-5 4-5H369q5,0 5,5q0,12-2,28q-5,30-24.5,46.5T296,401Z" />
      <glyph unicode="f" glyph-name="f" horiz-adv-x="375" d="M378,515q5,0 8.5-3.5T389,503l-12-95q-1-5-4.5-8.5T364,396H270q-4,0-6-5L218,12q-1-5-4.5-8.5T205,0H91q-5,0-8,3.5T81,12l47,379q0,5-5,5H66q-5,0-8,3.5T56,408l12,95q0,5 4,8.5t9,3.5h57q5,0 5,5l3,22q8,62 30.5,96.5t65.5,49T358,700h36q11,0 11-12l-10-81q-1-5-4.5-8.5T382,595H350q-35-1-49.5-14.5T282,531l-2-11q0-5 4-5h94Z" />
      <glyph unicode="g" glyph-name="g" horiz-adv-x="539" d="M397,502q1,5 4.5,8.5T410,514H524q5,0 8-3.5t2-8.5L478,46Q461-85 381-141T187-197q-34,0-76,5q-10,2-8,13L120-76q1,13 14,11q35-6 64-6q63,0 99.5,28T341,47q1,3-1,3.5T336,49Q293,8 223,8Q160,8 111,39.5T48,141q-4,21-4,51q0,26 4,68q11,80 33,127q28,61 81,98t117,37q76,0 109-46q2-2 4-1.5t2,3.5l3,24ZM350,179q11,29 18,82q4,29 4,49q0,18-3,31q-5,27-23.5,43.5T297,401q-29,0-51.5-16.5T210,341q-17-29-24-81q-3-25-3-44q0-21 5-36q5-27 25-43.5T263,120q31,0 53.5,16.5T350,179Z" />
      <glyph unicode="h" glyph-name="h" horiz-adv-x="530" d="M355,522q70,0 111-40t41-111q0-9-2-31L465,12q-1-5-4.5-8.5T452,0H339q-11,0-11,12l37,299q1,5 1,16q0,33-19,53.5T297,401q-36,0-61-24.5T206,311L169,12q-1-5-4.5-8.5T156,0H43q-5,0-8,3.5T33,12l83,676q0,5 4,8.5t9,3.5H242q5,0 8-3.5t2-8.5L225,467q0-3 1.5-4t3.5,1q45,58 125,58Z" />
      <glyph unicode="i" glyph-name="i" horiz-adv-x="247" d="M175,572q-30,0-49,19t-19,49q0,39 25.5,64.5T194,730q31,0 49.5-18T262,663q0-38-25.5-64.5T175,572ZM47,0Q36,0 36,12L97,503q1,5 4.5,8.5T110,515H223q5,0 8-3.5t2-8.5L173,12q-1-5-4.5-8.5T160,0H47Z" />
      <glyph unicode="j" glyph-name="j" horiz-adv-x="246" d="M174,572q-30,0-48.5,19T107,640q0,39 25.5,64.5T193,730q31,0 49.5-18T261,663q0-38-25-64.5T174,572ZM-91-204q-12,0-10,12l11,95q1,6 5,9t9,2q57-2 82.5,17T38-2L98,502q0,5 4,8.5t9,3.5H224q5,0 8-3.5t2-8.5L173,0q-10-82-37-126T56-188T-91-204Z" />
      <glyph unicode="k" glyph-name="k" horiz-adv-x="517" d="M43,0q-5,0-8,3.5T33,12l83,676q0,5 4,8.5t9,3.5H242q5,0 8-3.5t2-8.5L211,351q-1-3 1-3.5t4,1.5L368,507q7,7 15,7H512q9,0 9-6q0-5-4-9L374,338q-2-4-2-7L478,14q1-2 1-5q0-9-11-9H348q-9,0-12,9L268,243q0,2-2.5,2.5T262,244l-72-80q-1-1-2-2.5t-1-3.5L169,12q-1-5-4.5-8.5T156,0H43Z" />
      <glyph unicode="l" glyph-name="l" horiz-adv-x="237" d="M43,0q-5,0-8,3.5T33,12l83,676q0,5 4,8.5t9,3.5H242q5,0 8-3.5t2-8.5L169,12q-1-5-4.5-8.5T156,0H43Z" />
      <glyph unicode="m" glyph-name="m" horiz-adv-x="810" d="M648,522q67,0 104-38t37-106q0-23-2-35L746,12q0-5-4-8.5T733,0H620q-5,0-8,3.5T610,12l36,300q1,6 1,17q0,33-17,52.5T583,401q-34,0-58.5-24T495,313L458,12q-1-5-4.5-8.5T445,0H333q-5,0-8,3.5T323,12l36,300q1,6 1,16q0,34-18,53.5T294,401q-31,0-54-19t-32-53L169,12q-1-5-4.5-8.5T156,0H43q-5,0-8,3.5T33,12L93,502q1,5 4.5,8.5T106,514H219q5,0 8-3.5t2-8.5l-4-39q-1-3 1-4t4,2q48,61 131,61q48,0 82-21t49-60q2-6 6,0q27,41 65.5,61T648,522Z" />
      <glyph unicode="n" glyph-name="n" horiz-adv-x="530" d="M355,522q70,0 111-40t41-111q0-9-2-31L465,12q-1-5-4.5-8.5T452,0H339q-11,0-11,12l37,299q1,5 1,16q0,33-19,53.5T297,401q-36,0-61-24.5T206,311L169,12q-1-5-4.5-8.5T156,0H43q-5,0-8,3.5T33,12L93,502q1,5 4.5,8.5T106,514H219q5,0 8-3.5t2-8.5l-4-35q0-3 1.5-4t3.5,1q45,58 125,58Z" />
      <glyph unicode="o" glyph-name="o" horiz-adv-x="540" d="M250-8Q169-8 116,36T51,156q-4,21-4,52q0,25 3,50q8,63 27,106q32,74 95,116t144,42q80,0 131-41.5T512,365q6-28 6-62q0-22-3-43q-6-50-26-101Q458,81 395,36.5T250-8Zm15,121q32,0 56.5,20T361,188q12,33 16,70q3,24 3,45q0,46-21,72t-60,26q-32,0-56.5-19T204,329q-11-24-16-71q-3-25-3-49q0-44 21-70t59-26Z" />
      <glyph unicode="p" glyph-name="p" horiz-adv-x="551" d="M522,376q7-28 7-63q0-19-4-57q-8-70-34-125Q461,67 408.5,29.5T285-8Q215-8 183,42q-2,3-4,2t-2-4L150-174q-1-5-4.5-8.5T137-186H24q-5,0-8,3.5T14-174L97,502q0,5 4,8.5t9,3.5H223q5,0 8-3.5t2-8.5l-4-33q0-3 2-3.5t4,1.5q47,55 119,55q67,0 111-38.5T522,376ZM347,152q28,39 37,106q2,13 2,37q0,39-10,63q-17,43-67,43q-44,0-72-43q-25-36-33-101q-3-22-3-41q0-37 12-63q17-40 61-40q43,0 73,39Z" />
      <glyph unicode="q" glyph-name="q" horiz-adv-x="551" d="M402,502q1,5 4.5,8.5T415,514H529q5,0 8-3.5t2-8.5L456-174q-1-5-4.5-8.5T443-186H329q-5,0-8,3.5t-2,8.5L345,40q1,3-1,4t-4-2Q295-8 225-8T111,29.5T53,131q-6,30-6,64q0,33 4,61q8,67 31,120q29,69 83,107.5T287,522q71,0 105-55q2-2 4-1.5t2,3.5l4,33ZM337,153q26,37 34,104q3,23 3,41q0,37-10,60q-18,43-63,43q-48,0-77-43q-25-41-32-100q-3-19-3-36q0-42 14-70q19-39 64-39q42,0 70,40Z" />
      <glyph unicode="r" glyph-name="r" horiz-adv-x="372" d="M343,521q35,0 54-14q8-4 4-15L367,378q-3-12-15-7q-13,5-34,5q-7,0-21-2q-35-3-62.5-27T203,285L169,12q-1-5-4.5-8.5T156,0H43q-5,0-8,3.5T33,12L93,502q1,5 4.5,8.5T106,514H219q5,0 8-3.5t2-8.5l-4-38q-1-3 1-4t4,1q45,60 113,60Z" />
      <glyph unicode="s" glyph-name="s" horiz-adv-x="487" d="M229-7Q137-7 84,29.5T31,126q0,10 1,16l1,10q1,5 4.5,8.5T46,164H154q5,0 8-3.5t2-8.5v-1q-3-22 19-37.5T241,98q34,0 56.5,14.5T320,149q0,16-17,24.5T251,191q-44,13-69,23q-54,20-86,48T64,341q0,54 29,95t80,63t115,22q87,0 137.5-39.5T476,378q0-13-1-19q-1-5-4.5-8.5T462,347H358q-5,0-8,3.5t-2,8.5q2,22-17.5,37T275,411q-34,0-56.5-13T196,362q0-18 19-27.5T277,314q36-9 51-14q61-19 96-48.5T459,169q0-12-1-19Q448,76 386,34.5T229-7Z" />
      <glyph unicode="t" glyph-name="t" horiz-adv-x="369" d="M368,413q-1-5-4.5-8.5T355,401H262q-4,0-6-5L230,184q-1-6-1-16q0-49 48-49h32q5,0 8.5-3.5T320,107L308,12Q306,0 295-1q-40-2-59-2Q162-3 125.5,19.5T89,102q0,8 2,26l33,268q2,5-4,5H65q-5,0-8,3.5T55,413l11,89q0,5 4,8.5t9,3.5h55q5,0 5,5l15,119q1,5 4.5,8.5T167,650H276q5,0 8-3.5t2-8.5L271,519q0-5 5-5h93q5,0 8-3.5t2-8.5l-11-89Z" />
      <glyph unicode="u" glyph-name="u" horiz-adv-x="528" d="M384,502q1,5 4.5,8.5T397,514H510q5,0 8-3.5t2-8.5L460,12q-1-5-4.5-8.5T447,0H334q-5,0-8,3.5T324,12l4,34q0,3-2,3.5T322,47Q276-7 195-7Q128-7 87,31T46,139q0,9 2,29L89,502q1,5 4.5,8.5T102,514H214q11,0 11-12L188,203q-1-6-1-17q0-34 18-53.5T255,113q33,0 57.5,20.5T345,187l39,315Z" />
      <glyph unicode="v" glyph-name="v" horiz-adv-x="504" d="M170,0q-9,0-12,10L63,501v2q0,12 12,12H200q11,0 12-10l43-303q0-3 2.5-3t3.5,3L377,505q4,10 15,10l125-2q6,0 8.5-3.5T525,499L311,10Q306,0 297,0H170Z" />
      <glyph unicode="w" glyph-name="w" horiz-adv-x="760" d="M155,0q-10,0-12,10L63,501v2q0,5 3.5,8.5T75,515H192q12,0 13-10l32-302q1-3 3-3t3,3L353,505q4,10 15,10H470q11,0 12-10l39-303q1-3 3-3t3,3L640,505q4,10 15,10l116-2q6,0 8-3.5t0-9.5L577,10Q574,0 564,0H446q-10,0-12,10L392,278q0,3-2,3t-4-3L287,10Q284,0 273,0H155Z" />
      <glyph unicode="x" glyph-name="x" horiz-adv-x="521" d="M12,0Q3,0 3,7q0,4 3,8L191,254q2,4 1,6L65,499q-1,2-1,5q0,10 11,10H196q8,0 13-8l70-137q3-5 7,0L390,506q6,8 15,8H535q7,0 7-6q0-4-3-9L355,260q-2-4-1-6L480,15q2-4 2-6q0-4-3-6.5T471,0H349q-9,0-12,8L266,145q-1,6-6,0L156,8q-5-8-14-8H12Z" />
      <glyph unicode="y" glyph-name="y" horiz-adv-x="489" d="M4-199q-6,0-6,12L10-95q1,5 4.5,8.5T23-83q60,1 88.5,16.5T157-3q1,2 1,6L60,501v4q0,10 11,10H192q12,0 13-10l41-324q1-3 3-3t3,3L373,505q4,10 15,10H507q6,0 8-4t-1-10L282-19q-33-73-63-109.5T141.5-182T10-199H4Z" />
      <glyph unicode="z" glyph-name="z" horiz-adv-x="446" d="M16,0Q11,0 7.5,3.5T5,12L18,119q1,6 8,15L275,381q5,6-1,6H69q-5,0-8,3.5T59,399L71,502q1,5 4.5,8.5T84,514H447q5,0 8-3.5t2-8.5L444,396q0-6-7-15L181,134q-4-6 2-6H405q5,0 8-3.5t2-8.5L402,12q-1-5-4.5-8.5T389,0H16Z" />
      <glyph unicode="{" glyph-name="braceleft" horiz-adv-x="364" d="M193-147q-56,0-84.5,24.5T80-49q0,8 2,26l25,207q2,18 2,25q0,30-12,45.5T60,273q-12,1-10,13l10,87q2,11 13,13q31,4 48,25t22,63l25,203q7,61 43,92t99,31h88q5,0 8-3.5t2-8.5l-12-97q-1-5-4.5-8.5T383,679H357q-23,0-39.5-17T297,616L277,455q-6-49-23-78.5T206,333q-6-3-1-6q43-24 43-90q0-22-2-34L226,38q-1-4-1-13q0-24 12-37t33-13h27q5,0 8-3.5t2-8.5l-12-98q-1-5-4.5-8.5T282-147H193Z" />
      <glyph unicode="|" glyph-name="bar" horiz-adv-x="197" d="M12-80q-5,0-8,3.5T2-68L103,748q0,5 4,8.5t9,3.5H229q5,0 8-3.5t2-8.5L139-68q-1-5-4.5-8.5T126-80H12Z" />
      <glyph unicode="}" glyph-name="braceright" horiz-adv-x="364" d="M8-147q-5,0-8,3.5T-2-135L10-37q1,5 4.5,8.5T23-25H49Q73-25 89.5-8T109,38l21,165q6,49 23,79t47,45q7,3 1,6q-42,22-42,87q0,22 2,35l19,161q1,4 1,12q0,24-12,37.5T136,679H110q-11,0-11,12l12,97q1,5 4.5,8.5T124,800h88q56,0 85.5-25T327,701q0-8-2-24L300,474q-2-18-2-25q0-57 49-63q12-1 10-13l-11-87q0-5-3.5-8.5T334,273q-31-4-48-25t-22-64L239-23q-7-61-43.5-92.5T95-147H8Z" />
      <glyph unicode="~" glyph-name="asciitilde" horiz-adv-x="518" d="M351,201q-25,0-44,7t-38,20q-22,14-39.5,22T192,258q-40,0-68-36q-8-9-17-3L50,263q-8,6-4,16q22,44 65.5,72.5T202,380q23,0 40-6.5T280,354q6-3 21-12.5T329.5,327t26.5-5q18,0 32,9.5T416,358q9,10 17,4l68-49q8-7 3-16q-23-43-65.5-69.5T351,201Z" />
      <glyph unicode="&#xa0;" glyph-name="uni00A0" horiz-adv-x="194" />
      <glyph unicode="&#xa1;" glyph-name="exclamdown" horiz-adv-x="333" d="M230,708q29,0 47.5-18.5T296,641q0-39-24.5-64.5T210,551q-31,0-49.5,18.5T142,619q0,38 26,63.5T230,708ZM149,457q1,5 4.5,8.5T162,469h87q5,0 8-3.5t2-8.5L220,21q-1-5-4.5-8.5T207,9H93q-5,0-8,3.5T83,21l66,436Z" />
      <glyph unicode="&#xa2;" glyph-name="cent" horiz-adv-x="521" d="M366,265q2,4 2,6q1,1 1,3q3,12 15,10l109-18q11-2 9-13q-4-16-10-28q-23-54-69-89.5T318,88q-5-2-5-6L305,6q-1-5-4.5-8.5T292-6H195q-5,0-8,3.5T185,6l12,80q0,4-4,5q-50,15-84,51.5T63,232q-6,29-6,61q0,17 4,57q10,68 31,116q24,51 66,86.5T254,603q5,2 5,5l7,77q1,5 5,8.5t9,3.5h96q5,0 8-3.5t2-8.5l-10-73q-1-4 4-6q57-13 94.5-49T522,471q6-21 4-36q0-5-3-8.5t-8-4.5L401,405h-2q-10,0-10,10l-1,16q-4,26-25,43t-53,17q-31,0-54.5-16T220,431q-15-32-21-82q-3-25-3-46q0-22 3-36q5-30 24.5-47T274,203t55.5,16.5T366,265Z" />
      <glyph unicode="&#xa3;" glyph-name="sterling" horiz-adv-x="594" d="M285,222q-6-56-47-95q-3-2-2-4t4-2H549q5,0 8-3.5t2-8.5L548,12q-1-5-5-8.5T534,0H82q-5,0-8,3.5T72,12L85,112q0,7 9,14q25,16 37.5,39T149,222l7,60q0,5-4,5H87q-11,0-11,12l12,90q0,5 4,8.5t9,3.5h65q5,0 5,5l10,84q13,103 79,160.5T427,708q78,0 124.5-41.5T613,551v-3q0-8-11-11L495,517h-2q-8,0-11,9q-8,33-24.5,47T414,587q-39,0-64-23t-31-71l-11-87q0-5 4-5H489q5,0 8-3.5t2-8.5l-11-90q-1-5-4.5-8.5T475,287H298q-5,0-5-5l-8-60Z" />
      <glyph unicode="&#xa4;" glyph-name="currency" horiz-adv-x="557" d="M509,331q0-34-10.5-68T469,201q-2-5 0-7l56-66q3-3 3-7q0-5-5-10L444,48q-4-4-8-4q-5,0-8,4l-52,61q-2,2-6,1Q320,84 266,84q-52,0-93,23q-4,2-7-1L102,48q-4-4-9-4q-4,0-8,4L22,111q-3,3-3,7q0,5 5,10l68,61q3,3 2,7q-17,37-17,81q0,68 40,130q1,4 0,7L62,478q-4,4-4,7q0,6 6,10l78,64q4,4 9,4t8-4l52-61q1-3 6-1q47,26 103,26q57,0 101-28q3-2 7,1l69,63q4,4 9,4t8-4l62-64q3-3 3-7q0-5-5-10l-76-69q-2-2-2-7q13-36 13-71ZM195,293q0-38 24.5-63.5T281,204q28,0 53.5,15.5t41,41.5T391,317q0,37-24.5,62T306,404q-29,0-54.5-15t-41-41T195,293Z" />
      <glyph unicode="&#xa5;" glyph-name="yen" horiz-adv-x="665" d="M663,700q7,0 9-3.5T670,686L460,340q-2-3-1-4.5t4-1.5h86q5,0 8-3.5t2-8.5l-6-54q-1-5-4.5-8.5T540,256H420q-5,0-5-5l-6-49q0-5 4-5H532q11,0 11-12l-7-55q-1-5-4.5-8.5T523,118H403q-2,0-3.5-1.5T398,113L386,13q-1-5-4.5-8.5T373,1H259q-5,0-8,3.5T249,13l12,100q2,5-4,5H137q-5,0-8,3.5t-2,8.5l6,55q1,5 4.5,8.5T146,197H267q5,0 5,5l6,49q2,5-4,5H154q-11,0-11,12l7,54q1,5 4.5,8.5T163,334h88q2,0 3.5,1.5T255,340L131,686q-1,2-1,5q0,9 11,9H264q10,0 13-9l88-266q3-6 6,0L525,691q5,9 15,9H663Z" />
      <glyph unicode="&#xa6;" glyph-name="brokenbar" horiz-adv-x="197" d="M72,402q-5,0-8,3.5T62,414l41,334q0,5 4,8.5t9,3.5H229q5,0 8-3.5t2-8.5L198,414q-1-5-4.5-8.5T185,402H72ZM12-80q-5,0-8,3.5T2-68L43,266q1,5 4.5,8.5T56,278H170q5,0 8-3.5t2-8.5L139-68q-1-5-4.5-8.5T126-80H12Z" />
      <glyph unicode="&#xa7;" glyph-name="section" horiz-adv-x="479" d="M189-208q-82,0-127,40.5T17-58q0,12 1,19L20-2q2,12 13,12H147q5,0 8-3.5T157-2l-2-14l-1-12q0-27 15-43t41-16q30,0 51,20t21,50q0,20-13,33.5t-31,22T172,67q-46,19-72.5,37T59,150q-15,29-15,68q0,67 41,122q28,33 67,48q7,3 1,6q-31,18-50,49T84,515q0,51 29.5,95.5t80.5,71T307,708q80,0 128.5-42T484,555q0-15-1-22l-3-23q-1-5-4.5-8.5T467,498H353q-5,0-8,3.5t-2,8.5l1,8l1,11q0,26-15,42t-40,16q-29,0-50-20.5T219,515q0-29 23.5-45.5T315,435q37-12 65.5-27T427,369q30-35 30-86q0-31-10.5-62T417,163q-30-42-70-53q-3-1-3-2.5t2-3.5q36-23 54-52t18-67q0-58-31-102t-83.5-67.5T189-208Zm53,390q37,0 58,26q18,23 18,54q0,18-8,31q-17,25-52,25q-18,0-33.5-8T198,288q-12-17-15-40l-1-11q0-15 7-29q18-26 53-26Z" />
      <glyph unicode="&#xa8;" glyph-name="dieresis" horiz-adv-x="382" d="M339,578q-30,0-49,19.5T271,647q0,38 25.5,63.5T359,736q31,0 49.5-18.5T427,668q0-38-26-64t-62-26Zm-193,0q-30,0-49,19.5T78,647q0,38 25.5,63.5T166,736q31,0 49.5-18.5T234,668q0-38-26-64t-62-26Z" />
      <glyph unicode="&#xa9;" glyph-name="copyright" horiz-adv-x="792" d="M375-8Q284-8 214,31.5T105.5,141T67,301q0,25 3,52q12,100 67.5,181t141,127.5T463,708q92,0 162.5-39T735,560t39-158q0-23-3-49q-13-103-68.5-185T561,39T375-8Zm12,94q73,0 136,34.5T627,216t50,137q2,24 2,36q0,65-28.5,116t-80,80T452,614q-73,0-136-34T213,486.5T164,353q-2-13-2-39q0-66 28-118t79-81T387,86Zm13,88q-49,0-78,27t-29,72q0,10 1,16l16,125q6,52 42.5,83T443,528q50,0 78-24.5T549,436q0-10-1-16q0-3-3.5-5t-8.5-2l-50-2q-11,0-11,8q3,21-8,33.5T435,465t-34.5-12.5T384,419L367,283q-2-20 9-32.5T408,238q20,0 34,12.5T459,283q0,4 3.5,6.5T471,292l50-2q5,0 8-2t2-6q-6-49-42-78.5T400,174Z" />
      <glyph unicode="&#xaa;" glyph-name="ordfeminine" horiz-adv-x="320" d="M261,567q5,0 5,5l2,11q3,26-12,42.5T213,642q-21,0-37.5-9T152,610q-5-12-14-10l-50,4q-11,2-10,13q10,39 49.5,65T220,708q55,0 89.5-28T344,608q0-9-1-13L316,376q-1-5-4.5-8.5T303,364H252q-5,0-8,3.5t-2,8.5l1,9q1,3-1,4t-4-2q-32-29-87-29q-48,0-75.5,21.5T48,440q0,57 41.5,92T199,567h62ZM172,419q32,0 56,18t27,42l3,24q0,5-5,5H202q-36,0-56.5-13T125,454q0-17 12.5-26t34.5-9ZM30,298q1,5 4.5,8.5T43,310H305q5,0 8-3.5t2-8.5l-7-53q0-5-4-8.5t-9-3.5H33q-5,0-8,3.5T23,245l7,53Z" />
      <glyph unicode="&#xab;" glyph-name="guillemotleft" horiz-adv-x="494" d="M261,121q1-2 1-6q0-8-10-8H154q-10,0-13,8L69,273q-1,2-1,6t3,10L182,447q5,8 15,8h97q7,0 9-3.5T301,441L187,284q-1-2-1-6l75-157Zm167,0q1-2 1-6q0-8-10-8H321q-10,0-13,8L235,273q-1,2-1,6t3,10L349,447q4,8 14,8h98q9,0 9-6q0-3-3-8L354,284q-1-2-1-6l75-157Z" />
      <glyph unicode="&#xac;" glyph-name="logicalnot" horiz-adv-x="471" d="M52,349q0,5 4,8.5t9,3.5H457q5,0 8-3.5t2-8.5L441,140q-1-5-4.5-8.5T428,128H334q-5,0-8,3.5t-2,8.5l11,95q2,5-4,5H50q-5,0-8,3.5T40,252l12,97Z" />
      <glyph unicode="&#xad;" glyph-name="uni00AD" horiz-adv-x="397" d="M49,235q-5,0-8,3.5T39,247l12,97q1,5 4.5,8.5T64,356H381q5,0 8-3.5t2-8.5l-11-97q-1-5-5-8.5t-9-3.5H49Z" />
      <glyph unicode="&#xae;" glyph-name="registered" horiz-adv-x="431" d="M283,710q51,0 91-22t62.5-61T459,539q0-9-2-27q-7-58-39-105t-80.5-73.5T234,307q-51,0-90.5,22.5T82,391.5T60,482q0,62 30,114.5t81.5,83T283,710ZM241,366q42,0 78.5,21.5t58,59.5T399,531q0,53-34.5,87T276,652q-43,0-79-21.5T140,572t-21-81q0-56 33.5-90.5T241,366Zm92,187q0-18-8-33t-22-23q-4-2-3-6l13-59v-3q0-5-3-8t-8-3H277q-9,0-11,10l-12,56q0,4-4,4h-2q-5,0-5-5l-7-53q-1-5-4.5-8.5T223,418H202q-5,0-8,3.5t-2,8.5l19,161q1,5 4.5,8.5T224,603h58q23,0 37-14t14-36Zm-76,10q-5,0-5-5l-4-30q0-5 4-5h13q9,0 15,6t7,14v3q0,8-4.5,12.5T270,563H257Z" />
      <glyph unicode="&#xaf;" glyph-name="macron" horiz-adv-x="285" d="M63,578q-5,0-8,3.5T53,590l9,71q1,5 4.5,8.5T75,673H337q5,0 8-3.5t2-8.5l-9-71q-1-5-4.5-8.5T325,578H63Z" />
      <glyph unicode="&#xb0;" glyph-name="degree" horiz-adv-x="365" d="M221,471q-63,0-103.5,41.5T77,617q0,51 25.5,95T171,782t91,26q63,0 103.5-41T406,663q0-52-25.5-96t-68-70T221,471Zm11,91q35,0 60.5,26.5T318,652q0,29-19,48t-48,19q-34,0-60-26.5T165,629q0-29 19-48t48-19Z" />
      <glyph unicode="&#xb1;" glyph-name="plusminus" horiz-adv-x="471" d="M469,456q5,0 8-3.5t2-8.5l-12-97q-1-5-4.5-8.5T454,335H321q-4,0-6-5L299,195q-1-5-4.5-8.5T286,183H193q-11,0-11,12l17,135q0,5-4,5H62q-5,0-8,3.5T52,347l12,97q0,5 4,8.5t9,3.5H210q2,0 3.5,1.5T215,461l17,138q1,5 4.5,8.5T245,611h93q5,0 8-3.5t2-8.5L331,461q0-5 5-5H469ZM20,0q-5,0-8,3.5T10,12l12,97q0,5 4,8.5t9,3.5H427q5,0 8-3.5t2-8.5L425,12q-1-5-4.5-8.5T412,0H20Z" />
      <glyph unicode="&#xb2;" glyph-name="uni00B2" horiz-adv-x="333" d="M73,416q-5,0-8,3.5T63,428l7,56q2,10 8,15q52,46 141,133q64,61 64,92q0,18-11.5,28.5T240,763q-22,0-37.5-13T185,717l-1-10q-1-5-4.5-8.5T171,695H105q-11,0-11,12l3,24q10,50 52.5,80T250,841t91-30t33-76q0-30-15.5-58.5T312,614q-35-39-117-114q-2-2-1.5-4t3.5-2H340q5,0 8-3.5t2-8.5l-7-54q0-5-4-8.5t-9-3.5H73Z" />
      <glyph unicode="&#xb3;" glyph-name="uni00B3" horiz-adv-x="314" d="M339,620q5-22 5-40q0-7-2-27q-4-37-20-66q-20-36-55.5-56.5T188,410q-45,0-75.5,23T71,496q-5,14-5,46q2,12 14,12h65q11,0 11-12q0-15 3-24q3-14 13-21.5t26-7.5q26,0 41,22q12,18 15,44q2,14 2,20q0,16-6,28q-9,23-36,23q-13,0-26-8q-6-2-7-2q-4,0-9,5l-27,40q-2,2-2,7q0,6 5,10l95,73q3,2 2.5,4t-3.5,2H113q-5,0-8,3.5t-2,8.5l7,54q1,5 4.5,8.5T123,835H360q11,0 11-12l-7-57q-1-7-9-15l-80-66q-5-5 2-7q45-11 62-58Z" />
      <glyph unicode="&#xb4;" glyph-name="acute" horiz-adv-x="226" d="M85,576q-9,0-9,6q0,4 3,8l64,101q4,9 15,9h98q9,0 9-7q0-3-3-8L181,584q-6-8-15-8H85Z" />
      <glyph unicode="&#xb5;" glyph-name="uni00B5" horiz-adv-x="535" d="M389,502q0,5 4,8.5t9,3.5H515q5,0 8-3.5t2-8.5L465,12q-1-5-4.5-8.5T452,0H339q-11,0-11,12l5,34q0,3-2,3.5T327,47Q281-7 200-7q-10,0-28,2q-5,2-5-4L145-188q-1-5-4.5-8.5T132-200H18q-5,0-8,3.5T8-188L93,502q1,5 4.5,8.5T106,514H219q5,0 8-3.5t2-8.5L193,203q-1-6-1-17q0-34 17.5-53.5T259,113q34,0 58.5,20.5T350,188l39,314Z" />
      <glyph unicode="&#xb6;" glyph-name="paragraph" horiz-adv-x="606" d="M608,700q5,0 8-3.5t2-8.5L510-188q0-5-4-8.5t-9-3.5H421q-5,0-8,3.5t-2,8.5l96,783q0,5-5,5H408q-5,0-5-5L307-188q-1-5-4.5-8.5T294-200H216q-5,0-8,3.5t-2,8.5l53,434q0,5-4,5q-89,7-141.5,59.5T61,445q0,10 2,30q8,65 43.5,116T200,671t131,29H608Z" />
      <glyph unicode="&#xb7;" glyph-name="periodcentered" horiz-adv-x="228" d="M121,211q-30,0-49,19.5T53,280q0,38 25.5,63.5T141,369q31,0 49.5-18.5T209,301q0-38-26-64t-62-26Z" />
      <glyph unicode="&#xb8;" glyph-name="cedilla" horiz-adv-x="164" d="M-32-182q-10,3-7,14l13,50q3,12 15,9q11-3 19-3q16,0 26.5,9T45-76Q45-50 7-15Q2-10 2-7Q2,0 13,0H76q8,0 13-5q44-41 44-88q0-19-7-36q-13-34-40-49T26-193q-31,0-58,11Z" />
      <glyph unicode="&#xb9;" glyph-name="uni00B9" horiz-adv-x="188" d="M146,833q8,3 15,3h69q5,0 8-3.5t2-8.5L191,428q-1-5-4.5-8.5T178,416H113q-5,0-8,3.5t-2,8.5l40,323q0,5-5,5l-31-3h-2q-4,0-6.5,3.5T97,765l5,43q1,10 11,13l33,12Z" />
      <glyph unicode="&#xba;" glyph-name="ordmasculine" horiz-adv-x="346" d="M199,362q-48,0-81,25.5T74,459q-5,16-5,44q0,13 2,33q6,48 21,77q22,46 61,70.5T242,708q45,0 77.5-24.5T363,614q5-27 5-52q0-17-1-25q-5-42-24-78q-21-46-59.5-71.5T199,362Zm9,77q16,0 31,10.5T264,480q11,24 14,56q3,15 3,30q0,31-14.5,48.5T230,632q-35,0-57-42q-11-21-14-54q-2-18-2-29q0-15 3-27q4-20 16.5-30.5T208,439ZM46,232q-5,0-8,3.5T36,244l7,56q1,5 4.5,8.5T56,312H331q5,0 8-3.5t2-8.5l-6-56q-1-5-5-8.5t-9-3.5H46Z" />
      <glyph unicode="&#xbb;" glyph-name="guillemotright" horiz-adv-x="494" d="M69,107q-9,0-9,6q0,4 3,8L176,278q2,3 0,6L103,441q-2,4-2,6q0,8 11,8h97q10,0 13-8l72-158q2-6 2-7q0-4-3-9L181,115q-5-8-15-8H69Zm167,0q-9,0-9,6q0,4 3,8L343,278q2,3 0,6L270,441q-2,4-2,6q0,8 11,8h97q10,0 13-8l72-158q2-6 2-7q0-4-3-9L348,115q-5-8-15-8H236Z" />
      <glyph unicode="&#xbc;" glyph-name="onequarter" horiz-adv-x="802" d="M129,697q8,3 15,3h69q5,0 8-3.5t2-8.5L174,292q-1-5-4.5-8.5T161,280H96q-5,0-8,3.5T86,292l40,323q0,5-5,5l-31-3H88q-4,0-6.5,3.5T80,629l5,43q1,10 11,13l33,12ZM92,0Q82,0 82,6q0,4 3,8L552,692q5,8 16,8h73q10,0 10-6q0-3-3-8L180,8q-4-8-15-8H92ZM763,187q5,0 8-3.5t2-8.5l-7-58q-1-5-4.5-8.5T753,105H735q-5,0-5-5L719,12q-1-5-4.5-8.5T706,0H641q-5,0-8,3.5T631,12l10,88q2,5-4,5H463q-11,0-11,12l6,46q2,8 5,15L592,411q5,9 15,9h68q7,0 8.5-4T682,406L567,193q-1-2-0.5-4t2.5-2h78q4,0 6,5l8,65q1,5 4.5,8.5T674,269h65q5,0 8-3.5t2-8.5l-8-65q0-5 4-5h18Z" />
      <glyph unicode="&#xbd;" glyph-name="onehalf" horiz-adv-x="778" d="M129,697q8,3 15,3h69q5,0 8-3.5t2-8.5L174,292q-1-5-4.5-8.5T161,280H96q-5,0-8,3.5T86,292l40,323q0,5-5,5l-31-3H88q-4,0-6.5,3.5T80,629l5,43q1,10 11,13l33,12ZM92,0Q82,0 82,6q0,4 3,8L552,692q5,8 16,8h73q10,0 10-6q0-3-3-8L180,8q-4-8-15-8H92ZM462,0q-5,0-8,3.5T452,12l7,56q2,10 8,15q52,46 141,133q64,61 64,92q0,18-11.5,28.5T629,347q-22,0-37.5-13T574,301l-1-10q-1-5-4.5-8.5T560,279H494q-11,0-11,12l3,24q10,50 52.5,80T639,425t91-30t33-76q0-30-15.5-58.5T701,198Q666,159 584,84q-2-2-1.5-4t3.5-2H729q5,0 8-3.5t2-8.5l-7-54q0-5-4-8.5T719,0H462Z" />
      <glyph unicode="&#xbe;" glyph-name="threequarters" horiz-adv-x="889" d="M323,487q5-22 5-40q0-7-2-27q-4-37-20-66q-20-36-55.5-56.5T172,277q-45,0-75.5,23T55,363q-5,14-5,46q2,12 14,12h65q11,0 11-12q0-15 3-24q3-14 13-21.5t26-7.5q26,0 41,22q12,18 15,44q2,14 2,20q0,16-6,28q-9,23-36,23q-13,0-26-8q-6-2-7-2q-4,0-9,5l-27,40q-2,2-2,7q0,6 5,10l95,73q3,2 2.5,4t-3.5,2H97q-5,0-8,3.5T87,636l7,54q1,5 4.5,8.5T107,702H344q11,0 11-12l-7-57q-1-7-9-15l-80-66q-5-5 2-7q45-11 62-58ZM180,0q-10,0-10,6q0,4 3,8L640,692q5,8 16,8h73q10,0 10-6q0-3-3-8L268,8q-4-8-15-8H180ZM852,187q5,0 8-3.5t2-8.5l-7-58q-1-5-4.5-8.5T842,105H824q-5,0-5-5L808,12q-1-5-4.5-8.5T795,0H730q-5,0-8,3.5T720,12l10,88q2,5-4,5H552q-11,0-11,12l6,46q2,8 5,15L681,411q5,9 15,9h68q7,0 8.5-4T771,406L656,193q-1-2-0.5-4t2.5-2h78q4,0 6,5l8,65q1,5 4.5,8.5T763,269h65q5,0 8-3.5t2-8.5l-8-65q0-5 4-5h18Z" />
      <glyph unicode="&#xbf;" glyph-name="questiondown" horiz-adv-x="506" d="M317,502q30,0 48.5-19T384,434q0-38-25-63.5T297,345q-31,0-49.5,18.5T229,413q0,38 26,63.5T317,502Zm25-224q5,0 8-3.5t2-8.5l-4-32q-6-50-35-81T233,89q-42-28-63-48.5T146-10q-4-32 17-51.5T222-81q41,0 68,21T321-6l2,16q1,11 13,11l113-5q5,0 8-3.5T459,4L458-6q-7-60-42-106.5t-90-72T203-210q-92,0-145,45.5T5-42q0,9 2,27q5,44 24,75.5T73.5,112T134,156q38,26 56.5,43.5T212,243l3,23q1,5 4.5,8.5T228,278H342Z" />
      <glyph unicode="&#xc0;" glyph-name="Agrave" horiz-adv-x="651" d="M471,0q-9,0-11,10l-17,98q0,1-1,2.5t-3,1.5H200q-3,0-5-4L154,10Q151,0 141,0H17Q11,0 8.5,4T9,14L302,690q5,10 14,10H468q9,0 12-10L606,14V11q0-5-3-8t-8-3H471ZM244,227q-1-6 3-6H418q5,0 5,6L372,524q-1,4-3,3.5t-3-3.5L244,227ZM449,776q1-2 1-5q0-4-3-6.5t-7-2.5H358q-9,0-12,8L289,871q-2,4-2,6q0,4 3.5,6.5T299,886h98q10,0 13-9l39-101Z" />
      <glyph unicode="&#xc1;" glyph-name="Aacute" horiz-adv-x="651" d="M471,0q-9,0-11,10l-17,98q0,1-1,2.5t-3,1.5H200q-3,0-5-4L154,10Q151,0 141,0H17Q11,0 8.5,4T9,14L302,690q5,10 14,10H468q9,0 12-10L606,14V11q0-5-3-8t-8-3H471ZM244,227q-1-6 3-6H418q5,0 5,6L372,524q-1,4-3,3.5t-3-3.5L244,227ZM344,762q-9,0-9,6q0,4 3,8l64,101q4,9 15,9h98q9,0 9-7q0-3-3-8L440,770q-6-8-15-8H344Z" />
      <glyph unicode="&#xc2;" glyph-name="Acircumflex" horiz-adv-x="651" d="M471,0q-9,0-11,10l-17,98q0,1-1,2.5t-3,1.5H200q-3,0-5-4L154,10Q151,0 141,0H17Q11,0 8.5,4T9,14L302,690q5,10 14,10H468q9,0 12-10L606,14V11q0-5-3-8t-8-3H471ZM244,227q-1-6 3-6H418q5,0 5,6L372,524q-1,4-3,3.5t-3-3.5L244,227Zm11,531q-9,0-9,7q0,4 3,8l84,105q5,8 14,8H476q9,0 13-8l61-105q2-4 2-6q0-4-3.5-6.5T540,758H453q-10,0-13,8l-31,61q-3,6-6,0l-46-61q-6-8-15-8H255Z" />
      <glyph unicode="&#xc3;" glyph-name="Atilde" horiz-adv-x="651" d="M471,0q-9,0-11,10l-17,98q0,1-1,2.5t-3,1.5H200q-3,0-5-4L154,10Q151,0 141,0H17Q11,0 8.5,4T9,14L302,690q5,10 14,10H468q9,0 12-10L606,14V11q0-5-3-8t-8-3H471ZM244,227q-1-6 3-6H418q5,0 5,6L372,524q-1,4-3,3.5t-3-3.5L244,227ZM460,759q-20,0-33.5,4.5T397,777q-19,10-28,13.5T350,794q-31,0-55-22q-5-5-9-5t-7,4l-34,44q-4,6-4,9q0,4 3,8q20,28 49,45t62,17q18,0 31.5-5T411,878.5t14-7.5q17-10 26-14t20-4q29,0 50,24q4,5 9,5q4,0 7-4l31-45q5-8 1-14q-16-27-45-43.5T460,759Z" />
      <glyph unicode="&#xc4;" glyph-name="Adieresis" horiz-adv-x="651" d="M471,0q-9,0-11,10l-17,98q0,1-1,2.5t-3,1.5H200q-3,0-5-4L154,10Q151,0 141,0H17Q11,0 8.5,4T9,14L302,690q5,10 14,10H468q9,0 12-10L606,14V11q0-5-3-8t-8-3H471ZM244,227q-1-6 3-6H418q5,0 5,6L372,524q-1,4-3,3.5t-3-3.5L244,227ZM495,764q-30,0-49,19.5T427,833q0,38 25.5,63.5T515,922q31,0 49.5-18.5T583,854q0-38-26-64t-62-26Zm-193,0q-30,0-49,19.5T234,833q0,38 25.5,63.5T322,922q31,0 49.5-18.5T390,854q0-38-26-64t-62-26Z" />
      <glyph unicode="&#xc5;" glyph-name="Aring" horiz-adv-x="651" d="M471,0q-9,0-11,10l-17,98q0,1-1,2.5t-3,1.5H200q-3,0-5-4L154,10Q151,0 141,0H17Q11,0 8.5,4T9,14L302,690q5,10 14,10H468q9,0 12-10L606,14V11q0-5-3-8t-8-3H471ZM244,227q-1-6 3-6H418q5,0 5,6L372,524q-1,4-3,3.5t-3-3.5L244,227ZM396,749q-47,0-77,30.5T289,857q0,38 19,70t50.5,51T427,997q46,0 76-30t30-77q0-38-18.5-70.5T464,768t-68-19Zm10,74q21,0 38,17t17,40q0,19-12.5,31.5T418,924q-22,0-39-16.5T362,867q0-19 12.5-31.5T406,823Z" />
      <glyph unicode="&#xc6;" glyph-name="AE" horiz-adv-x="931" d="M948,591q-1-5-5-8.5t-9-3.5H626q-4,0-6-5L601,419q0-5 5-5H805q5,0 8.5-3.5T816,402l-12-97q-1-5-4.5-8.5T791,293H591q-4,0-6-5L565,126q0-5 5-5H878q5,0 8-3.5t2-8.5L876,12q0-5-4-8.5T863,0H425q-5,0-8,3.5T415,12l11,95q2,5-4,5H225q-4,0-6-4L159,9q-4-9-14-9H19q-6,0-8.5,3.5T12,14L428,691q6,9 15,9H949q5,0 8-3.5t2-8.5l-11-97ZM291,227q-2-3-1-4.5t4-1.5H436q2,0 3.5,1.5T441,226l37,301q1,4-1.5,4t-4.5-3L291,227Z" />
      <glyph unicode="&#xc7;" glyph-name="Ccedilla" horiz-adv-x="590" d="M588,472q-2-5-13-6l-114-7h-2q-10,0-8,11q1,6 1,17q0,46-27.5,73T350,587q-52,0-87.5-32.5T221,470L191,229q-1-6-1-17q0-45 27-72t75-27q52,0 87,32t42,84q2,11 13,11l113-5q5,0 8-2.5t2-7.5q-12-96-78.5-158.5T313-6q-7-2-3-7q30-33 30-73q0-19-7-36q-13-34-40-49t-60-15q-30,0-58,11q-9,3-7,14l13,50q3,13 16,8q9-3 18-3q15,0 26,9t11,27q0,32-44,68q0,1-5,3Q132,19 92.5,70.5T53,198q0,24 2,37L83,466q9,72 47,127t99,85t136,30q104,0 164.5-54T590,510q0-11-2-33v-5Z" />
      <glyph unicode="&#xc8;" glyph-name="Egrave" horiz-adv-x="567" d="M584,591q-1-5-4.5-8.5T571,579H252q-2,0-3.5-1.5T247,574L228,419q0-5 4-5H441q5,0 8-3.5t2-8.5l-12-97q-1-5-4.5-8.5T426,293H217q-5,0-5-5L192,126q0-5 4-5H514q11,0 11-12L513,12q-1-5-4.5-8.5T500,0H51q-5,0-8,3.5T41,12l83,676q1,5 4.5,8.5T137,700H585q5,0 8.5-3.5T596,688l-12-97ZM418,776q1-2 1-5q0-4-3-6.5t-7-2.5H327q-9,0-12,8L258,871q-2,4-2,6q0,4 3.5,6.5T268,886h98q10,0 13-9l39-101Z" />
      <glyph unicode="&#xc9;" glyph-name="Eacute" horiz-adv-x="567" d="M584,591q-1-5-4.5-8.5T571,579H252q-2,0-3.5-1.5T247,574L228,419q0-5 4-5H441q5,0 8-3.5t2-8.5l-12-97q-1-5-4.5-8.5T426,293H217q-5,0-5-5L192,126q0-5 4-5H514q11,0 11-12L513,12q-1-5-4.5-8.5T500,0H51q-5,0-8,3.5T41,12l83,676q1,5 4.5,8.5T137,700H585q5,0 8.5-3.5T596,688l-12-97ZM312,762q-9,0-9,6q0,4 3,8l64,101q4,9 15,9h98q9,0 9-7q0-3-3-8L408,770q-6-8-15-8H312Z" />
      <glyph unicode="&#xca;" glyph-name="Ecircumflex" horiz-adv-x="567" d="M584,591q-1-5-4.5-8.5T571,579H252q-2,0-3.5-1.5T247,574L228,419q0-5 4-5H441q5,0 8-3.5t2-8.5l-12-97q-1-5-4.5-8.5T426,293H217q-5,0-5-5L192,126q0-5 4-5H514q11,0 11-12L513,12q-1-5-4.5-8.5T500,0H51q-5,0-8,3.5T41,12l83,676q1,5 4.5,8.5T137,700H585q5,0 8.5-3.5T596,688l-12-97ZM224,758q-9,0-9,7q0,4 3,8l84,105q5,8 14,8H445q9,0 13-8l61-105q2-4 2-6q0-4-3.5-6.5T509,758H422q-10,0-13,8l-31,61q-3,6-6,0l-46-61q-6-8-15-8H224Z" />
      <glyph unicode="&#xcb;" glyph-name="Edieresis" horiz-adv-x="567" d="M584,591q-1-5-4.5-8.5T571,579H252q-2,0-3.5-1.5T247,574L228,419q0-5 4-5H441q5,0 8-3.5t2-8.5l-12-97q-1-5-4.5-8.5T426,293H217q-5,0-5-5L192,126q0-5 4-5H514q11,0 11-12L513,12q-1-5-4.5-8.5T500,0H51q-5,0-8,3.5T41,12l83,676q1,5 4.5,8.5T137,700H585q5,0 8.5-3.5T596,688l-12-97ZM463,764q-30,0-49,19.5T395,833q0,38 25.5,63.5T483,922q31,0 49.5-18.5T551,854q0-38-26-64t-62-26Zm-193,0q-30,0-49,19.5T202,833q0,38 25.5,63.5T290,922q31,0 49.5-18.5T358,854q0-38-26-64t-62-26Z" />
      <glyph unicode="&#xcc;" glyph-name="Igrave" horiz-adv-x="255" d="M51,0q-5,0-8,3.5T41,12l83,676q1,5 4.5,8.5T137,700H251q5,0 8-3.5t2-8.5L178,12q-1-5-4.5-8.5T165,0H51ZM253,776q1-2 1-5q0-4-3-6.5t-7-2.5H162q-9,0-12,8L93,871q-2,4-2,6q0,4 3.5,6.5T103,886h98q10,0 13-9l39-101Z" />
      <glyph unicode="&#xcd;" glyph-name="Iacute" horiz-adv-x="255" d="M51,0q-5,0-8,3.5T41,12l83,676q1,5 4.5,8.5T137,700H251q5,0 8-3.5t2-8.5L178,12q-1-5-4.5-8.5T165,0H51Zm97,762q-9,0-9,6q0,4 3,8l64,101q4,9 15,9h98q9,0 9-7q0-3-3-8L244,770q-6-8-15-8H148Z" />
      <glyph unicode="&#xce;" glyph-name="Icircumflex" horiz-adv-x="255" d="M51,0q-5,0-8,3.5T41,12l83,676q1,5 4.5,8.5T137,700H251q5,0 8-3.5t2-8.5L178,12q-1-5-4.5-8.5T165,0H51Zm8,758q-9,0-9,7q0,4 3,8l84,105q5,8 14,8H280q9,0 13-8l61-105q2-4 2-6q0-4-3.5-6.5T344,758H257q-10,0-13,8l-31,61q-3,6-6,0l-46-61q-6-8-15-8H59Z" />
      <glyph unicode="&#xcf;" glyph-name="Idieresis" horiz-adv-x="255" d="M51,0q-5,0-8,3.5T41,12l83,676q1,5 4.5,8.5T137,700H251q5,0 8-3.5t2-8.5L178,12q-1-5-4.5-8.5T165,0H51ZM298,764q-30,0-49,19.5T230,833q0,38 25.5,63.5T318,922q31,0 49.5-18.5T386,854q0-38-26-64t-62-26Zm-193,0q-30,0-49,19.5T37,833q0,38 25.5,63.5T125,922q31,0 49.5-18.5T193,854q0-38-26-64t-62-26Z" />
      <glyph unicode="&#xd0;" glyph-name="Eth" horiz-adv-x="649" d="M429,700q102,0 161-50t59-134q0-8-2-28L613,212q-8-63-44-111T474.5,26.5T343,0H101q-5,0-8,3.5T91,12l36,296q0,5-4,5H90q-5,0-8,3.5T80,325l9,72q0,5 4,8.5t9,3.5h33q5,0 5,5l34,274q1,5 4.5,8.5T187,700H429Zm78-235q1,7 1,21q0,43-23.5,68T419,579H302q-4,0-6-5L277,414q-2-5 4-5h78q5,0 8-3.5t2-8.5l-9-72q-1-5-4.5-8.5T347,313H269q-5,0-5-5L241,126q0-5 5-5H364q44,0 76,31t39,83l28,230Z" />
      <glyph unicode="&#xd1;" glyph-name="Ntilde" horiz-adv-x="645" d="M514,688q1,5 4.5,8.5T527,700H641q5,0 8-3.5t2-8.5L568,12q-1-5-4.5-8.5T555,0H445q-9,0-12,8L234,436q-1,3-3,2.5t-3-4.5L178,12q-1-5-4.5-8.5T165,0H51q-5,0-8,3.5T41,12l83,676q1,5 4.5,8.5T137,700H247q9,0 13-8L458,266q1-3 3-2.5t3,4.5l50,420Zm-62,71q-20,0-33.5,4.5T389,777q-19,10-28,13.5T342,794q-31,0-55-22q-5-5-9-5t-7,4l-34,44q-4,6-4,9q0,4 3,8q20,28 49,45t62,17q18,0 31.5-5T403,878.5t14-7.5q17-10 26-14t20-4q29,0 50,24q4,5 9,5q4,0 7-4l31-45q5-8 1-14q-16-27-45-43.5T452,759Z" />
      <glyph unicode="&#xd2;" glyph-name="Ograve" horiz-adv-x="603" d="M280-11Q176-11 114.5,47.5T53,204q0,18 3,39L82,457q9,74 48,131t100.5,88.5T368,708q105,0 166.5-58T596,496q0-19-3-39L567,243q-9-75-48-132.5T418,21T280-11Zm15,121q54,0 90.5,35T430,238l27,220q1,7 1,21q0,50-28,79t-77,29q-53,0-90-35.5T219,458L192,238q-1-7-1-21q0-49 28-78t76-29ZM426,776q1-2 1-5q0-4-3-6.5t-7-2.5H335q-9,0-12,8L266,871q-2,4-2,6q0,4 3.5,6.5T276,886h98q10,0 13-9l39-101Z" />
      <glyph unicode="&#xd3;" glyph-name="Oacute" horiz-adv-x="603" d="M280-11Q176-11 114.5,47.5T53,204q0,18 3,39L82,457q9,74 48,131t100.5,88.5T368,708q105,0 166.5-58T596,496q0-19-3-39L567,243q-9-75-48-132.5T418,21T280-11Zm15,121q54,0 90.5,35T430,238l27,220q1,7 1,21q0,50-28,79t-77,29q-53,0-90-35.5T219,458L192,238q-1-7-1-21q0-49 28-78t76-29Zm26,652q-9,0-9,6q0,4 3,8l64,101q4,9 15,9h98q9,0 9-7q0-3-3-8L417,770q-6-8-15-8H321Z" />
      <glyph unicode="&#xd4;" glyph-name="Ocircumflex" horiz-adv-x="603" d="M280-11Q176-11 114.5,47.5T53,204q0,18 3,39L82,457q9,74 48,131t100.5,88.5T368,708q105,0 166.5-58T596,496q0-19-3-39L567,243q-9-75-48-132.5T418,21T280-11Zm15,121q54,0 90.5,35T430,238l27,220q1,7 1,21q0,50-28,79t-77,29q-53,0-90-35.5T219,458L192,238q-1-7-1-21q0-49 28-78t76-29ZM232,758q-9,0-9,7q0,4 3,8l84,105q5,8 14,8H453q9,0 13-8l61-105q2-4 2-6q0-4-3.5-6.5T517,758H430q-10,0-13,8l-31,61q-3,6-6,0l-46-61q-6-8-15-8H232Z" />
      <glyph unicode="&#xd5;" glyph-name="Otilde" horiz-adv-x="603" d="M280-11Q176-11 114.5,47.5T53,204q0,18 3,39L82,457q9,74 48,131t100.5,88.5T368,708q105,0 166.5-58T596,496q0-19-3-39L567,243q-9-75-48-132.5T418,21T280-11Zm15,121q54,0 90.5,35T430,238l27,220q1,7 1,21q0,50-28,79t-77,29q-53,0-90-35.5T219,458L192,238q-1-7-1-21q0-49 28-78t76-29ZM437,759q-20,0-33.5,4.5T374,777q-19,10-28,13.5T327,794q-31,0-55-22q-5-5-9-5t-7,4l-34,44q-4,6-4,9q0,4 3,8q20,28 49,45t62,17q18,0 31.5-5T388,878.5t14-7.5q17-10 26-14t20-4q29,0 50,24q4,5 9,5q4,0 7-4l31-45q5-8 1-14q-16-27-45-43.5T437,759Z" />
      <glyph unicode="&#xd6;" glyph-name="Odieresis" horiz-adv-x="603" d="M280-11Q176-11 114.5,47.5T53,204q0,18 3,39L82,457q9,74 48,131t100.5,88.5T368,708q105,0 166.5-58T596,496q0-19-3-39L567,243q-9-75-48-132.5T418,21T280-11Zm15,121q54,0 90.5,35T430,238l27,220q1,7 1,21q0,50-28,79t-77,29q-53,0-90-35.5T219,458L192,238q-1-7-1-21q0-49 28-78t76-29ZM471,764q-30,0-49,19.5T403,833q0,38 25.5,63.5T491,922q31,0 49.5-18.5T559,854q0-38-26-64t-62-26Zm-193,0q-30,0-49,19.5T210,833q0,38 25.5,63.5T298,922q31,0 49.5-18.5T366,854q0-38-26-64t-62-26Z" />
      <glyph unicode="&#xd7;" glyph-name="multiply" horiz-adv-x="432" d="M430,431q3-3 3-7t-5-9L322,318q-3-3-1-8l82-96q2-2 2-7t-4-9l-76-69q-4-4-8-4q-3,0-7,4l-82,96q-1,2-3,1.5t-4-1.5L116,129q-4-4-9-4t-8,4L42,197q-3,3-3,7t5,9l106,97q3,3 1,8L68,416q-3,3-3,7t5,9l74,68q4,4 9,4q4,0 7-4l83-97q1-2 3-2t4,2l106,97q4,4 9,4q4,0 7-4l58-69Z" />
      <glyph unicode="&#xd8;" glyph-name="Oslash" horiz-adv-x="596" d="M634,676q4-3 4-7q0-5-4-10l-58-75q-1-2-1-7q14-39 14-83q0-11-2-37L560,243q-9-75-48-132.5T411,21T273-11q-77,0-131,33q-2,1-7-2L93-36q-4-5-8.5-6T76-39L3,24q-4,4-4,8q0,3 4,9l57,73q1,2 1,7q-14,39-14,85q0,11 2,37L76,457q9,74 47.5,131t100,88.5T361,708q78,0 131-32q4-1 7,2l44,58q4,5 8.5,6t8.5-3l74-63ZM450,458q1,8 1,22q0,49-28,78t-76,29q-53,0-90.5-35.5T212,458L185,238q-1-7-1-21q0-49 28-78t76-29q54,0 91,35t44,93l27,220Z" />
      <glyph unicode="&#xd9;" glyph-name="Ugrave" horiz-adv-x="611" d="M285-8Q182-8 121.5,48T61,198q0,10 2,34l56,456q1,5 5,8.5t9,3.5H246q5,0 8-3.5t2-8.5L200,231q-1-7-1-19q0-45 27-72t74-27q51,0 86.5,32.5T429,231l56,457q1,5 4.5,8.5T498,700H612q5,0 8-3.5t2-8.5L566,232q-9-71-47-125.5T420.5,22T285-8ZM431,776q1-2 1-5q0-4-3-6.5t-7-2.5H340q-9,0-12,8L271,871q-2,4-2,6q0,4 3.5,6.5T281,886h98q10,0 13-9l39-101Z" />
      <glyph unicode="&#xda;" glyph-name="Uacute" horiz-adv-x="611" d="M285-8Q182-8 121.5,48T61,198q0,10 2,34l56,456q1,5 5,8.5t9,3.5H246q5,0 8-3.5t2-8.5L200,231q-1-7-1-19q0-45 27-72t74-27q51,0 86.5,32.5T429,231l56,457q1,5 4.5,8.5T498,700H612q5,0 8-3.5t2-8.5L566,232q-9-71-47-125.5T420.5,22T285-8Zm41,770q-9,0-9,6q0,4 3,8l64,101q4,9 15,9h98q9,0 9-7q0-3-3-8L422,770q-6-8-15-8H326Z" />
      <glyph unicode="&#xdb;" glyph-name="Ucircumflex" horiz-adv-x="611" d="M285-8Q182-8 121.5,48T61,198q0,10 2,34l56,456q1,5 5,8.5t9,3.5H246q5,0 8-3.5t2-8.5L200,231q-1-7-1-19q0-45 27-72t74-27q51,0 86.5,32.5T429,231l56,457q1,5 4.5,8.5T498,700H612q5,0 8-3.5t2-8.5L566,232q-9-71-47-125.5T420.5,22T285-8ZM237,758q-9,0-9,7q0,4 3,8l84,105q5,8 14,8H458q9,0 13-8l61-105q2-4 2-6q0-4-3.5-6.5T522,758H435q-10,0-13,8l-31,61q-3,6-6,0l-46-61q-6-8-15-8H237Z" />
      <glyph unicode="&#xdc;" glyph-name="Udieresis" horiz-adv-x="611" d="M285-8Q182-8 121.5,48T61,198q0,10 2,34l56,456q1,5 5,8.5t9,3.5H246q5,0 8-3.5t2-8.5L200,231q-1-7-1-19q0-45 27-72t74-27q51,0 86.5,32.5T429,231l56,457q1,5 4.5,8.5T498,700H612q5,0 8-3.5t2-8.5L566,232q-9-71-47-125.5T420.5,22T285-8ZM476,764q-30,0-49,19.5T408,833q0,38 25.5,63.5T496,922q31,0 49.5-18.5T564,854q0-38-26-64t-62-26Zm-193,0q-30,0-49,19.5T215,833q0,38 25.5,63.5T303,922q31,0 49.5-18.5T371,854q0-38-26-64t-62-26Z" />
      <glyph unicode="&#xdd;" glyph-name="Yacute" horiz-adv-x="599" d="M223,1q-5,0-8,3.5T213,13l31,253q0,1 0.5,2.5T244,272L95,686q-1,2-1,5q0,9 11,9H228q9,0 12-9l89-266q2-7 5,0L488,691q5,9 15,9H627q7,0 9-3.5T634,686L382,272q-2-2-2-6L349,13q-1-5-4.5-8.5T336,1H223Zm96,760q-9,0-9,6q0,4 3,8l64,101q4,9 15,9h98q9,0 9-7q0-3-3-8L415,769q-6-8-15-8H319Z" />
      <glyph unicode="&#xde;" glyph-name="Thorn" horiz-adv-x="564" d="M374,561q87,0 139-50t52-132q0-9-2-31q-8-62-43-109.5T431.5,165T316,139H194q-4,0-6-5L173,12q-1-5-4.5-8.5T160,0H47Q36,0 36,12l83,676q1,5 5,8.5t9,3.5H246q5,0 8-3.5t2-8.5L241,566q0-5 4-5H374ZM315,253q44,0 74.5,24.5T426,345q1,5 1,14q0,38-24,59.5T338,440H231q-6,0-6-5L203,258q0-5 5-5H315Z" />
      <glyph unicode="&#xdf;" glyph-name="germandbls" horiz-adv-x="557" d="M45,1q-5,0-8,3.5T35,13L92,484q14,106 80,165t173,59q95,0 152-45t57-123q0-8-2-26q-10-90-86-131q-4-3-1-6q30-19 46.5-55T528,239q0-9-2-33q-12-98-83-152T254,0H222q-5,0-8,3.5T212,12l12,96q1,5 4.5,8.5T237,120h45q47,0 78.5,32T392,238q0,39-22,61t-57,22H270q-5,0-8,3.5t-2,8.5l11,87q1,5 4.5,8.5T284,432h41q38,0 64,25.5T415,520q0,30-18.5,49T340,588q-42,0-73-24t-36-67L171,12q-1-5-4.5-8.5T158,0L45,1Z" />
      <glyph unicode="&#xe0;" glyph-name="agrave" horiz-adv-x="512" d="M402,502q1,5 4.5,8.5T415,514H529q5,0 8-3.5t2-8.5L479,12q-1-5-4.5-8.5T466,0H352q-5,0-8,3.5T342,12l5,43q1,4-1,4.5T342,57Q294-8 212-8Q148-8 103,32.5T48,142q-3,21-3,43q0,30 5,73q10,78 32,128q27,60 80.5,98T283,522q80,0 109-58q2-3 3.5-3t2.5,4l4,37ZM350,172q8,15 13,33t9,51q4,27 4,47q0,17-6,41q-5,26-23,41.5T301,401q-29,0-51.5-16T215,343q-16-30-22-86q-4-28-4-49q0-19 5-36q5-27 24-43t48-16t50.5,16T350,172Zm9,418q1-2 1-5q0-4-3-6.5t-7-2.5H268q-9,0-12,8L199,685q-2,4-2,6q0,4 3.5,6.5T209,700h98q10,0 13-9l39-101Z" />
      <glyph unicode="&#xe1;" glyph-name="aacute" horiz-adv-x="512" d="M402,502q1,5 4.5,8.5T415,514H529q5,0 8-3.5t2-8.5L479,12q-1-5-4.5-8.5T466,0H352q-5,0-8,3.5T342,12l5,43q1,4-1,4.5T342,57Q294-8 212-8Q148-8 103,32.5T48,142q-3,21-3,43q0,30 5,73q10,78 32,128q27,60 80.5,98T283,522q80,0 109-58q2-3 3.5-3t2.5,4l4,37ZM350,172q8,15 13,33t9,51q4,27 4,47q0,17-6,41q-5,26-23,41.5T301,401q-29,0-51.5-16T215,343q-16-30-22-86q-4-28-4-49q0-19 5-36q5-27 24-43t48-16t50.5,16T350,172ZM254,576q-9,0-9,6q0,4 3,8l64,101q4,9 15,9h98q9,0 9-7q0-3-3-8L350,584q-6-8-15-8H254Z" />
      <glyph unicode="&#xe2;" glyph-name="acircumflex" horiz-adv-x="512" d="M402,502q1,5 4.5,8.5T415,514H529q5,0 8-3.5t2-8.5L479,12q-1-5-4.5-8.5T466,0H352q-5,0-8,3.5T342,12l5,43q1,4-1,4.5T342,57Q294-8 212-8Q148-8 103,32.5T48,142q-3,21-3,43q0,30 5,73q10,78 32,128q27,60 80.5,98T283,522q80,0 109-58q2-3 3.5-3t2.5,4l4,37ZM350,172q8,15 13,33t9,51q4,27 4,47q0,17-6,41q-5,26-23,41.5T301,401q-29,0-51.5-16T215,343q-16-30-22-86q-4-28-4-49q0-19 5-36q5-27 24-43t48-16t50.5,16T350,172ZM165,572q-9,0-9,7q0,4 3,8l84,105q5,8 14,8H386q9,0 13-8l61-105q2-4 2-6q0-4-3.5-6.5T450,572H363q-10,0-13,8l-31,61q-3,6-6,0l-46-61q-6-8-15-8H165Z" />
      <glyph unicode="&#xe3;" glyph-name="atilde" horiz-adv-x="512" d="M402,502q1,5 4.5,8.5T415,514H529q5,0 8-3.5t2-8.5L479,12q-1-5-4.5-8.5T466,0H352q-5,0-8,3.5T342,12l5,43q1,4-1,4.5T342,57Q294-8 212-8Q148-8 103,32.5T48,142q-3,21-3,43q0,30 5,73q10,78 32,128q27,60 80.5,98T283,522q80,0 109-58q2-3 3.5-3t2.5,4l4,37ZM350,172q8,15 13,33t9,51q4,27 4,47q0,17-6,41q-5,26-23,41.5T301,401q-29,0-51.5-16T215,343q-16-30-22-86q-4-28-4-49q0-19 5-36q5-27 24-43t48-16t50.5,16T350,172Zm19,401q-20,0-33.5,4.5T306,591q-19,10-28,13.5T259,608q-31,0-55-22q-5-5-9-5t-7,4l-34,44q-4,6-4,9q0,4 3,8q20,28 49,45t62,17q18,0 31.5-5T320,692.5t14-7.5q17-10 26-14t20-4q29,0 50,24q4,5 9,5q4,0 7-4l31-45q5-8 1-14q-16-27-45-43.5T369,573Z" />
      <glyph unicode="&#xe4;" glyph-name="adieresis" horiz-adv-x="512" d="M402,502q1,5 4.5,8.5T415,514H529q5,0 8-3.5t2-8.5L479,12q-1-5-4.5-8.5T466,0H352q-5,0-8,3.5T342,12l5,43q1,4-1,4.5T342,57Q294-8 212-8Q148-8 103,32.5T48,142q-3,21-3,43q0,30 5,73q10,78 32,128q27,60 80.5,98T283,522q80,0 109-58q2-3 3.5-3t2.5,4l4,37ZM350,172q8,15 13,33t9,51q4,27 4,47q0,17-6,41q-5,26-23,41.5T301,401q-29,0-51.5-16T215,343q-16-30-22-86q-4-28-4-49q0-19 5-36q5-27 24-43t48-16t50.5,16T350,172Zm54,406q-30,0-49,19.5T336,647q0,38 25.5,63.5T424,736q31,0 49.5-18.5T492,668q0-38-26-64t-62-26Zm-193,0q-30,0-49,19.5T143,647q0,38 25.5,63.5T231,736q31,0 49.5-18.5T299,668q0-38-26-64t-62-26Z" />
      <glyph unicode="&#xe5;" glyph-name="aring" horiz-adv-x="512" d="M402,502q1,5 4.5,8.5T415,514H529q5,0 8-3.5t2-8.5L479,12q-1-5-4.5-8.5T466,0H352q-5,0-8,3.5T342,12l5,43q1,4-1,4.5T342,57Q294-8 212-8Q148-8 103,32.5T48,142q-3,21-3,43q0,30 5,73q10,78 32,128q27,60 80.5,98T283,522q80,0 109-58q2-3 3.5-3t2.5,4l4,37ZM350,172q8,15 13,33t9,51q4,27 4,47q0,17-6,41q-5,26-23,41.5T301,401q-29,0-51.5-16T215,343q-16-30-22-86q-4-28-4-49q0-19 5-36q5-27 24-43t48-16t50.5,16T350,172ZM306,563q-47,0-77,30.5T199,671q0,38 19,70t50.5,51T337,811q46,0 76-30t30-77q0-38-18.5-70.5T374,582t-68-19Zm10,74q21,0 38,17t17,40q0,19-12.5,31.5T328,738q-22,0-39-16.5T272,681q0-19 12.5-31.5T316,637Z" />
      <glyph unicode="&#xe6;" glyph-name="ae" horiz-adv-x="813" d="M191-8Q114-8 67.5,24.5T21,121q0,14 1,21q9,73 67,116.5T244,302h99q5,0 5,5l3,20l1,11q0,29-18.5,46T279,401q-29,0-51-11.5T198,359q-1-5-5-8t-9-2L72,364q-12,2-9,14q9,41 42,74t80.5,51.5T285,522q54,0 95.5-22.5T439,444q2-4 6,0q23,31 66.5,54.5T604,522q68,0 121.5-40.5T792,374q4-24 4-46q0-42-8-103q-1-13-13-13H482q-5,0-5-5l-1-10l1-13q1-35 28-52t71-17q68,0 107,44q8,10 16,2l52-56q3-4 3-9q0-3-3-8q-36-44-88.5-70T548-8q-56,0-98,22.5T392,72q-2,7-5,2q-26-36-79-59T191-8ZM487,307q-2-5 4-5H654q5,0 5,5l1,14q0,35-20.5,57.5T585,401q-30,0-53.5-17.5T496,338l-9-31ZM226,94q39,0 70.5,22.5T332,177l4,30q0,5-4,5H261q-47,0-74-17t-27-49q0-23 17-37.5T226,94Z" />
      <glyph unicode="&#xe7;" glyph-name="ccedilla" horiz-adv-x="521" d="M355,175q2,4 2,6q1,1 1,3q3,12 15,10l109-18q11-2 9-13q-4-16-10-28q-24-55-72-91.5T299-4q-6,0-2-6q33-38 33-77q0-14-7-35q-14-34-41-49t-59-15q-30,0-58,11q-10,3-7,15l13,49q3,12 15,9q9-3 19-3q12,0 21,5.5T239-83q3,7 3,14q0,29-41,64l-6,3q-56,12-93,49.5T52,142q-6,29-6,61q0,17 4,57q8,64 31,116q32,68 94,107t139,39q78,0 131.5-40T511,381q4-15 4-36q0-5-3.5-8.5T503,332L390,315h-2q-10,0-10,10l-1,16q-4,26-25,43t-53,17q-31,0-54.5-16T209,341q-15-32-21-82q-3-25-3-46q0-22 3-36q5-30 24-47t51-17q31,0 55.5,16.5T355,175Z" />
      <glyph unicode="&#xe8;" glyph-name="egrave" horiz-adv-x="528" d="M510,310q1-31-6-85q-3-12-14-12H190q-5,0-5-5q1-22 6-40q20-56 96-56q61,1 105,52q8,11 15,2l62-71q3-4 3-8q0-5-4-9q-37-41-90.5-63.5T264-8Q181-8 128,31T58,140q-8,28-8,71q0,24 3,51q4,56 27,106q31,71 92.5,113T310,523q97,0 148-58t52-155ZM296,401q-62,0-88-59q-8-20-11-32q0-5 4-5H369q5,0 5,5q0,12-2,28q-5,30-24.5,46.5T296,401Zm70,189q1-2 1-5q0-4-3-6.5t-7-2.5H275q-9,0-12,8L206,685q-2,4-2,6q0,4 3.5,6.5T216,700h98q10,0 13-9l39-101Z" />
      <glyph unicode="&#xe9;" glyph-name="eacute" horiz-adv-x="528" d="M510,310q1-31-6-85q-3-12-14-12H190q-5,0-5-5q1-22 6-40q20-56 96-56q61,1 105,52q8,11 15,2l62-71q3-4 3-8q0-5-4-9q-37-41-90.5-63.5T264-8Q181-8 128,31T58,140q-8,28-8,71q0,24 3,51q4,56 27,106q31,71 92.5,113T310,523q97,0 148-58t52-155ZM296,401q-62,0-88-59q-8-20-11-32q0-5 4-5H369q5,0 5,5q0,12-2,28q-5,30-24.5,46.5T296,401ZM261,576q-9,0-9,6q0,4 3,8l64,101q4,9 15,9h98q9,0 9-7q0-3-3-8L357,584q-6-8-15-8H261Z" />
      <glyph unicode="&#xea;" glyph-name="ecircumflex" horiz-adv-x="528" d="M510,310q1-31-6-85q-3-12-14-12H190q-5,0-5-5q1-22 6-40q20-56 96-56q61,1 105,52q8,11 15,2l62-71q3-4 3-8q0-5-4-9q-37-41-90.5-63.5T264-8Q181-8 128,31T58,140q-8,28-8,71q0,24 3,51q4,56 27,106q31,71 92.5,113T310,523q97,0 148-58t52-155ZM296,401q-62,0-88-59q-8-20-11-32q0-5 4-5H369q5,0 5,5q0,12-2,28q-5,30-24.5,46.5T296,401ZM172,572q-9,0-9,7q0,4 3,8l84,105q5,8 14,8H393q9,0 13-8l61-105q2-4 2-6q0-4-3.5-6.5T457,572H370q-10,0-13,8l-31,61q-3,6-6,0l-46-61q-6-8-15-8H172Z" />
      <glyph unicode="&#xeb;" glyph-name="edieresis" horiz-adv-x="528" d="M510,310q1-31-6-85q-3-12-14-12H190q-5,0-5-5q1-22 6-40q20-56 96-56q61,1 105,52q8,11 15,2l62-71q3-4 3-8q0-5-4-9q-37-41-90.5-63.5T264-8Q181-8 128,31T58,140q-8,28-8,71q0,24 3,51q4,56 27,106q31,71 92.5,113T310,523q97,0 148-58t52-155ZM296,401q-62,0-88-59q-8-20-11-32q0-5 4-5H369q5,0 5,5q0,12-2,28q-5,30-24.5,46.5T296,401ZM411,578q-30,0-49,19.5T343,647q0,38 25.5,63.5T431,736q31,0 49.5-18.5T499,668q0-38-26-64t-62-26Zm-193,0q-30,0-49,19.5T150,647q0,38 25.5,63.5T238,736q31,0 49.5-18.5T306,668q0-38-26-64t-62-26Z" />
      <glyph unicode="&#xec;" glyph-name="igrave" horiz-adv-x="230" d="M39,0q-5,0-8,3.5T29,12L89,502q1,5 4.5,8.5T102,514H215q11,0 11-12L165,12q0-5-4-8.5T152,0H39ZM218,590q1-2 1-5q0-4-3-6.5t-7-2.5H127q-9,0-12,8L58,685q-2,4-2,6q0,4 3.5,6.5T68,700h98q10,0 13-9l39-101Z" />
      <glyph unicode="&#xed;" glyph-name="iacute" horiz-adv-x="230" d="M39,0q-5,0-8,3.5T29,12L89,502q1,5 4.5,8.5T102,514H215q11,0 11-12L165,12q0-5-4-8.5T152,0H39Zm73,576q-9,0-9,6q0,4 3,8l64,101q4,9 15,9h98q9,0 9-7q0-3-3-8L208,584q-6-8-15-8H112Z" />
      <glyph unicode="&#xee;" glyph-name="icircumflex" horiz-adv-x="230" d="M39,0q-5,0-8,3.5T29,12L89,502q1,5 4.5,8.5T102,514H215q11,0 11-12L165,12q0-5-4-8.5T152,0H39ZM24,572q-9,0-9,7q0,4 3,8l84,105q5,8 14,8H245q9,0 13-8l61-105q2-4 2-6q0-4-3.5-6.5T309,572H222q-10,0-13,8l-31,61q-3,6-6,0l-46-61q-6-8-15-8H24Z" />
      <glyph unicode="&#xef;" glyph-name="idieresis" horiz-adv-x="230" d="M39,0q-5,0-8,3.5T29,12L89,502q1,5 4.5,8.5T102,514H215q11,0 11-12L165,12q0-5-4-8.5T152,0H39ZM263,578q-30,0-49,19.5T195,647q0,38 25.5,63.5T283,736q31,0 49.5-18.5T351,668q0-38-26-64t-62-26ZM70,578q-30,0-49,19.5T2,647q0,38 25.5,63.5T90,736q31,0 49.5-18.5T158,668q0-38-26-64T70,578Z" />
      <glyph unicode="&#xf0;" glyph-name="eth" horiz-adv-x="533" d="M501,366q2-28 2-44q0-41-6-88q-7-65-27-107q-31-61-92.5-98T242-8T117,28.5T50,127q-6,27-6,56q0,24 3,51q8,66 29,106q17,36 47,63t67,38q40,16 96,16q44,0 66-11q2-2 3.5-1t0.5,4q-11,42-31,80q-2,5-6,3L219,505l-3-1q-8,0-10,10l-7,51v2q0,10 10,13l68,18q5,2 3,7q-23,33-63,80q-3,5-3,7q0,8 11,8H344q9,0 13-7l40-60q1-4 6-2l86,23l3,1q8,0 10-10l6-51v-3q0-9-10-12l-51-13q-2-1-3.5-3t0.5-4q26-48 40.5-94.5T501,366ZM340,158q13,24 19,72q3,23 3,38q0,20-4,32q-5,27-24,42.5T287,358t-50.5-15.5T203,300q-13-26-19-70q-2-13-2-33q0-17 4-39q5-27 23.5-43.5T256,98q27,0 49.5,16T340,158Z" />
      <glyph unicode="&#xf1;" glyph-name="ntilde" horiz-adv-x="530" d="M355,522q70,0 111-40t41-111q0-9-2-31L465,12q-1-5-4.5-8.5T452,0H339q-11,0-11,12l37,299q1,5 1,16q0,33-19,53.5T297,401q-36,0-61-24.5T206,311L169,12q-1-5-4.5-8.5T156,0H43q-5,0-8,3.5T33,12L93,502q1,5 4.5,8.5T106,514H219q5,0 8-3.5t2-8.5l-4-35q0-3 1.5-4t3.5,1q45,58 125,58Zm29,51q-20,0-33.5,4.5T321,591q-19,10-28,13.5T274,608q-31,0-55-22q-5-5-9-5t-7,4l-34,44q-4,6-4,9q0,4 3,8q20,28 49,45t62,17q18,0 31.5-5T335,692.5t14-7.5q17-10 26-14t20-4q29,0 50,24q4,5 9,5q4,0 7-4l31-45q5-8 1-14q-16-27-45-43.5T384,573Z" />
      <glyph unicode="&#xf2;" glyph-name="ograve" horiz-adv-x="533" d="M250-8Q169-8 116,36T51,156q-4,21-4,52q0,25 3,50q8,63 27,106q32,74 95,116t144,42q80,0 131-41.5T512,365q6-28 6-62q0-22-3-43q-6-50-26-101Q458,81 395,36.5T250-8Zm15,121q32,0 56.5,20T361,188q12,33 16,70q3,24 3,45q0,46-21,72t-60,26q-32,0-56.5-19T204,329q-11-24-16-71q-3-25-3-49q0-44 21-70t59-26ZM369,590q1-2 1-5q0-4-3-6.5t-7-2.5H278q-9,0-12,8L209,685q-2,4-2,6q0,4 3.5,6.5T219,700h98q10,0 13-9l39-101Z" />
      <glyph unicode="&#xf3;" glyph-name="oacute" horiz-adv-x="533" d="M250-8Q169-8 116,36T51,156q-4,21-4,52q0,25 3,50q8,63 27,106q32,74 95,116t144,42q80,0 131-41.5T512,365q6-28 6-62q0-22-3-43q-6-50-26-101Q458,81 395,36.5T250-8Zm15,121q32,0 56.5,20T361,188q12,33 16,70q3,24 3,45q0,46-21,72t-60,26q-32,0-56.5-19T204,329q-11-24-16-71q-3-25-3-49q0-44 21-70t59-26Zm-1,463q-9,0-9,6q0,4 3,8l64,101q4,9 15,9h98q9,0 9-7q0-3-3-8L360,584q-6-8-15-8H264Z" />
      <glyph unicode="&#xf4;" glyph-name="ocircumflex" horiz-adv-x="533" d="M250-8Q169-8 116,36T51,156q-4,21-4,52q0,25 3,50q8,63 27,106q32,74 95,116t144,42q80,0 131-41.5T512,365q6-28 6-62q0-22-3-43q-6-50-26-101Q458,81 395,36.5T250-8Zm15,121q32,0 56.5,20T361,188q12,33 16,70q3,24 3,45q0,46-21,72t-60,26q-32,0-56.5-19T204,329q-11-24-16-71q-3-25-3-49q0-44 21-70t59-26ZM175,572q-9,0-9,7q0,4 3,8l84,105q5,8 14,8H396q9,0 13-8l61-105q2-4 2-6q0-4-3.5-6.5T460,572H373q-10,0-13,8l-31,61q-3,6-6,0l-46-61q-6-8-15-8H175Z" />
      <glyph unicode="&#xf5;" glyph-name="otilde" horiz-adv-x="533" d="M250-8Q169-8 116,36T51,156q-4,21-4,52q0,25 3,50q8,63 27,106q32,74 95,116t144,42q80,0 131-41.5T512,365q6-28 6-62q0-22-3-43q-6-50-26-101Q458,81 395,36.5T250-8Zm15,121q32,0 56.5,20T361,188q12,33 16,70q3,24 3,45q0,46-21,72t-60,26q-32,0-56.5-19T204,329q-11-24-16-71q-3-25-3-49q0-44 21-70t59-26ZM379,573q-20,0-33.5,4.5T316,591q-19,10-28,13.5T269,608q-31,0-55-22q-5-5-9-5t-7,4l-34,44q-4,6-4,9q0,4 3,8q20,28 49,45t62,17q18,0 31.5-5T330,692.5t14-7.5q17-10 26-14t20-4q29,0 50,24q4,5 9,5q4,0 7-4l31-45q5-8 1-14q-16-27-45-43.5T379,573Z" />
      <glyph unicode="&#xf6;" glyph-name="odieresis" horiz-adv-x="533" d="M250-8Q169-8 116,36T51,156q-4,21-4,52q0,25 3,50q8,63 27,106q32,74 95,116t144,42q80,0 131-41.5T512,365q6-28 6-62q0-22-3-43q-6-50-26-101Q458,81 395,36.5T250-8Zm15,121q32,0 56.5,20T361,188q12,33 16,70q3,24 3,45q0,46-21,72t-60,26q-32,0-56.5-19T204,329q-11-24-16-71q-3-25-3-49q0-44 21-70t59-26ZM414,578q-30,0-49,19.5T346,647q0,38 25.5,63.5T434,736q31,0 49.5-18.5T502,668q0-38-26-64t-62-26Zm-193,0q-30,0-49,19.5T153,647q0,38 25.5,63.5T241,736q31,0 49.5-18.5T309,668q0-38-26-64t-62-26Z" />
      <glyph unicode="&#xf7;" glyph-name="divide" horiz-adv-x="471" d="M268,417q-26,0-43,17t-17,43q0,31 23,54t53,23q25,0 41.5-17.5T342,493q0-30-23-53t-51-23ZM51,251q-5,0-8,3.5T41,263l12,97q1,5 4.5,8.5T66,372H458q5,0 8-3.5t2-8.5l-12-97q-1-5-4.5-8.5T443,251H51ZM226,78q-26,0-42.5,17.5T167,139q0,30 23,53t53,23q25,0 41.5-17T301,156q0-31-23-54.5T226,78Z" />
      <glyph unicode="&#xf8;" glyph-name="oslash" horiz-adv-x="534" d="M499,424q-1-3 0-7q10-21 16-52q5-24 5-61q0-29-2-44q-8-55-26-101Q461,81 398,36.5T253-8Q205-8 166,7q-5,2-7-2L116-49q-3-5-9-5q-3,0-8,3L29,14q-4,4-4,8q0,3 4,9L73,87q2,3 0,6q-13,27-19,63q-4,21-4,52q0,25 3,50q8,63 27,106q32,74 95,116t144,42q52,0 88-16q5-2 7,2l46,57q4,5 8.5,5.5T477,567l71-65q3-3 3-7q0-6-4-10l-48-61ZM364,188q12,33 16,70q3,24 3,45q0,46-21,72t-60,26q-32,0-56.5-19T207,329q-11-24-16-71q-3-25-3-49q0-44 21-70t59-26q32,0 56.5,20T364,188Z" />
      <glyph unicode="&#xf9;" glyph-name="ugrave" horiz-adv-x="530" d="M384,502q1,5 4.5,8.5T397,514H510q5,0 8-3.5t2-8.5L460,12q-1-5-4.5-8.5T447,0H334q-5,0-8,3.5T324,12l4,34q0,3-2,3.5T322,47Q276-7 195-7Q128-7 87,31T46,139q0,9 2,29L89,502q1,5 4.5,8.5T102,514H214q11,0 11-12L188,203q-1-6-1-17q0-34 18-53.5T255,113q33,0 57.5,20.5T345,187l39,315Zm-17,88q1-2 1-5q0-4-3-6.5t-7-2.5H276q-9,0-12,8L207,685q-2,4-2,6q0,4 3.5,6.5T217,700h98q10,0 13-9l39-101Z" />
      <glyph unicode="&#xfa;" glyph-name="uacute" horiz-adv-x="530" d="M384,502q1,5 4.5,8.5T397,514H510q5,0 8-3.5t2-8.5L460,12q-1-5-4.5-8.5T447,0H334q-5,0-8,3.5T324,12l4,34q0,3-2,3.5T322,47Q276-7 195-7Q128-7 87,31T46,139q0,9 2,29L89,502q1,5 4.5,8.5T102,514H214q11,0 11-12L188,203q-1-6-1-17q0-34 18-53.5T255,113q33,0 57.5,20.5T345,187l39,315ZM261,576q-9,0-9,6q0,4 3,8l64,101q4,9 15,9h98q9,0 9-7q0-3-3-8L357,584q-6-8-15-8H261Z" />
      <glyph unicode="&#xfb;" glyph-name="ucircumflex" horiz-adv-x="530" d="M384,502q1,5 4.5,8.5T397,514H510q5,0 8-3.5t2-8.5L460,12q-1-5-4.5-8.5T447,0H334q-5,0-8,3.5T324,12l4,34q0,3-2,3.5T322,47Q276-7 195-7Q128-7 87,31T46,139q0,9 2,29L89,502q1,5 4.5,8.5T102,514H214q11,0 11-12L188,203q-1-6-1-17q0-34 18-53.5T255,113q33,0 57.5,20.5T345,187l39,315ZM173,572q-9,0-9,7q0,4 3,8l84,105q5,8 14,8H394q9,0 13-8l61-105q2-4 2-6q0-4-3.5-6.5T458,572H371q-10,0-13,8l-31,61q-3,6-6,0l-46-61q-6-8-15-8H173Z" />
      <glyph unicode="&#xfc;" glyph-name="udieresis" horiz-adv-x="530" d="M384,502q1,5 4.5,8.5T397,514H510q5,0 8-3.5t2-8.5L460,12q-1-5-4.5-8.5T447,0H334q-5,0-8,3.5T324,12l4,34q0,3-2,3.5T322,47Q276-7 195-7Q128-7 87,31T46,139q0,9 2,29L89,502q1,5 4.5,8.5T102,514H214q11,0 11-12L188,203q-1-6-1-17q0-34 18-53.5T255,113q33,0 57.5,20.5T345,187l39,315Zm28,76q-30,0-49,19.5T344,647q0,38 25.5,63.5T432,736q31,0 49.5-18.5T500,668q0-38-26-64t-62-26Zm-193,0q-30,0-49,19.5T151,647q0,38 25.5,63.5T239,736q31,0 49.5-18.5T307,668q0-38-26-64t-62-26Z" />
      <glyph unicode="&#xfd;" glyph-name="yacute" horiz-adv-x="489" d="M4-199q-6,0-6,12L10-95q1,5 4.5,8.5T23-83q60,1 88.5,16.5T157-3q1,2 1,6L60,501v4q0,10 11,10H192q12,0 13-10l41-324q1-3 3-3t3,3L373,505q4,10 15,10H507q6,0 8-4t-1-10L282-19q-33-73-63-109.5T141.5-182T10-199H4ZM243,585q-9,0-9,6q0,4 3,8l64,101q4,9 15,9h98q9,0 9-7q0-3-3-8L339,593q-6-8-15-8H243Z" />
      <glyph unicode="&#xfe;" glyph-name="thorn" horiz-adv-x="534" d="M507,386q7-28 7-62q0-28-5-66q-8-66-27-116Q455,73 400,32.5T280-8Q212-8 178,39q-1,2-3,1t-3-4L145-188q-1-5-4.5-8.5T132-200H18q-5,0-8,3.5T8-188L116,688q0,5 4,8.5t9,3.5H242q5,0 8-3.5t2-8.5L227,483q0-6 6-2q41,41 108,41t110-37.5T507,386ZM344,172q8,15 12.5,33.5T365,257q5,38 5,53q0,18-5,33q-5,26-24,42t-48,16q-27,0-47.5-14T212,350q-2-4-2-6L189,172q0-1-0.5-2.5T189,166q7-24 24-38.5T257,113q29,0 52,16t35,43Z" />
      <glyph unicode="&#xff;" glyph-name="ydieresis" horiz-adv-x="489" d="M4-199q-6,0-6,12L10-95q1,5 4.5,8.5T23-83q60,1 88.5,16.5T157-3q1,2 1,6L60,501v4q0,10 11,10H192q12,0 13-10l41-324q1-3 3-3t3,3L373,505q4,10 15,10H507q6,0 8-4t-1-10L282-19q-33-73-63-109.5T141.5-182T10-199H4ZM393,587q-30,0-49,19.5T325,656q0,38 25.5,63.5T413,745q31,0 49.5-18.5T481,677q0-38-26-64t-62-26Zm-193,0q-30,0-49,19.5T132,656q0,38 25.5,63.5T220,745q31,0 49.5-18.5T288,677q0-38-26-64t-62-26Z" />
      <glyph unicode="&#x2013;" glyph-name="endash" horiz-adv-x="462" d="M48,223q-5,0-8,3.5T38,235l11,97q1,5 5,8.5t9,3.5H446q5,0 8-3.5t2-8.5l-12-97q-1-5-4.5-8.5T431,223H48Z" />
      <glyph unicode="&#x2014;" glyph-name="emdash" horiz-adv-x="639" d="M48,224q-5,0-8,3.5T38,236l11,96q1,5 5,8.5t9,3.5H622q5,0 8-3.5t2-8.5l-11-96q-1-5-4.5-8.5T608,224H48Z" />
      <glyph unicode="&#x2018;" glyph-name="quoteleft" horiz-adv-x="197" d="M53,474q-6,0-8,4t1,10L151,691q1,4 5.5,6.5T165,700h86q12,0 8-13L182,484q-4-10-15-10H53Z" />
      <glyph unicode="&#x2019;" glyph-name="quoteright" horiz-adv-x="197" d="M250,700q7,0 8.5-4T257,686L152,483q-3-9-14-9H52q-12,0-8,13l78,203q3,10 14,10H250Z" />
      <glyph unicode="&#x201a;" glyph-name="quotesinglbase" horiz-adv-x="582" d="M19-98Q7-98 10-85L70,147q3,11 14,11h99q12,0 8-13L103-88Q99-98 88-98H19Z" />
      <glyph unicode="&#x201c;" glyph-name="quotedblleft" horiz-adv-x="352" d="M53,474q-6,0-8.5,4T45,488l95,202q5,10 14,10h81q13,0 9-13L175,485q-5-11-14-11H53Zm172,0q-6,0-8.5,3.5T217,488l94,202q3,10 14,10h81q12,0 8-13L347,485q-3-11-14-11H225Z" />
      <glyph unicode="&#x201d;" glyph-name="quotedblright" horiz-adv-x="352" d="M232,700q6,0 8.5-3.5T240,686L147,484q-5-10-14-10H51q-12,0-8,13l68,202q3,11 14,11H232Zm172,0q6,0 8.5-3.5T412,686L317,484q-3-10-13-10H222q-13,0-9,13l69,202q5,11 14,11H404Z" />
      <glyph unicode="&#x201e;" glyph-name="quotedblbase" horiz-adv-x="371" d="M162,128q6,0 8.5-3.5T170,114L77-88Q72-98 63-98H-19q-12,0-8,13L41,117q3,11 14,11H162Zm172,0q6,0 8.5-3.5T342,114L247-88q-3-10-13-10H152q-13,0-9,13l69,202q5,11 14,11H334Z" />
      <glyph unicode="&#x2022;" glyph-name="bullet" horiz-adv-x="307" d="M153,146q-48,0-79.5,33T42,260q0,39 20,72.5T115,386t70,20q48,0 79-32t31-80q0-39-20-73t-53-54.5T153,146Z" />
      <glyph unicode="&#x2039;" glyph-name="guilsinglleft" horiz-adv-x="325" d="M253,121q1-2 1-5q0-9-11-9H146q-9,0-13,8L61,273q-1,2-1,7q0,3 3,9L174,447q5,8 15,8h97q9,0 9-6q0-3-3-8L179,284q-1-3 0-6l74-157Z" />
      <glyph unicode="&#x203a;" glyph-name="guilsinglright" horiz-adv-x="336" d="M69,107q-9,0-9,6q0,4 3,8L176,278q2,3 0,6L103,441q-2,4-2,6q0,8 11,8h97q10,0 13-8l72-158q2-6 2-7q0-4-3-9L181,115q-5-8-15-8H69Z" />
    </font>
</defs>
</svg>
