<?xml version="1.0" standalone="no"?>
<!DOCTYPE svg PUBLIC "-//W3C//DTD SVG 1.1//EN" "http://www.w3.org/Graphics/SVG/1.1/DTD/svg11.dtd">
<svg xmlns="http://www.w3.org/2000/svg">
  <defs>
    <font id="Barlow" horiz-adv-x="513">
      <font-face font-family="Barlow" units-per-em="1000" panose-1="0 0 5 0 0 0 0 0 0 0" ascent="1000" descent="-200" alphabetic="0" />
      <glyph unicode=" " glyph-name="space" horiz-adv-x="200" />
      <glyph unicode="!" glyph-name="exclam" horiz-adv-x="319" d="M141,228q-10,0-10,10l-5,452q0,10 10,10h51q10,0 10-10l-6-452q0-10-10-10H141ZM157,4q-24,0-39.5,15.5T102,59q0,25 15.5,40.5T157,115q25,0 40.5-15.5T213,59q0-24-15.5-39.5T157,4Z" />
      <glyph unicode="&quot;" glyph-name="quotedbl" horiz-adv-x="263" d="M47,488q-10,0-10,10L29,684q0,10 10,10H91q10,0 10-10L93,498q0-10-10-10H47Zm135,0q-10,0-10,10l-8,186q0,10 10,10h51q10,0 10-10l-8-186q0-10-10-10H182Z" />
      <glyph unicode="#" glyph-name="numbersign" horiz-adv-x="659" d="M586,439q0-10-10-10H500q-5,0-5-4L471,266q0-4 3-4h67q10,0 10-10l-1-42q0-10-10-10H465q-5,0-5-4L433,25q-1-9-10-9l-51,2q-4,0-7,3t-2,8l25,167q0,4-3,4H226q-5,0-5-4L194,25q-1-9-10-9l-51,2q-4,0-7,3t-2,8l25,167q0,4-3,4H82q-10,0-10,10l1,42q0,10 10,10h73q5,0 5,4l24,159q0,4-3,4H119q-10,0-10,10v43q0,10 10,10h73q5,0 5,4l27,171q1,9 10,9l51-2q4,0 7-3t2-8L269,496q0-4 3-4H430q5,0 5,4l27,171q1,9 10,9l51-2q4,0 7-3t2-8L507,496q0-4 3-4h67q10,0 10-10l-1-43ZM395,262q5,0 5,4l24,159q0,4-3,4H262q-5,0-5-4L233,266q0-4 3-4H395Z" />
      <glyph unicode="$" glyph-name="dollar" horiz-adv-x="559" d="M504,176q0-76-49.5-125T316-7q-4,0-4-4l1-72q0-10-10-10H259q-10,0-10,10l1,72q0,4-4,4Q155,3 104,52.5T53,179v31q0,10 10,10h45q10,0 10-10V183q0-58 45.5-93.5T289,54q72,0 110,32.5T437,173q0,35-17.5,60T366,280T263,331q-72,30-110.5,52.5t-63,58T65,531q0,77 47,122.5T242,707q4,0 4,4l-1,78q0,10 10,10h43q10,0 10-10l-1-79q0-4 4-4q88-10 138-60t50-128V496q0-10-10-10H442q-10,0-10,10v18q0,58-43,95T270,646q-67,0-103-29t-36-84q0-36 17.5-59.5t50-41T299,387q69-30 111.5-56t68-63.5T504,176Z" />
      <glyph unicode="%" glyph-name="percent" horiz-adv-x="848" d="M238,425q-39,0-72,19t-52.5,51.5T94,567t19.5,71.5T166,690t72,19t72-19t52-51.5T381,567t-19-71.5T310,444t-72-19ZM215,0q-6,0-8,3.5t1,8.5L587,693q5,7 12,7h32q6,0 8-3.5t-1-8.5L260,7q-3-7-12-7H215Zm23,471q40,0 67.5,28T333,567t-27.5,68T238,663t-68-27.5T142,567q0-40 28-68t68-28ZM614-9q-39,0-72,19T489.5,62T470,134q0,38 19.5,70.5T542,256t72,19q38,0 71-19t52-51.5T756,134q0-39-19-72T685.5,10T614-9Zm0,46q40,0 67.5,28T709,134q0,40-28,67.5T614,229q-41,0-69-27.5T517,134q0-41 28-69t69-28Z" />
      <glyph unicode="&amp;" glyph-name="ampersand" horiz-adv-x="658" d="M594,12q2-2 2-6q0-2-2-4t-6-2H529q-6,0-12,6q-38,43-58,68q-3,3-6,0q-48-43-96.5-62.5T250-8Q161-8 106.5,33.5T52,154q0,69 39.5,118T202,369q5,2 1,5q-58,71-77,107.5T107,556q0,67 46,109.5T275,708t125-42.5T449,555q0-61-37-106T308,358q-4-1-1-5q46-57 115-136q25-31 34-41q3-3 6,0q39,49 65,86q6,8 14,3l38-22q9-6 3-14q-42-62-80-104v-2q0-3 4-8q-4,5 70-83l18-20ZM277,642q-45,0-72-24.5T178,551q0-24 15-51t65-89q3-3 6-1q55,38 84.5,71T378,555q0,39-28,63t-73,24ZM252,53q43,0 81.5,17.5T411,123q3,3 0,6l-35,42q-27,33-41,48l-84,97q-1,3-5,1q-58-39-89.5-77T125,154t34-74.5T252,53Z" />
      <glyph unicode="&apos;" glyph-name="quotesingle" horiz-adv-x="132" d="M47,493q-10,0-10,10L29,688q0,10 10,10H93q10,0 10-10L95,503q0-10-10-10H47Z" />
      <glyph unicode="(" glyph-name="parenleft" horiz-adv-x="261" d="M116-104q-7,0-12,6Q55-23 25,89T-5,325q0,126 30.5,241T106,757q4,6 12,6h48q6,0 8-3.5t-1-8.5q-43-77-70-189.5T76,326q0-121 27-231.5T173-92q2-4 2-6q0-6-9-6H116Z" />
      <glyph unicode=")" glyph-name="parenright" horiz-adv-x="261" d="M145,763q7,0 12-6q48-75 78-187t30-236q0-127-30.5-242T154-98q-4-6-12-6H95q-6,0-8,3.5T88-92q43,77 70,189.5T185,332q0,121-27,232T88,751q-2,4-2,6q0,6 9,6h50Z" />
      <glyph unicode="*" glyph-name="asterisk" horiz-adv-x="397" d="M185,393q-10,0-10,10l1,122q0,6-5,3L60,464q-2-1-5-1q-6,0-9,5L34,492q-1,2-1,5q0,6 5,9l110,61q2,1 2,3t-2,3L38,634q-4,2-5,6t1,8l12,24q2,4 6,5t8-1l111-64q5-2 5,3l-1,122q0,10 10,10h27q10,0 10-10l-1-122q0-5 5-3l111,64q2,1 5,1q6,0 9-5l12-24q1-2 1-5q0-6-5-9L248,573q-1-1-1-3t1-3l111-61q4-2 5-6t-1-8l-12-24q-2-4-6-5t-8,1L226,528q-5,3-5-3l1-122q0-10-10-10H185Z" />
      <glyph unicode="+" glyph-name="plus" horiz-adv-x="500" d="M451,344q10,0 10-10V292q0-10-10-10H285q-4,0-4-4V116q0-10-10-10H229q-10,0-10,10V278q0,4-4,4H49q-10,0-10,10v42q0,10 10,10H215q4,0 4,4V518q0,10 10,10h42q10,0 10-10V348q0-4 4-4H451Z" />
      <glyph unicode="," glyph-name="comma" horiz-adv-x="264" d="M76-79q-5,0-7.5,3T67-68l44,214q2,9 11,9h44q5,0 7.5-3t1.5-8L119-70q-2-9-11-9H76Z" />
      <glyph unicode="-" glyph-name="hyphen" horiz-adv-x="394" d="M49,280q-10,0-10,10v42q0,10 10,10H345q10,0 10-10V290q0-10-10-10H49Z" />
      <glyph unicode="." glyph-name="period" horiz-adv-x="278" d="M138,2Q113,2 97.5,18T82,58q0,25 15.5,40.5T138,114q24,0 40-15.5T194,58q0-24-16-40T138,2Z" />
      <glyph unicode="/" glyph-name="slash" horiz-adv-x="400" d="M41,0Q30,0 33,11L254,692q3,8 12,8h50q11,0 8-11L103,8q-3-8-12-8H41Z" />
      <glyph unicode="0" glyph-name="zero" horiz-adv-x="565" d="M281-10q-96,0-153,55T71,192V508q0,92 57,146.5T281,709q97,0 155-55t58-146V192q0-92-58-147T281-10Zm0,62q64,0 103,37t39,99V511q0,61-38.5,98T281,646q-63,0-101-37t-38-98V188q0-62 38-99T281,52Z" />
      <glyph unicode="1" glyph-name="one" horiz-adv-x="350" d="M180,697q6,3 13,3h54q10,0 10-10V10q0-10-10-10H196q-10,0-10,10V619q0,2-1.5,3t-3.5,0L75,579l-4-1q-6,0-8,8l-5,38v2q0,5 7,10l115,61Z" />
      <glyph unicode="2" glyph-name="two" horiz-adv-x="536" d="M152,67q-3-5 2-5H468q10,0 10-10V10q0-10-10-10H69Q59,0 59,10V52q0,7 5,12q34,40 153,188l74,92q94,119 94,185q0,53-36,85t-94,32q-57,0-92-32.5T129,528V497q0-10-10-10H67q-10,0-10,10v40q2,77 57.5,124T255,708q60,0 106-23t71-63.5T457,530q0-85-94-205Q314,262 174,93L152,67Z" />
      <glyph unicode="3" glyph-name="three" horiz-adv-x="515" d="M430,331q20-49 20-117q0-55-15-97q-20-60-67.5-92.5T250-8T130,28.5T61,127q-9,28-11,76q0,10 10,10h51q10,0 10-10q2-29 7-54q11-44 42.5-69.5T249,54q90,0 117,80q12,33 12,82q0,60-16,98q-32,72-113,72q-15,0-37-11q-4-2-6-2q-4,0-7,5l-26,35q-5,8 1,14L350,633q3,5-2,5H66q-10,0-10,10v42q0,10 10,10H436q10,0 10-10V641q0-5-5-12L281,437q-2-2-1-3.5t4-1.5q107-7 146-101Z" />
      <glyph unicode="4" glyph-name="four" horiz-adv-x="551" d="M480,257q10,0 10-10V203q0-10-10-10H437q-4,0-4-4V10q0-10-10-10H372q-10,0-10,10V189q0,4-4,4H59q-10,0-10,10v37q0,5 3,12L257,693q3,7 11,7h53q5,0 7.5-3.5T329,688L130,262q-1-2 0-3.5t3-1.5H358q4,0 4,4V422q0,10 10,10h51q10,0 10-10V261q0-4 4-4h43Z" />
      <glyph unicode="5" glyph-name="five" horiz-adv-x="514" d="M455,306q9-44 9-90q0-49-9-84Q438,68 387,30.5T264-7Q193-7 143,29T75,125q-7,22-9,44v2q0,8 9,8h53q10,0 11-10q0-6 4-20q10-43 41.5-68.5T263,55q48,0 80.5,27T386,156q6,23 6,60q0,34-5,65q-7,46-40,70t-82,24q-44,0-79-20t-45-53q-3-9-11-9H76q-10,0-10,10V690q0,10 10,10H426q10,0 10-10V648q0-10-10-10H141q-4,0-4-4l-1-242q0-2 1.5-3t3.5,1q25,23 59,35.5T272,438q71,0 120-34.5T455,306Z" />
      <glyph unicode="6" glyph-name="six" horiz-adv-x="515" d="M444,329q21-45 21-114q0-62-16-100q-21-58-67-90T267-7Q195-7 146,27T77,123q-12,40-12,94V529q0,82 54,130.5T260,708q85,0 137-47t52-124V523q0-10-10-10H388q-10,0-10,10v8q0,51-33,83t-85,32q-54,0-89-33.5T136,524V377q0-2 2-2.5t3,1.5q44,60 133,60q63,0 105.5-28T444,329ZM382,139q12,31 12,76q0,52-14,80q-12,37-42,58t-74,21t-74-21.5T148,293q-12-31-12-81q0-44 10-73q12-38 42.5-61T265,55q43,0 74,21.5T382,139Z" />
      <glyph unicode="7" glyph-name="seven" horiz-adv-x="473" d="M151,0q-5,0-7.5,3.5T143,12L374,633q1,2 0,3.5t-3,1.5H101q-4,0-4-4V588q0-10-10-10H46q-10,0-10,10l1,102q0,10 10,10H441q10,0 10-10V644q0-4-2-12L219,8q-3-8-12-8H151Z" />
      <glyph unicode="8" glyph-name="eight" horiz-adv-x="521" d="M441,294q19-41 19-98q0-69-29-117q-24-41-68-64T261-8Q201-8 156,15.5T87,84Q59,134 59,197q0,53 21,100q23,50 73,75q5,2 0,5q-33,19-54,51q-30,43-30,98q0,56 30,102q24,39 66.5,60.5T261,710q55,0 96-21.5T422,628q29-47 29-102T421,426q-18-27-53-49q-5-3 0-5q51-25 73-78ZM155,585q-16-30-16-59q0-42 21-73q16-25 41.5-38T260,402t59,13.5T361,454q19,27 19,73q0,33-15,60q-15,28-42,44.5T259,648q-35,0-62-17t-42-46ZM364,106q25,38 25,95q0,47-16,81q-30,66-113,66q-79,0-110-62q-18-32-18-86q0-56 22-91q34-55 107-55q71,0 103,52Z" />
      <glyph unicode="9" glyph-name="nine" horiz-adv-x="521" d="M444,577q12-40 12-94V171q0-82-54-130.5T261-8Q177-8 124.5,39.5T72,163v14q0,10 10,10h51q10,0 10-10v-8q0-51 33-83t85-32q54,0 89,33.5T385,176V322q0,2-2,2.5t-3-1.5q-44-59-132-59q-63,0-105.5,28T78,371Q57,413 57,485q0,61 15,100q21,58 67.5,90T254,707q72,0 121.5-34.5T444,577ZM257,326q44,0 74.5,21.5T374,407q11,29 11,81q0,43-9,73q-12,38-43,61t-76,23q-43,0-74-21.5T139,561q-11-28-11-76q0-51 13-80q12-36 42-57.5T257,326Z" />
      <glyph unicode=":" glyph-name="colon" horiz-adv-x="339" d="M169,350q-25,0-40.5,16T113,406q0,25 15.5,40.5T169,462q24,0 40-15.5T225,406q0-24-16-40t-40-16Zm0-337q-25,0-40.5,16T113,69q0,25 15.5,40.5T169,125q24,0 40-15.5T225,69q0-24-16-40T169,13Z" />
      <glyph unicode=";" glyph-name="semicolon" horiz-adv-x="311" d="M158,347q-27,0-44.5,17T96,407q0,24 19,41t43,17t43.5-17T221,407q0-25-18.5-42.5T158,347ZM110-75q-5,0-8,3.5T100-64l28,206q1,9 10,9h46q5,0 7.5-3t1.5-8L152-66q-1-9-11-9H110Z" />
      <glyph unicode="&lt;" glyph-name="less" horiz-adv-x="500" d="M461,55q0-5-3.5-7.5T449,47L46,235q-7,4-7,11v48q0,7 7,11L449,493l4,1q8,0 8-9V436q0-8-8-11L116,273q-6-3 0-6L453,115q8-3 8-11V55Z" />
      <glyph unicode="=" glyph-name="equal" horiz-adv-x="500" d="M49,390q-10,0-10,10v42q0,10 10,10H451q10,0 10-10V400q0-10-10-10H49Zm0-209q-10,0-10,10v42q0,10 10,10H451q10,0 10-10V191q0-10-10-10H49Z" />
      <glyph unicode="&gt;" glyph-name="greater" horiz-adv-x="500" d="M47,46q-8,0-8,9v49q0,8 8,11L384,267q6,3 0,6L47,425q-8,3-8,11v49q0,5 3.5,7.5T51,493L454,305q7-4 7-11V246q0-7-7-11L51,47l-4-1Z" />
      <glyph unicode="?" glyph-name="question" horiz-adv-x="461" d="M186,200q-10,0-10,10v59q0,43 21,70t64,61q29,23 46,39.5T335.5,479T347,533q0,50-32,80.5T230,644q-54,0-86.5-31T111,532V501q0-10-10-10l-51,3q-10,0-10,10v28q0,79 53,128t139,49q84,0 135-48t51-128q0-44-14.5-76T369,405t-53-46q-34-26-51-46t-17-48V210q0-10-10-10H186ZM211,2q-24,0-40,16T155,58q0,25 16,40.5T211,114q25,0 40.5-15.5T267,58q0-24-16-40T211,2Z" />
      <glyph unicode="@" glyph-name="at" horiz-adv-x="827" d="M454,617q91,0 161.5-37t109-104T763,323q0-16-4-52q-12-92-57-143T589,77q-35,0-61.5,13T487,128q-1,5-5,1q-19-25-46.5-38T376,78q-54,0-88,26.5T249,174q-1,6-1,20q0,29 6,66q6,57 18,87q16,44 53,70t83,26q28,0 50-9.5T494,406q2-2 3.5-2t1.5,3l3,22q1,9 10,9h32q5,0 8-3.5t2-7.5L526,218q-1-5-1-16q0-34 19-56t50-22q42,0 71.5,38T705,268q4,24 4,53q0,76-33,132t-91.5,86T450,569q-86,0-162.5-39t-124-117T116,224q0-78 30-139t87-95T369-44q50,0 96.5,12T537-3q3,2 7,2t7-4l16-20q3-3 3-7t-5-7q-32-25-88.5-39.5T362-93q-91,0-159,40.5T99,61T63,229q0,120 56,208T265,571t189,46Zm11-428q5,11 8,24t7,48q5,52 4,71q-1,28-20.5,47T412,398t-56.5-18T319,333q-5-10-8-27t-7-47q-5-36-5-54q0-11 1-16q2-29 23-47t54-18q32,0 55,18t33,47Z" />
      <glyph unicode="A" glyph-name="A" horiz-adv-x="607" d="M509,0q-9,0-12,8L457,134q-1,3-4,3H154q-3,0-4-3L110,8q-3-8-12-8H44Q33,0 36,11L257,692q3,8 12,8h68q9,0 12-8L571,11l1-4q0-7-9-7H509ZM170,200q-1-2 0.5-3.5T174,195H432q2,0 3.5,1.5T436,200L306,608q-1,2-3,2t-3-2L170,200Z" />
      <glyph unicode="B" glyph-name="B" horiz-adv-x="627" d="M445,365q-5-3 0-6q54-22 82-65t28-104q0-90-57.5-140T346,0H104Q94,0 94,10V690q0,10 10,10H339q97,0 152.5-48T547,517q0-55-26.5-93.5T445,365ZM169,638q-4,0-4-4V394q0-4 4-4H339q63,0 100.5,33T477,511q0,58-37.5,92.5T339,638H169ZM346,63q63,0 100.5,36T484,196t-38.5,97.5T342,330H169q-4,0-4-4V67q0-4 4-4H346Z" />
      <glyph unicode="C" glyph-name="C" horiz-adv-x="607" d="M307-9Q237-9 184,18.5t-82.5,78T72,213V488q0,65 29.5,115T184,680.5T307,708t123-27t82.5-76T542,492q0-5-3-8t-7-3l-51-3q-10,0-10,9v3q0,71-45,113.5T307,646T188,603T143,490V210q0-70 45-113T307,54T426,96.5T471,210v2q0,9 10,9l51-3q10,0 10-9q0-65-29.5-114.5T430,18T307-9Z" />
      <glyph unicode="D" glyph-name="D" horiz-adv-x="618" d="M104,0Q94,0 94,10V690q0,10 10,10H340q99,0 157.5-52T556,507V193q0-89-58.5-141T340,0H104Zm61,66q0-4 4-4H343q65,0 103.5,38T485,202V497q0,65-38,103T343,638H169q-4,0-4-4V66Z" />
      <glyph unicode="E" glyph-name="E" horiz-adv-x="605" d="M547,648q0-10-10-10H169q-4,0-4-4V387q0-4 4-4H427q10,0 10-10V331q0-10-10-10H169q-4,0-4-4V66q0-4 4-4H537q10,0 10-10V10q0-10-10-10H104Q94,0 94,10V690q0,10 10,10H537q10,0 10-10V648Z" />
      <glyph unicode="F" glyph-name="F" horiz-adv-x="568" d="M546,648q0-10-10-10H169q-4,0-4-4V387q0-4 4-4H426q10,0 10-10V331q0-10-10-10H169q-4,0-4-4V10q0-10-10-10H104Q94,0 94,10V690q0,10 10,10H536q10,0 10-10V648Z" />
      <glyph unicode="G" glyph-name="G" horiz-adv-x="613" d="M307-8Q237-8 184,19.5T101.5,97T72,212V488q0,65 29.5,115T184,680.5T307,708q69,0 122.5-27T512,605.5T541,496V483q0-10-10-10H480q-10,0-10,10v12q0,67-44.5,109T307,646T188,603T143,490V210q0-70 46-113T310,54q73,0 116.5,40T470,201v91q0,4-4,4H319q-10,0-10,10v42q0,10 10,10H531q10,0 10-10V219q0-107-63.5-167T307-8Z" />
      <glyph unicode="H" glyph-name="H" horiz-adv-x="654" d="M492,690q0,10 10,10h51q10,0 10-10V10q0-10-10-10H502q-10,0-10,10V317q0,4-4,4H169q-4,0-4-4V10q0-10-10-10H104Q94,0 94,10V690q0,10 10,10h51q10,0 10-10V387q0-4 4-4H488q4,0 4,4V690Z" />
      <glyph unicode="I" glyph-name="I" horiz-adv-x="259" d="M104,0Q94,0 94,10V690q0,10 10,10h51q10,0 10-10V10q0-10-10-10H104Z" />
      <glyph unicode="J" glyph-name="J" horiz-adv-x="577" d="M256-8Q188-8 136.5,18T57,91.5T29,201v76q0,10 10,10H90q10,0 10-10V201q0-66 42.5-106.5T256,54q70,0 113,40.5T412,201V690q0,10 10,10h51q10,0 10-10V201q0-62-28.5-109.5T374.5,18T256-8Z" />
      <glyph unicode="K" glyph-name="K" horiz-adv-x="611" d="M104,0Q94,0 94,10V690q0,10 10,10h51q10,0 10-10V351q0-2 2-3t3,1L486,695q4,5 12,5h58q6,0 7.5-4t-2.5-8L316,411q-2-2 0-6L582,12l2-5q0-7-9-7H517q-8,0-12,6L268,354q-1,2-3,2t-3-1L167,254q-2-2-2-5V10q0-10-10-10H104Z" />
      <glyph unicode="L" glyph-name="L" horiz-adv-x="568" d="M104,0Q94,0 94,10V690q0,10 10,10h51q10,0 10-10V66q0-4 4-4H522q10,0 10-10V10q0-10-10-10H104Z" />
      <glyph unicode="M" glyph-name="M" horiz-adv-x="715" d="M548,693q5,7 12,7h52q10,0 10-10V10q0-10-10-10H561q-10,0-10,10V566q0,3-2,4t-3-2L383,318q-5-7-12-7H345q-7,0-12,6L170,565q-1,3-3,2t-2-4V10q0-10-10-10H104Q94,0 94,10V690q0,10 10,10h52q8,0 12-6L356,409q1-1 3-1t3,1L548,693Z" />
      <glyph unicode="N" glyph-name="N" horiz-adv-x="676" d="M511,690q0,10 10,10h51q10,0 10-10V10q0-10-10-10H522q-7,0-12,7L169,562q-1,3-3,2.5t-2-3.5l1-551q0-10-10-10H104Q94,0 94,10V690q0,10 10,10h50q7,0 12-7L507,138q1-3 3-2.5t2,3.5l-1,551Z" />
      <glyph unicode="O" glyph-name="O" horiz-adv-x="622" d="M310-8Q239-8 185,21t-83.5,81.5T72,224V476q0,69 29.5,121.5T185,679t125,29t125.5-29t84-81.5T549,476V224q0-69-29.5-121.5T435.5,21T310-8Zm0,61q76,0 122,46t46,122V477q0,76-46,122.5T310,646q-75,0-121-46.5T143,477V221q0-76 46-122T310,53Z" />
      <glyph unicode="P" glyph-name="P" horiz-adv-x="592" d="M360,701q88,0 141.5-54T555,505q0-87-54.5-140T357,312H162q-4,0-4-4V10q0-10-10-10H97Q87,0 87,10V691q0,10 10,10H360Zm-8-330q59,0 96,36.5T485,504q0,61-37,98t-96,37H162q-4,0-4-4V375q0-4 4-4H352Z" />
      <glyph unicode="Q" glyph-name="Q" horiz-adv-x="576" d="M288,708q68,0 120.5-28.5t81-79.5T518,482V214q0-90-51.5-149T328-6q-4,0-4-4v-95q0-10-10-10H263q-10,0-10,10v95q0,4-4,4Q162,6 110,65T58,214V482q0,67 28.5,118t81,79.5T288,708ZM447,485q0,72-44,116.5T288,646T173,601.5T129,485V215q0-72 44-116.5T288,54T403,98.5T447,215V485Z" />
      <glyph unicode="R" glyph-name="R" horiz-adv-x="612" d="M502,0q-9,0-12,7L343,317q-1,3-4,3H169q-4,0-4-4V10q0-10-10-10H104Q94,0 94,10V690q0,10 10,10H363q86,0 139-53.5T555,507q0-70-38-119T414,325q-4-2-2-5L562,12q1-2 1-5q0-7-8-7H502ZM169,638q-4,0-4-4V381q0-4 4-4H355q58,0 94,36t36,94t-36,94.5T355,638H169Z" />
      <glyph unicode="S" glyph-name="S" horiz-adv-x="584" d="M296-8Q183-8 117.5,43T52,179v31q0,10 10,10h49q10,0 10-10V183q0-58 48-93.5T302,54q77,0 117,32.5T459,173q0,35-18.5,60t-57,47T275,331q-75,30-116.5,52.5t-67,58T66,531q0,84 58.5,130.5T285,708q111,0 175-52t64-138V496q0-10-10-10H464q-10,0-10,10v18q0,58-45.5,95T282,646q-71,0-109-29t-38-84q0-36 18.5-59.5t53-41T313,387q73-30 117.5-56t72-63.5T530,176q0-84-62-134T296-8Z" />
      <glyph unicode="T" glyph-name="T" horiz-adv-x="569" d="M516,700q10,0 10-10V647q0-10-10-10H320q-4,0-4-4V10q0-10-10-10H255q-10,0-10,10V633q0,4-4,4H53q-10,0-10,10v43q0,10 10,10H516Z" />
      <glyph unicode="U" glyph-name="U" horiz-adv-x="648" d="M324-8Q254-8 200,20T116,98.5T86,216V690q0,10 10,10h51q10,0 10-10V214q0-71 46-115.5T324,54T445,98.5T491,214V690q0,10 10,10h51q10,0 10-10V216q0-67-29.5-117.5T449,20T324-8Z" />
      <glyph unicode="V" glyph-name="V" horiz-adv-x="589" d="M266,0q-9,0-12,8L36,689l-1,4q0,7 9,7H98q9,0 12-8L292,106q1-2 3-2t3,2L480,692q3,8 12,8h53q11,0 8-11L333,8q-3-8-12-8H266Z" />
      <glyph unicode="W" glyph-name="W" horiz-adv-x="878" d="M231,0q-8,0-11,8L28,689l-1,3q0,8 10,8H90q9,0 11-8L253,144q1-2 2.5-2t2.5,2L399,691q2,9 11,9h54q9,0 11-9L622,144q1-2 2.5-2t2.5,2L779,692q2,8 11,8h51q5,0 7.5-3t1.5-8L661,8q-2-8-11-8H597q-9,0-11,9L440,569q-1,2-2.5,2t-2.5-2L292,9q-1-9-11-9H231Z" />
      <glyph unicode="X" glyph-name="X" horiz-adv-x="589" d="M46,0q-6,0-7.5,3.5T40,12L250,347q2,3 0,6L40,688q-2,4-2,6q0,6 8,6h56q7,0 12-7L292,408q1-1 3-1t3,1L475,693q5,7 12,7h55q6,0 7.5-3.5T548,688L339,352q-1-3 0-6L548,12q2-4 2-6q0-6-8-6H487q-7,0-12,7L298,291q-1,2-3,2t-3-2L114,7q-5-7-12-7H46Z" />
      <glyph unicode="Y" glyph-name="Y" horiz-adv-x="567" d="M258,1q-10,0-10,10V307q0,4-1,5L39,688q-2,4-2,6q0,6 9,6h54q9,0 12-7L280,388q1-1 3-1t3,1L455,693q4,7 12,7h54q6,0 8-3.5t-1-8.5L320,312q-1-1-1-5V11q0-10-10-10H258Z" />
      <glyph unicode="Z" glyph-name="Z" horiz-adv-x="549" d="M55,0Q45,0 45,10V58q0,5 4,13L415,633q1,1 0,3t-3,2H55q-10,0-10,10v42q0,10 10,10H486q10,0 10-10V642q0-5-4-13L127,67q-1-1 0-3t3-2H486q10,0 10-10V10q0-10-10-10H55Z" />
      <glyph unicode="[" glyph-name="bracketleft" horiz-adv-x="380" d="M42-121q-10,0-10,10V764q0,10 10,10H235q10,0 10-10V722q0-10-10-10H107q-4,0-4-4V-55q0-4 4-4H236q10,0 10-10v-42q0-10-10-10H42Z" />
      <glyph unicode="\" glyph-name="backslash" horiz-adv-x="400" d="M369,7q0-7-9-7H310q-9,0-12,8L76,689l-1,4q0,7 9,7h50q9,0 12-8L368,11l1-4Z" />
      <glyph unicode="]" glyph-name="bracketright" horiz-adv-x="380" d="M347-111q0-10-10-10H144q-10,0-10,10v42q0,10 10,10H272q4,0 4,4V708q0,4-4,4H145q-10,0-10,10v42q0,10 10,10H337q10,0 10-10V-111Z" />
      <glyph unicode="^" glyph-name="asciicircum" horiz-adv-x="450" d="M51,307q-5,0-7,3.5t0,8.5L190,692q3,8 11,8h47q8,0 11-8L406,319q1-2 1-5q0-7-8-7H357q-8,0-11,8L228,623q-1,3-3,3t-3-3L104,315q-3-8-11-8H51Z" />
      <glyph unicode="_" glyph-name="underscore" horiz-adv-x="484" d="M39,0Q29,0 29,10V47q0,10 10,10H445q10,0 10-10V10q0-10-10-10H39Z" />
      <glyph unicode="`" glyph-name="grave" horiz-adv-x="195" d="M160,584q2-4 2-6q0-6-9-6H117q-7,0-12,7L37,688q-2,4-2,6q0,6 8,6H88q9,0 12-7l60-109Z" />
      <glyph unicode="a" glyph-name="a" horiz-adv-x="511" d="M255,514q90,0 139-46t49-122V10q0-10-10-10H382q-10,0-10,10V51q0,2-1.5,3T367,53Q342,23 302,7.5T213-8Q142-8 94,28T46,138q0,75 54.5,118.5T252,300H368q4,0 4,4v38q0,51-28.5,80.5T255,452q-48,0-78-18.5T140,382q-3-10-12-9l-54,7q-11,2-9,8q8,56 60,91t130,35ZM227,53q59,0 102,29.5T372,162v78q0,4-4,4H263q-66,0-106-27t-40-75q0-44 30.5-66.5T227,53Z" />
      <glyph unicode="b" glyph-name="b" horiz-adv-x="546" d="M469,377q12-45 12-124q0-82-14-127q-19-62-66-98T284-8Q244-8 211,8T156,54q-1,2-3,1.5T151,53V10q0-10-10-10H90Q80,0 80,10V690q0,10 10,10h51q10,0 10-10V454q0-2 1.5-2.5T156,453q22,29 55,45t73,16q71,0 119-36.5T469,377ZM392,132q10,21 14,47.5t4,73.5q0,49-5.5,76.5T387,379q-13,33-42,53t-69,20q-38,0-65.5-20.5T171,377q-10-21-14.5-48T152,253q0-48 4.5-74.5T170,131q13-35 40-56t67-21q42,0 72.5,21T392,132Z" />
      <glyph unicode="c" glyph-name="c" horiz-adv-x="520" d="M271-8Q199-8 147.5,29.5T77,131Q64,175 64,255q0,72 13,122q18,62 70,99.5T271,514q73,0 126.5-37T467,385q5-18 6-30v-2q0-7-9-9l-50-7h-2q-7,0-9,9l-3,15q-9,38-44,64.5T271,452t-83.5-26.5T144,355q-9-38-9-101q0-66 9-102q10-45 43.5-71.5T271,54q49,0 84.5,25.5T400,145v4l1,4q1,10 12,8l49-8q10-2 9-11l-4-20q-15-58-69-94T271-8Z" />
      <glyph unicode="d" glyph-name="d" horiz-adv-x="546" d="M394,690q0,10 10,10h51q10,0 10-10V10q0-10-10-10H404q-10,0-10,10V52q0,2-1.5,2.5T389,53Q367,24 334.5,8T262-8Q192-8 144.5,28T79,126Q65,171 65,253q0,83 12,124q18,64 66,100.5T262,514q39,0 72-15.5T389,454q2-2 3.5-1.5T394,455V690ZM376,131q9,20 13,47t4,75t-4,75.5T375,377q-12,34-39.5,54.5T270,452q-40,0-69-20t-42-53q-12-22-17.5-49.5T136,253q0-47 4-73.5T154,132q12-36 42.5-57T269,54q40,0 67,21t40,56Z" />
      <glyph unicode="e" glyph-name="e" horiz-adv-x="533" d="M468,338q4-28 4-70V236q0-10-10-10H139q-4,0-4-4q2-55 6-71q11-45 47-71t92-26q42,0 74,19t50,54q6,9 14,4l39-23q8-5 4-14q-25-48-75-75.5T271-9Q200-8 152,25T83,117Q65,165 65,255q0,42 1.5,68.5T74,371q17,65 68.5,104T267,514q91,0 140-46t61-130ZM267,452q-49,0-81.5-25.5T143,358q-6-21-8-68q0-4 4-4H398q4,0 4,4q-2,45-6,64q-11,45-44.5,71.5T267,452Z" />
      <glyph unicode="f" glyph-name="f" horiz-adv-x="356" d="M280,638q-55,0-75-24.5T185,530V510q0-4 4-4H301q10,0 10-10V451q0-10-10-10H189q-4,0-4-4V10q0-10-10-10H125q-10,0-10,10V437q0,4-4,4H44q-10,0-10,10v45q0,10 10,10h67q4,0 4,4v24q0,62 14,97.5t48.5,52T274,700h29q10,0 10-10V648q0-10-10-10H280Z" />
      <glyph unicode="g" glyph-name="g" horiz-adv-x="535" d="M392,496q0,10 10,10h51q10,0 10-10V17q0-112-64.5-164T221-199q-23,0-35,1q-10,1-10,11l2,46q0,5 3,7.5t7,1.5l27-1q93,0 135,36.5T392,19V56q0,2-1.5,2.5T387,57Q341-3 256-3Q191-3 140.5,32T73,131Q61,172 61,253q0,44 2.5,74T74,381q18,60 65,96.5T252,514q89,0 135-59q2-2 3.5-1t1.5,3v39Zm-5-343q3,15 4,37t1,64q0,51-1,68.5T386,355q-8,42-39.5,69.5T267,452q-47,0-79.5-27T142,355q-10-32-10-100q0-73 10-101q10-42 43.5-69.5T267,57q49,0 80.5,27T387,153Z" />
      <glyph unicode="h" glyph-name="h" horiz-adv-x="539" d="M290,513q80,0 127.5-47T465,340V10q0-10-10-10H404q-10,0-10,10V326q0,55-33.5,90T274,451q-55,0-89-34t-34-89V10q0-10-10-10H90Q80,0 80,10V690q0,10 10,10h51q10,0 10-10V453q0-2 1.5-3t2.5,1q44,62 135,62Z" />
      <glyph unicode="i" glyph-name="i" horiz-adv-x="255" d="M128,598q-24,0-40,16T72,654q0,25 16,40.5T128,710t40-15.5T184,654q0-24-16-40t-40-16ZM100,1Q90,1 90,11V497q0,10 10,10h51q10,0 10-10V11q0-10-10-10H100Z" />
      <glyph unicode="j" glyph-name="j" horiz-adv-x="245" d="M118,598q-25,0-40.5,16T62,654q0,25 15.5,40.5T118,710q24,0 40-15.5T174,654q0-24-16-40t-40-16ZM-25-208q-10,0-10,10v41q0,10 10,10Q82-146 82-44V496q0,10 10,10h51q10,0 10-10V-44q0-85-42-124T-25-208Z" />
      <glyph unicode="k" glyph-name="k" horiz-adv-x="501" d="M90,0Q80,0 80,10V690q0,10 10,10h51q10,0 10-10V281q0-2 1.5-3t3.5,1L368,501q5,5 12,5h60q6,0 8-4t-2-8L318,352q-2-2-1-5L470,12l1-4q0-8-9-8H408q-8,0-11,8L268,300q-2,4-5,1L153,185q-2-2-2-5V10q0-10-10-10H90Z" />
      <glyph unicode="l" glyph-name="l" horiz-adv-x="230" d="M90,0Q80,0 80,10V690q0,10 10,10h51q10,0 10-10V10q0-10-10-10H90Z" />
      <glyph unicode="m" glyph-name="m" horiz-adv-x="827" d="M592,513q75,0 118.5-45T754,345V10q0-10-10-10H694q-10,0-10,10V331q0,55-31.5,87.5T570,451q-53,0-85.5-32T452,333V10q0-10-10-10H391q-10,0-10,10V331q0,55-31,87.5T267,451q-53,0-84.5-32T151,333V10q0-10-10-10H90Q80,0 80,10V496q0,10 10,10h51q10,0 10-10V456q0-2 1.5-2.5T156,455q22,29 56.5,43.5T289,513q52,0 89-21t56-61q2-5 5,0q22,41 62,61.5T592,513Z" />
      <glyph unicode="n" glyph-name="n" horiz-adv-x="539" d="M290,513q80,0 127.5-47T465,340V10q0-10-10-10H404q-10,0-10,10V326q0,55-33.5,90T274,451q-55,0-89-34t-34-89V10q0-10-10-10H90Q80,0 80,10V496q0,10 10,10h51q10,0 10-10V453q0-2 1.5-3t2.5,1q44,62 135,62Z" />
      <glyph unicode="o" glyph-name="o" horiz-adv-x="545" d="M273-8Q201-8 149,29T77,131Q63,177 63,254T77,376q19,64 71,101t126,37q71,0 122.5-37T467,377q14-43 14-123q0-81-14-123Q448,66 396.5,29T273-8Zm0,62q48,0 82,26.5T401,152q9,36 9,101q0,66-8,101q-12,45-46.5,71.5T272,452t-83-26.5T143,354q-8-35-8-101t8-101q11-45 45.5-71.5T273,54Z" />
      <glyph unicode="p" glyph-name="p" horiz-adv-x="552" d="M473,380q15-48 15-127q0-80-13-124Q457,65 409.5,28.5T290-8Q251-8 218,7.5T163,52q-2,2-3.5,1.5T158,51V-184q0-10-10-10H97q-10,0-10,10V496q0,10 10,10h51q10,0 10-10V454q0-2 1.5-2.5T163,453q22,29 54.5,45T290,514q70,0 117.5-36T473,380ZM394,127q11,22 16.5,49.5T416,253q0,47-4,73.5T398,374q-12,36-42.5,57T283,452q-40,0-67-21t-40-56q-9-20-13-47t-4-75t4-75.5T177,129q12-34 39.5-54.5T282,54q40,0 69.5,20T394,127Z" />
      <glyph unicode="q" glyph-name="q" horiz-adv-x="552" d="M394,496q0,10 10,10h51q10,0 10-10V-184q0-10-10-10H404q-10,0-10,10V51q0,2-1.5,2.5T389,52Q367,23 334,7.5T262-8Q191-8 143,28.5T77,129Q65,170 65,253q0,82 14,127q18,62 65.5,98T262,514q40,0 72.5-16T389,453q2-2 3.5-1.5T394,454v42ZM375,129q10,21 14,48.5t4,75.5t-4,75t-13,47q-13,35-40,56t-67,21q-42,0-72.5-21T154,374q-10-21-14-47.5T136,253q0-49 5.5-76.5T159,127q13-33 42-53t69-20q38,0 65.5,20.5T375,129Z" />
      <glyph unicode="r" glyph-name="r" horiz-adv-x="364" d="M284,511q33,0 57-13q8-4 6-13l-11-49q-3-10-13-6q-17,7-39,7l-13-1q-52-2-86-38.5T151,305V10q0-10-10-10H90Q80,0 80,10V496q0,10 10,10h51q10,0 10-10V435q0-3 1.5-3.5T155,433q21,37 53.5,57.5T284,511Z" />
      <glyph unicode="s" glyph-name="s" horiz-adv-x="481" d="M246-5q-56,0-99.5,18t-67,48T56,128v12q0,10 10,10h48q10,0 10-10v-8q0-33 34.5-57.5T245,50t84,23.5T361,133q0,25-16.5,41t-39,25T236,222q-56,16-92,32T83.5,298.5T59,371q0,64 50,102t132,38q55,0 97.5-18T404,443.5T427,373v-3q0-10-10-10H370q-10,0-10,10v3q0,34-32.5,57T240,453q-51,0-82-20.5T127,376q0-34 30-52t93-36q58-17 94-32t62-43.5T432,138q0-65-51-104T246-5Z" />
      <glyph unicode="t" glyph-name="t" horiz-adv-x="364" d="M307,457q0-10-10-10H184q-4,0-4-4V148q0-48 21.5-67.5T269,61h25q10,0 10-10V10q0-10-10-10q-12-1-37-1Q185-1 148,26T111,126V443q0,4-4,4H46q-10,0-10,10v39q0,10 10,10h61q4,0 4,4V626q0,10 10,10h49q10,0 10-10V510q0-4 4-4H297q10,0 10-10V457Z" />
      <glyph unicode="u" glyph-name="u" horiz-adv-x="536" d="M386,496q0,10 10,10h51q10,0 10-10V10q0-10-10-10H396q-10,0-10,10V53q0,2-2,3t-3-1Q339-7 248-7q-48,0-88.5,19.5T95.5,69T72,158V496q0,10 10,10h51q10,0 10-10V179q0-57 32-90.5T262,55q57,0 90.5,34T386,179V496Z" />
      <glyph unicode="v" glyph-name="v" horiz-adv-x="475" d="M209,0q-9,0-12,8L33,495l-1,4q0,7 9,7H98q9,0 12-8L235,106q1-2 3-2t3,2L366,498q3,8 12,8l57-1q11,0 8-11L279,8q-3-8-12-8H209Z" />
      <glyph unicode="w" glyph-name="w" horiz-adv-x="721" d="M185,0q-8,0-11,8L32,495l-1,3q0,8 10,8H93q9,0 11-9L210,103q1-2 2.5-2t2.5,2L323,497q2,9 11,9h48q9,0 11-8L502,104q1-2 3-2t3,2L617,497q2,9 11,9l52-1q5,0 7.5-3t1.5-8L545,8q-3-8-11-8H481q-8,0-11,8L361,382q-1,2-2.5,2t-2.5-2L250,8q-3-8-11-8H185Z" />
      <glyph unicode="x" glyph-name="x" horiz-adv-x="477" d="M37,0q-6,0-8.5,4T30,12L197,250q2,3 0,6L30,494q-2,2-2,5q0,7 9,7H91q8,0 12-6L234,311q1-1 3-1t3,1L370,500q4,6 12,6h59q6,0 8-3.5t-2-8.5L280,256q-1-3 0-6L447,12q2-2 2-6q0-2-2-4t-6-2H386q-8,0-12,6L244,195q-1,2-3,2t-3-2L106,6q-4-6-12-6H37Z" />
      <glyph unicode="y" glyph-name="y" horiz-adv-x="461" d="M57-200q-7,0-7,10v40q0,10 10,10h4q39,1 60.5,11.5t37,39T195-3q2,4 0,6L26,495l-1,4q0,7 9,7H87q9,0 12-8L229,94q1-2 3-2t3,2L363,498q3,8 12,8h52q11,0 8-11L250-44q-24-67-45-99t-52.5-44.5T64-200H57Z" />
      <glyph unicode="z" glyph-name="z" horiz-adv-x="445" d="M44,0Q34,0 34,10V58q0,7 4,12L322,436q2,2 1,3.5t-3,1.5H48q-10,0-10,10v45q0,10 10,10H399q10,0 10-10V448q0-7-4-12L118,70q-2-2-1-3.5t3-1.5H399q10,0 10-10V10q0-10-10-10H44Z" />
      <glyph unicode="{" glyph-name="braceleft" horiz-adv-x="302" d="M197-121q-53,0-78,27.5T94-7V210q0,43-12.5,64T41,300q-9,2-9,10v40q0,9 9,10q28,4 40.5,25.5T94,449V661q0,58 25,85.5T197,774h63q10,0 10-10V722q0-10-10-10H222q-29,0-43-18t-14-56V444q0-46-11.5-72.5T116,332q-5-2 0-5q26-13 37.5-39.5T165,215V16q0-75 57-75h38q10,0 10-10v-42q0-10-10-10H197Z" />
      <glyph unicode="|" glyph-name="bar" horiz-adv-x="166" d="M57-80Q47-80 47-70V750q0,10 10,10h51q10,0 10-10V-70q0-10-10-10H57Z" />
      <glyph unicode="}" glyph-name="braceright" horiz-adv-x="302" d="M42-121q-10,0-10,10v42q0,10 10,10H80q57,0 57,75V215q0,46 12,72.5T187,327q5,3 0,5q-26,13-38,39.5T137,444V638q0,38-14,56T80,712H42q-10,0-10,10v42q0,10 10,10h63q53,0 78-27.5T208,661V449q0-42 13-63t40-26q9-1 9-10V310q0-8-9-10q-27-5-40-26.5T208,210V-7q0-59-25-86.5T105-121H42Z" />
      <glyph unicode="~" glyph-name="asciitilde" horiz-adv-x="501" d="M345,231q-30,0-51,8.5T243,265q-23,12-40.5,19T164,291q-49,0-76-41q-2-4-6-5t-8,2L46,266q-7,6-3,13q15,34 47,54.5T162,354q25,0 43.5-6.5T248,328q5-3 22.5-13T306,299.5t36-5.5q22,0 35.5,10T408,334q6,8 14,3l32-21q8-6 4-13q-19-33-47.5-52.5T345,231Z" />
      <glyph unicode="&#xa0;" glyph-name="uni00A0" horiz-adv-x="200" />
      <glyph unicode="&#xa1;" glyph-name="exclamdown" horiz-adv-x="319" d="M157,708q25,0 40.5-16T213,652q0-25-15.5-40.5T157,596q-24,0-39.5,15.5T102,652q0,24 15.5,40T157,708ZM131,473q0,10 10,10h40q10,0 10-10l6-451q0-10-10-10H136q-10,0-10,10l5,451Z" />
      <glyph unicode="&#xa2;" glyph-name="cent" horiz-adv-x="520" d="M400,239l1,4q1,10 12,8l49-8q10-2 9-11l-4-20q-14-53-60.5-87.5T296,83q-4,0-4-4l1-71q0-10-10-10H239Q229-2 229,8l1,73q0,4-4,5q-56,11-94.5,46.5T77,221Q64,265 64,345q0,72 13,122q15,52 54,87t94,45q4,1 4,5l-1,73q0,10 10,10h44q10,0 10-10l-1-70q0-4 4-4q65-7 111-42.5T467,475q5-18 6-30v-2q0-7-9-9l-50-7h-2q-7,0-9,9l-3,15q-9,38-44,64.5T271,542t-83.5-26.5T144,445q-9-38-9-101q0-66 9-102q10-45 43.5-71.5T271,144q49,0 84.5,25.5T400,235v4Z" />
      <glyph unicode="&#xa3;" glyph-name="sterling" horiz-adv-x="606" d="M210,67q-3-5 2-5H562q10,0 10-10V10q0-10-10-10H134q-10,0-10,10V54q0,8 7,12q25,15 39,47t14,74V304q0,4-4,4H104q-10,0-10,10v39q0,10 10,10h76q4,0 4,4V512q0,92 54,144t149,52q66,0 111-34.5T564,575l1-4q0-6-8-8l-49-9h-3q-6,0-9,7q-15,44-42.5,64.5T385,646q-62,0-96-34t-34-99V371q0-4 4-4H451q10,0 10-10V318q0-10-10-10H259q-4,0-4-4V189q0-79-45-122Z" />
      <glyph unicode="&#xa4;" glyph-name="currency" horiz-adv-x="521" d="M456,301q0-63-36-112q-2-3 1-6l65-65q3-3 3-6q0-4-4-8L453,76q-3-3-6-3q-4,0-8,4l-62,62q-3,3-6,1q-50-36-114-36q-61,0-110,33q-3,2-6-1L82,77q-3-3-7-3.5T68,76L36,104q-7,8-1,14l61,60q3,3 1,6Q58,235 58,301q0,64 36,114q2,3-1,6L29,485q-3,3-3,6q0,4 4,8l31,28q3,3 6,3q4,0 8-4l61-61q3-3 6-1q50,36 115,36t118-40q3-2 6,1l65,65q3,3 7,3.5t7-2.5l32-28q8-7 1-14l-69-68q-3-3-1-6q33-49 33-110Zm-336,0q0-36 18.5-67t50-49.5T257,166t68,18t50,49t19,68t-19,68.5t-50.5,50T257,438q-37,0-68.5-18.5t-50-50T120,301Z" />
      <glyph unicode="&#xa5;" glyph-name="yen" horiz-adv-x="688" d="M583,700q6,0 8-3.5t-1-8.5L400,344q-1-2-0.5-3.5T402,339H519q10,0 10-10V306q0-10-10-10H385q-4,0-4-4V210q0-4 4-4H519q10,0 10-10V172q0-10-10-10H385q-4,0-4-4V11q0-10-10-10H320q-10,0-10,10V158q0,4-4,4H167q-10,0-10,10v24q0,10 10,10H306q4,0 4,4v82q0,4-4,4H167q-10,0-10,10v23q0,10 10,10H289q2,0 2.5,1.5T291,344L101,688q-2,4-2,6q0,6 9,6h54q9,0 12-7L342,388q1-1 3-1t3,1L517,693q4,7 12,7h54Z" />
      <glyph unicode="&#xa6;" glyph-name="brokenbar" horiz-adv-x="166" d="M57,398q-10,0-10,10V750q0,10 10,10h51q10,0 10-10V408q0-10-10-10H57ZM57-80Q47-80 47-70V272q0,10 10,10h51q10,0 10-10V-70q0-10-10-10H57Z" />
      <glyph unicode="&#xa7;" glyph-name="section" horiz-adv-x="453" d="M224-207q-73,0-116,44T63-44L62-21q0,10 10,10h51q10,0 10-10V-34q1-52 26.5-82T227-146q41,0 68,30t27,73q0,36-18,58.5t-43,34T194,75q-44,15-72.5,32.5T75,155q-23,38-23,88q0,55 27,97q30,45 80,58q3,1 3,2t-3,2q-43,18-71,57.5T60,549q0,42 21,78.5t59,58T227,707q71,0 116.5-44.5T391,548V531q0-10-10-10H330q-10,0-10,10v11q0,45-26.5,74.5T227,646q-42,0-69-31t-27-74q0-44 32-71t91-46q33-10 61-24.5T364,360q34-41 34-105q0-58-25-98q-13-23-32.5-38.5T297,98q-5-1-1-4q46-20 72-56t26-87q0-45-22-81t-60.5-56.5T224-207Zm1,345q59,0 86,44q16,26 16,66q0,46-21,73q-30,38-80,38q-27,0-50.5-14.5T139,307q-16-29-16-62q0-39 16-62q29-45 86-45Z" />
      <glyph unicode="&#xa8;" glyph-name="dieresis" horiz-adv-x="341" d="M256,601q-25,0-40.5,16T200,657q0,25 15.5,40.5T256,713q24,0 40-15.5T312,657q0-24-16-40t-40-16ZM85,601q-25,0-40.5,16T29,657q0,25 15.5,40.5T85,713q24,0 40-15.5T141,657q0-24-16-40T85,601Z" />
      <glyph unicode="&#xa9;" glyph-name="copyright" horiz-adv-x="869" d="M434-8Q331-8 248.5,38.5T119,167T72,350t47,183T248.5,661.5T434,708t186-46.5T749.5,533T796,350T749.5,167T620,38.5T434-8Zm0,51q88,0 158.5,40T703,193t40,156q0,87-40,157.5T592.5,617T434,657q-89,0-159.5-40t-110-110.5T125,349q0-86 39.5-156t110-110T434,43Zm1,128q-50,0-80,28t-30,75V427q0,47 30,74.5T435,529t80-27t30-72v-1q0-10-10-10l-24,1q-10,0-10,10v1q0,27-18.5,43.5T435,491q-30,0-48-16.5T369,431V269q0-27 18-43.5T435,209q29,0 47.5,16.5T501,269v1q0,10 10,10l24,1q10,0 10-10q0-45-30.5-72.5T435,171Z" />
      <glyph unicode="&#xaa;" glyph-name="ordfeminine" horiz-adv-x="324" d="M234,564q4,0 4,4v24q0,35-20.5,56T157,669q-30,0-50.5-12.5T81,623q-3-9-12-8l-24,3q-10,2-9,11q7,35 40.5,57T158,708q58,0 91.5-30.5T283,597V379q0-10-10-10H248q-10,0-10,10v21q0,2-1.5,3t-3.5-1q-31-39-99-39q-49,0-80,23.5T23,456q0,50 37,79t100,29h74ZM141,400q40,0 68.5,20T238,475v48q0,4-4,4H164q-44,0-70-17T68,460q0-30 20-45t53-15ZM23,290q0,10 10,10H281q10,0 10-10V258q0-10-10-10H33q-10,0-10,10v32Z" />
      <glyph unicode="&#xab;" glyph-name="guillemotleft" horiz-adv-x="540" d="M281,119q2-2 2-6q0-6-8-6H226q-8,0-13,6L88,274q-2,3-2,7t2,7L213,449q5,6 13,6h49q6,0 8-3.5t-2-8.5L156,284q-1-3 0-6L281,119Zm158,0q2-2 2-6q0-2-2-4t-6-2H384q-8,0-13,6L246,274q-2,3-2,7t2,7L371,449q5,6 13,6h49q6,0 8-3.5t-2-8.5L315,284q-1-3 0-6L439,119Z" />
      <glyph unicode="&#xac;" glyph-name="logicalnot" horiz-adv-x="500" d="M39,334q0,10 10,10H451q10,0 10-10V172q0-10-10-10H408q-10,0-10,10V278q0,4-4,4H49q-10,0-10,10v42Z" />
      <glyph unicode="&#xad;" glyph-name="uni00AD" horiz-adv-x="394" d="M49,280q-10,0-10,10v42q0,10 10,10H345q10,0 10-10V290q0-10-10-10H49Z" />
      <glyph unicode="&#xae;" glyph-name="registered" horiz-adv-x="451" d="M226,714q54,0 99-26t71-70.5T422,520q0-54-26-99t-71-71t-99-26t-99.5,26T55,421T29,520q0,53 26.5,97.5T127,688t99,26Zm0-353q44,0 80.5,21T364,439.5T385,520q0,43-21,79t-57.5,57T226,677t-80.5-21T88,599T67,520q0-44 21-80.5T145.5,382T226,361Zm63,194q0-16-7-28t-19-17q-4-3-3-6l26-63l1-4q0-8-9-8H265q-8,0-11,8l-25,64q-1,3-4,3H209q-4,0-4-4V439q0-10-10-10H184q-10,0-10,10V598q0,10 10,10h53q23,0 37.5-15T289,555Zm-80,26q-4,0-4-4V532q0-4 4-4h23q12,0 19,7.5t7,18.5q0,13-7,20t-19,7H209Z" />
      <glyph unicode="&#xaf;" glyph-name="macron" horiz-adv-x="269" d="M10,594Q0,594 0,604v31q0,10 10,10H259q10,0 10-10V604q0-10-10-10H10Z" />
      <glyph unicode="&#xb0;" glyph-name="degree" horiz-adv-x="381" d="M190,487q-44,0-81,21.5t-58.5,58T29,648q0,44 21.5,81T109,787t81,21q45,0 82-21t58.5-58T352,648q0-45-21.5-82T272,508t-82-21Zm0,50q47,0 79,32t32,79t-32,79t-79,32q-46,0-78.5-32.5T79,648q0-47 32.5-79T190,537Z" />
      <glyph unicode="&#xb1;" glyph-name="plusminus" horiz-adv-x="500" d="M451,383q10,0 10-10V331q0-10-10-10H285q-4,0-4-4V155q0-10-10-10H229q-10,0-10,10V317q0,4-4,4H49q-10,0-10,10v42q0,10 10,10H215q4,0 4,4V557q0,10 10,10h42q10,0 10-10V387q0-4 4-4H451ZM49,0Q39,0 39,10V52q0,10 10,10H451q10,0 10-10V10q0-10-10-10H49Z" />
      <glyph unicode="&#xb2;" glyph-name="uni00B2" horiz-adv-x="326" d="M46,442q-10,0-10,10v27q0,7 5,12q44,51 116,138l17,21q57,68 57,107q0,29-20.5,47T157,822q-32,0-52-18T86,756V742q0-10-10-10H45q-10,0-10,10v21q1,47 35.5,75.5T157,867q56,0 90-31t34-78q0-50-54-121q-63-81-121-146q-3-5 2-5H284q10,0 10-10V452q0-10-10-10H46Z" />
      <glyph unicode="&#xb3;" glyph-name="uni00B3" horiz-adv-x="322" d="M269,646q15-30 15-76q0-41-14-71q-14-31-42.5-47.5T160,435q-42,0-72.5,22T44,517q-5,13-7,42q0,10 10,10H78q10,0 10-10q2-21 4-27q5-23 23.5-37.5T160,480q43,0 61,35q12,23 12,56q0,39-13,62q-18,35-60,35q-11,0-19-4q-2-1-5-1q-5,0-9,4l-14,18q-3,3-3,7t3,7L214,811q1,2 0,3.5t-3,1.5H51q-10,0-10,10v24q0,10 10,10H271q10,0 10-10V823q0-5-5-12L186,706q-3-3 3-5q56-6 80-55Z" />
      <glyph unicode="&#xb4;" glyph-name="acute" horiz-adv-x="195" d="M42,572q-6,0-8,3.5t1,8.5L95,693q3,7 12,7h45q6,0 7.5-3.5T158,688L90,579q-5-7-12-7H42Z" />
      <glyph unicode="&#xb5;" glyph-name="uni00B5" horiz-adv-x="546" d="M393,496q0,10 10,10h51q10,0 10-10V10q0-10-10-10H403q-10,0-10,10V53q0,2-2,3t-3-1Q346-7 256-7Q200-7 156,18q-2,1-3.5,0T151,15V-190q0-10-10-10H90q-10,0-10,10V496q0,10 10,10h51q10,0 10-10V160q5-49 36.5-77T269,55q57,0 90.5,34T393,179V496Z" />
      <glyph unicode="&#xb6;" glyph-name="paragraph" horiz-adv-x="577" d="M475,700q10,0 10-10V-190q0-10-10-10H441q-10,0-10,10V643q0,4-4,4H299q-4,0-4-4V-190q0-10-10-10H250q-10,0-10,10V246q0,4-4,4q-57,3-102.5,33.5T62,364T36,475q0,63 28,114.5t78,81T254,700H475Z" />
      <glyph unicode="&#xb7;" glyph-name="periodcentered" horiz-adv-x="210" d="M106,222q-25,0-40.5,16T50,278q0,25 15.5,40.5T106,334q24,0 40-15.5T162,278q0-24-16-40t-40-16Z" />
      <glyph unicode="&#xb8;" glyph-name="cedilla" horiz-adv-x="140" d="M9-181q-8,3-7,12l4,23q1,5 4.5,6.5T18-139q12-3 22-3q18,0 30.5,9T87-106q1,4 1,12q0,39-50,82q-4,3-4,7q0,5 8,5H68q8,0 13-4q59-48 59-101q0-14-2-21q-8-32-32.5-46T50-186q-21,0-41,5Z" />
      <glyph unicode="&#xb9;" glyph-name="uni00B9" horiz-adv-x="184" d="M82,860q5,2 12,2h35q10,0 10-10V452q0-10-10-10H98q-10,0-10,10V810q0,3-4,3l-50-9H32q-9,0-9,9v18q0,9 8,12l51,17Z" />
      <glyph unicode="&#xba;" glyph-name="ordmasculine" horiz-adv-x="349" d="M175,367q-46,0-78.5,24T50,458q-10,31-10,80t9,80q13,42 46,66t80,24q45,0 77.5-24T298,618q9-28 9-79q0-53-9-81q-13-42-45.5-66.5T175,367Zm0,43q29,0 49.5,17T252,472q6,19 6,66q0,46-5,65q-8,29-28.5,45.5T174,665t-50-16.5T96,603q-6-22-6-65t6-66q7-29 28-45.5T175,410ZM42,248q-10,0-10,10v34q0,10 10,10H307q10,0 10-10V258q0-10-10-10H42Z" />
      <glyph unicode="&#xbb;" glyph-name="guillemotright" horiz-adv-x="540" d="M110,107q-6,0-8,3.5t2,8.5L228,278q2,3 0,6L104,443q-2,2-2,6q0,2 2,4t6,2h48q9,0 13-6L297,288q2-3 2-7t-2-7L171,113q-4-6-13-6H110Zm158,0q-6,0-8,3.5t2,8.5L386,278q2,3 0,6L262,443q-2,2-2,6q0,2 2,4t6,2h48q9,0 13-6L455,288q2-3 2-7t-2-7L329,113q-4-6-13-6H268Z" />
      <glyph unicode="&#xbc;" glyph-name="onequarter" horiz-adv-x="806" d="M82,698q5,2 12,2h35q10,0 10-10V290q0-10-10-10H98q-10,0-10,10V648q0,3-4,3l-50-9H32q-9,0-9,9v18q0,9 8,12l51,17ZM113,0q-6,0-7.5,3.5T107,12L533,693q5,7 12,7h33q6,0 7.5-3.5T584,688L159,7q-5-7-12-7H113ZM750,159q10,0 10-10V123q0-10-10-10H730q-4,0-4-4V10q0-10-10-10H685q-10,0-10,10v99q0,4-4,4H496q-10,0-10,10v23q0,5 3,12L606,413q3,7 11,7h32q5,0 7.5-3.5T657,408L545,164q-1-2 0-3.5t3-1.5H671q4,0 4,4v88q0,10 10,10h31q10,0 10-10V163q0-4 4-4h20Z" />
      <glyph unicode="&#xbd;" glyph-name="onehalf" horiz-adv-x="796" d="M82,698q5,2 12,2h35q10,0 10-10V290q0-10-10-10H98q-10,0-10,10V648q0,3-4,3l-50-9H32q-9,0-9,9v18q0,9 8,12l51,17ZM113,0q-6,0-7.5,3.5T107,12L533,693q5,7 12,7h33q6,0 7.5-3.5T584,688L159,7q-5-7-12-7H113ZM504,0q-10,0-10,10V37q0,7 5,12q44,51 116,138l17,21q57,68 57,107q0,29-20.5,47T615,380q-32,0-52-18t-19-48V300q0-10-10-10H503q-10,0-10,10v21q1,47 35.5,75.5T615,425q56,0 90-31t34-78q0-50-54-121Q622,114 564,49q-3-5 2-5H742q10,0 10-10V10q0-10-10-10H504Z" />
      <glyph unicode="&#xbe;" glyph-name="threequarters" horiz-adv-x="901" d="M269,492q15-30 15-76q0-41-14-71q-14-31-42.5-47.5T160,281q-42,0-72.5,22T44,363q-5,13-7,42q0,10 10,10H78q10,0 10-10q2-21 4-27q5-23 23.5-37.5T160,326q43,0 61,35q12,23 12,56q0,39-13,62q-18,35-60,35q-11,0-19-4q-2-1-5-1q-5,0-9,4l-14,18q-3,3-3,7t3,7L214,657q1,2 0,3.5t-3,1.5H51q-10,0-10,10v24q0,10 10,10H271q10,0 10-10V669q0-5-5-12L186,552q-3-3 3-5q56-6 80-55ZM212,0q-6,0-7.5,3.5T206,12L632,693q5,7 12,7h33q6,0 7.5-3.5T683,688L258,7q-5-7-12-7H212ZM849,159q10,0 10-10V123q0-10-10-10H829q-4,0-4-4V10q0-10-10-10H784q-10,0-10,10v99q0,4-4,4H595q-10,0-10,10v23q0,5 3,12L705,413q3,7 11,7h32q5,0 7.5-3.5T756,408L644,164q-1-2 0-3.5t3-1.5H770q4,0 4,4v88q0,10 10,10h31q10,0 10-10V163q0-4 4-4h20Z" />
      <glyph unicode="&#xbf;" glyph-name="questiondown" horiz-adv-x="461" d="M249,498q25,0 40.5-16T305,442q0-25-15.5-40.5T249,386q-24,0-40,15.5T193,442q0,24 16,40t40,16Zm25-198q10,0 10-10V231q0-43-21.5-70.5T199,100q-29-24-45.5-40t-28-39T114-33q0-50 31.5-80.5T230-144q54,0 87,31t33,81V-1q0,10 10,10l51-3q10,0 10-10V-32q0-79-53-128T229-209q-85,0-136,48T42-33q0,44 14.5,76T91,95t53,46q34,26 51,46t17,48v55q0,10 10,10h52Z" />
      <glyph unicode="&#xc0;" glyph-name="Agrave" horiz-adv-x="607" d="M509,0q-9,0-12,8L457,134q-1,3-4,3H154q-3,0-4-3L110,8q-3-8-12-8H44Q33,0 36,11L257,692q3,8 12,8h68q9,0 12-8L571,11l1-4q0-7-9-7H509ZM170,200q-1-2 0.5-3.5T174,195H432q2,0 3.5,1.5T436,200L306,608q-1,2-3,2t-3-2L170,200ZM329,778q2-4 2-6q0-6-9-6H286q-7,0-12,7L206,882q-2,4-2,6q0,6 8,6h45q9,0 12-7l60-109Z" />
      <glyph unicode="&#xc1;" glyph-name="Aacute" horiz-adv-x="607" d="M509,0q-9,0-12,8L457,134q-1,3-4,3H154q-3,0-4-3L110,8q-3-8-12-8H44Q33,0 36,11L257,692q3,8 12,8h68q9,0 12-8L571,11l1-4q0-7-9-7H509ZM170,200q-1-2 0.5-3.5T174,195H432q2,0 3.5,1.5T436,200L306,608q-1,2-3,2t-3-2L170,200Zm99,566q-6,0-8,3.5t1,8.5l60,109q3,7 12,7h45q6,0 7.5-3.5T385,882L317,773q-5-7-12-7H269Z" />
      <glyph unicode="&#xc2;" glyph-name="Acircumflex" horiz-adv-x="607" d="M509,0q-9,0-12,8L457,134q-1,3-4,3H154q-3,0-4-3L110,8q-3-8-12-8H44Q33,0 36,11L257,692q3,8 12,8h68q9,0 12-8L571,11l1-4q0-7-9-7H509ZM170,200q-1-2 0.5-3.5T174,195H432q2,0 3.5,1.5T436,200L306,608q-1,2-3,2t-3-2L170,200Zm15,568q-6,0-8,3.5t2,8.5l80,108q4,6 13,6h58q9,0 13-6l81-108q2-2 2-6q0-2-2-4t-6-2H378q-9,0-13,6l-60,82q-1,2-3,2t-3-2l-61-82q-4-6-13-6H185Z" />
      <glyph unicode="&#xc3;" glyph-name="Atilde" horiz-adv-x="607" d="M509,0q-9,0-12,8L457,134q-1,3-4,3H154q-3,0-4-3L110,8q-3-8-12-8H44Q33,0 36,11L257,692q3,8 12,8h68q9,0 12-8L571,11l1-4q0-7-9-7H509ZM170,200q-1-2 0.5-3.5T174,195H432q2,0 3.5,1.5T436,200L306,608q-1,2-3,2t-3-2L170,200ZM365,797q-19,0-33,6t-29,16q-18,11-28,15t-22,4q-18,0-30.5-5.5T198,813q-6-9-14-2l-18,18q-7,7-2,14q33,49 86,49q16,0 28.5-5t23-10.5T315,869q4-2 14.5-8t19-9t16.5-3q33,0 53,28q6,10 14,2l18-17q7-7 1-15q-14-24-37.5-37T365,797Z" />
      <glyph unicode="&#xc4;" glyph-name="Adieresis" horiz-adv-x="607" d="M509,0q-9,0-12,8L457,134q-1,3-4,3H154q-3,0-4-3L110,8q-3-8-12-8H44Q33,0 36,11L257,692q3,8 12,8h68q9,0 12-8L571,11l1-4q0-7-9-7H509ZM170,200q-1-2 0.5-3.5T174,195H432q2,0 3.5,1.5T436,200L306,608q-1,2-3,2t-3-2L170,200ZM388,795q-25,0-40.5,16T332,851q0,25 15.5,40.5T388,907q24,0 40-15.5T444,851q0-24-16-40t-40-16Zm-171,0q-25,0-40.5,16T161,851q0,25 15.5,40.5T217,907q24,0 40-15.5T273,851q0-24-16-40t-40-16Z" />
      <glyph unicode="&#xc5;" glyph-name="Aring" horiz-adv-x="607" d="M509,0q-9,0-12,8L457,134q-1,3-4,3H154q-3,0-4-3L110,8q-3-8-12-8H44Q33,0 36,11L257,692q3,8 12,8h68q9,0 12-8L571,11l1-4q0-7-9-7H509ZM170,200q-1-2 0.5-3.5T174,195H432q2,0 3.5,1.5T436,200L306,608q-1,2-3,2t-3-2L170,200ZM303,773q-47,0-78.5,31T193,881q0,45 32,76.5T303,989t77.5-31.5T412,881q0-46-31.5-77T303,773Zm0,43q27,0 46.5,18.5T369,881t-19.5,47T303,947q-28,0-47.5-19T236,881t19.5-46.5T303,816Z" />
      <glyph unicode="&#xc6;" glyph-name="AE" horiz-adv-x="921" d="M863,648q0-10-10-10H512q-4,0-4-4V387q0-4 4-4H743q10,0 10-10V331q0-10-10-10H512q-4,0-4-4V66q0-4 4-4H853q10,0 10-10V10q0-10-10-10H447q-10,0-10,10V133q0,4-4,4H185q-2,0-4-3L115,7q-3-7-12-7H45q-5,0-7,3.5T38,12L397,693q3,7 12,7H853q10,0 10-10V648ZM215,200q-2-5 3-5H433q4,0 4,4V615q0,3-1.5,3t-3.5-2L215,200Z" />
      <glyph unicode="&#xc7;" glyph-name="Ccedilla" horiz-adv-x="607" d="M542,487q0-2-3-4t-7-2l-51-3q-10,0-10,9v3q0,71-45,113.5T307,646T188,603T143,490V210q0-70 45-113T307,54T426,96.5T471,210v2q0,9 10,9l51-3q10,0 10-9q0-65-29.5-114.5T430,18T307-9q-2,0 3-5q48-41 48-91q0-15-2-22q-8-32-32-46t-56-14q-21,0-41,5q-8,3-7,12l4,23q1,5 4.5,6.5T236-140q12-3 22-3q21,0 35,12t14,35T290-49T245-4q0,1-5,3Q162,16 117,73T72,213V488q0,65 29.5,115T184,680.5T307,708t123-27t82.5-76T542,492v-5Z" />
      <glyph unicode="&#xc8;" glyph-name="Egrave" horiz-adv-x="605" d="M547,648q0-10-10-10H169q-4,0-4-4V387q0-4 4-4H427q10,0 10-10V331q0-10-10-10H169q-4,0-4-4V66q0-4 4-4H537q10,0 10-10V10q0-10-10-10H104Q94,0 94,10V690q0,10 10,10H537q10,0 10-10V648ZM343,778q2-4 2-6q0-6-9-6H300q-7,0-12,7L220,882q-2,4-2,6q0,6 8,6h45q9,0 12-7l60-109Z" />
      <glyph unicode="&#xc9;" glyph-name="Eacute" horiz-adv-x="605" d="M547,648q0-10-10-10H169q-4,0-4-4V387q0-4 4-4H427q10,0 10-10V331q0-10-10-10H169q-4,0-4-4V66q0-4 4-4H537q10,0 10-10V10q0-10-10-10H104Q94,0 94,10V690q0,10 10,10H537q10,0 10-10V648ZM283,766q-6,0-8,3.5t1,8.5l60,109q3,7 12,7h45q6,0 7.5-3.5T399,882L331,773q-5-7-12-7H283Z" />
      <glyph unicode="&#xca;" glyph-name="Ecircumflex" horiz-adv-x="605" d="M547,648q0-10-10-10H169q-4,0-4-4V387q0-4 4-4H427q10,0 10-10V331q0-10-10-10H169q-4,0-4-4V66q0-4 4-4H537q10,0 10-10V10q0-10-10-10H104Q94,0 94,10V690q0,10 10,10H537q10,0 10-10V648ZM199,768q-6,0-8,3.5t2,8.5l80,108q4,6 13,6h58q9,0 13-6l81-108q2-2 2-6q0-2-2-4t-6-2H392q-9,0-13,6l-60,82q-1,2-3,2t-3-2l-61-82q-4-6-13-6H199Z" />
      <glyph unicode="&#xcb;" glyph-name="Edieresis" horiz-adv-x="605" d="M547,648q0-10-10-10H169q-4,0-4-4V387q0-4 4-4H427q10,0 10-10V331q0-10-10-10H169q-4,0-4-4V66q0-4 4-4H537q10,0 10-10V10q0-10-10-10H104Q94,0 94,10V690q0,10 10,10H537q10,0 10-10V648ZM402,795q-25,0-40.5,16T346,851q0,25 15.5,40.5T402,907q24,0 40-15.5T458,851q0-24-16-40t-40-16Zm-171,0q-25,0-40.5,16T175,851q0,25 15.5,40.5T231,907q24,0 40-15.5T287,851q0-24-16-40t-40-16Z" />
      <glyph unicode="&#xcc;" glyph-name="Igrave" horiz-adv-x="259" d="M104,0Q94,0 94,10V690q0,10 10,10h51q10,0 10-10V10q0-10-10-10H104Zm52,778q2-4 2-6q0-6-9-6H113q-7,0-12,7L33,882q-2,4-2,6q0,6 8,6H84q9,0 12-7l60-109Z" />
      <glyph unicode="&#xcd;" glyph-name="Iacute" horiz-adv-x="259" d="M104,0Q94,0 94,10V690q0,10 10,10h51q10,0 10-10V10q0-10-10-10H104ZM96,766q-6,0-8,3.5t1,8.5l60,109q3,7 12,7h45q6,0 7.5-3.5T212,882L144,773q-5-7-12-7H96Z" />
      <glyph unicode="&#xce;" glyph-name="Icircumflex" horiz-adv-x="259" d="M104,0Q94,0 94,10V690q0,10 10,10h51q10,0 10-10V10q0-10-10-10H104ZM12,768q-6,0-8,3.5T6,780L86,888q4,6 13,6h58q9,0 13-6l81-108q2-2 2-6q0-2-2-4t-6-2H205q-9,0-13,6l-60,82q-1,2-3,2t-3-2L65,774q-4-6-13-6H12Z" />
      <glyph unicode="&#xcf;" glyph-name="Idieresis" horiz-adv-x="259" d="M104,0Q94,0 94,10V690q0,10 10,10h51q10,0 10-10V10q0-10-10-10H104ZM215,795q-25,0-40.5,16T159,851q0,25 15.5,40.5T215,907q24,0 40-15.5T271,851q0-24-16-40t-40-16ZM44,795q-25,0-40.5,16T-12,851q0,25 15.5,40.5T44,907q24,0 40-15.5T100,851q0-24-16-40T44,795Z" />
      <glyph unicode="&#xd0;" glyph-name="Eth" horiz-adv-x="683" d="M405,700q99,0 157.5-52T621,507V193q0-89-58.5-141T405,0H169q-10,0-10,10V334q0,4-4,4H104q-10,0-10,10v32q0,10 10,10h51q4,0 4,4V690q0,10 10,10H405ZM550,497q0,65-38,103T408,638H234q-4,0-4-4V394q0-4 4-4H353q10,0 10-10V348q0-10-10-10H234q-4,0-4-4V66q0-4 4-4H409q65,0 103,38t38,102V497Z" />
      <glyph unicode="&#xd1;" glyph-name="Ntilde" horiz-adv-x="676" d="M511,690q0,10 10,10h51q10,0 10-10V10q0-10-10-10H522q-7,0-12,7L169,562q-1,3-3,2.5t-2-3.5l1-551q0-10-10-10H104Q94,0 94,10V690q0,10 10,10h50q7,0 12-7L507,138q1-3 3-2.5t2,3.5l-1,551ZM399,797q-19,0-33,6t-29,16q-18,11-28,15t-22,4q-18,0-30.5-5.5T232,813q-6-9-14-2l-18,18q-7,7-2,14q33,49 86,49q16,0 28.5-5t23-10.5T349,869q4-2 14.5-8t19-9t16.5-3q33,0 53,28q6,10 14,2l18-17q7-7 1-15q-14-24-37.5-37T399,797Z" />
      <glyph unicode="&#xd2;" glyph-name="Ograve" horiz-adv-x="622" d="M310-8Q239-8 185,21t-83.5,81.5T72,224V476q0,69 29.5,121.5T185,679t125,29t125.5-29t84-81.5T549,476V224q0-69-29.5-121.5T435.5,21T310-8Zm0,61q76,0 122,46t46,122V477q0,76-46,122.5T310,646q-75,0-121-46.5T143,477V221q0-76 46-122T310,53Zm27,725q2-4 2-6q0-6-9-6H294q-7,0-12,7L214,882q-2,4-2,6q0,6 8,6h45q9,0 12-7l60-109Z" />
      <glyph unicode="&#xd3;" glyph-name="Oacute" horiz-adv-x="622" d="M310-8Q239-8 185,21t-83.5,81.5T72,224V476q0,69 29.5,121.5T185,679t125,29t125.5-29t84-81.5T549,476V224q0-69-29.5-121.5T435.5,21T310-8Zm0,61q76,0 122,46t46,122V477q0,76-46,122.5T310,646q-75,0-121-46.5T143,477V221q0-76 46-122T310,53ZM277,766q-6,0-8,3.5t1,8.5l60,109q3,7 12,7h45q6,0 7.5-3.5T393,882L325,773q-5-7-12-7H277Z" />
      <glyph unicode="&#xd4;" glyph-name="Ocircumflex" horiz-adv-x="622" d="M310-8Q239-8 185,21t-83.5,81.5T72,224V476q0,69 29.5,121.5T185,679t125,29t125.5-29t84-81.5T549,476V224q0-69-29.5-121.5T435.5,21T310-8Zm0,61q76,0 122,46t46,122V477q0,76-46,122.5T310,646q-75,0-121-46.5T143,477V221q0-76 46-122T310,53ZM193,768q-6,0-8,3.5t2,8.5l80,108q4,6 13,6h58q9,0 13-6l81-108q2-2 2-6q0-2-2-4t-6-2H386q-9,0-13,6l-60,82q-1,2-3,2t-3-2l-61-82q-4-6-13-6H193Z" />
      <glyph unicode="&#xd5;" glyph-name="Otilde" horiz-adv-x="622" d="M310-8Q239-8 185,21t-83.5,81.5T72,224V476q0,69 29.5,121.5T185,679t125,29t125.5-29t84-81.5T549,476V224q0-69-29.5-121.5T435.5,21T310-8Zm0,61q76,0 122,46t46,122V477q0,76-46,122.5T310,646q-75,0-121-46.5T143,477V221q0-76 46-122T310,53Zm63,744q-19,0-33,6t-29,16q-18,11-28,15t-22,4q-18,0-30.5-5.5T206,813q-6-9-14-2l-18,18q-7,7-2,14q33,49 86,49q16,0 28.5-5t23-10.5T323,869q4-2 14.5-8t19-9t16.5-3q33,0 53,28q6,10 14,2l18-17q7-7 1-15q-14-24-37.5-37T373,797Z" />
      <glyph unicode="&#xd6;" glyph-name="Odieresis" horiz-adv-x="622" d="M310-8Q239-8 185,21t-83.5,81.5T72,224V476q0,69 29.5,121.5T185,679t125,29t125.5-29t84-81.5T549,476V224q0-69-29.5-121.5T435.5,21T310-8Zm0,61q76,0 122,46t46,122V477q0,76-46,122.5T310,646q-75,0-121-46.5T143,477V221q0-76 46-122T310,53Zm86,742q-25,0-40.5,16T340,851q0,25 15.5,40.5T396,907q24,0 40-15.5T452,851q0-24-16-40t-40-16Zm-171,0q-25,0-40.5,16T169,851q0,25 15.5,40.5T225,907q24,0 40-15.5T281,851q0-24-16-40t-40-16Z" />
      <glyph unicode="&#xd7;" glyph-name="multiply" horiz-adv-x="422" d="M376,453q3-3 3-7t-3-7L259,322q-3-3 0-6L374,201q3-3 3-7t-3-7l-30-30q-3-3-7-3t-7,3L215,272q-3,3-6,0L92,155q-3-3-7-3t-7,3L48,184q-3,3-3,7t3,7L166,316q3,3 0,6L46,442q-3,3-3,7t3,7l29,29q3,3 7,3t7-3L209,365q3-3 6,0L333,483q3,3 7,3t7-3l29-30Z" />
      <glyph unicode="&#xd8;" glyph-name="Oslash" horiz-adv-x="622" d="M563,693q8-6 3-14l-48-73q-1-3 0-6q32-52 32-124V224q0-69-30-121.5T435.5,21T310-8Q219-8 154,41q-3,3-5-1L110-19q-5-8-13-3L58,3q-8,6-4,13l50,77q2,3 0,6Q73,152 73,224V476q0,69 29.5,121.5T186,679t124,29q93,0 158-49q3-3 5,1l38,57q2,4 6,5t8-2l38-27ZM144,221q0-26 6-50q1-2 3-2t3,2L432,595q2,3-1,6q-45,45-121,45q-75,0-120.5-46.5T144,477V221ZM479,477q0,26-6,51q-1,2-2.5,2t-3.5-2L190,103q-2-3 1-6q44-44 119-44q76,0 122.5,46T479,221V477Z" />
      <glyph unicode="&#xd9;" glyph-name="Ugrave" horiz-adv-x="648" d="M324-8Q254-8 200,20T116,98.5T86,216V690q0,10 10,10h51q10,0 10-10V214q0-71 46-115.5T324,54T445,98.5T491,214V690q0,10 10,10h51q10,0 10-10V216q0-67-29.5-117.5T449,20T324-8Zm27,786q2-4 2-6q0-6-9-6H308q-7,0-12,7L228,882q-2,4-2,6q0,6 8,6h45q9,0 12-7l60-109Z" />
      <glyph unicode="&#xda;" glyph-name="Uacute" horiz-adv-x="648" d="M324-8Q254-8 200,20T116,98.5T86,216V690q0,10 10,10h51q10,0 10-10V214q0-71 46-115.5T324,54T445,98.5T491,214V690q0,10 10,10h51q10,0 10-10V216q0-67-29.5-117.5T449,20T324-8ZM291,766q-6,0-8,3.5t1,8.5l60,109q3,7 12,7h45q6,0 7.5-3.5T407,882L339,773q-5-7-12-7H291Z" />
      <glyph unicode="&#xdb;" glyph-name="Ucircumflex" horiz-adv-x="648" d="M324-8Q254-8 200,20T116,98.5T86,216V690q0,10 10,10h51q10,0 10-10V214q0-71 46-115.5T324,54T445,98.5T491,214V690q0,10 10,10h51q10,0 10-10V216q0-67-29.5-117.5T449,20T324-8ZM207,768q-6,0-8,3.5t2,8.5l80,108q4,6 13,6h58q9,0 13-6l81-108q2-2 2-6q0-2-2-4t-6-2H400q-9,0-13,6l-60,82q-1,2-3,2t-3-2l-61-82q-4-6-13-6H207Z" />
      <glyph unicode="&#xdc;" glyph-name="Udieresis" horiz-adv-x="648" d="M324-8Q254-8 200,20T116,98.5T86,216V690q0,10 10,10h51q10,0 10-10V214q0-71 46-115.5T324,54T445,98.5T491,214V690q0,10 10,10h51q10,0 10-10V216q0-67-29.5-117.5T449,20T324-8Zm85,803q-25,0-40.5,16T353,851q0,25 15.5,40.5T409,907q24,0 40-15.5T465,851q0-24-16-40t-40-16Zm-171,0q-25,0-40.5,16T182,851q0,25 15.5,40.5T238,907q24,0 40-15.5T294,851q0-24-16-40t-40-16Z" />
      <glyph unicode="&#xdd;" glyph-name="Yacute" horiz-adv-x="567" d="M258,1q-10,0-10,10V307q0,4-1,5L39,688q-2,4-2,6q0,6 9,6h54q9,0 12-7L280,388q1-1 3-1t3,1L455,693q4,7 12,7h54q6,0 8-3.5t-1-8.5L320,312q-1-1-1-5V11q0-10-10-10H258Zm-8,764q-6,0-8,3.5t1,8.5l60,109q3,7 12,7h45q6,0 7.5-3.5T366,881L298,772q-5-7-12-7H250Z" />
      <glyph unicode="&#xde;" glyph-name="Thorn" horiz-adv-x="567" d="M335,543q88,0 142-53.5T531,349q0-57-25.5-100.5T435,181T333,157H162q-4,0-4-4V10q0-10-10-10H97Q87,0 87,10V690q0,10 10,10h51q10,0 10-10V547q0-4 4-4H335Zm-7-327q60,0 96,36t36,96q0,61-36,97t-96,36H162q-4,0-4-4V220q0-4 4-4H328Z" />
      <glyph unicode="&#xdf;" glyph-name="germandbls" horiz-adv-x="557" d="M90,0Q80,0 80,10V510q1,93 55,146t148,53q92,0 147.5-50.5T486,522q0-53-22.5-90.5T398,375q-2-1-2-2t2-2q45-19 70.5-65T494,197q0-93-57.5-145T274,0H212q-10,0-10,10V51q0,10 10,10h68q67,0 105,37t38,105q0,66-34.5,103T294,344H235q-10,0-10,10v37q0,10 10,10h58q58,0 90,31t32,86q0,60-34,94.5T285,647q-59,0-96-35t-38-97V10q0-10-10-10H90Z" />
      <glyph unicode="&#xe0;" glyph-name="agrave" horiz-adv-x="510" d="M255,514q90,0 139-46t49-122V10q0-10-10-10H382q-10,0-10,10V51q0,2-1.5,3T367,53Q342,23 302,7.5T213-8Q142-8 94,28T46,138q0,75 54.5,118.5T252,300H368q4,0 4,4v38q0,51-28.5,80.5T255,452q-48,0-78-18.5T140,382q-3-10-12-9l-54,7q-11,2-9,8q8,56 60,91t130,35ZM227,53q59,0 102,29.5T372,162v78q0,4-4,4H263q-66,0-106-27t-40-75q0-44 30.5-66.5T227,53Zm55,531q2-4 2-6q0-6-9-6H239q-7,0-12,7L159,688q-2,4-2,6q0,6 8,6h45q9,0 12-7l60-109Z" />
      <glyph unicode="&#xe1;" glyph-name="aacute" horiz-adv-x="510" d="M255,514q90,0 139-46t49-122V10q0-10-10-10H382q-10,0-10,10V51q0,2-1.5,3T367,53Q342,23 302,7.5T213-8Q142-8 94,28T46,138q0,75 54.5,118.5T252,300H368q4,0 4,4v38q0,51-28.5,80.5T255,452q-48,0-78-18.5T140,382q-3-10-12-9l-54,7q-11,2-9,8q8,56 60,91t130,35ZM227,53q59,0 102,29.5T372,162v78q0,4-4,4H263q-66,0-106-27t-40-75q0-44 30.5-66.5T227,53Zm-5,519q-6,0-8,3.5t1,8.5l60,109q3,7 12,7h45q6,0 7.5-3.5T338,688L270,579q-5-7-12-7H222Z" />
      <glyph unicode="&#xe2;" glyph-name="acircumflex" horiz-adv-x="510" d="M255,514q90,0 139-46t49-122V10q0-10-10-10H382q-10,0-10,10V51q0,2-1.5,3T367,53Q342,23 302,7.5T213-8Q142-8 94,28T46,138q0,75 54.5,118.5T252,300H368q4,0 4,4v38q0,51-28.5,80.5T255,452q-48,0-78-18.5T140,382q-3-10-12-9l-54,7q-11,2-9,8q8,56 60,91t130,35ZM227,53q59,0 102,29.5T372,162v78q0,4-4,4H263q-66,0-106-27t-40-75q0-44 30.5-66.5T227,53ZM138,574q-6,0-8,3.5t2,8.5l80,108q4,6 13,6h58q9,0 13-6l81-108q2-2 2-6q0-2-2-4t-6-2H331q-9,0-13,6l-60,82q-1,2-3,2t-3-2l-61-82q-4-6-13-6H138Z" />
      <glyph unicode="&#xe3;" glyph-name="atilde" horiz-adv-x="510" d="M255,514q90,0 139-46t49-122V10q0-10-10-10H382q-10,0-10,10V51q0,2-1.5,3T367,53Q342,23 302,7.5T213-8Q142-8 94,28T46,138q0,75 54.5,118.5T252,300H368q4,0 4,4v38q0,51-28.5,80.5T255,452q-48,0-78-18.5T140,382q-3-10-12-9l-54,7q-11,2-9,8q8,56 60,91t130,35ZM227,53q59,0 102,29.5T372,162v78q0,4-4,4H263q-66,0-106-27t-40-75q0-44 30.5-66.5T227,53Zm91,550q-19,0-33,6t-29,16q-18,11-28,15t-22,4q-18,0-30.5-5.5T151,619q-6-9-14-2l-18,18q-7,7-2,14q33,49 86,49q16,0 28.5-5t23-10.5T268,675q4-2 14.5-8t19-9t16.5-3q33,0 53,28q6,10 14,2l18-17q7-7 1-15q-14-24-37.5-37T318,603Z" />
      <glyph unicode="&#xe4;" glyph-name="adieresis" horiz-adv-x="510" d="M255,514q90,0 139-46t49-122V10q0-10-10-10H382q-10,0-10,10V51q0,2-1.5,3T367,53Q342,23 302,7.5T213-8Q142-8 94,28T46,138q0,75 54.5,118.5T252,300H368q4,0 4,4v38q0,51-28.5,80.5T255,452q-48,0-78-18.5T140,382q-3-10-12-9l-54,7q-11,2-9,8q8,56 60,91t130,35ZM227,53q59,0 102,29.5T372,162v78q0,4-4,4H263q-66,0-106-27t-40-75q0-44 30.5-66.5T227,53ZM341,601q-25,0-40.5,16T285,657q0,25 15.5,40.5T341,713q24,0 40-15.5T397,657q0-24-16-40t-40-16Zm-171,0q-25,0-40.5,16T114,657q0,25 15.5,40.5T170,713q24,0 40-15.5T226,657q0-24-16-40t-40-16Z" />
      <glyph unicode="&#xe5;" glyph-name="aring" horiz-adv-x="510" d="M255,514q90,0 139-46t49-122V10q0-10-10-10H382q-10,0-10,10V51q0,2-1.5,3T367,53Q342,23 302,7.5T213-8Q142-8 94,28T46,138q0,75 54.5,118.5T252,300H368q4,0 4,4v38q0,51-28.5,80.5T255,452q-48,0-78-18.5T140,382q-3-10-12-9l-54,7q-11,2-9,8q8,56 60,91t130,35ZM227,53q59,0 102,29.5T372,162v78q0,4-4,4H263q-66,0-106-27t-40-75q0-44 30.5-66.5T227,53Zm29,526q-47,0-78.5,31T146,687q0,45 32,76.5T256,795t77.5-31.5T365,687q0-46-31.5-77T256,579Zm0,43q27,0 46.5,18.5T322,687t-19.5,47T256,753q-28,0-47.5-19T189,687t19.5-46.5T256,622Z" />
      <glyph unicode="&#xe6;" glyph-name="ae" horiz-adv-x="832" d="M222-8Q146-8 96,26T46,132q0,74 54,116t152,42H368q4,0 4,4v43q0,52-29.5,83.5T252,452q-46,0-77-19t-38-51q-3-10-12-9l-51,7q-10,2-9,11q9,55 60.5,89T251,514q59,0 101.5-24.5T412,426q2-6 5-1q19,37 61.5,63T573,514q68,0 120.5-37.5T762,376q6-21 8-49.5t2-85.5q0-11-10-11H449q-4,0-4-4q0-38 1-63q3-50 41.5-77T583,59q91,0 125,73q4,9 13,5l35-19q8-5 5-13q-20-49-69.5-81T575-8Q518-8 474.5,15T411,77q-1,2-2,2t-2-1q-21-40-71.5-63T222-8ZM444,294q0-4 4-4H697q4,0 4,4q0,43-4,60q-9,43-43,70.5T572,452q-49,0-82-27t-41-71q-3-15-5-60ZM229,49q58,0 100.5,28.5T372,160v66q0,4-4,4H262q-67,0-106-23.5T117,138q0-42 31-65.5T229,49Z" />
      <glyph unicode="&#xe7;" glyph-name="ccedilla" horiz-adv-x="520" d="M400,149l1,4q1,10 12,8l49-8q10-2 9-11l-4-20q-14-53-60.5-88T295-7q-6,0-2-4q51-44 51-94q0-14-2-21q-8-32-32.5-46T254-186q-21,0-41,5q-8,3-7,12l4,23q1,5 4.5,6.5T222-139q12-3 22-3q18,0 30.5,9T291-106q1,4 1,12q0,21-15.5,44T235-7q-1,2-5,2Q174,5 134,40.5T77,131Q64,175 64,255q0,72 13,122q18,62 70,99.5T271,514q73,0 126.5-37T467,385q5-18 6-30v-2q0-7-9-9l-50-7h-2q-7,0-9,9l-3,15q-9,38-44,64.5T271,452t-83.5-26.5T144,355q-9-38-9-101q0-66 9-102q10-45 43.5-71.5T271,54q49,0 84.5,25.5T400,145v4Z" />
      <glyph unicode="&#xe8;" glyph-name="egrave" horiz-adv-x="533" d="M468,338q4-28 4-70V236q0-10-10-10H139q-4,0-4-4q2-55 6-71q11-45 47-71t92-26q42,0 74,19t50,54q6,9 14,4l39-23q8-5 4-14q-25-48-75-75.5T271-9Q200-8 152,25T83,117Q65,165 65,255q0,42 1.5,68.5T74,371q17,65 68.5,104T267,514q91,0 140-46t61-130ZM267,452q-49,0-81.5-25.5T143,358q-6-21-8-68q0-4 4-4H398q4,0 4,4q-2,45-6,64q-11,45-44.5,71.5T267,452Zm26,132q2-4 2-6q0-6-9-6H250q-7,0-12,7L170,688q-2,4-2,6q0,6 8,6h45q9,0 12-7l60-109Z" />
      <glyph unicode="&#xe9;" glyph-name="eacute" horiz-adv-x="533" d="M468,338q4-28 4-70V236q0-10-10-10H139q-4,0-4-4q2-55 6-71q11-45 47-71t92-26q42,0 74,19t50,54q6,9 14,4l39-23q8-5 4-14q-25-48-75-75.5T271-9Q200-8 152,25T83,117Q65,165 65,255q0,42 1.5,68.5T74,371q17,65 68.5,104T267,514q91,0 140-46t61-130ZM267,452q-49,0-81.5-25.5T143,358q-6-21-8-68q0-4 4-4H398q4,0 4,4q-2,45-6,64q-11,45-44.5,71.5T267,452ZM233,572q-6,0-8,3.5t1,8.5l60,109q3,7 12,7h45q6,0 7.5-3.5T349,688L281,579q-5-7-12-7H233Z" />
      <glyph unicode="&#xea;" glyph-name="ecircumflex" horiz-adv-x="533" d="M468,338q4-28 4-70V236q0-10-10-10H139q-4,0-4-4q2-55 6-71q11-45 47-71t92-26q42,0 74,19t50,54q6,9 14,4l39-23q8-5 4-14q-25-48-75-75.5T271-9Q200-8 152,25T83,117Q65,165 65,255q0,42 1.5,68.5T74,371q17,65 68.5,104T267,514q91,0 140-46t61-130ZM267,452q-49,0-81.5-25.5T143,358q-6-21-8-68q0-4 4-4H398q4,0 4,4q-2,45-6,64q-11,45-44.5,71.5T267,452ZM149,574q-6,0-8,3.5t2,8.5l80,108q4,6 13,6h58q9,0 13-6l81-108q2-2 2-6q0-2-2-4t-6-2H342q-9,0-13,6l-60,82q-1,2-3,2t-3-2l-61-82q-4-6-13-6H149Z" />
      <glyph unicode="&#xeb;" glyph-name="edieresis" horiz-adv-x="533" d="M468,338q4-28 4-70V236q0-10-10-10H139q-4,0-4-4q2-55 6-71q11-45 47-71t92-26q42,0 74,19t50,54q6,9 14,4l39-23q8-5 4-14q-25-48-75-75.5T271-9Q200-8 152,25T83,117Q65,165 65,255q0,42 1.5,68.5T74,371q17,65 68.5,104T267,514q91,0 140-46t61-130ZM267,452q-49,0-81.5-25.5T143,358q-6-21-8-68q0-4 4-4H398q4,0 4,4q-2,45-6,64q-11,45-44.5,71.5T267,452Zm85,149q-25,0-40.5,16T296,657q0,25 15.5,40.5T352,713q24,0 40-15.5T408,657q0-24-16-40t-40-16Zm-171,0q-25,0-40.5,16T125,657q0,25 15.5,40.5T181,713q24,0 40-15.5T237,657q0-24-16-40t-40-16Z" />
      <glyph unicode="&#xec;" glyph-name="igrave" horiz-adv-x="212" d="M80,0Q70,0 70,10V496q0,10 10,10h51q10,0 10-10V10q0-10-10-10H80Zm53,584q2-4 2-6q0-6-9-6H90q-7,0-12,7L10,688q-2,4-2,6q0,6 8,6H61q9,0 12-7l60-109Z" />
      <glyph unicode="&#xed;" glyph-name="iacute" horiz-adv-x="212" d="M80,0Q70,0 70,10V496q0,10 10,10h51q10,0 10-10V10q0-10-10-10H80ZM73,572q-6,0-8,3.5t1,8.5l60,109q3,7 12,7h45q6,0 7.5-3.5T189,688L121,579q-5-7-12-7H73Z" />
      <glyph unicode="&#xee;" glyph-name="icircumflex" horiz-adv-x="212" d="M80,0Q70,0 70,10V496q0,10 10,10h51q10,0 10-10V10q0-10-10-10H80ZM-11,574q-6,0-8,3.5t2,8.5L63,694q4,6 13,6h58q9,0 13-6l81-108q2-2 2-6q0-2-2-4t-6-2H182q-9,0-13,6l-60,82q-1,2-3,2t-3-2L42,580q-4-6-13-6H-11Z" />
      <glyph unicode="&#xef;" glyph-name="idieresis" horiz-adv-x="212" d="M80,0Q70,0 70,10V496q0,10 10,10h51q10,0 10-10V10q0-10-10-10H80ZM192,601q-25,0-40.5,16T136,657q0,25 15.5,40.5T192,713q24,0 40-15.5T248,657q0-24-16-40t-40-16ZM21,601q-25,0-40.5,16T-35,657q0,25 15.5,40.5T21,713q24,0 40-15.5T77,657q0-24-16-40T21,601Z" />
      <glyph unicode="&#xf0;" glyph-name="eth" horiz-adv-x="531" d="M458,355q6-38 6-111q0-46-2-72t-8-47q-18-60-69-96.5T263-8Q193-8 142.5,28.5T74,125q-6,22-8,49t-2,70q0,44 2,70t8,48q13,49 51.5,81.5T218,481q16,3 35,3q33,0 63-8.5T366,451q2-2 3-1.5t0,3.5q-19,58-66,117q-2,4-5,2l-92-27l-4-1q-6,0-9,8l-6,22l-1,4q0,6 8,9l70,21q6,2 1,5q-37,39-78,75q-4,3-4,6q0,6 9,6h56q7,0 12-5q44-42 67-66q2-2 5-1l77,23l4,1q6,0 9-8l6-23v-3q0-6-7-9l-55-17q-4-1-3-4q39-48 64-104t31-129ZM386,144q6,24 6,98q0,73-6,96q-9,43-42,69.5T263,434q-47,0-79.5-26.5T142,338q-7-23-7-96q0-70 7-98q9-43 41.5-69.5T263,48q48,0 81,26.5T386,144Z" />
      <glyph unicode="&#xf1;" glyph-name="ntilde" horiz-adv-x="539" d="M290,513q80,0 127.5-47T465,340V10q0-10-10-10H404q-10,0-10,10V326q0,55-33.5,90T274,451q-55,0-89-34t-34-89V10q0-10-10-10H90Q80,0 80,10V496q0,10 10,10h51q10,0 10-10V453q0-2 1.5-3t2.5,1q44,62 135,62Zm44,90q-19,0-33,6t-29,16q-18,11-28,15t-22,4q-18,0-30.5-5.5T167,619q-6-9-14-2l-18,18q-7,7-2,14q33,49 86,49q16,0 28.5-5t23-10.5T284,675q4-2 14.5-8t19-9t16.5-3q33,0 53,28q6,10 14,2l18-17q7-7 1-15q-14-24-37.5-37T334,603Z" />
      <glyph unicode="&#xf2;" glyph-name="ograve" horiz-adv-x="536" d="M273-8Q201-8 149,29T77,131Q63,177 63,254T77,376q19,64 71,101t126,37q71,0 122.5-37T467,377q14-43 14-123q0-81-14-123Q448,66 396.5,29T273-8Zm0,62q48,0 82,26.5T401,152q9,36 9,101q0,66-8,101q-12,45-46.5,71.5T272,452t-83-26.5T143,354q-8-35-8-101t8-101q11-45 45.5-71.5T273,54Zm22,530q2-4 2-6q0-6-9-6H252q-7,0-12,7L172,688q-2,4-2,6q0,6 8,6h45q9,0 12-7l60-109Z" />
      <glyph unicode="&#xf3;" glyph-name="oacute" horiz-adv-x="536" d="M273-8Q201-8 149,29T77,131Q63,177 63,254T77,376q19,64 71,101t126,37q71,0 122.5-37T467,377q14-43 14-123q0-81-14-123Q448,66 396.5,29T273-8Zm0,62q48,0 82,26.5T401,152q9,36 9,101q0,66-8,101q-12,45-46.5,71.5T272,452t-83-26.5T143,354q-8-35-8-101t8-101q11-45 45.5-71.5T273,54ZM235,572q-6,0-8,3.5t1,8.5l60,109q3,7 12,7h45q6,0 7.5-3.5T351,688L283,579q-5-7-12-7H235Z" />
      <glyph unicode="&#xf4;" glyph-name="ocircumflex" horiz-adv-x="536" d="M273-8Q201-8 149,29T77,131Q63,177 63,254T77,376q19,64 71,101t126,37q71,0 122.5-37T467,377q14-43 14-123q0-81-14-123Q448,66 396.5,29T273-8Zm0,62q48,0 82,26.5T401,152q9,36 9,101q0,66-8,101q-12,45-46.5,71.5T272,452t-83-26.5T143,354q-8-35-8-101t8-101q11-45 45.5-71.5T273,54ZM151,574q-6,0-8,3.5t2,8.5l80,108q4,6 13,6h58q9,0 13-6l81-108q2-2 2-6q0-2-2-4t-6-2H344q-9,0-13,6l-60,82q-1,2-3,2t-3-2l-61-82q-4-6-13-6H151Z" />
      <glyph unicode="&#xf5;" glyph-name="otilde" horiz-adv-x="536" d="M273-8Q201-8 149,29T77,131Q63,177 63,254T77,376q19,64 71,101t126,37q71,0 122.5-37T467,377q14-43 14-123q0-81-14-123Q448,66 396.5,29T273-8Zm0,62q48,0 82,26.5T401,152q9,36 9,101q0,66-8,101q-12,45-46.5,71.5T272,452t-83-26.5T143,354q-8-35-8-101t8-101q11-45 45.5-71.5T273,54Zm58,549q-19,0-33,6t-29,16q-18,11-28,15t-22,4q-18,0-30.5-5.5T164,619q-6-9-14-2l-18,18q-7,7-2,14q33,49 86,49q16,0 28.5-5t23-10.5T281,675q4-2 14.5-8t19-9t16.5-3q33,0 53,28q6,10 14,2l18-17q7-7 1-15q-14-24-37.5-37T331,603Z" />
      <glyph unicode="&#xf6;" glyph-name="odieresis" horiz-adv-x="536" d="M273-8Q201-8 149,29T77,131Q63,177 63,254T77,376q19,64 71,101t126,37q71,0 122.5-37T467,377q14-43 14-123q0-81-14-123Q448,66 396.5,29T273-8Zm0,62q48,0 82,26.5T401,152q9,36 9,101q0,66-8,101q-12,45-46.5,71.5T272,452t-83-26.5T143,354q-8-35-8-101t8-101q11-45 45.5-71.5T273,54Zm80,547q-25,0-40.5,16T297,657q0,25 15.5,40.5T353,713q24,0 40-15.5T409,657q0-24-16-40t-40-16Zm-171,0q-25,0-40.5,16T126,657q0,25 15.5,40.5T182,713q24,0 40-15.5T238,657q0-24-16-40t-40-16Z" />
      <glyph unicode="&#xf7;" glyph-name="divide" horiz-adv-x="500" d="M249,440q-22,0-37,15.5T197,493q0,21 15.5,36T249,544t37-15t16-36q0-22-16-37.5T249,440ZM49,295q-10,0-10,10v41q0,10 10,10H451q10,0 10-10V305q0-10-10-10H49ZM249,123q-22,0-37,15t-15,37q0,21 15.5,36.5T249,227t37-15.5T302,175t-16-36.5T249,123Z" />
      <glyph unicode="&#xf8;" glyph-name="oslash" horiz-adv-x="528" d="M462,377q13-44 13-123q0-80-13-123Q442,66 390.5,29T267-8Q198-8 149,25q-4,2-5-1L112-23q-6-9-14-3L62,2q-8,6-3,14L97,71q2,3 0,6q-16,23-25,54Q58,177 58,254q0,80 13,122q19,64 71,101t126,37q61,0 107-27q4-2 5,1l32,47q6,9 14,3l36-28q8-6 3-14l-35-51q-1-3 0-6q19-24 32-62ZM140,144q1-2 3-2t3,1L339,428q2,4-2,5q-32,19-71,19q-49,0-83-26.5T138,354q-9-33-9-101t9-101l2-8Zm255,8q9,31 9,101q0,72-8,101q-2,7-8,21q-1,4-5,0L185,84q-2-4 1-5q34-25 81-25q48,0 82.5,26.5T395,152Z" />
      <glyph unicode="&#xf9;" glyph-name="ugrave" horiz-adv-x="539" d="M386,496q0,10 10,10h51q10,0 10-10V10q0-10-10-10H396q-10,0-10,10V53q0,2-2,3t-3-1Q339-7 248-7q-48,0-88.5,19.5T95.5,69T72,158V496q0,10 10,10h51q10,0 10-10V179q0-57 32-90.5T262,55q57,0 90.5,34T386,179V496Zm-90,88q2-4 2-6q0-6-9-6H253q-7,0-12,7L173,688q-2,4-2,6q0,6 8,6h45q9,0 12-7l60-109Z" />
      <glyph unicode="&#xfa;" glyph-name="uacute" horiz-adv-x="539" d="M386,496q0,10 10,10h51q10,0 10-10V10q0-10-10-10H396q-10,0-10,10V53q0,2-2,3t-3-1Q339-7 248-7q-48,0-88.5,19.5T95.5,69T72,158V496q0,10 10,10h51q10,0 10-10V179q0-57 32-90.5T262,55q57,0 90.5,34T386,179V496ZM236,572q-6,0-8,3.5t1,8.5l60,109q3,7 12,7h45q6,0 7.5-3.5T352,688L284,579q-5-7-12-7H236Z" />
      <glyph unicode="&#xfb;" glyph-name="ucircumflex" horiz-adv-x="539" d="M386,496q0,10 10,10h51q10,0 10-10V10q0-10-10-10H396q-10,0-10,10V53q0,2-2,3t-3-1Q339-7 248-7q-48,0-88.5,19.5T95.5,69T72,158V496q0,10 10,10h51q10,0 10-10V179q0-57 32-90.5T262,55q57,0 90.5,34T386,179V496ZM152,574q-6,0-8,3.5t2,8.5l80,108q4,6 13,6h58q9,0 13-6l81-108q2-2 2-6q0-2-2-4t-6-2H345q-9,0-13,6l-60,82q-1,2-3,2t-3-2l-61-82q-4-6-13-6H152Z" />
      <glyph unicode="&#xfc;" glyph-name="udieresis" horiz-adv-x="539" d="M386,496q0,10 10,10h51q10,0 10-10V10q0-10-10-10H396q-10,0-10,10V53q0,2-2,3t-3-1Q339-7 248-7q-48,0-88.5,19.5T95.5,69T72,158V496q0,10 10,10h51q10,0 10-10V179q0-57 32-90.5T262,55q57,0 90.5,34T386,179V496ZM355,601q-25,0-40.5,16T299,657q0,25 15.5,40.5T355,713q24,0 40-15.5T411,657q0-24-16-40t-40-16Zm-171,0q-25,0-40.5,16T128,657q0,25 15.5,40.5T184,713q24,0 40-15.5T240,657q0-24-16-40t-40-16Z" />
      <glyph unicode="&#xfd;" glyph-name="yacute" horiz-adv-x="461" d="M57-200q-7,0-7,10v40q0,10 10,10h4q39,1 60.5,11.5t37,39T195-3q2,4 0,6L26,495l-1,4q0,7 9,7H87q9,0 12-8L229,94q1-2 3-2t3,2L363,498q3,8 12,8h52q11,0 8-11L250-44q-24-67-45-99t-52.5-44.5T64-200H57ZM197,576q-6,0-8,3.5t1,8.5l60,109q3,7 12,7h45q6,0 7.5-3.5T313,692L245,583q-5-7-12-7H197Z" />
      <glyph unicode="&#xfe;" glyph-name="thorn" horiz-adv-x="540" d="M465,381q7-25 9-54t2-75q0-47-1.5-73T467,131Q452,68 403.5,30T288-8q-45,0-78.5,18T156,60q-1,3-3,2.5T151,59V-190q0-10-10-10H90q-10,0-10,10V690q0,10 10,10h51q10,0 10-10V448q0-3 1.5-3t3.5,2q42,67 130,67q68,0 116-37t63-96ZM395,150q4,16 5.5,35t1.5,68q0,50-1.5,69T395,356q-9,42-42.5,69T271,452q-46,0-77-25.5T154,362q-1-3-1-7q-1-1-1-4l-1-2V156l1-4q0-3 1-4q9-41 40-67.5T271,54q48,0 82,27t42,69Z" />
      <glyph unicode="&#xff;" glyph-name="ydieresis" horiz-adv-x="461" d="M57-200q-7,0-7,10v40q0,10 10,10h4q39,1 60.5,11.5t37,39T195-3q2,4 0,6L26,495l-1,4q0,7 9,7H87q9,0 12-8L229,94q1-2 3-2t3,2L363,498q3,8 12,8h52q11,0 8-11L250-44q-24-67-45-99t-52.5-44.5T64-200H57ZM316,605q-25,0-40.5,16T260,661q0,25 15.5,40.5T316,717q24,0 40-15.5T372,661q0-24-16-40t-40-16Zm-171,0q-25,0-40.5,16T89,661q0,25 15.5,40.5T145,717q24,0 40-15.5T201,661q0-24-16-40t-40-16Z" />
      <glyph unicode="&#x2013;" glyph-name="endash" horiz-adv-x="450" d="M49,251q-10,0-10,10v43q0,10 10,10H401q10,0 10-10V261q0-10-10-10H49Z" />
      <glyph unicode="&#x2014;" glyph-name="emdash" horiz-adv-x="685" d="M49,252q-10,0-10,10v42q0,10 10,10H636q10,0 10-10V262q0-10-10-10H49Z" />
      <glyph unicode="&#x2018;" glyph-name="quoteleft" horiz-adv-x="140" d="M12,495q-5,0-7,3.5T5,507L79,692q3,8 11,8h38q11,0 8-11L77,503q-3-8-12-8H12Z" />
      <glyph unicode="&#x2019;" glyph-name="quoteright" horiz-adv-x="140" d="M128,700q5,0 7-3.5t0-8.5L61,503q-3-8-11-8H12q-11,0-8,11L63,692q3,8 12,8h53Z" />
      <glyph unicode="&#x201a;" glyph-name="quotesinglbase" horiz-adv-x="600" d="M76-79q-5,0-7.5,3T67-68l44,214q2,9 11,9h44q5,0 7.5-3t1.5-8L119-70q-2-9-11-9H76Z" />
      <glyph unicode="&#x201c;" glyph-name="quotedblleft" horiz-adv-x="267" d="M12,495q-5,0-7.5,3.5T4,507L75,692q3,8 11,8h36q5,0 7.5-3t1.5-8L75,503q-3-8-12-8H12Zm133,0q-5,0-7.5,3.5T137,507l71,185q3,8 11,8h36q5,0 7.5-3t1.5-8L208,503q-3-8-12-8H145Z" />
      <glyph unicode="&#x201d;" glyph-name="quotedblright" horiz-adv-x="267" d="M121,700q5,0 7.5-3.5T129,688L59,503q-3-8-11-8H12q-5,0-7.5,3T3,506L58,692q3,8 12,8h51Zm134,0q5,0 7.5-3.5T263,688L192,503q-3-8-11-8H145q-5,0-7.5,3t-1.5,8l56,186q3,8 12,8h51Z" />
      <glyph unicode="&#x201e;" glyph-name="quotedblbase" horiz-adv-x="275" d="M121,128q5,0 7.5-3.5T129,116L59-69q-3-8-11-8H12q-5,0-7.5,3T3-66L58,120q3,8 12,8h51Zm134,0q5,0 7.5-3.5T263,116L192-69q-3-8-11-8H145q-5,0-7.5,3T136-66l56,186q3,8 12,8h51Z" />
      <glyph unicode="&#x2022;" glyph-name="bullet" horiz-adv-x="309" d="M155,151q-48,0-82,34.5T39,267q0,48 34,81.5T155,382q47,0 81-33.5T270,267q0-47-34-81.5T155,151Z" />
      <glyph unicode="&#x2039;" glyph-name="guilsinglleft" horiz-adv-x="363" d="M259,119q2-2 2-6q0-2-2-4t-6-2H205q-8,0-13,6L67,274q-2,3-2,7t2,7L192,449q5,6 13,6h48q6,0 8-3.5t-2-8.5L135,284q-1-3 0-6L259,119Z" />
      <glyph unicode="&#x203a;" glyph-name="guilsinglright" horiz-adv-x="393" d="M110,107q-6,0-8,3.5t2,8.5L228,278q2,3 0,6L104,443q-2,2-2,6q0,2 2,4t6,2h48q9,0 13-6L297,288q2-3 2-7t-2-7L171,113q-4-6-13-6H110Z" />
    </font>
</defs>
</svg>
