<?xml version="1.0" standalone="no"?>
<!DOCTYPE svg PUBLIC "-//W3C//DTD SVG 1.1//EN" "http://www.w3.org/Graphics/SVG/1.1/DTD/svg11.dtd">
<svg xmlns="http://www.w3.org/2000/svg">
  <defs>
    <font id="Roboto" horiz-adv-x="1161">
      <font-face font-family="Roboto" units-per-em="2048" panose-1="2 0 0 0 0 0 0 0 0 0" ascent="1900" descent="-500" alphabetic="0" />
      <glyph unicode=" " glyph-name="gid4" horiz-adv-x="503" />
      <glyph unicode="!" glyph-name="gid5" horiz-adv-x="512" d="M500,1456L306,411H142L310,1456H500ZM68,90q1,47 30.5,78.5T175,201q46,1 76.5-29T281,96q0-46-30.5-77T174-13T98,15T68,90Z" />
      <glyph unicode="&quot;" glyph-name="gid6" horiz-adv-x="636" d="M417,1536l-23-146l-83-347H201l55,348l23,145H417Zm262,0l-23-146l-83-347H463l56,355l22,138H679Z" />
      <glyph unicode="#" glyph-name="gid7" horiz-adv-x="1223" d="M164,0L691,1456H837L308,0H164ZM559,0l528,1456h144L703,0H559Zm692,901H241l24,139H1275l-24-139ZM1093,410H82l24,138H1117l-24-138Z" />
      <glyph unicode="$" glyph-name="gid8" horiz-adv-x="1116" d="M826,1692l-49-305H630l49,305H826ZM553,59L511-208H365L407,59H553ZM795,382q9,73-22,123t-85,83.5T574,645q-100,38-179.5,93t-123,136T236,1072q9,126 73,218t166,141t226,46q103-2 175.5-40t116-102.5T1053,1186t11-178H884q4,52-2.5,105.5T854,1212t-61,73t-103,30q-75,2-133.5-27T462,1205t-45-128q-8-77 22.5-127T525,867t118-58q99-39 177.5-93.5t121-135T976,384q-10-135-81-226T713.5,21.5T475-22Q374-20 297.5,13.5t-127,94t-74,142T79,429H261q-4-59 6.5-110.5t37-91t71-62T484,141q77-1 144.5,25.5t112.5,81T795,382Z" />
      <glyph unicode="%" glyph-name="gid9" horiz-adv-x="1455" d="M191,1099l7,76q9,85 52,154.5t112.5,110T521,1478q85-2 144.5-43.5t89-109.5T778,1176l-6-77q-9-85-52-153.5T607.5,837T450,799q-84,2-144,43T216,950.5T191,1099Zm145,77l-9-79q-3-43 8-83.5T375,947t79-28q52-1 90,24.5t60.5,67T634,1099l9,78q3,44-7.5,85t-39,68T517,1358q-52,1-90.5-24.5T365,1266t-29-90ZM737,279l7,77q8,85 51.5,154.5T908.5,620T1066,658q85-2 144.5-43.5t89-109T1324,357l-7-78q-9-85-51.5-154t-112-109T996-22q-85,2-144.5,43.5T762,130.5T737,279Zm145,78l-7-81q-3-43 7.5-83.5t39-67T1000,98q53-2 91,23.5t60.5,67.5t29.5,90l9,79q3,44-8,85t-40,67.5T1063,538q-53,1-91-24.5t-61-67T882,357Zm355,885L357,113l-99,72l881,1128l98-71Z" />
      <glyph unicode="&amp;" glyph-name="gid10" horiz-adv-x="1236" d="M421,808L657,963q61,40 108,89t55,126q7,66-36,107t-108,42q-57,0-100.5-29t-70-76T473,1121q-7-54 11-105.5t48-99T590,826L1129,0H926L484,676q-44,65-90,134.5T318.5,956T294,1115q8,109 59.5,191.5T491,1434t196,42q85-2 156-39t111.5-103.5T990,1177q-4-74-37.5-133T868,938T760,851L445,636q-43-30-85-67.5T287.5,485T250,384q-10-76 17-132t82-87.5T479,131q108-3 196.5,44.5t155,128T938,480.5T993,672h160q-11-100-41-183.5t-79-158T918,183q-9-10-16.5-21.5T885,140Q811,57 695.5,17.5T471-20Q353-17 258,32T110,170.5T66,384q8,103 63.5,179.5T264,699T421,808Z" />
      <glyph unicode="&apos;" glyph-name="gid11" horiz-adv-x="347" d="M394,1536l-19-117l-76-361H172l60,376l16,102H394Z" />
      <glyph unicode="(" glyph-name="gid12" horiz-adv-x="680" d="M127,577l2,11q22,147 70,303t125.5,301.5t186,263.5T760,1644l28-124q-110-81-191-187T459.5,1105.5T367,853.5T311,593l-2-15q-16-107-22-236t9-259t61.5-245.5T494-359L448-470Q329-388 257-264T151,5.5T113,299t14,278Z" />
      <glyph unicode=")" glyph-name="gid13" horiz-adv-x="692" d="M549,597l-2-11q-21-147-69.5-303.5T352-19.5T166.5-283T-84-471l-28,114Q-3-274 78-167T216,63.5t93,255T365,581l3,15q15,106 20.5,234T378,1089t-62,246.5T182,1531l47,112q118-83 189.5-207t106-269T563,874.5T549,597Z" />
      <glyph unicode="*" glyph-name="gid14" horiz-adv-x="856" d="M143,716L384,988l-277,90l69,143l278-112l51,348H654l-70-345l304,109l19-160L592,970L738,695L610,608L480,897L257,619L143,716Z" />
      <glyph unicode="+" glyph-name="gid15" horiz-adv-x="1127" d="M1076,781l-30-174H76l31,174h969ZM756,1206L572,146H391L575,1206H756Z" />
      <glyph unicode="," glyph-name="gid16" horiz-adv-x="391" d="M235,220L211,72Q194-37 134-131T-13-291l-100,75q35,43 64,87.5T0.5-35T32,68L58,220H235Z" />
      <glyph unicode="-" glyph-name="gid17" horiz-adv-x="549" d="M528,695L501,543H26L53,695H528Z" />
      <glyph unicode="." glyph-name="gid18" horiz-adv-x="524" d="M53,95q0,49 31.5,82T165,211t80.5-30T276,101q0-49-31.5-81T164-13q-48-1-80,29T53,95Z" />
      <glyph unicode="/" glyph-name="gid19" horiz-adv-x="820" d="M915,1456L52-125H-112L752,1456H915Z" />
      <glyph unicode="0" glyph-name="gid20" horiz-adv-x="1116" d="M1044,844l-34-221q-18-118-52.5-233.5T861.5,180T703.5,31T467-20Q360-18 290,21.5T179.5,127t-57,148t-16,171.5T118,622l33,222q17,118 52.5,232t97,205.5t158,145T693,1476q107-2 177.5-40t111-102t57.5-145t16.5-169.5T1044,844ZM825,592l43,285q6,50 10.5,109t0,117.5t-24,108T794,1292t-110,34q-93,4-155-37.5t-100.5-110T369,1030T337,875L295,591q-6-48-10.5-108t0-120.5t23.5-112t59.5-84T477,131q94-4 156.5,39T734,283.5T793,436t32,156Z" />
      <glyph unicode="1" glyph-name="gid21" horiz-adv-x="1116" d="M852,1464L604,0H423L637,1228L250,1093l32,175l538,196h32Z" />
      <glyph unicode="2" glyph-name="gid22" horiz-adv-x="1116" d="M974,152L950,0H24L46,141L584,665q55,55 117,118T810,918t58,155q8,68-13,124.5t-69,91T666,1325q-93,3-161-35T395.5,1184T341,1029l-178-1q13,136 82.5,238T426,1423.5T673,1476q113-2 203-47.5T1014.5,1298t37.5-204q-6-78-39-149.5t-81.5-137T827,684T717,575L272,152H974Z" />
      <glyph unicode="3" glyph-name="gid23" horiz-adv-x="1116" d="M413,819l121-2q81,1 151.5,29.5t117,85.5T858,1075q8,74-12,129.5T778,1292t-125,34q-78,1-139.5-30t-101-88T361,1076l-179-1q12,123 80.5,214T436,1429.5T662,1477q120-2 209-52.5t134-141t36-212.5q-7-91-52-159T874.5,798T723,729T560,706l-165,1l18,112ZM389,667l18,111l142-1q86-2 162.5-24t134-65.5T933,576t23-163q-8-100-49.5-181T797.5,94T643.5,7.5T458-20q-90,2-165,31T163.5,92.5T81,219.5T57,386l180-1q-5-75 21-131t78.5-88T466,132q86-2 153,32t107.5,97T775,410q9,84-20.5,140t-88,85T528,666l-139,1Z" />
      <glyph unicode="4" glyph-name="gid24" horiz-adv-x="1116" d="M1054,490l-27-152H5L26,457l800,999H985L773,1157L243,490h811Zm-30,966L772,0H591L844,1456h180Z" />
      <glyph unicode="5" glyph-name="gid25" horiz-adv-x="1116" d="M369,694L220,734l184,722h727l-27-171H533L421,888q54,32 114.5,48T659,951q101-1 172.5-41.5T947,801t61-153.5t9-176.5q-9-106-48-196.5T864.5,117T709,13T509-21q-91,1-162.5,31.5T224.5,95T146,222.5T114,384H284q5-72 30.5-128.5T390,166t127-35q73-1 129,26.5T742,233t63,109.5T835,470q6,59-4,114.5t-37,100T721,756T609,785q-72,2-128.5-22.5T369,694Z" />
      <glyph unicode="6" glyph-name="gid26" horiz-adv-x="1116" d="M931,1459h21l-16-157H924q-127,1-228-40.5t-176-117t-122-177T333,747L303,532q-7-56-2.5-123.5t26-129.5T392,176t118-43q71-3 126.5,26T731,237.5t61.5,111T822,473q6,54-0.5,111T792,690t-65,80T620,803q-79,2-147.5-34.5t-117-98T287,536l-96,1q20,88 59,165t96.5,135T481,926.5T656,955t167-43.5t111.5-108t59-150.5t8.5-171q-10-102-48-193.5t-102.5-162T699,16.5T502-20Q391-18 313,32.5T188.5,165t-63,179.5T121,539l11,87q25,170 82.5,320.5t154,265.5t236,181T931,1459Z" />
      <glyph unicode="7" glyph-name="gid27" horiz-adv-x="1116" d="M1165,1456l-18-114L356,0H157L945,1304H185l24,152h956Z" />
      <glyph unicode="8" glyph-name="gid28" horiz-adv-x="1116" d="M971,403q-10-134-81-230T708,27T468-20Q349-18 256.5,32T114,172T74,386q7,96 51.5,172.5T240,688t156.5,80T574,793q112-2 205.5-50t147-135T971,403Zm-179,4q7,73-17,133t-76,96.5T571,675q-84,2-152-35.5t-111-103T256,390q-8-76 15.5-133.5T347,166t130-35q84-2 152,32t110.5,97T792,407Zm267,678q-9-118-77.5-204.5T810,747T594,703q-104,2-190.5,47.5T268,877.5T226,1068q9,126 73.5,219T467,1429.5T693,1476q114-2 199.5-51t130-136.5T1059,1085Zm-182-2q6,64-14.5,118.5t-66,88.5T683,1325q-76,2-136-32.5T450.5,1198T406,1065q-7-65 13-119.5T484.5,858T599,824q76-2 135.5,32.5t97,94T877,1083Z" />
      <glyph unicode="9" glyph-name="gid29" horiz-adv-x="1116" d="M222,154h15q130-1 230.5,36.5T640.5,298T758,467t63,222l31,224q7,55 3.5,124.5t-24,133.5T767,1278t-119,45q-71,3-126.5-27t-95-81T364,1101.5T335,976q-6-54 0.5-111.5t29-108t64-82.5T536,640q64-2 121,22.5T759.5,730t77,97.5T882,941l86,1q-11-87-50-169T816,625.5T672.5,522T499,486q-98,3-167,45T221.5,642T164,795t-8,171q9,102 47.5,195T306,1326t152.5,112.5T657,1476q119-3 197-56.5T974,1280t54-188t0-202l-8-69q-18-138-57-262T861,332.5T708.5,155T500,38.5T229-3H206l16,157Z" />
      <glyph unicode=":" glyph-name="gid30" horiz-adv-x="491" d="M42,95q0,49 31.5,82T154,211t80.5-30T265,101q0-49-31.5-81T153-13q-48-1-80,29T42,95ZM196,978q0,49 31.5,82t80.5,34t80.5-30T419,984q0-49-31.5-81T307,870q-48-1-80,29t-31,79Z" />
      <glyph unicode=";" glyph-name="gid31" horiz-adv-x="430" d="M173,978q0,49 31.5,82t80.5,34t80.5-30T396,984q0-49-31.5-81T284,870q-48-1-80,29t-31,79Zm74-758L223,72Q206-37 146-131T-1-291l-100,75q35,43 64,87.5T12.5-35T44,68L70,220H247Z" />
      <glyph unicode="&lt;" glyph-name="gid32" horiz-adv-x="1010" d="M196,672L828,388L795,201L66,580L85,688l111-16ZM916,898L208,618L70,603L91,725l861,378L916,898Z" />
      <glyph unicode="=" glyph-name="gid33" horiz-adv-x="1090" d="M1023,975L994,814H184l28,161h811ZM951,560L922,399H112l28,161H951Z" />
      <glyph unicode="&gt;" glyph-name="gid34" horiz-adv-x="1039" d="M836,632L184,913l33,183L981,717L961,607L836,632ZM95,392L824,671l153,23L955,571L59,192L95,392Z" />
      <glyph unicode="?" glyph-name="gid35" horiz-adv-x="939" d="M499,410l-178-1q9,86 36.5,152T430,683T539,796q48,43 95.5,87t82,96.5T760,1101q7,59-8,107t-54,77t-102,31q-65,2-117-22t-86.5-69.5T345,1116l-180-1q14,115 76,197t157.5,124.5T607,1477q111-3 190.5-49.5t119-129.5T946,1104q-9-97-56.5-175t-116-143T635,663q-61-50-92.5-113T499,410ZM250,90q1,47 30.5,78.5T357,201t77-29t29-77q0-46-30-76.5T356-13q-46-1-76,28T250,90Z" />
      <glyph unicode="@" glyph-name="gid36" horiz-adv-x="1784" d="M1672,508q-15-91-50.5-185.5t-93-173.5T1390,22.5T1202-22q-74,2-119.5,33.5t-68,82.5T989,206t8,122l141,556h146L1145,328q-6-30-10-68.5t1-75t26-61.5t64-27q77-3 132.5,37.5t93.5,106T1512.5,377T1546,508q20,118 21,232.5T1542,955t-84.5,177T1303,1253.5T1067,1300q-139,2-257-43T596,1131.5T427,945T305.5,718T233,472q-21-112-22-225T235.5,31.5t82.5-183T469-279t230-48q88-1 173.5,19T1037-250l28-116q-80-50-177.5-69T697-453q-159,2-274.5,54T231-257T115.5-49.5t-45,251T89,473q27,145 85,285.5t145,263T520,1237t252.5,144.5T1071,1431q158-2 273-54t189.5-142t113-207t44-250T1672,508ZM663,410q-7-36-12-84t1-94t31-78t79-34q50-2 90.5,24t72,67t55,87t40.5,84l57-72q-23-57-57.5-116.5t-80-109t-103-79T708-22q-85,3-132.5,46T509,133T491,273t12,137q13,73 41,153.5t71,157T715.5,859t130,98T1006,991q82-1 147.5-30.5T1282,880l-90-95q-35,36-78,56t-94,21q-84,3-146-41.5T769.5,705T701,555T663,410Z" />
      <glyph unicode="A" glyph-name="gid37" horiz-adv-x="1296" d="M812,1316L120,0H-81L711,1456H840l-28-140ZM978,0L737,1338l19,118H876L1163,0H978Zm67,539l-28-158H222l28,158h795Z" />
      <glyph unicode="B" glyph-name="gid38" horiz-adv-x="1238" d="M692,681H323l25,155l315-1q77,0 145.5,27t115,81T980,1079q10,78-16,125.5t-79.5,69T759,1297l-286,1L248,0H59L312,1456l451-1q91-2 168.5-24.5t133.5-68t84.5-116.5t20.5-170q-8-107-67.5-180t-149-114.5T768,727l-76-46ZM567,0H125L258,157l314-1q85,0 157,31t119.5,91T907,426q9,78-12,134t-72,86.5T693,680l-279,1l29,155l355-1l31-56q90-14 151.5-63.5t90-124T1093,428q-11-143-85.5-238.5T817,46.5T567,0Z" />
      <glyph unicode="C" glyph-name="gid39" horiz-adv-x="1293" d="M988,462l185,2q-30-150-112.5-260T853.5,35T575-20Q437-17 343.5,43t-146,158t-69,216T128,655l21,145q20,132 72.5,254.5t137,218.5t200,151T821,1476t246-66t150.5-172T1273,988H1087q-3,92-29,166t-85,118t-160,47q-110,3-192.5-41T480,1158.5T387,990T337,802L315,654q-11-79-8-167.5t29.5-167t86-129T584,137q112-4 191,35T906,285.5T988,462Z" />
      <glyph unicode="D" glyph-name="gid40" horiz-adv-x="1304" d="M454,0H147l29,157l283-1q159,0 275.5,69.5T922,414.5T1016,684l13,90q12,96 3.5,188T987,1128.5t-108,120T696,1297l-330,1l28,158l306-1q146-3 250.5-59.5t169-151.5t88-217t7.5-256l-12-87q-21-148-83-273.5T961,193T736,50.5T454,0Zm47,1456L248,0H59L312,1456H501Z" />
      <glyph unicode="E" glyph-name="gid41" horiz-adv-x="1129" d="M986,157L958,0H209l27,157H986ZM501,1456L248,0H59L312,1456H501Zm502-626L976,673H325l28,157h650Zm198,626l-28-158H434l28,158h739Z" />
      <glyph unicode="F" glyph-name="gid42" horiz-adv-x="1098" d="M501,1456L248,0H59L312,1456H501ZM979,801L951,643H317l28,158H979Zm209,655l-28-158H431l28,158h729Z" />
      <glyph unicode="G" glyph-name="gid43" horiz-adv-x="1353" d="M1230,725l-86-533q-59-82-146.5-128.5T810-2T615-20Q470-18 370.5,42T213,201T135.5,422T133,672l16,113q20,137 70.5,262.5t134,223t200.5,153T824,1476q139-3 238.5-58t156-154t66.5-235H1099q-7,86-39.5,150t-93,100T816,1318q-114,4-197.5-41.5t-140-123T388,980.5T339,787L322,671q-11-85-5.5-177.5t37-172.5T450,190.5T622,138q61-1 120.5,8T856,178t101,65l59,326H688l28,156h514Z" />
      <glyph unicode="H" glyph-name="gid44" horiz-adv-x="1417" d="M1128,830l-28-157H334l28,157h766ZM501,1456L248,0H59L312,1456H501Zm898,0L1146,0H959l252,1456h188Z" />
      <glyph unicode="I" glyph-name="gid45" horiz-adv-x="540" d="M514,1456L261,0H73L326,1456H514Z" />
      <glyph unicode="J" glyph-name="gid46" horiz-adv-x="1096" d="M729,424L905,1456h187L917,425q-19-135-87-236.5T654,31.5T407-22Q278-19 187.5,33T52,179.5T16,403H204q-6-76 14-135t69-94t130-37q87-3 152.5,35.5T675.5,277T729,424Z" />
      <glyph unicode="K" glyph-name="gid47" horiz-adv-x="1246" d="M501,1456L248,0H59L312,1456H501Zm860,0L654,775L257,418l6,221L557,918l562,538h242ZM927,0L520,719L651,863L1136,0H927Z" />
      <glyph unicode="L" glyph-name="gid48" horiz-adv-x="1070" d="M945,157L917,0H210l27,157H945ZM501,1456L248,0H59L312,1456H501Z" />
      <glyph unicode="M" glyph-name="gid49" horiz-adv-x="1734" d="M375,1456H549L806,271l667,1185h192L838,0H695L375,1456Zm-63,0H473L345,562L247,0H59L312,1456Zm1245,0h162L1466,0H1279l100,578l178,878Z" />
      <glyph unicode="N" glyph-name="gid50" horiz-adv-x="1417" d="M1400,1456L1147,0H964L444,1131L248,0H59L312,1456H494L1016,322l197,1134h187Z" />
      <glyph unicode="O" glyph-name="gid51" horiz-adv-x="1367" d="M1280,774l-12-91q-20-134-71.5-261T1061,194T860,35T592-20Q448-17 351.5,45.5T201.5,210t-70,225T131,682l13,91q19,134 71.5,260.5t137,227.5T554,1420.5T820,1476q146-3 242.5-65T1212,1247t68.5-225T1280,774Zm-199-92l13,95q11,85 8,177t-30.5,172.5T982,1258t-171,55q-111,3-195-43.5t-142.5-126T380,968T331,776l-13-95q-11-83-7.5-175.5T342,332t90-133.5T601,142q114-3 198,43.5T940.5,311t92,176T1081,682Z" />
      <glyph unicode="P" glyph-name="gid52" horiz-adv-x="1253" d="M692,570l-390,1l28,157l367-1q94,0 172.5,32t130,96t63.5,163q11,85-16.5,146.5T960,1260t-143,37l-344,1L248,0H59L312,1456l510-1q130-3 231.5-54.5T1209,1253t42-233q-13-154-91.5-254t-201-148T692,570Z" />
      <glyph unicode="Q" glyph-name="gid53" horiz-adv-x="1367" d="M805,167l317-301L984-246L672,51L805,167Zm467,607l-13-91q-19-135-71-262T1052,193.5T851,35T584-20Q439-17 342.5,45.5T192.5,210T123,435t-1,247l13,92q19,133 71.5,259.5t137,227.5t202,159.5T812,1476q145-3 241.5-65t150-163.5t69-225T1272,774Zm-200-92l13,95q11,85 8.5,177t-30,172.5t-90,131.5T803,1313q-112,3-195.5-43.5t-142-126T371.5,968T322,776l-13-95q-10-83-7-175.5T333.5,332T424,198.5T593,142q114-3 198,43.5t141.5,126t91.5,176T1072,682Z" />
      <glyph unicode="R" glyph-name="gid54" horiz-adv-x="1224" d="M312,1456l456-1q133-3 235-51t155.5-141.5T1200,1027q-10-113-63.5-194.5T999,696.5T813,610l-56-20H305l26,157l321-1q88,0 165.5,32t130,94.5T1012,1027q11,88-17,147t-87.5,90T764,1297l-291,1L248,0H59L312,1456ZM890,0L661,660l186,1L1091,13l-1-13H890Z" />
      <glyph unicode="S" glyph-name="gid55" horiz-adv-x="1180" d="M876,375q9,66-13,110.5t-64,75t-94,51T601,650q-75,26-147.5,61T323,795.5T232.5,913T207,1072q8,101 57,177.5T389,1377t167,76t184,23q129-3 231-57.5T1130,1266t50-231l-188,1q7,87-22,149.5T880.5,1282T732,1318q-80,2-152.5-24T457,1213.5T396,1074q-8-59 16-101t66.5-71t93-49T668,818q80-27 154.5-63.5t132-88t88-122.5T1065,377q-9-104-59-180T878,72.5T707,1T520-20q-98,1-185.5,31.5T180,99T77,237.5T46,423l187-1q-5-70 15-123t60.5-88.5t96.5-54T528,137q79-2 154.5,22T811,236t65,139Z" />
      <glyph unicode="T" glyph-name="gid56" horiz-adv-x="1185" d="M835,1456L583,0H397L650,1456H835Zm454,0l-28-158H169l28,158H1289Z" />
      <glyph unicode="U" glyph-name="gid57" horiz-adv-x="1288" d="M1120,1456h188L1140,473q-22-152-103-264T831.5,36.5T554-21Q409-18 304.5,44t-155,171.5T116,471l168,985H470L303,470q-11-95 13.5-169t86-117.5T564,137q106-3 187.5,37.5T884.5,291T952,471l168,985Z" />
      <glyph unicode="V" glyph-name="gid58" horiz-adv-x="1265" d="M561,230l605,1226h211L626,0H475l86,230ZM362,1456L583,213L599,0H459L165,1456H362Z" />
      <glyph unicode="W" glyph-name="gid59" horiz-adv-x="1762" d="M511,449L947,1456h142L945,1053L481,0H340L511,449ZM378,1456L446,450L441,0H310L195,1456H378Zm915-986l371,986h193L1288,0H1148l145,470Zm-189,986L1219,431L1248,0H1117L991,1070l-17,386h130Z" />
      <glyph unicode="X" glyph-name="gid60" horiz-adv-x="1245" d="M414,1456L666,899l426,557h231L756,726L1095,0H885L626,568L189,0H-44L536,744L206,1456H414Z" />
      <glyph unicode="Y" glyph-name="gid61" horiz-adv-x="1193" d="M373,1456L612,726l494,730h225L678,534L585,0H397l97,555L168,1456H373Z" />
      <glyph unicode="Z" glyph-name="gid62" horiz-adv-x="1190" d="M1036,157L1008,0H51L78,157h958Zm168,1150L103,0H-20L7,154L1106,1456h124l-26-149Zm-53,149l-28-158H217l28,158h906Z" />
      <glyph unicode="[" glyph-name="gid63" horiz-adv-x="527" d="M675,1664l-25-152H465L204-160H390L366-312H0L308,1664H675Z" />
      <glyph unicode="\" glyph-name="gid64" horiz-adv-x="816" d="M508-125L192,1456H356L671-125H508Z" />
      <glyph unicode="]" glyph-name="gid65" horiz-adv-x="527" d="M151,1512l25,152H544L235-312H-133l24,152H77L338,1512H151Z" />
      <glyph unicode="^" glyph-name="gid66" horiz-adv-x="830" d="M536,1232L256,729H79l417,727H612l-76-224Zm89-503L515,1252l2,204H621L784,729H625Z" />
      <glyph unicode="_" glyph-name="gid67" horiz-adv-x="896" d="M791,0L764-152H-127L-100,0H791Z" />
      <glyph unicode="`" glyph-name="gid68" horiz-adv-x="614" d="M414,1536l141-294H413L208,1536H414Z" />
      <glyph unicode="a" glyph-name="gid69" horiz-adv-x="1081" d="M686,185l90,559q7,62-11.5,109t-61,73T597,954q-56,1-109.5-18T395,879t-51-96l-180-1q7,81 51,141.5t110,101t142,60T615,1103q109-2 189.5-46.5T926,932t30-192L873,236q-9-55-10.5-110.5T875,17L873,0L690-1q-11,46-10.5,93t6.5,93ZM797,656L776,526l-171,1q-54,0-114-8T377,489t-91-63.5T241,318q-6-54 13.5-93.5T314,163t93-23q69-1 136,27t117,80t69,120l66-89q-19-66-62-121.5T631.5,61T506-1T372-22q-91,2-164.5,41T91.5,128.5T55,293q6,103 54,173T232.5,578T398,638.5T576,657l221-1Z" />
      <glyph unicode="b" glyph-name="gid70" horiz-adv-x="1116" d="M298,1536H480L248,199L198,0H31L298,1536Zm718-980l-2-21q-13-99-47.5-198t-94-181T727.5,25T527-21Q423-19 352,27T240,147.5t-56,165T175,494l11,92q17,97 56,190T343,944t147,118.5T685,1103q111-3 180.5-54T971,917.5T1016.5,742T1016,556ZM832,536l3,22q7,60 5,127T818.5,811t-64,96.5T631,947q-63,2-118.5-20.5T412,863.5t-76.5-93T288,660L249,417q-2-72 28-135.5t85.5-103T492,136q83-3 143,32.5t100.5,95t64,131.5T832,536Z" />
      <glyph unicode="c" glyph-name="gid71" horiz-adv-x="1040" d="M483,131q66-1 123,25t97,74t57,111l172,1q-16-109-84.5-191T680.5,23.5T475-20Q361-18 281.5,27.5T154,149T88,320.5T80,517l4,43q12,109 53,207.5t109.5,175T409,1062t211,40q114-2 198-53.5T948,909t46-200l-170,1q-1,64-25,118t-71,87T612,951q-83,2-144.5-31t-104-90.5T296.5,702T263,560l-5-42q-6-64-1.5-131T284,262.5T355,169t128-38Z" />
      <glyph unicode="d" glyph-name="gid72" horiz-adv-x="1120" d="M732,221L960,1536h182L875,0H710l22,221ZM80,521l2,21q13,100 48.5,200T227,925t148,132t203,46q104-3 174-49T862.5,932.5t55-165.5T926,586l-11-92q-17-97-56-190T758.5,136.5T611.5,19T416-21Q310-17 240.5,34t-108,131.5t-50,174T80,521Zm186,23l-2-21q-7-60-4.5-126.5t22.5-125t65-96T469,135q82-2 152,37T741,276t72,141l39,243q3,55-13,105.5T791.5,856t-77,64.5T613,946q-84,3-145-32.5t-102.5-95T300,687T266,544Z" />
      <glyph unicode="e" glyph-name="gid73" horiz-adv-x="1053" d="M490-20Q379-18 297.5,24.5t-133,115T91,305T78,500l4,43q10,104 51,204.5T242.5,929t162,128.5T612,1102q113-2 188-48T917.5,932.5t55.5-169T975,572l-11-83H179l24,151l599-1l3,16q10,72-8,139T731.5,904.5T604,950q-83,3-144-33.5t-102-98t-64.5-134T261,543l-4-42q-6-64 4-129t38.5-118.5t79.5-87T505,131q91-2 163.5,39.5T801,276l103-88Q857,119 792,72T650,2T490-20Z" />
      <glyph unicode="f" glyph-name="gid74" horiz-adv-x="691" d="M301,0H120L324,1195q14,109 64,191.5T521,1515t197,45q33-1 66-5.5t65-11.5l-22-152q-23,5-47.5,8t-48.5,4q-64,0-111-26.5t-75.5-73T506,1196L301,0ZM712,1082L687,940H117l26,142H712Z" />
      <glyph unicode="g" glyph-name="gid75" horiz-adv-x="1116" d="M899,1082h166L884,24q-19-135-86.5-238t-176-160T374-428q-73,2-143,25T102-338T3-235L107-127q47-67 111.5-106.5T366-276q91-2 161.5,33.5T642.5-141T701,14L843,853l56,229ZM82,521l3,22q12,100 47.5,200T228,925.5t147,131T578,1103q105-3 175-49T863.5,932.5t55-165.5T927,586l-11-92q-17-97-56-190T759,136.5T611.5,19T417-21Q310-17 240.5,34T133,165.5t-49,174T82,521Zm185,23l-3-22q-7-60-4-126t23-124.5t64.5-96T469,136q82-3 152,36T741,276t72,141l39,243q3,55-13,106t-47.5,91T715,921T613,946q-84,3-145-32.5T365.5,818T300,686T267,544Z" />
      <glyph unicode="h" glyph-name="gid76" horiz-adv-x="1094" d="M480,1536L213,0H32L299,1536H480ZM275,582l-74,2q14,97 51.5,190.5t99,168.5t147,118.5T694,1102q87-2 145.5-33.5T931,983t44-124.5T977,709L859,0H677L797,712q7,65-4.5,117.5t-50,84T632,947q-76,2-137-29T388.5,833.5t-74-119T275,582Z" />
      <glyph unicode="i" glyph-name="gid77" horiz-adv-x="483" d="M416,1082L228,0H47L235,1082H416ZM271,1366q0,47 29.5,78.5T377,1477t77.5-29t29.5-76q0-46-30.5-76.5T377,1264t-76,27.5T271,1366Z" />
      <glyph unicode="j" glyph-name="gid78" horiz-adv-x="475" d="M225,1082H407L202-129q-12-91-49.5-162T48.5-402T-116-440q-31,1-61,6t-60,13l17,149q21-5 42-8.5t42-3.5q48,0 79.5,20.5T-7-208t25,79L225,1082Zm32,284q0,47 29.5,78.5T363,1477t77-29t30-76q-1-47-31-77t-76-31t-76.5,27.5T257,1366Z" />
      <glyph unicode="k" glyph-name="gid79" horiz-adv-x="1007" d="M481,1536L214,0H32L299,1536H481Zm570-454L515,586L192,295l22,214L430,729l385,353h236ZM698,0L406,526L521,681L896,0H698Z" />
      <glyph unicode="l" glyph-name="gid80" horiz-adv-x="483" d="M495,1536L228,0H47L313,1536H495Z" />
      <glyph unicode="m" glyph-name="gid81" horiz-adv-x="1742" d="M360,856L212,0H30L218,1082H390L360,856ZM279,582l-82,2q14,101 50,195t96.5,168T490,1063t199,39q84-2 142-32.5t93.5-83t48-120.5T978,721L857,0H676L796,713q8,68-7.5,120T731,915.5T617,948q-81,2-140.5-28t-99-82.5T314,718.5T279,582ZM978,684L848,646q12,93 50.5,176T999,969t144,100t181,34q88-2 149-32.5t97.5-83.5t49-123.5T1623,711L1504,0H1322l120,714q8,69-6.5,121T1379,916.5T1263,947q-59,2-108-18t-85-56.5T1010.5,788T978,684Z" />
      <glyph unicode="n" glyph-name="gid82" horiz-adv-x="1097" d="M359,840L213,0H32L220,1082H391L359,840ZM275,582l-74,2q14,97 51.5,190.5t99,168.5t147,118.5T694,1102q87-2 145.5-33.5T931,983t44-124.5T977,709L859,0H677L797,712q7,65-4.5,117.5t-50,84T632,947q-76,2-137-29T388.5,833.5t-74-119T275,582Z" />
      <glyph unicode="o" glyph-name="gid83" horiz-adv-x="1133" d="M79,523l3,23q12,109 54.5,210T249,936t166,124t214,42q114-2 195.5-49t132-124.5T1027,754t10-200l-2-23q-13-109-56-209T865.5,144T699,21.5T486-20Q373-18 291.5,28.5T160,152T90,325T79,523Zm183,23l-2-24q-7-63-0.5-131t32-126T366,170t127-39q83-2 146,32.5T746.5,257t71,131T853,531l2,23q7,63 0.5,131.5t-32,128t-74.5,97T622,950q-83,3-146.5-32.5T368,822T297.5,689.5T262,546Z" />
      <glyph unicode="p" glyph-name="gid84" horiz-adv-x="1116" d="M363,863L141-416H-41L219,1082H385L363,863Zm651-307l-2-21q-13-98-47.5-197.5T871,156T726.5,25T526-21Q425-19 353,23.5t-116,113t-62.5,158T162,474l14,111q17,98 57.5,191.5T337,945t149.5,117.5T683,1102q111-3 180.5-53.5t106-131t45.5-175T1014,556ZM830,536l3,22q7,60 3.5,127t-25,125.5t-67,96.5T621,947q-62,2-117.5-20.5T403,863.5t-77-93T279,660L236,399q-1-71 31-131.5T354.5,170T481,131q83-2 144.5,33.5t103.5,96t67,133T830,536Z" />
      <glyph unicode="q" glyph-name="gid85" horiz-adv-x="1129" d="M621-416L846,885l49,197h168L802-416H621ZM80,522l3,21q12,101 48,201.5T227.5,927T376,1057t205,46q104-3 175-49T868.5,933t57-165.5T935,586l-11-92q-17-98-57-191T764,135.5T615,18.5T419-21Q311-17 240.5,33.5T131.5,164t-50,174T80,522Zm186,21l-3-21q-7-60-4-127t24-126t66-97.5T471,130q83-2 154.5,38T748,274.5T822,417l39,243q2,55-14.5,106.5t-49,92T719,924T616,950q-84,3-145.5-33T367,820.5T300,687T266,543Z" />
      <glyph unicode="r" glyph-name="gid86" horiz-adv-x="673" d="M370,904L213,0H32L220,1082H396L370,904Zm351,187L704,917q-21,4-42.5,7T619,927q-65,1-116.5-19.5t-91-57.5t-67-87T301,655l-57-30q11,81 36.5,166t71,157t115,116T634,1105q22,0 43.5-4t43.5-10Z" />
      <glyph unicode="s" glyph-name="gid87" horiz-adv-x="1025" d="M700,293q9,62-22.5,97t-82,53.5T497,474q-60,15-121,37T264.5,567.5t-80,86T158,779q4,80 42.5,141t100,102T435,1083t145,19q102-2 185.5-42T898,945t46-182l-179,1q2,57-23,98t-69,63.5T573,949q-53,1-104-16.5t-87-54T338,784q-6-43 13-70.5t52.5-44t71-27T543,624q82-23 162-58t130-96.5T880,308q-4-85-44.5-147.5t-104-103T592-2T440-20Q335-18 244.5,23.5T100,143.5T49,335l181-1q0-65 27.5-109.5T334,157t112-24q53-1 108.5,14t96,50.5T700,293Z" />
      <glyph unicode="t" glyph-name="gid88" horiz-adv-x="650" d="M661,1082L636,940H67l25,142H661ZM330,1345H510L327,266q-3-35 2-63t24-44.5T411,141q22,0 43.5,3.5T498,151L485-1q-32-9-65.5-13.5T353-18q-83,1-130,42T159,130T149,269L330,1345Z" />
      <glyph unicode="u" glyph-name="gid89" horiz-adv-x="1095" d="M720,260l142,822h182L856,0H683l37,260Zm68,218l74,3q-13-102-46-193.5t-89.5-162t-140-110T389-21q-89,3-148.5,36T147,104T102,232T99,384l117,698H397L280,381q-4-44-1-86.5T297,217t46.5-56.5T427,137q108-4 183,40.5T729,301t59,177Z" />
      <glyph unicode="v" glyph-name="gid90" horiz-adv-x="962" d="M389,176l426,906h191L459,0H332l57,176ZM289,1082L443,153L438,0H322L110,1082H289Z" />
      <glyph unicode="w" glyph-name="gid91" horiz-adv-x="1493" d="M332,201l420,881H877L819,895L393,0H271l61,201Zm-29,881l75-911L363,0H245L128,1082H303ZM979,199l369,883h186L1042,0H915l64,199Zm-81,883l114-886L1006,0H895L769,918l7,164H898Z" />
      <glyph unicode="x" glyph-name="gid92" horiz-adv-x="986" d="M329,1082L496,689l294,393h223L579,539L843,0H646L467,405L162,0H-59L387,557L132,1082H329Z" />
      <glyph unicode="y" glyph-name="gid93" horiz-adv-x="940" d="M348,123l456,959h200L369-168q-25-53-58.5-102t-76-88T139-419T22-441q-27,1-54.5,6T-86-424l11,152q12-2 24-3.5t23-2.5q67-2 115.5,19t84,62T235-99L348,123Zm-50,959L427,232L439,41L304-25L108,1082H298Z" />
      <glyph unicode="z" glyph-name="gid94" horiz-adv-x="986" d="M842,152L815,0H51L78,152H842ZM951,942L99,0H-18L7,145l846,937H975L951,942Zm-55,140L869,929H150l28,153H896Z" />
      <glyph unicode="{" glyph-name="gid95" horiz-adv-x="672" d="M762,1599l28-116q-122-41-182-135t-77-216L503,925q-15-123-75-201.5T273.5,606T61,564L72,686q111,4 172,68t76,171l28,207q17,124 69.5,216t139,154.5T762,1599ZM520-252L478-365Q370-329 302-262.5T206.5-104T191,99l28,207q7,66-5,117.5T164,506T55,542L65,664q108-4 187-46.5T371,496t29-191L373,98q-9-72-3-141t40.5-124T520-252Z" />
      <glyph unicode="|" glyph-name="gid96" horiz-adv-x="485" d="M450,1456L180-270H34L304,1456H450Z" />
      <glyph unicode="}" glyph-name="gid97" horiz-adv-x="672" d="M156,1484l42,112q108-35 175.5-102T469,1335t15-203L457,924q-8-66 4-117t50.5-82T620,690l-9-114q-106,4-185.5,44.5t-120,117T276,925l27,208q9,72 2.5,141.5T265,1399t-109,85ZM-87-368l-28,117q81,27 134.5,78.5T103-51.5T145,99l27,206q16,123 76,199.5t154,113T613,657L603,545q-111-4-171.5-68.5T355,305L327,99Q311-25 258.5-117t-139-154.5T-87-368Z" />
      <glyph unicode="~" glyph-name="gid98" horiz-adv-x="1351" d="M1103,776l142,3q-6-71-32-139t-70-122.5t-106-86T896,401q-84,2-151,42.5T620,541q-36,36-76.5,67.5T449,641q-59,1-98-28t-60.5-76T261,439l-156-3q7,71 33.5,137.5t71,119.5T316,776t141,29q84-2 151-43t124-98q36-36 77-68t95-33q61,0 101.5,31t64.5,80.5T1103,776Z" />
      <glyph unicode="&#xa0;" glyph-name="gid241" horiz-adv-x="503" />
      <glyph unicode="&#xa1;" glyph-name="gid99" horiz-adv-x="485" d="M-15-361L180,684H343L176-361H-15ZM416,999q0-47-29.5-78T310,889q-46-1-76.5,28.5T203,993q1,47 31,77.5t77,31.5q46,1 76-28t29-75Z" />
      <glyph unicode="&#xa2;" glyph-name="gid100" horiz-adv-x="1087" d="M776,1318l-51-288H543l51,288H776ZM555,42L504-245H322L373,42H555Zm-68,89q67-2 124.5,24.5T710,230t58,111l172,1q-17-109-86-191.5T685.5,22.5T479-21Q365-18 286,27.5T160.5,149T97,320.5T90,517l5,43q13,109 55.5,208t112,175T427,1062t212,40q114-3 197.5-54.5T965,908.5T1009,709H838q0,65-23,119t-69,87.5T631,951q-83,2-145.5-31t-106-90t-69-127.5T275,560l-5-42q-8-63-4-130t26-124.5t69-94T487,131Z" />
      <glyph unicode="&#xa3;" glyph-name="gid101" horiz-adv-x="1155" d="M991,0H-13L15,157H1019L991,0ZM745,623H92l27,157H773L745,623ZM495,1040L413,404q-10-85-42.5-166.5T268,102L91,157q44,17 71,59t41,92.5T223,401l85,638q16,129 82.5,229T563,1423.5T801,1476q116-3 197-52.5T1119.5,1287t34.5-201l-188,1q5,66-14,118t-62.5,83T776,1321q-81,2-140-38t-94.5-105T495,1040Z" />
      <glyph unicode="&#xa4;" glyph-name="gid102" horiz-adv-x="1417" d="M306,599q-11-80 5.5-158.5t58-143T477,193.5T631,152q95-3 179,35T960,291.5t108,151T1122,617q11,80-5,158t-58,142T951.5,1020.5T798,1062q-96,3-179.5-35T469,923T360.5,773T306,599Zm-169,1q14,126 71,241t147.5,204.5t206,140.5T808,1235q125-3 221-55.5T1188,1039t90-197.5T1292,616q-14-126-71-241.5T1074,169T868,27.5T621-21Q496-18 400.5,35t-159,141.5T151,374.5T137,600Zm1284,519L1198,922l-112,146l224,197l111-146ZM352,171L128-26L18,119L241,315L352,171ZM1102-27L933,187l144,128l168-214L1102-27ZM362,922L194,1137l142,127l168-215L362,922Z" />
      <glyph unicode="&#xa5;" glyph-name="gid103" horiz-adv-x="1044" d="M951,737L929,612H118l22,125H951ZM901,446L879,322H67L90,446H901ZM478,667l487,789h218L613,604l-118-1l-17,64ZM366,1457L596,657l-33-52l-122-1L168,1456l198,1ZM642,774L508,0H320L455,774H642Z" />
      <glyph unicode="&#xa6;" glyph-name="gid104" horiz-adv-x="477" d="M173-270H-8L130,522H311L173-270ZM473,1456L341,698H160l132,758H473Z" />
      <glyph unicode="&#xa7;" glyph-name="gid105" horiz-adv-x="1218" d="M597,107l12,118q66,2 129,24t107,68t55,119q8,61-17.5,103t-72,70.5T711,657t-99,34q-78,26-150,58.5t-128,79t-85.5,113T226,1103q7,100 56,171.5t124,117T570.5,1458T749,1477q133-2 230.5-53T1127,1277.5t41-231.5H988q6,81-21.5,143T882,1287t-141,38q-72,1-145-20t-125-69.5T407,1106q-9-64 15-105.5t68-68T587,888t102-33q79-26 152.5-58.5t130.5-80t87.5-115T1083,438q-7-95-52.5-158.5t-116-101T761,124.5T597,107ZM553,875L541,755q-67-3-125.5-25t-98-67.5T268,545q-9-64 15-106.5T351.5,369t98-45T553,290q78-26 150.5-58T832,153.5T918,40t23-161q-7-102-55-173.5T763.5-411t-164-65.5T420-496q-100,2-185,30T88-384T-6-250T-33-64l186,2q-5-67 12.5-119t54-87.5T309-323t118-20q71-1 144,20.5T696.5-252T760-124q9,61-16.5,102T672,46.5t-98.5,46T476,126q-78,26-151,59T195,265.5t-87,115T85,544q6,92 49.5,155t111,101.5t147.5,56T553,875Z" />
      <glyph unicode="&#xa8;" glyph-name="gid106" horiz-adv-x="831" d="M218,1369q1,46 30.5,77.5T325,1479t77-29t30-77q-1-46-31.5-76T324,1266q-45-1-75.5,28T218,1369Zm418-2q0,46 29.5,77.5T742,1477t77.5-29t29.5-77q0-46-30.5-76T742,1264t-76,27.5T636,1367Z" />
      <glyph unicode="&#xa9;" glyph-name="gid107" horiz-adv-x="1561" d="M943,597l140,1q-14-149-106-234T733,284q-108,3-175,58.5t-95.5,143T442,671l12,115q12,104 59.5,193T642,1122t194,52q145-3 222-87.5T1128,859l-142,1q5,85-29.5,135T831,1046q-73,2-122-36t-76.5-98T596,787L583,670q-5-57 4.5-115.5T632,455t105-43q94-4 142.5,47T943,597ZM222,722q-15-116 9.5-226T317,297T472.5,154T692,98q132-3 248,48.5T1147.5,289t150,206.5T1372,736q15,115-9,224.5T1278,1159t-155,142.5T904,1357q-132,3-248.5-48t-208-141t-150-205.5T222,722Zm-113,0q17,149 84,285.5t174,243T610.5,1418T903,1476q149-2 264.5-65t192-168.5T1469,1006t17-271q-17-148-83.5-285T1229,206T985.5,37.5T693-21Q544-19 428.5,44.5T236.5,214T127,451.5T109,722Z" />
      <glyph unicode="&#xaa;" glyph-name="gid108" horiz-adv-x="889" d="M625,862l52,342q3,36-3.5,65.5T646,1317t-61,19q-57,2-100-23t-58-81l-156,12q8,82 55.5,134t117,77T589,1478q83-1 140-36.5t85-97T835,1201L786,887q-7-46-8.5-91t5.5-91H628q-13,80-3,157Zm87,287l-19-111H559q-40-1-84-12.5t-76.5-38T360,914q-7-49 25-68.5T460,826q38,0 79.5,15.5t75,42.5T663,948l6-113q-25-46-63.5-78.5T520,707T420,690q-99,1-162,59.5T198,910q3,96 59,148t137,72t161,20l157-1Z" />
      <glyph unicode="&#xab;" glyph-name="gid109" horiz-adv-x="942" d="M588,945L267,545L92,543v16L438,946l150-1ZM257,553L439,150H313L86,538v16l171-1ZM909,945L588,545l-175-2v16L759,946l150-1ZM578,553L760,150H634L407,538v16l171-1Z" />
      <glyph unicode="&#xac;" glyph-name="gid110" horiz-adv-x="1100" d="M965,801L937,639H129l29,162H965Zm-13-75L891,376H710l62,350H952Z" />
      <glyph unicode="&#xad;" glyph-name="gid242" horiz-adv-x="549" d="M528,695L501,543H26L53,695H528Z" />
      <glyph unicode="&#xae;" glyph-name="gid111" horiz-adv-x="1562" d="M821,655H599l18,128l188-1q40,2 79.5,15.5t68.5,41T989,910q8,52-10.5,79t-54,37T844,1038H703L590,317H452l133,848l258-1q77-2 143-27.5t105-79.5t34-140q-3-75-39-113.5T997.5,741T892,688q-4-2-7.5-6t-7.5-7q-10-7-18-11t-17-6.5T821,655Zm-19-1l23,90q111-3 174-58t55-171l-6-55q-3-33-1.5-63.5T1050,333l-1-17H910q-5,37-2.5,73t6.5,73l6,53q7,71-20.5,102T802,654ZM221,722q-15-116 9.5-226T316,297T471.5,154T691,97q132-2 248.5,49.5T1147,289t149.5,206.5T1371,736q15,115-9,225t-85,198.5t-155,142T903,1357q-132,3-248.5-48t-208-141t-150-205.5T221,722Zm-113,0q17,149 84,285.5t174,243T609.5,1418T902,1476q149-2 264.5-65t192-168.5T1468,1006t17-271q-16-148-83-285T1228,206T984.5,37.5T692-22Q543-19 427.5,44.5t-192,169T126,451T108,722Z" />
      <glyph unicode="&#xaf;" glyph-name="gid112" horiz-adv-x="911" d="M923,1445l-23-142H248l23,142H923Z" />
      <glyph unicode="&#xb0;" glyph-name="gid113" horiz-adv-x="742" d="M235,1208q2,71 39,133t97,100t133,37q67-1 117.5-37.5t78-93.5T725,1226q-3-71-38.5-132T592,995.5T460,959q-67,1-118.5,36T261,1086.5T235,1208Zm120,2q-5-49 24.5-86t80.5-37q56,0 97,41.5t47,95.5q6,48-21.5,86.5T503,1350q-56,0-99-42.5T355,1210Z" />
      <glyph unicode="&#xb1;" glyph-name="gid114" horiz-adv-x="1062" d="M1024,855L999,703H109l25,152h890ZM736,1267L583,289H419l153,978H736ZM873,152L849,1H38L62,152H873Z" />
      <glyph unicode="&#xb2;" glyph-name="gid115" horiz-adv-x="738" d="M697,795L674,667H93l20,116l316,265q28,24 60.5,53.5t57.5,64t31,74.5q7,47-19.5,74.5T485,1343q-66,0-106-37.5T325,1207l-155-1q9,83 52.5,142T334,1438.5T484,1469q70-1 129-26.5t94-76T738,1240q-4-65-40-119t-86-98.5T515,941L319,795H697Z" />
      <glyph unicode="&#xb3;" glyph-name="gid116" horiz-adv-x="738" d="M348,1125h73q37,2 73,13.5t62,36.5t32,67q7,51-26,74.5T483,1340q-50,1-88.5-22T341,1247H185q8,75 51,125t107.5,74T480,1469q67-1 129-24t100.5-71T745,1250q-2-74-48.5-118.5t-113-64T455,1047H335l13,78Zm-20-114l14,78l95-1q64-2 124.5-18.5t99-58T696,894q-2-84-50.5-137T525,679T379,656q-73,1-134,27.5t-97.5,78T111,891H262q-1-55 35-80t89-26q55,0 104,28.5T547,902q6,42-11,65t-47.5,32.5T422,1010l-94,1Z" />
      <glyph unicode="&#xb4;" glyph-name="gid117" horiz-adv-x="623" d="M213,1242l235,294H678L372,1242H213Z" />
      <glyph unicode="&#xb5;" glyph-name="gid118" horiz-adv-x="1126" d="M880,1082h181L873,0H710l27,261l143,821ZM805,507l60,2q-12-88-35.5-182T762,153T645,24T463-22Q403-21 343.5-0.5T240.5,62T185,170l11,290H305q-4-51-4-107.5t13.5-106t48.5-82T464,130q88-3 149,26.5t100,83T774,362t31,145ZM234,1082H414L153-416H-26L234,1082Z" />
      <glyph unicode="&#xb6;" glyph-name="gid119" horiz-adv-x="972" d="M705,0H523l91,520l-72,1q-136,3-232,61.5T167,743T134,980q15,148 90,254.5T417,1399t263,58l277-1L705,0Z" />
      <glyph unicode="&#xb7;" glyph-name="gid120" horiz-adv-x="519" d="M166,726q1,49 31.5,82T278,842q49,1 80-30t31-80q-1-49-32.5-80.5T276,619q-48-1-79.5,29T166,726Z" />
      <glyph unicode="&#xb8;" glyph-name="gid121" horiz-adv-x="493" d="M38,0H167L146-56q63-14 95-56.5T271-219q-2-65-33-107t-79.5-65.5T53.5-425T-56-437l4,108q36,2 75.5,10.5t69.5,31T130-222q6,39-17,56.5T55-143t-62,9L38,0Z" />
      <glyph unicode="&#xb9;" glyph-name="gid122" horiz-adv-x="738" d="M624,1456L492,667H339l105,597l-220-56l24,136l354,112h22Z" />
      <glyph unicode="&#xba;" glyph-name="gid123" horiz-adv-x="904" d="M199,1043l7,80q11,100 60.5,181.5t130,128.5T583,1478q100-3 167-51.5t98-128T871,1124l-8-81q-11-100-59.5-181T675,734.5T489,690q-100,3-167.5,51.5T222.5,869T199,1043Zm169,81l-9-83q-5-51 5-99t42-80t92-33q62-2 105,28.5t68,80T704,1043l9,82q5,50-5.5,98.5t-42,80T575,1337q-62,2-105.5-28t-69-79.5T368,1124Z" />
      <glyph unicode="&#xbb;" glyph-name="gid124" horiz-adv-x="941" d="M17,154L339,554l175,2V540L168,153L17,154ZM167,949H292L520,561l-1-16l-170,1L167,949ZM355,154L677,554l175,2V540L506,153l-151,1ZM505,949H630L858,561l-1-16l-170,1L505,949Z" />
      <glyph unicode="&#xbc;" glyph-name="gid125" horiz-adv-x="1465" d="M586,1453L455,664H302l104,597l-220-56l24,136l355,112h21Zm650-204L355,121l-98,72l881,1128l98-72Zm96-949l-23-130H689l12,112l448,507h134L1106,554L865,300h467Zm-20,489L1175,0H1021l138,789h153Z" />
      <glyph unicode="&#xbd;" glyph-name="gid126" horiz-adv-x="1551" d="M1193,1249L312,121l-98,72l881,1128l98-72ZM581,1453L450,664H297l104,597l-220-56l24,136l355,112h21ZM1356,128L1333,0H752l20,116l316,265q28,24 60.5,53.5t57.5,64t31,74.5q6,47-20,74.5T1144,676q-66,0-106-37.5T984,540l-155-1q9,83 52.5,142T993,771.5T1143,802q69-1 128.5-26.5t94.5-76T1397,573q-4-65-40-119t-86.5-98.5T1173,274L978,128h378Z" />
      <glyph unicode="&#xbe;" glyph-name="gid127" horiz-adv-x="1555" d="M1359,1249L478,121l-98,72l881,1128l98-72Zm62-949l-23-130H778l12,112l448,507h134L1195,554L954,300h467Zm-20,489L1264,0H1110l138,789h153ZM396,1125h72q38,2 74,13.5t62,36.5t32,67q7,51-26,74.5T530,1340q-49,1-87.5-22T388,1247H232q9,75 52,125t107.5,74T527,1469q68-1 129.5-24t100-71T793,1250q-2-74-48.5-118.5t-113-64T503,1047H382l14,78Zm-20-114l14,78l95-1q64-2 124.5-18.5t98.5-58T744,894q-3-84-51-137T573,679T426,656q-73,1-134,27.5t-97.5,78T159,891H309q0-55 36-80t89-26q55,0 104,28.5T595,902q6,42-11,65t-48,32.5T470,1010l-94,1Z" />
      <glyph unicode="&#xbf;" glyph-name="gid128" horiz-adv-x="941" d="M400,680l178,1q-9-85-36-150T470.5,411T364,298q-47-44-93.5-88.5t-80-97.5T149-10q-8-62 8.5-110.5T215-197t107-29q65-2 117,23.5t86.5,72T572-21l180,1q-13-115-75-198T519.5-345T310-387q-111,3-193,48T-6-211.5T-37-15q8,97 54.5,176t114,145T268,431q40,34 66.5,72t42,82.5T400,680Zm248,320q0-47-29.5-78T542,890q-46-1-76.5,28.5T435,994q1,47 31,77.5t76,31.5q47,1 77-28t29-75Z" />
      <glyph unicode="&#xc0;" glyph-name="gid248" horiz-adv-x="1296" d="M812,1316L120,0H-81L711,1456H840l-28-140ZM978,0L737,1338l19,118H876L1163,0H978Zm67,539l-28-158H222l28,158h795ZM773,1847l141-294H772L567,1847H773Z" />
      <glyph unicode="&#xc1;" glyph-name="gid249" horiz-adv-x="1296" d="M812,1316L120,0H-81L711,1456H840l-28-140ZM978,0L737,1338l19,118H876L1163,0H978Zm67,539l-28-158H222l28,158h795ZM712,1553l235,294h230L871,1553H712Z" />
      <glyph unicode="&#xc2;" glyph-name="gid250" horiz-adv-x="1296" d="M812,1316L120,0H-81L711,1456H840l-28-140ZM978,0L737,1338l19,118H876L1163,0H978Zm67,539l-28-158H222l28,158h795ZM912,1847l206-271v-14l-147,2L857,1732L681,1565l-151-3l-1,15l277,270H912Z" />
      <glyph unicode="&#xc3;" glyph-name="gid251" horiz-adv-x="1296" d="M812,1316L120,0H-81L711,1456H840l-28-140ZM978,0L737,1338l19,118H876L1163,0H978Zm67,539l-28-158H222l28,158h795Zm35,1287l120-10q-6-63-33.5-120t-76.5-92t-119-34q-38,1-69,16.5T841.5,1622T782,1656.5T716,1669q-49-1-76.5-34.5T600,1558l-122,5q7,63 34.5,121t76.5,94t120,35q36-1 67-16.5t60.5-35t60-34T964,1713q49,2 77,36t39,77Z" />
      <glyph unicode="&#xc4;" glyph-name="gid252" horiz-adv-x="1296" d="M812,1316L120,0H-81L711,1456H840l-28-140ZM978,0L737,1338l19,118H876L1163,0H978Zm67,539l-28-158H222l28,158h795ZM525,1680q1,46 30.5,77.5T632,1790t77-29t30-77q-1-46-31.5-76T631,1577q-45-1-75.5,28T525,1680Zm418-2q0,46 29.5,77.5T1049,1788t77.5-29t29.5-77q0-46-30.5-76t-76.5-31t-76,27.5T943,1678Z" />
      <glyph unicode="&#xc5;" glyph-name="gid253" horiz-adv-x="1296" d="M812,1316L120,0H-81L711,1456H840l-28-140ZM978,0L737,1338l19,118H876L1163,0H978Zm67,539l-28-158H222l28,158h795ZM640,1723q1,60 31,109t80,78.5T860,1940q84,0 141-59t56-142q-1-60-31-108.5T946,1554t-109-28q-84,0-141,56.5T640,1723Zm96,2q-4-43 22-76t71-33q49,0 87.5,36.5T960,1737q6,44-20,78t-72,34q-50,0-88-38t-44-86Z" />
      <glyph unicode="&#xc6;" glyph-name="gid129" horiz-adv-x="1857" d="M1063,1297L108,0H-125L983,1456h123l-43-159Zm7-769l-31-175H317l31,175h722Zm677-376L1720,0H1008l27,152h712ZM1236,1456L1043,0H862l194,1456h180Zm491-622l-27-152H1087l27,152h613Zm186,622l-27-152H1175l27,152h711Z" />
      <glyph unicode="&#xc7;" glyph-name="gid255" horiz-adv-x="1293" d="M988,462l185,2q-30-150-112.5-260T853.5,35T575-20Q437-17 343.5,43t-146,158t-69,216T128,655l21,145q20,132 72.5,254.5t137,218.5t200,151T821,1476t246-66t150.5-172T1273,988H1087q-3,92-29,166t-85,118t-160,47q-110,3-192.5-41T480,1158.5T387,990T337,802L315,654q-11-79-8-167.5t29.5-167t86-129T584,137q112-4 191,35T906,285.5T988,462ZM489-10H618L597-66q63-14 95-56.5T722-229q-2-65-33-107t-79.5-65.5T504.5-435T395-447l4,108q36,2 75.5,10.5t69.5,31T581-232q6,39-17,56.5T506-153t-62,9L489-10Z" />
      <glyph unicode="&#xc8;" glyph-name="gid256" horiz-adv-x="1129" d="M986,157L958,0H209l27,157H986ZM501,1456L248,0H59L312,1456H501Zm502-626L976,673H325l28,157h650Zm198,626l-28-158H434l28,158h739ZM724,1858l141-294H723L518,1858H724Z" />
      <glyph unicode="&#xc9;" glyph-name="gid257" horiz-adv-x="1129" d="M986,157L958,0H209l27,157H986ZM501,1456L248,0H59L312,1456H501Zm502-626L976,673H325l28,157h650Zm198,626l-28-158H434l28,158h739ZM663,1564l235,294h230L822,1564H663Z" />
      <glyph unicode="&#xca;" glyph-name="gid258" horiz-adv-x="1129" d="M986,157L958,0H209l27,157H986ZM501,1456L248,0H59L312,1456H501Zm502-626L976,673H325l28,157h650Zm198,626l-28-158H434l28,158h739ZM862,1858l206-271v-14l-147,2L807,1743L631,1576l-151-3l-1,15l277,270H862Z" />
      <glyph unicode="&#xcb;" glyph-name="gid259" horiz-adv-x="1129" d="M986,157L958,0H209l27,157H986ZM501,1456L248,0H59L312,1456H501Zm502-626L976,673H325l28,157h650Zm198,626l-28-158H434l28,158h739ZM475,1691q1,46 30.5,77.5T582,1801t77-29t30-77q-1-46-31.5-76T581,1588q-45-1-75.5,28T475,1691Zm418-2q0,46 29.5,77.5T999,1799t77.5-29t29.5-77q0-46-30.5-76T999,1586t-76,27.5T893,1689Z" />
      <glyph unicode="&#xcc;" glyph-name="gid260" horiz-adv-x="540" d="M514,1456L261,0H73L326,1456H514ZM394,1858l141-294H393L188,1858H394Z" />
      <glyph unicode="&#xcd;" glyph-name="gid261" horiz-adv-x="540" d="M514,1456L261,0H73L326,1456H514ZM333,1564l235,294H798L492,1564H333Z" />
      <glyph unicode="&#xce;" glyph-name="gid262" horiz-adv-x="540" d="M514,1456L261,0H73L326,1456H514Zm18,402l206-271v-14l-147,2L477,1743L301,1576l-151-3l-1,15l277,270H532Z" />
      <glyph unicode="&#xcf;" glyph-name="gid263" horiz-adv-x="540" d="M514,1456L261,0H73L326,1456H514ZM146,1691q1,46 30.5,77.5T253,1801t77-29t30-77q-1-46-31.5-76T252,1588q-45-1-75.5,28T146,1691Zm418-2q0,46 29.5,77.5T670,1799t77.5-29t29.5-77q0-46-30.5-76T670,1586t-76,27.5T564,1689Z" />
      <glyph unicode="&#xd0;" glyph-name="gid244" horiz-adv-x="1334" d="M484,0H177l29,157l283-1q159,0 275.5,69.5T952,414.5T1046,684l13,90q12,96 3.5,188T1017,1128.5t-108,120T726,1297l-330,1l28,158l306-1q146-3 250.5-59.5t169-151.5t88-217t7.5-256l-12-87q-21-148-83-273.5T991,193T766,50.5T484,0Zm47,1456L278,0H89L342,1456H531ZM694,817L667,665H47L74,817H694Z" />
      <glyph unicode="&#xd1;" glyph-name="gid264" horiz-adv-x="1417" d="M1400,1456L1147,0H964L444,1131L248,0H59L312,1456H494L1016,322l197,1134h187Zm-267,370l120-10q-6-63-33.5-120t-76.5-92t-119-34q-38,1-69,16.5T894.5,1622T835,1656.5T769,1669q-49-1-76.5-34.5T653,1558l-122,5q7,63 34.5,121t76.5,94t120,35q36-1 67-16.5t60.5-35t60-34T1017,1713q49,2 77,36t39,77Z" />
      <glyph unicode="&#xd2;" glyph-name="gid265" horiz-adv-x="1367" d="M1280,774l-12-91q-20-134-71.5-261T1061,194T860,35T592-20Q448-17 351.5,45.5T201.5,210t-70,225T131,682l13,91q19,134 71.5,260.5t137,227.5T554,1420.5T820,1476q146-3 242.5-65T1212,1247t68.5-225T1280,774Zm-199-92l13,95q11,85 8,177t-30.5,172.5T982,1258t-171,55q-111,3-195-43.5t-142.5-126T380,968T331,776l-13-95q-11-83-7.5-175.5T342,332t90-133.5T601,142q114-3 198,43.5T940.5,311t92,176T1081,682ZM808,1849l141-294H807L602,1849H808Z" />
      <glyph unicode="&#xd3;" glyph-name="gid266" horiz-adv-x="1367" d="M1280,774l-12-91q-20-134-71.5-261T1061,194T860,35T592-20Q448-17 351.5,45.5T201.5,210t-70,225T131,682l13,91q19,134 71.5,260.5t137,227.5T554,1420.5T820,1476q146-3 242.5-65T1212,1247t68.5-225T1280,774Zm-199-92l13,95q11,85 8,177t-30.5,172.5T982,1258t-171,55q-111,3-195-43.5t-142.5-126T380,968T331,776l-13-95q-11-83-7.5-175.5T342,332t90-133.5T601,142q114-3 198,43.5T940.5,311t92,176T1081,682ZM746,1555l235,294h230L905,1555H746Z" />
      <glyph unicode="&#xd4;" glyph-name="gid267" horiz-adv-x="1367" d="M1280,774l-12-91q-20-134-71.5-261T1061,194T860,35T592-20Q448-17 351.5,45.5T201.5,210t-70,225T131,682l13,91q19,134 71.5,260.5t137,227.5T554,1420.5T820,1476q146-3 242.5-65T1212,1247t68.5-225T1280,774Zm-199-92l13,95q11,85 8,177t-30.5,172.5T982,1258t-171,55q-111,3-195-43.5t-142.5-126T380,968T331,776l-13-95q-11-83-7.5-175.5T342,332t90-133.5T601,142q114-3 198,43.5T940.5,311t92,176T1081,682ZM946,1849l206-271v-14l-147,2L891,1734L715,1567l-151-3l-1,15l277,270H946Z" />
      <glyph unicode="&#xd5;" glyph-name="gid268" horiz-adv-x="1367" d="M1280,774l-12-91q-20-134-71.5-261T1061,194T860,35T592-20Q448-17 351.5,45.5T201.5,210t-70,225T131,682l13,91q19,134 71.5,260.5t137,227.5T554,1420.5T820,1476q146-3 242.5-65T1212,1247t68.5-225T1280,774Zm-199-92l13,95q11,85 8,177t-30.5,172.5T982,1258t-171,55q-111,3-195-43.5t-142.5-126T380,968T331,776l-13-95q-11-83-7.5-175.5T342,332t90-133.5T601,142q114-3 198,43.5T940.5,311t92,176T1081,682Zm33,1146l120-10q-6-63-33.5-120t-76.5-92t-119-34q-38,1-69,16.5T875.5,1624T816,1658.5T750,1671q-49-1-76.5-34.5T634,1560l-122,5q7,63 34.5,121t76.5,94t120,35q36-1 67-16.5t60.5-35t60-34T998,1715q49,2 77,36t39,77Z" />
      <glyph unicode="&#xd6;" glyph-name="gid269" horiz-adv-x="1367" d="M1280,774l-12-91q-20-134-71.5-261T1061,194T860,35T592-20Q448-17 351.5,45.5T201.5,210t-70,225T131,682l13,91q19,134 71.5,260.5t137,227.5T554,1420.5T820,1476q146-3 242.5-65T1212,1247t68.5-225T1280,774Zm-199-92l13,95q11,85 8,177t-30.5,172.5T982,1258t-171,55q-111,3-195-43.5t-142.5-126T380,968T331,776l-13-95q-11-83-7.5-175.5T342,332t90-133.5T601,142q114-3 198,43.5T940.5,311t92,176T1081,682ZM559,1682q1,46 30.5,77.5T666,1792t77-29t30-77q-1-46-31.5-76T665,1579q-45-1-75.5,28T559,1682Zm418-2q0,46 29.5,77.5T1083,1790t77.5-29t29.5-77q0-46-30.5-76t-76.5-31t-76,27.5T977,1680Z" />
      <glyph unicode="&#xd7;" glyph-name="gid130" horiz-adv-x="1060" d="M142,206L40,338l885,786l101-133L142,206Zm643-1L159,1009l129,115L913,320L785,205Z" />
      <glyph unicode="&#xd8;" glyph-name="gid131" horiz-adv-x="1367" d="M1436,1516L184-93H32L1287,1516h149ZM1280,774l-12-91q-20-134-71.5-261T1061,194T860,35T592-20Q477-18 392,23.5T251,135T164.5,294T126,482.5T131,682l13,92q19,133 71.5,259.5t137,227.5T554,1420.5T820,1476q117-2 201.5-43.5t140.5-111t86.5-159t37.5-189T1280,774Zm-199-92l13,95q9,68 9.5,141.5t-13,142.5t-46,125T955,1276.5T812,1314q-112,3-196-44T473.5,1144T380,968.5T331,776l-13-95q-9-67-9-140t14-142.5T370,272t89.5-91.5T601,143q114-4 198,42.5t141.5,126t92,176T1081,682Z" />
      <glyph unicode="&#xd9;" glyph-name="gid270" horiz-adv-x="1288" d="M1120,1456h188L1140,473q-22-152-103-264T831.5,36.5T554-21Q409-18 304.5,44t-155,171.5T116,471l168,985H470L303,470q-11-95 13.5-169t86-117.5T564,137q106-3 187.5,37.5T884.5,291T952,471l168,985ZM769,1847l141-294H768L563,1847H769Z" />
      <glyph unicode="&#xda;" glyph-name="gid271" horiz-adv-x="1288" d="M1120,1456h188L1140,473q-22-152-103-264T831.5,36.5T554-21Q409-18 304.5,44t-155,171.5T116,471l168,985H470L303,470q-11-95 13.5-169t86-117.5T564,137q106-3 187.5,37.5T884.5,291T952,471l168,985Zm-413,97l235,294h230L866,1553H707Z" />
      <glyph unicode="&#xdb;" glyph-name="gid272" horiz-adv-x="1288" d="M1120,1456h188L1140,473q-22-152-103-264T831.5,36.5T554-21Q409-18 304.5,44t-155,171.5T116,471l168,985H470L303,470q-11-95 13.5-169t86-117.5T564,137q106-3 187.5,37.5T884.5,291T952,471l168,985ZM907,1847l206-271v-14l-147,2L852,1732L676,1565l-151-3l-1,15l277,270H907Z" />
      <glyph unicode="&#xdc;" glyph-name="gid273" horiz-adv-x="1288" d="M1120,1456h188L1140,473q-22-152-103-264T831.5,36.5T554-21Q409-18 304.5,44t-155,171.5T116,471l168,985H470L303,470q-11-95 13.5-169t86-117.5T564,137q106-3 187.5,37.5T884.5,291T952,471l168,985ZM520,1680q1,46 30.5,77.5T627,1790t77-29t30-77q-1-46-31.5-76T626,1577q-45-1-75.5,28T520,1680Zm418-2q0,46 29.5,77.5T1044,1788t77.5-29t29.5-77q0-46-30.5-76t-76.5-31t-76,27.5T938,1678Z" />
      <glyph unicode="&#xdd;" glyph-name="gid274" horiz-adv-x="1193" d="M373,1456L612,726l494,730h225L678,534L585,0H397l97,555L168,1456H373Zm286,96l235,294h230L818,1552H659Z" />
      <glyph unicode="&#xde;" glyph-name="gid132" horiz-adv-x="1174" d="M310,1456H491L238,0H57L310,1456Zm45-293l342-1q124-3 220.5-52.5T1066,968t41-222q-12-143-88.5-239.5T825,361.5T574,313l-323,1l27,151l299-1q87,0 162.5,32.5t125.5,95T927,744q10,80-16,139t-82,92t-135,36l-277,1l-62,151Z" />
      <glyph unicode="&#xdf;" glyph-name="gid133" horiz-adv-x="1181" d="M400,1113L211,0H31L221,1112q12,91 45.5,172T355,1427t132,96t177,32q100-3 175-41.5T953,1402t31-176q-6-63-31-114t-57-98t-59-96T800,811q-9-57 14-103.5t62-89t79.5-86T1023,439t23-113q-6-114-64-192.5T832,16T631-22q-48,1-98.5,8.5T433.5,10T343,51l55,156q47-33 104-54.5T618,130q60-1 114,19.5t90.5,62T868,316q8,59-16.5,106T787,512t-80.5,87T640,694.5T619,812q5,58 31.5,106.5t60.5,94t62,93T809,1211q7,52-7,95.5T753.5,1377T663,1406q-86,3-140-40t-83-111.5T400,1113Z" />
      <glyph unicode="&#xe0;" glyph-name="gid275" horiz-adv-x="1081" d="M686,185l90,559q7,62-11.5,109t-61,73T597,954q-56,1-109.5-18T395,879t-51-96l-180-1q7,81 51,141.5t110,101t142,60T615,1103q109-2 189.5-46.5T926,932t30-192L873,236q-9-55-10.5-110.5T875,17L873,0L690-1q-11,46-10.5,93t6.5,93ZM797,656L776,526l-171,1q-54,0-114-8T377,489t-91-63.5T241,318q-6-54 13.5-93.5T314,163t93-23q69-1 136,27t117,80t69,120l66-89q-19-66-62-121.5T631.5,61T506-1T372-22q-91,2-164.5,41T91.5,128.5T55,293q6,103 54,173T232.5,578T398,638.5T576,657l221-1ZM632,1536l141-294H631L426,1536H632Z" />
      <glyph unicode="&#xe1;" glyph-name="gid276" horiz-adv-x="1081" d="M686,185l90,559q7,62-11.5,109t-61,73T597,954q-56,1-109.5-18T395,879t-51-96l-180-1q7,81 51,141.5t110,101t142,60T615,1103q109-2 189.5-46.5T926,932t30-192L873,236q-9-55-10.5-110.5T875,17L873,0L690-1q-11,46-10.5,93t6.5,93ZM797,656L776,526l-171,1q-54,0-114-8T377,489t-91-63.5T241,318q-6-54 13.5-93.5T314,163t93-23q69-1 136,27t117,80t69,120l66-89q-19-66-62-121.5T631.5,61T506-1T372-22q-91,2-164.5,41T91.5,128.5T55,293q6,103 54,173T232.5,578T398,638.5T576,657l221-1ZM571,1242l235,294h230L730,1242H571Z" />
      <glyph unicode="&#xe2;" glyph-name="gid277" horiz-adv-x="1081" d="M686,185l90,559q7,62-11.5,109t-61,73T597,954q-56,1-109.5-18T395,879t-51-96l-180-1q7,81 51,141.5t110,101t142,60T615,1103q109-2 189.5-46.5T926,932t30-192L873,236q-9-55-10.5-110.5T875,17L873,0L690-1q-11,46-10.5,93t6.5,93ZM797,656L776,526l-171,1q-54,0-114-8T377,489t-91-63.5T241,318q-6-54 13.5-93.5T314,163t93-23q69-1 136,27t117,80t69,120l66-89q-19-66-62-121.5T631.5,61T506-1T372-22q-91,2-164.5,41T91.5,128.5T55,293q6,103 54,173T232.5,578T398,638.5T576,657l221-1Zm-26,880l206-271v-14l-147,2L716,1421L540,1254l-151-3l-1,15l277,270H771Z" />
      <glyph unicode="&#xe3;" glyph-name="gid278" horiz-adv-x="1081" d="M686,185l90,559q7,62-11.5,109t-61,73T597,954q-56,1-109.5-18T395,879t-51-96l-180-1q7,81 51,141.5t110,101t142,60T615,1103q109-2 189.5-46.5T926,932t30-192L873,236q-9-55-10.5-110.5T875,17L873,0L690-1q-11,46-10.5,93t6.5,93ZM797,656L776,526l-171,1q-54,0-114-8T377,489t-91-63.5T241,318q-6-54 13.5-93.5T314,163t93-23q69-1 136,27t117,80t69,120l66-89q-19-66-62-121.5T631.5,61T506-1T372-22q-91,2-164.5,41T91.5,128.5T55,293q6,103 54,173T232.5,578T398,638.5T576,657l221-1Zm142,859l120-10q-6-63-33.5-120T949,1293t-119-34q-38,1-69,16.5T700.5,1311T641,1345.5T575,1358q-49-1-76.5-34.5T459,1247l-122,5q7,63 34.5,121t76.5,94t120,35q36-1 67-16.5t60.5-35t60-34T823,1402q49,2 77,36t39,77Z" />
      <glyph unicode="&#xe4;" glyph-name="gid279" horiz-adv-x="1081" d="M686,185l90,559q7,62-11.5,109t-61,73T597,954q-56,1-109.5-18T395,879t-51-96l-180-1q7,81 51,141.5t110,101t142,60T615,1103q109-2 189.5-46.5T926,932t30-192L873,236q-9-55-10.5-110.5T875,17L873,0L690-1q-11,46-10.5,93t6.5,93ZM797,656L776,526l-171,1q-54,0-114-8T377,489t-91-63.5T241,318q-6-54 13.5-93.5T314,163t93-23q69-1 136,27t117,80t69,120l66-89q-19-66-62-121.5T631.5,61T506-1T372-22q-91,2-164.5,41T91.5,128.5T55,293q6,103 54,173T232.5,578T398,638.5T576,657l221-1ZM384,1369q1,46 30.5,77.5T491,1479t77-29t30-77q-1-46-31.5-76T490,1266q-45-1-75.5,28T384,1369Zm418-2q0,46 29.5,77.5T908,1477t77.5-29t29.5-77q0-46-30.5-76T908,1264t-76,27.5T802,1367Z" />
      <glyph unicode="&#xe5;" glyph-name="gid280" horiz-adv-x="1081" d="M686,185l90,559q7,62-11.5,109t-61,73T597,954q-56,1-109.5-18T395,879t-51-96l-180-1q7,81 51,141.5t110,101t142,60T615,1103q109-2 189.5-46.5T926,932t30-192L873,236q-9-55-10.5-110.5T875,17L873,0L690-1q-11,46-10.5,93t6.5,93ZM797,656L776,526l-171,1q-54,0-114-8T377,489t-91-63.5T241,318q-6-54 13.5-93.5T314,163t93-23q69-1 136,27t117,80t69,120l66-89q-19-66-62-121.5T631.5,61T506-1T372-22q-91,2-164.5,41T91.5,128.5T55,293q6,103 54,173T232.5,578T398,638.5T576,657l221-1ZM499,1412q1,60 31,109t80,78.5T719,1629q84,0 141-59t56-142q-1-60-31-108.5T805,1243t-109-28q-84,0-141,56.5T499,1412Zm96,2q-4-43 22-76t71-33q49,0 87.5,36.5T819,1426q6,44-20,78t-72,34q-50,0-88-38t-44-86Z" />
      <glyph unicode="&#xe6;" glyph-name="gid134" horiz-adv-x="1678" d="M653,181l90,541q6,60-7.5,111T684,916T579,950q-61,2-117-19.5T366.5,866T315,761L138,778q9,84 51,146t106,102.5t140.5,59T589,1103q114-3 191.5-52.5T894,915.5T918,718L835,216L653,181ZM774,636L749,496l-244,1q-64,0-129.5-21T263,410T207,292q-7-54 14.5-90T283,147.5T372,129q46-1 100,14t105.5,43T667,253t51,86l76-145Q748,117 671.5,69T505.5-0.5T330-21q-95,2-166,40.5T56,128.5T25,296T75,458.5t112.5,105T339,620t167,17l268-1ZM1132-20q-117,1-199,45T801.5,144T733,315t-9,202l5,45q12,102 53,199.5T890,937t158.5,123t203.5,42q105-2 179-42t118-107.5t59-154t4-182.5l-18-118H813l25,142h594l6,32q11,74-4.5,136.5t-62,101.5T1243,951q-78,3-138.5-31.5t-103.5-93t-68.5-128T898,562l-6-44q-7-69 0-136.5t34-123t79-90T1138,132q91-2 169,29t153,77l51-138q-50-43-113.5-70T1266-9T1132-20Z" />
      <glyph unicode="&#xe7;" glyph-name="gid282" horiz-adv-x="1040" d="M483,131q66-1 123,25t97,74t57,111l172,1q-16-109-84.5-191T680.5,23.5T475-20Q361-18 281.5,27.5T154,149T88,320.5T80,517l4,43q12,109 53,207.5t109.5,175T409,1062t211,40q114-2 198-53.5T948,909t46-200l-170,1q-1,64-25,118t-71,87T612,951q-83,2-144.5-31t-104-90.5T296.5,702T263,560l-5-42q-6-64-1.5-131T284,262.5T355,169t128-38ZM357-10H486L465-66q63-14 95-56.5T590-229q-2-65-33-107t-79.5-65.5T372.5-435T263-447l4,108q36,2 75.5,10.5t69.5,31T449-232q6,39-17,56.5T374-153t-62,9L357-10Z" />
      <glyph unicode="&#xe8;" glyph-name="gid283" horiz-adv-x="1053" d="M490-20Q379-18 297.5,24.5t-133,115T91,305T78,500l4,43q10,104 51,204.5T242.5,929t162,128.5T612,1102q113-2 188-48T917.5,932.5t55.5-169T975,572l-11-83H179l24,151l599-1l3,16q10,72-8,139T731.5,904.5T604,950q-83,3-144-33.5t-102-98t-64.5-134T261,543l-4-42q-6-64 4-129t38.5-118.5t79.5-87T505,131q91-2 163.5,39.5T801,276l103-88Q857,119 792,72T650,2T490-20ZM604,1536l141-294H603L398,1536H604Z" />
      <glyph unicode="&#xe9;" glyph-name="gid284" horiz-adv-x="1053" d="M490-20Q379-18 297.5,24.5t-133,115T91,305T78,500l4,43q10,104 51,204.5T242.5,929t162,128.5T612,1102q113-2 188-48T917.5,932.5t55.5-169T975,572l-11-83H179l24,151l599-1l3,16q10,72-8,139T731.5,904.5T604,950q-83,3-144-33.5t-102-98t-64.5-134T261,543l-4-42q-6-64 4-129t38.5-118.5t79.5-87T505,131q91-2 163.5,39.5T801,276l103-88Q857,119 792,72T650,2T490-20Zm53,1262l235,294h230L702,1242H543Z" />
      <glyph unicode="&#xea;" glyph-name="gid285" horiz-adv-x="1053" d="M490-20Q379-18 297.5,24.5t-133,115T91,305T78,500l4,43q10,104 51,204.5T242.5,929t162,128.5T612,1102q113-2 188-48T917.5,932.5t55.5-169T975,572l-11-83H179l24,151l599-1l3,16q10,72-8,139T731.5,904.5T604,950q-83,3-144-33.5t-102-98t-64.5-134T261,543l-4-42q-6-64 4-129t38.5-118.5t79.5-87T505,131q91-2 163.5,39.5T801,276l103-88Q857,119 792,72T650,2T490-20ZM742,1536l206-271v-14l-147,2L687,1421L511,1254l-151-3l-1,15l277,270H742Z" />
      <glyph unicode="&#xeb;" glyph-name="gid286" horiz-adv-x="1053" d="M490-20Q379-18 297.5,24.5t-133,115T91,305T78,500l4,43q10,104 51,204.5T242.5,929t162,128.5T612,1102q113-2 188-48T917.5,932.5t55.5-169T975,572l-11-83H179l24,151l599-1l3,16q10,72-8,139T731.5,904.5T604,950q-83,3-144-33.5t-102-98t-64.5-134T261,543l-4-42q-6-64 4-129t38.5-118.5t79.5-87T505,131q91-2 163.5,39.5T801,276l103-88Q857,119 792,72T650,2T490-20ZM356,1369q1,46 30.5,77.5T463,1479t77-29t30-77q-1-46-31.5-76T462,1266q-45-1-75.5,28T356,1369Zm418-2q0,46 29.5,77.5T880,1477t77.5-29t29.5-77q0-46-30.5-76T880,1264t-76,27.5T774,1367Z" />
      <glyph unicode="&#xec;" glyph-name="gid287" horiz-adv-x="492" d="M415,1082L227,0H47L235,1082H415ZM312,1534l141-294H311L106,1534H312Z" />
      <glyph unicode="&#xed;" glyph-name="gid288" horiz-adv-x="492" d="M415,1082L227,0H47L235,1082H415ZM251,1240l235,294H716L410,1240H251Z" />
      <glyph unicode="&#xee;" glyph-name="gid289" horiz-adv-x="492" d="M415,1082L227,0H47L235,1082H415Zm35,452l206-271v-14l-147,2L395,1419L219,1252l-151-3l-1,15l277,270H450Z" />
      <glyph unicode="&#xef;" glyph-name="gid290" horiz-adv-x="492" d="M415,1082L227,0H47L235,1082H415ZM64,1367q1,46 30.5,77.5T171,1477t77-29t30-77q-1-46-31.5-76T170,1264q-45-1-75.5,28T64,1367Zm418-2q0,46 29.5,77.5T588,1475t77.5-29t29.5-77q0-46-30.5-76T588,1262t-76,27.5T482,1365Z" />
      <glyph unicode="&#xf0;" glyph-name="gid135" horiz-adv-x="1165" d="M393,1421l68,160q166-44 286.5-135T941,1228.5T1040,950t4-317l-14-98q-15-104-57-204T863,150.5T702.5,23T493-21q-99,3-176,42.5t-128,106t-74,152T101,459q9,100 48,194.5T253.5,822t154,116.5T605,978q99-4 179-53.5t126.5-131T953,613l-73,1q5,52-14,91t-54.5,65.5t-80,40.5T641,826q-80,2-143-27T390,718T318,599.5T283,459q-7-57 3-114t37.5-105t73-77.5T507,130q80-2 139.5,35T747,264t66,133.5T848,535l14,101q20,139 1.5,264t-76,228.5t-156,178T393,1421Zm705-12L523,1050l-59,109l575,358l59-108Z" />
      <glyph unicode="&#xf1;" glyph-name="gid291" horiz-adv-x="1097" d="M359,840L213,0H32L220,1082H391L359,840ZM275,582l-74,2q14,97 51.5,190.5t99,168.5t147,118.5T694,1102q87-2 145.5-33.5T931,983t44-124.5T977,709L859,0H677L797,712q7,65-4.5,117.5t-50,84T632,947q-76,2-137-29T388.5,833.5t-74-119T275,582Zm655,933l120-10q-6-63-33.5-120T940,1293t-119-34q-38,1-69,16.5T691.5,1311T632,1345.5T566,1358q-49-1-76.5-34.5T450,1247l-122,5q7,63 34.5,121t76.5,94t120,35q36-1 67-16.5t60.5-35t60-34T814,1402q49,2 77,36t39,77Z" />
      <glyph unicode="&#xf2;" glyph-name="gid292" horiz-adv-x="1133" d="M79,523l3,23q12,109 54.5,210T249,936t166,124t214,42q114-2 195.5-49t132-124.5T1027,754t10-200l-2-23q-13-109-56-209T865.5,144T699,21.5T486-20Q373-18 291.5,28.5T160,152T90,325T79,523Zm183,23l-2-24q-7-63-0.5-131t32-126T366,170t127-39q83-2 146,32.5T746.5,257t71,131T853,531l2,23q7,63 0.5,131.5t-32,128t-74.5,97T622,950q-83,3-146.5-32.5T368,822T297.5,689.5T262,546Zm352,990l141-294H613L408,1536H614Z" />
      <glyph unicode="&#xf3;" glyph-name="gid293" horiz-adv-x="1133" d="M79,523l3,23q12,109 54.5,210T249,936t166,124t214,42q114-2 195.5-49t132-124.5T1027,754t10-200l-2-23q-13-109-56-209T865.5,144T699,21.5T486-20Q373-18 291.5,28.5T160,152T90,325T79,523Zm183,23l-2-24q-7-63-0.5-131t32-126T366,170t127-39q83-2 146,32.5T746.5,257t71,131T853,531l2,23q7,63 0.5,131.5t-32,128t-74.5,97T622,950q-83,3-146.5-32.5T368,822T297.5,689.5T262,546Zm291,696l235,294h230L712,1242H553Z" />
      <glyph unicode="&#xf4;" glyph-name="gid294" horiz-adv-x="1133" d="M79,523l3,23q12,109 54.5,210T249,936t166,124t214,42q114-2 195.5-49t132-124.5T1027,754t10-200l-2-23q-13-109-56-209T865.5,144T699,21.5T486-20Q373-18 291.5,28.5T160,152T90,325T79,523Zm183,23l-2-24q-7-63-0.5-131t32-126T366,170t127-39q83-2 146,32.5T746.5,257t71,131T853,531l2,23q7,63 0.5,131.5t-32,128t-74.5,97T622,950q-83,3-146.5-32.5T368,822T297.5,689.5T262,546Zm490,990l206-271v-14l-147,2L697,1421L521,1254l-151-3l-1,15l277,270H752Z" />
      <glyph unicode="&#xf5;" glyph-name="gid295" horiz-adv-x="1133" d="M79,523l3,23q12,109 54.5,210T249,936t166,124t214,42q114-2 195.5-49t132-124.5T1027,754t10-200l-2-23q-13-109-56-209T865.5,144T699,21.5T486-20Q373-18 291.5,28.5T160,152T90,325T79,523Zm183,23l-2-24q-7-63-0.5-131t32-126T366,170t127-39q83-2 146,32.5T746.5,257t71,131T853,531l2,23q7,63 0.5,131.5t-32,128t-74.5,97T622,950q-83,3-146.5-32.5T368,822T297.5,689.5T262,546Zm659,969l120-10q-6-63-33.5-120T931,1293t-119-34q-38,1-69,16.5T682.5,1311T623,1345.5T557,1358q-49-1-76.5-34.5T441,1247l-122,5q7,63 34.5,121t76.5,94t120,35q36-1 67-16.5t60.5-35t60-34T805,1402q49,2 77,36t39,77Z" />
      <glyph unicode="&#xf6;" glyph-name="gid296" horiz-adv-x="1133" d="M79,523l3,23q12,109 54.5,210T249,936t166,124t214,42q114-2 195.5-49t132-124.5T1027,754t10-200l-2-23q-13-109-56-209T865.5,144T699,21.5T486-20Q373-18 291.5,28.5T160,152T90,325T79,523Zm183,23l-2-24q-7-63-0.5-131t32-126T366,170t127-39q83-2 146,32.5T746.5,257t71,131T853,531l2,23q7,63 0.5,131.5t-32,128t-74.5,97T622,950q-83,3-146.5-32.5T368,822T297.5,689.5T262,546Zm103,823q1,46 30.5,77.5T472,1479t77-29t30-77q-1-46-31.5-76T471,1266q-45-1-75.5,28T365,1369Zm418-2q0,46 29.5,77.5T889,1477t77.5-29t29.5-77q0-46-30.5-76T889,1264t-76,27.5T783,1367Z" />
      <glyph unicode="&#xf7;" glyph-name="gid136" horiz-adv-x="1135" d="M1070,784l-32-184H68l33,184h969ZM534,1095q1,49 32,82t80,34t80.5-30t30.5-80t-32.5-80.5T645,988t-79.5,29T534,1095ZM393,279q1,49 31.5,82T505,395q49,1 80.5-30T616,285t-32.5-81T503,171q-48-1-79.5,29.5T393,279Z" />
      <glyph unicode="&#xf8;" glyph-name="gid137" horiz-adv-x="1126" d="M1065,1209L189-135H58L935,1209h130ZM77,521l3,24q14,109 57.5,210.5t115,181t168,124.5T637,1103q113-3 193.5-50T960,928t67.5-174.5T1035,555l-2-24q-14-109-58-209.5T859.5,143T691.5,20.5T477-21Q364-18 283.5,28.5t-130,123T85.5,324T77,521Zm185,24l-3-23q-7-63-2-130.5t29-126T358.5,170T485,131q83-3 147,31.5t109,94T813.5,388T852,531l2,23q8,63 2.5,131T827,812.5T754.5,910T628,951q-84,2-148-33T371,823T299,690T262,545Z" />
      <glyph unicode="&#xf9;" glyph-name="gid297" horiz-adv-x="1095" d="M720,260l142,822h182L856,0H683l37,260Zm68,218l74,3q-13-102-46-193.5t-89.5-162t-140-110T389-21q-89,3-148.5,36T147,104T102,232T99,384l117,698H397L280,381q-4-44-1-86.5T297,217t46.5-56.5T427,137q108-4 183,40.5T729,301t59,177ZM618,1536l141-294H617L412,1536H618Z" />
      <glyph unicode="&#xfa;" glyph-name="gid298" horiz-adv-x="1095" d="M720,260l142,822h182L856,0H683l37,260Zm68,218l74,3q-13-102-46-193.5t-89.5-162t-140-110T389-21q-89,3-148.5,36T147,104T102,232T99,384l117,698H397L280,381q-4-44-1-86.5T297,217t46.5-56.5T427,137q108-4 183,40.5T729,301t59,177ZM556,1242l235,294h230L715,1242H556Z" />
      <glyph unicode="&#xfb;" glyph-name="gid299" horiz-adv-x="1095" d="M720,260l142,822h182L856,0H683l37,260Zm68,218l74,3q-13-102-46-193.5t-89.5-162t-140-110T389-21q-89,3-148.5,36T147,104T102,232T99,384l117,698H397L280,381q-4-44-1-86.5T297,217t46.5-56.5T427,137q108-4 183,40.5T729,301t59,177ZM756,1536l206-271v-14l-147,2L701,1421L525,1254l-151-3l-1,15l277,270H756Z" />
      <glyph unicode="&#xfc;" glyph-name="gid300" horiz-adv-x="1095" d="M720,260l142,822h182L856,0H683l37,260Zm68,218l74,3q-13-102-46-193.5t-89.5-162t-140-110T389-21q-89,3-148.5,36T147,104T102,232T99,384l117,698H397L280,381q-4-44-1-86.5T297,217t46.5-56.5T427,137q108-4 183,40.5T729,301t59,177ZM369,1369q1,46 30.5,77.5T476,1479t77-29t30-77q-1-46-31.5-76T475,1266q-45-1-75.5,28T369,1369Zm418-2q0,46 29.5,77.5T893,1477t77.5-29t29.5-77q0-46-30.5-76T893,1264t-76,27.5T787,1367Z" />
      <glyph unicode="&#xfd;" glyph-name="gid301" horiz-adv-x="940" d="M348,123l456,959h200L369-168q-25-53-58.5-102t-76-88T139-419T22-441q-27,1-54.5,6T-86-424l11,152q12-2 24-3.5t23-2.5q67-2 115.5,19t84,62T235-99L348,123Zm-50,959L427,232L439,41L304-25L108,1082H298Zm201,160l235,294H964L658,1242H499Z" />
      <glyph unicode="&#xfe;" glyph-name="gid138" horiz-adv-x="1145" d="M488,1536L150-416H-32L307,1536H488Zm535-980l-2-21q-13-99-47.5-198T880,156T735.5,25T535-21Q433-19 361,23.5t-116,113t-62,158T171,474l14,111q17,98 57.5,191.5T346,945t149.5,118T692,1103q111-3 180.5-54T978,917.5T1023.5,742T1023,556ZM839,537l3,21q7,61 3.5,127.5T820.5,811t-67,96.5T630,947q-62,2-117.5-20.5t-101-63t-77-93T288,660L245,399q-1-54 17-101.5T313,213t78-59t99-23q83-3 144.5,33T738,260.5t67,133T839,537Z" />
      <glyph unicode="&#xff;" glyph-name="gid302" horiz-adv-x="940" d="M348,123l456,959h200L369-168q-25-53-58.5-102t-76-88T139-419T22-441q-27,1-54.5,6T-86-424l11,152q12-2 24-3.5t23-2.5q67-2 115.5,19t84,62T235-99L348,123Zm-50,959L427,232L439,41L304-25L108,1082H298Zm14,287q1,46 30.5,77.5T419,1479t77-29t30-77q-1-46-31.5-76T418,1266q-45-1-75.5,28T312,1369Zm418-2q0,46 29.5,77.5T836,1477t77.5-29t29.5-77q0-46-30.5-76T836,1264t-76,27.5T730,1367Z" />
      <glyph unicode="&#x2013;" glyph-name="gid177" horiz-adv-x="1314" d="M1172,803l-32-152H166l33,152h973Z" />
      <glyph unicode="&#x2014;" glyph-name="gid178" horiz-adv-x="1561" d="M1494,803l-43-152H152l44,152H1494Z" />
      <glyph unicode="&#x2018;" glyph-name="gid179" horiz-adv-x="398" d="M176,1073l18,120q11,73 41.5,139t76,123T414,1557l103-76q-51-64-88.5-133.5T376,1197l-22-124H176Z" />
      <glyph unicode="&#x2019;" glyph-name="gid180" horiz-adv-x="398" d="M481,1536l-20-127q-11-73-41.5-139t-76-123T242,1045l-105,76q52,64 89.5,133.5T279,1405l23,131H481Z" />
      <glyph unicode="&#x201a;" glyph-name="gid181" horiz-adv-x="396" d="M235,182L219,80Q208,7 177.5-59T102-182T0-284l-105,75q52,64 89,134T36,76L55,182H235Z" />
      <glyph unicode="&#x201c;" glyph-name="gid182" horiz-adv-x="712" d="M184,1073l18,120q11,73 41.5,139t76,123T422,1557l103-76q-51-64-88.5-133.5T384,1197l-22-124H184Zm305,0l18,120q11,73 41.5,139t76,123T727,1557l103-76q-51-64-88.5-133.5T689,1197l-22-124H489Z" />
      <glyph unicode="&#x201d;" glyph-name="gid183" horiz-adv-x="720" d="M493,1536l-20-127q-11-73-41.5-139t-76-123T254,1045l-105,76q52,64 89.5,133.5T291,1405l23,131H493Zm297,0l-20-127q-11-73-41.5-139t-76-123T551,1045l-105,76q52,64 89.5,133.5T588,1405l23,131H790Z" />
      <glyph unicode="&#x201e;" glyph-name="gid184" horiz-adv-x="685" d="M246,246L219,80Q207,4 176-65T98.5-194T-7-302l-101,75q53,69 90.5,143T36,76L66,246H246Zm287,0L506,80Q494,4 463-65T385.5-194T280-302L180-227q52,69 89.5,143T323,76l30,170H533Z" />
      <glyph unicode="&#x2022;" glyph-name="gid186" horiz-adv-x="670" d="M161,724l2,42q5,89 61,147.5T371,972q87-1 136.5-56.5T557,776l-2-43q-5-88-62-144T346,534q-84,0-134.5,53.5T161,724Z" />
      <glyph unicode="&#x2039;" glyph-name="gid188" horiz-adv-x="597" d="M595,948L274,548L99,546v16L445,949l150-1ZM264,556L446,153H320L93,541v16l171-1Z" />
      <glyph unicode="&#x203a;" glyph-name="gid189" horiz-adv-x="597" d="M4,154L326,554l175,2V540L155,153L4,154ZM154,949H279L507,561l-1-16l-170,1L154,949Z" />
    </font>
</defs>
</svg>
