<?xml version="1.0" standalone="no"?>
<!DOCTYPE svg PUBLIC "-//W3C//DTD SVG 1.1//EN" "http://www.w3.org/Graphics/SVG/1.1/DTD/svg11.dtd">
<svg xmlns="http://www.w3.org/2000/svg">
  <defs>
    <font id="Barlow" horiz-adv-x="502">
      <font-face font-family="Barlow Medium" units-per-em="1000" panose-1="0 0 6 0 0 0 0 0 0 0" ascent="1000" descent="-200" alphabetic="0" />
      <glyph unicode=" " glyph-name="space" horiz-adv-x="194" />
      <glyph unicode="!" glyph-name="exclam" horiz-adv-x="318" d="M141,232q-9,0-8,10l46,448q2,10 11,10h73q5,0 7.5-3t1.5-7L209,242q-1-10-11-10H141ZM137,3Q112,3 97,18T82,57q0,32 20.5,53T153,131q25,0 40-14.5T208,77q0-31-21-52.5T137,3Z" />
      <glyph unicode="&quot;" glyph-name="quotedbl" horiz-adv-x="288" d="M83,482q-4,0-7,2.5T74,492L89,686q2,10 10,10h72q10,0 8-10L146,492q-1-10-11-10H83Zm152,0q-10,0-9,10l15,194q2,10 10,10h72q8,0 8-10L297,492q-1-10-11-10H235Z" />
      <glyph unicode="#" glyph-name="numbersign" horiz-adv-x="649" d="M620,430q-1-10-11-10H535q-5,0-6-4L493,278q0-4 2-4h61q5,0 7.5-3t1.5-7l-8-63q-2-10-11-10H473q-5,0-6-4L424,29q-3-9-11-9l-74,1q-4,0-6.5,3T332,32l42,155q0,4-2,4H237q-5,0-5-4L188,29q-3-9-11-9l-74,1q-4,0-6,3.5T96,32l42,155q1,1 0,2.5t-2,1.5H75q-9,0-9,10l9,63q1,10 11,10h72q5,0 5,4l37,138q1,1 0,2.5t-2,1.5H139q-9,0-9,10l8,64q2,10 11,10h72q5,0 5,4l44,158q3,9 11,9l73-1q4,0 6.5-3t1.5-8L319,508q0-4 3-4H457q5,0 5,4l44,158q1,9 10,9l74-1q4,0 6.5-3t0.5-8L555,508q0-4 3-4h63q4,0 6.5-3t1.5-7l-9-64ZM394,274q4,0 5,4l37,138q0,4-2,4H299q-5,0-5-4L257,278q0-4 3-4H394Z" />
      <glyph unicode="$" glyph-name="dollar" horiz-adv-x="546" d="M503,183q-10-78-64-128.5T298-6q-4,0-4-4l-8-70q-2-10-11-10H211q-10,0-8,10l9,71q2,4-3,4Q132,6 89.5,49.5T47,160q0,9 2,27l4,29q0,4 3,7t8,3h67q4,0 6.5-3t1.5-7l-3-24q-1-5-1-14q0-46 36.5-74.5T273,75q67,0 104.5,33T415,193q0,38-31.5,63T273,318q-60,27-94.5,47.5t-57,52.5T99,498q0,8 2,26q10,76 61,123.5T293,706q3,0 5,4l8,77q2,10 11,10h63q9,0 9-10l-11-78q0-3 3-5q75-11 116.5-55T539,537q0-8-2-28l-3-20q0-4-3-7t-8-3H456q-5,0-7.5,3t-1.5,7l2,15q1,5 1,15q0,47-34,76.5T320,625q-57,0-91-25.5T189,526q-1-5-1-15q0-27 14.5-45.5T244,432t84-40q58-26 93.5-47.5t59.5-55T505,208q0-7-2-25Z" />
      <glyph unicode="%" glyph-name="percent" horiz-adv-x="814" d="M256,413q-55,0-91.5,37T128,543q0,44 23,82.5t61,61T293,709q54,0 90-37t36-91q0-45-22.5-83.5T336,436t-80-23ZM178,0q-6,0-8,3.5t2,8.5L622,693q5,7 13,7h47q6,0 8-3.5t-2-8.5L238,7q-5-7-13-7H178Zm86,472q38,0 67,30t29,71q0,33-21.5,55T285,650q-39,0-68.5-29.5T187,550q0-33 22-55.5T264,472ZM574-9q-55,0-91.5,37T446,120q0,44 23,82.5T530,264t80,23q55,0 91-37t36-92q0-44-22.5-82.5T654,14T574-9Zm7,59q39,0 68,30t29,70q0,33-21.5,55.5T603,228q-39,0-68.5-30T505,127q0-33 21.5-55T581,50Z" />
      <glyph unicode="&amp;" glyph-name="ampersand" horiz-adv-x="655" d="M579,12q2-2 2-5q0-7-9-7H489q-8,0-11,6L436,64q-2,3-6,1Q380,27 329.5,9.5T224-8Q143-8 93.5,28T44,134q0,79 44.5,132T211,367q4,1 2,5q-39,59-54,92.5T144,527q0,51 25.5,92t70,65T340,708q74,0 118.5-38.5T503,567q0-70-41.5-120T346,350q-5-2-2-5l66-93q11-14 20-27.5T447,200l4-5q0-2 2-2t3,1q49,54 74,85q5,8 13,3l51-32q8-5 2-14q-51-65-94-108q-3-3 2-9q40-59 75-107ZM332,620q-39,0-65-21.5T237,541q-2-20 8-43.5T291,419q3-3 6-1q56,36 84.5,66.5T410,554q0,31-21,48.5T332,620ZM237,74q70,0 145,55q4,3 1,6l-28,40q-9,14-30,41l-60,82q-1,3-5,1q-58-36-89.5-71T139,148q0-35 26-54.5T237,74Z" />
      <glyph unicode="&apos;" glyph-name="quotesingle" horiz-adv-x="140" d="M84,486q-10,0-10,10L89,688q2,10 10,10h77q9,0 7-10L150,496q-1-10-11-10H84Z" />
      <glyph unicode="(" glyph-name="parenleft" horiz-adv-x="283" d="M90-100q-7,0-12,6Q47-36 29,42.5T11,213q0,59 7,115Q34,457 79,568.5T185,756q4,6 12,6h70q6,0 7.5-3.5T273,750q-53-78-94-187.5T123,329q-7-59-7-120q0-87 14.5-163.5T170-88l1-4q0-8-10-8H90Z" />
      <glyph unicode=")" glyph-name="parenright" horiz-adv-x="283" d="M235,762q8,0 11-6q32-59 50.5-138.5T315,446q0-57-7-112Q292,206 247,94.5T141-94q-6-6-13-6H58q-6,0-7.5,3.5T52-88q53,78 94,187.5T203,333q7,57 7,118q0,87-15,163.5T155,750l-1,4q0,8 9,8h72Z" />
      <glyph unicode="*" glyph-name="asterisk" horiz-adv-x="386" d="M203,393q-4,0-6.5,3t-1.5,7l14,112q0,2-1.5,3t-3.5,0L98,459q-2-1-5-1q-6,0-8,5L71,497q-1,1-1,4q0,7 6,10l107,56q2,1 2.5,3t-1.5,3L91,629q-4,2-4.5,6t2.5,8l22,34q3,4 7,5t7-1l92-58q2-1 3.5,0t1.5,3l14,111q2,10 11,10h37q10,0 8-10L279,626q-1-2 0.5-3t3.5,0l106,58q2,1 5,1q6,0 8-5l14-34l1-3q0-7-7-11L303,573q-2-1-2.5-3t1.5-3l93-56q4-2 4.5-6t-1.5-8l-22-34q-3-4-7-5t-7,1l-92,59q-2,1-3.5,0t-1.5-3L251,403q0-4-3-7t-8-3H203Z" />
      <glyph unicode="+" glyph-name="plus" horiz-adv-x="480" d="M460,350q9,0 9-10l-8-63q-2-10-11-10H298q-2,0-3.5-1t-1.5-3L274,109q0-4-3-7t-8-3H202q-10,0-8,10l19,154q0,4-4,4H57q-10,0-8,10l7,63q2,10 11,10H220q1,0 2.5,1t1.5,3l20,160q0,4 3,7t7,3h62q4,0 6.5-3t1.5-7L304,354q0-4 4-4H460Z" />
      <glyph unicode="," glyph-name="comma" horiz-adv-x="257" d="M35-86q-5,0-7,3t0,8L94,147q2,9 11,9h65q5,0 7-3t0-8L92-77q-1-4-4-6.5T81-86H35Z" />
      <glyph unicode="-" glyph-name="hyphen" horiz-adv-x="388" d="M57,264q-5,0-7.5,3T48,274l8,63q2,10 11,10H367q4,0 6.5-3t1.5-7l-8-63q0-4-3-7t-8-3H57Z" />
      <glyph unicode="." glyph-name="period" horiz-adv-x="267" d="M111,0Q86,0 71,15T56,54q0,32 20.5,53T127,128q24,0 39-15.5T181,72q0-31-20.5-51.5T111,0Z" />
      <glyph unicode="/" glyph-name="slash" horiz-adv-x="413" d="M16,0Q11,0 9.5,3T10,11L322,692q3,8 12,8h73q11,0 6-11L102,8Q97,0 89,0H16Z" />
      <glyph unicode="0" glyph-name="zero" horiz-adv-x="549" d="M253-10q-88,0-138.5,47.5T64,168q0,10 2,34l36,296q12,97 76.5,154T341,709q90,0 141-48t51-131q0-10-2-32L494,202q-12-97-77.5-154.5T253-10Zm10,83q56,0 93,33.5T400,196l38,306q1,7 1,20q0,48-28.5,75.5T331,625q-55,0-91.5-33.5T195,502L158,196q-1-7-1-20q0-47 28.5-75T263,73Z" />
      <glyph unicode="1" glyph-name="one" horiz-adv-x="341" d="M231,697q6,3 13,3h77q10,0 8-10L246,10Q244,0 235,0H161q-10,0-8,10l72,587q0,2-1.5,3t-3.5,0L114,564q-2-1-5-1q-6,0-6,8l3,57q2,10 8,12l117,57Z" />
      <glyph unicode="2" glyph-name="two" horiz-adv-x="528" d="M165,88q-3-5 2-5H459q5,0 7.5-3t1.5-7l-8-63Q458,0 449,0H43q-5,0-7.5,3T34,10l8,61q0,6 6,12q45,46 180,190l71,76Q403,459 410,521q1,5 1,15q0,41-27,65t-73,24q-50,0-83.5-29T189,520l-4-30q0-4-3-7t-8-3H100q-5,0-7.5,3T91,490l5,43q13,79 75.5,127T322,708q86,0 135-45t49-117q0-48-28-102T393,327q-68-78-207-217L165,88Z" />
      <glyph unicode="3" glyph-name="three" horiz-adv-x="508" d="M455,332q8-27 8-65q0-22-3-48q-5-52-27-98q-29-62-82.5-95.5T227-8T110.5,29T52,129q-5,25-5,46q0,14 2,34q2,10 11,10h75q9,0 8-10l-1-28q0-11 2-25q5-37 29.5-59T237,75q74,0 108,69q15,29 22,78q2,24 2,35q0,34-7,56q-19,62-89,62q-9,0-20.5-4.5T229,360q-4-2-6-2q-4,0-7,5l-30,52q-2,4-2,6t4,8L377,612q3,5-2,5H117q-4,0-6.5,3t-1.5,7l8,63q0,4 3,7t8,3H504q10,0 8-10l-8-72q-1-6-7-12L330,440q-2-1-1.5-3t3.5-3q96-10 123-102Z" />
      <glyph unicode="4" glyph-name="four" horiz-adv-x="553" d="M503,274q9,0 9-10l-9-66q0-4-3-7t-7-3H451q-3,0-5-4L425,10Q423,0 414,0H340q-4,0-6.5,3T332,10l21,174q1,1 0,2.5t-3,1.5H55q-10,0-8,10l6,54q2,6 5,12L301,693q4,7 12,7h78q5,0 7-3.5t-1-8.5L164,279q-1-2 0-3.5t3-1.5H361q1,0 2.5,1t1.5,3l18,149q2,10 11,10h74q10,0 8-10L458,278q0-4 3-4h42Z" />
      <glyph unicode="5" glyph-name="five" horiz-adv-x="507" d="M473,310q2-14 2-41q0-29-3-50q-5-44-22-87Q424,68 367.5,30.5T239-7Q169-7 122,29T63,127q-5,28-5,49q0,4 3,7t7,3h77q8,0 9-9q0-7 2-21q5-37 29.5-58.5T248,76q39,0 70,22.5T363,161q9,21 14,58q3,33 3,41q0,13-1,20q-3,38-28,58.5T286,359q-38,0-70.5-17.5T171,295q-4-9-12-9H82q-5,0-7.5,3T73,296l49,394q0,4 3,7t8,3H495q9,0 9-10l-8-63q-2-10-11-10H210q-2,0-3.5-1t-1.5-3L179,404q-1-3 0.5-4t3.5,1q53,42 124,42q68,0 112.5-35T473,310Z" />
      <glyph unicode="6" glyph-name="six" horiz-adv-x="507" d="M460,345q15-36 15-84q0-20-3-43q-8-62-33-107q-29-57-79.5-87.5T242-7Q170-7 124.5,27T66,123q-6,24-6,53q0,22 3,44l38,308q10,82 71.5,131T323,708q79,0 126.5-41T497,558q0-8-2-24l-2-20q-2-10-11-10H408q-10,0-8,10l1,9q1,5 1,14q0,39-25,63t-65,24q-47,0-80-29t-39-77L177,392q0-2 1.5-2.5T182,391q48,48 127,48q58,0 95.5-24T460,345ZM355,141q18,31 24,77q2,20 2,29q0,33-10,53q-21,58-87,58q-34,0-60.5-15.5T181,298q-19-34-26-85q-2-20-2-28q0-23 6-43q8-32 31.5-48.5T250,77q70,0 105,64Z" />
      <glyph unicode="7" glyph-name="seven" horiz-adv-x="467" d="M116,0q-5,0-6.5,3.5T110,12L404,612q1,2 0.5,3.5T402,617H168q-4,0-4-4l-6-47q-2-10-11-10H89q-5,0-7.5,3T80,566L95,690q2,10 11,10H505q10,0 8-10l-8-67q0-4-1-7t-2-5L209,8q-4-8-12-8H116Z" />
      <glyph unicode="8" glyph-name="eight" horiz-adv-x="511" d="M458,299q10-30 10-67q0-11-2-33q-8-64-41-112q-29-45-78-70T236-8T129.5,17.5T66,91q-14,34-14,76q0,11 2,33q6,55 33,101q29,48 72,69q5,2 1,5q-28,22-41,50q-17,32-17,71q0,73 48,133q29,38 74.5,60T324,711q55,0 94-21.5T476,629q20-38 20-87q0-64-41-119q-21-28-51-48q-5-3-1-5q38-22 55-71ZM216,572q-17-26-20-51q-1-7-1-19q0-28 11-48q21-45 80-45q58,0 92,46q18,22 25,67l1,13q0,19-8,38q-9,25-30.5,40T312,628q-30,0-55-15t-41-41ZM340,121q26,32 33,86q2,20 2,28q0,30-9,51q-20,52-89,52q-66,0-99-49q-14-21-22.5-49T147,182q0-32 13-58q21-48 86-48q61,0 94,45Z" />
      <glyph unicode="9" glyph-name="nine" horiz-adv-x="509" d="M491,577q5-27 5-53q0-21-3-44L456,172Q446,90 384.5,41T234-8Q154-8 106.5,33T59,142q0,8 2,24l3,20q0,4 3,7t8,3h73q9,0 9-10l-1-9q-1-5-1-16q0-38 24.5-61.5T244,76q47,0 80.5,29T364,182l15,126q1,2-0.5,3t-3.5-1q-26-27-58-38t-70-11q-57,0-95.5,24T96,355q-15,40-15,86q0,20 3,41q7,57 32,107q29,57 80.5,87.5T315,707q72,0 117-34t59-96ZM375,402q19,31 26,85q2,10 2,30q0,23-6,41q-8,32-31,48.5T306,623q-35,0-62-16.5T202,559q-19-31-24-77q-2-22-2-31q0-29 8-51q23-58 88-58q68,0 103,60Z" />
      <glyph unicode=":" glyph-name="colon" horiz-adv-x="337" d="M190,344q-25,0-40,15t-15,39q0,32 20.5,53T206,472q24,0 39-15.5T260,416q0-31-20.5-51.5T190,344ZM149,11q-25,0-40,15T94,65q0,32 20.5,53T165,139q24,0 39-15.5T219,83q0-31-20.5-51.5T149,11Z" />
      <glyph unicode=";" glyph-name="semicolon" horiz-adv-x="303" d="M175,335q-27,0-44.5,17T113,395q0,31 24.5,54.5T192,473q26,0 45-18t19-43q0-31-24-54t-57-23ZM68-83q-4,0-6.5,3.5T60-72l53,216q3,9 11,9h66q10,0 7-11L125-74q-3-9-12-9H68Z" />
      <glyph unicode="&lt;" glyph-name="less" horiz-adv-x="480" d="M433,48q-1-5-5-7.5T420,40L49,226q-6,4-5,11l8,69q1,7 9,11L477,503l4,1q7,0 7-9l-9-73q-2-8-9-11L148,274q-6-3-1-6L435,131q7-3 7-11l-9-72Z" />
      <glyph unicode="=" glyph-name="equal" horiz-adv-x="480" d="M70,369q-10,0-8,10l7,63q2,10 11,10H473q9,0 9-10l-8-63q-2-10-11-10H70ZM45,167q-10,0-8,10l7,63q2,10 11,10H448q9,0 9-10l-8-63q-2-10-11-10H45Z" />
      <glyph unicode="&gt;" glyph-name="greater" horiz-adv-x="480" d="M27,39q-7,0-7,9l9,72q2,8 9,11L359,268q6,3 1,6L73,411q-7,3-7,11l9,73q1,5 5,7.5t8,0.5L459,317q6-4 5-11l-8-69q-2-8-8-11L31,40l-4-1Z" />
      <glyph unicode="?" glyph-name="question" horiz-adv-x="468" d="M186,208q-5,0-7.5,3t-1.5,7l6,50q6,45 32,74t72,62q32,22 51,39t32,41t13,56q0,38-25,60t-67,22q-48,0-80.5-28T173,522l-3-26q-1-4-4-7t-7-3l-74,4q-4,0-6.5,3T77,500l3,22q10,84 72,135.5T304,709q81,0 128-42.5T479,553q0-8-2-26q-6-44-24.5-76t-41-52T354,354q-37-25-55.5-44.5T277,263l-6-45q-2-10-11-10H186ZM195,1q-25,0-40,15T140,55q0,31 21,52.5T211,129q25,0 40-15t15-39q0-31-21-52.5T195,1Z" />
      <glyph unicode="@" glyph-name="at" horiz-adv-x="798" d="M497,631q83,0 144.5-31.5T736,511t33-133q0-49-13-98q-24-95-75-147T560,81q-34,0-58.5,12T465,128q-3,5-6,0q-21-21-48.5-33T356,83q-55,0-86.5,28.5T238,185q0,27 14,81q13,54 29,85q21,47 62,73t86,26q51,0 74-33q2-2 3.5-1t1.5,3l4,17q3,9 11,9h46q5,0 7-3.5t1-7.5L526,233q-4-13-4-30q0-27 14-43.5T574,143q38,0 68,35t46,99q12,50 12,92q0,94-58,147T485,569q-80,0-155-36.5t-129-108T130,254q-7-34-7-70q0-97 55-155T332-29q49,0 94,11.5T497,11q8,6 13-2l21-30l2-5q0-5-6-9q-37-26-95-42T315-93q-80,0-138,33T88,34T57,176q0,43 9,89q22,111 87.5,194T310,586.5T497,631ZM364,141q27,0 48.5,16.5T446,199q9,15 14,35l12,46q6,25 7.5,36t1.5,23q0,23-15.5,38T425,392q-27,0-50-16t-36-40q-12-25-23-72q-12-41-12-56l1-9q-2-26 14.5-42T364,141Z" />
      <glyph unicode="A" glyph-name="A" horiz-adv-x="611" d="M472,0q-3,0-6,2t-4,6L441,125q0,3-3,3H165q-3,0-4-3L112,8q-5-8-13-8H20q-5,0-6.5,3T14,11L310,692q5,8 13,8h97q3,0 6-2t4-6L561,11V9q0-9-9-9H472ZM195,209q-1-2 0.5-3.5T199,204H422q2,0 3.5,1.5T426,209L359,580q0,2-2,2t-4-2L195,209Z" />
      <glyph unicode="B" glyph-name="B" horiz-adv-x="606" d="M467,365q-5-3-1-6q84-39 84-137q0-8-2-30q-11-92-76-142T311,0H70q-9,0-9,10l84,680q2,10 11,10H390q91,0 141-39.5T581,545q0-9-2-31Q566,406 467,365ZM233,617q-4,0-4-4L203,402q-1-1 0-2.5t3-1.5H352q61,0 98.5,34T488,522q0,44-28.5,69.5T379,617H233ZM322,84q60,0 97.5,37T457,220q0,46-29,72t-80,26H196q-4,0-4-4L164,88q0-2 1-3t2-1H322Z" />
      <glyph unicode="C" glyph-name="C" horiz-adv-x="589" d="M277-9Q181-9 124,44T67,187q0,10 2,34l32,259q8,68 44,119.5t93,80T365,708q97,0 154-51t57-138q0-10-2-32v-1q-2-11-11-11l-74-4q-10,0-9,9v3q2,16 2,23q0,54-34.5,86.5T355,625q-64,0-108.5-39T194,483L161,217q-1-7-1-21q0-55 34-88t94-33q64,0 108,39t52,103v2q2,9 11,9l73-4q10,0 8-10q-8-66-43.5-116.5T404,19T277-9Z" />
      <glyph unicode="D" glyph-name="D" horiz-adv-x="599" d="M70,0q-9,0-9,10l84,680q2,10 11,10H391q92,0 145-46t53-125q0-9-2-29L550,200q-11-91-77.5-145.5T305,0H70Zm94,87q0-4 3-4H319q56,0 94,35.5T459,214l33,272q1,8 1,23q0,51-28.5,79.5T384,617H233q-4,0-4-4L164,87Z" />
      <glyph unicode="E" glyph-name="E" horiz-adv-x="580" d="M588,627q-2-10-11-10H233q-4,0-4-4L202,398q0-4 4-4H442q9,0 9-10l-8-63q-2-10-11-10H195q-4,0-4-4L164,87q0-4 3-4H512q10,0 8-10l-8-63q0-4-3-7t-8-3H70q-9,0-9,10l84,680q2,10 11,10H587q5,0 7.5-3t1.5-7l-8-63Z" />
      <glyph unicode="F" glyph-name="F" horiz-adv-x="548" d="M587,627q-2-10-11-10H233q-4,0-4-4L202,398q0-4 4-4H441q9,0 9-10l-8-63q-2-10-11-10H195q-4,0-4-4L154,10q0-4-3-7t-7-3H70q-9,0-9,10l84,680q2,10 11,10H586q5,0 7.5-3t1.5-7l-8-63Z" />
      <glyph unicode="G" glyph-name="G" horiz-adv-x="595" d="M277-8Q181-8 124,45T67,188q0,10 2,34l31,256q8,69 44.5,121T238,679.5T365,708q64,0 111.5-24T550,617.5T576,521q0-10-2-30l-1-11q-2-10-11-10H488q-4,0-6.5,3t-1.5,7l1,9q1,7 1,20q0,52-34,83.5T355,624q-65,0-109-39T194,481L162,219q-1-8-1-22q0-55 35.5-88T292,76q63,0 105,34.5T446,205l10,77q0,4-4,4H321q-10,0-8,10l7,62q1,4 4,7t7,3H550q4,0 6.5-3t1.5-7L542,231Q528,116 457,54T277-8Z" />
      <glyph unicode="H" glyph-name="H" horiz-adv-x="625" d="M522,690q2,10 11,10h74q10,0 8-10L532,10Q530,0 521,0H447q-10,0-8,10l36,297q0,4-3,4H195q-4,0-4-4L154,10q0-4-3-7t-7-3H70q-9,0-9,10l84,680q2,10 11,10h74q4,0 6.5-3t1.5-7L202,398q0-4 4-4H482q4,0 4,4l36,292Z" />
      <glyph unicode="I" glyph-name="I" horiz-adv-x="253" d="M70,0q-9,0-9,10l84,680q2,10 11,10h74q4,0 6.5-3t1.5-7L154,10q0-4-3-7t-7-3H70Z" />
      <glyph unicode="J" glyph-name="J" horiz-adv-x="562" d="M233-8Q138-8 83,42T28,176q0,10 2,32l9,71q2,10 11,10h74q10,0 8-10l-8-71q-1-7-1-21q0-51 32-81.5T243,75q60,0 102.5,36.5T395,208l59,482q2,10 11,10h74q10,0 8-10L488,208q-8-64-42.5-113t-90-76T233-8Z" />
      <glyph unicode="K" glyph-name="K" horiz-adv-x="598" d="M70,0q-9,0-9,10l84,680q2,10 11,10h74q4,0 6.5-3t1.5-7L199,371q-1-2 1-2.5t4,1.5L521,694q5,6 12,6h85q5,0 6.5-3.5T622,688L356,407q-1-3 0-6L555,12q1-2 1-6q0-6-8-6H464q-8,0-11,6L283,333q0,2-2,2t-3-1l-93-94q-3-3-3-5L154,10q0-4-3-7t-7-3H70Z" />
      <glyph unicode="L" glyph-name="L" horiz-adv-x="552" d="M70,0q-9,0-9,10l84,680q2,10 11,10h74q4,0 6.5-3t1.5-7L164,87q0-4 3-4H502q10,0 8-10l-7-63Q501,0 492,0H70Z" />
      <glyph unicode="M" glyph-name="M" horiz-adv-x="694" d="M585,694q5,6 12,6h74q10,0 8-10L596,10Q594,0 585,0H511q-10,0-8,10l63,512q0,3-2,4t-3-2L396,306q-6-6-13-6H346q-6,0-11,6L222,522q-1,3-2.5,2t-2.5-4L154,10q0-4-3-7t-7-3H70q-9,0-9,10l84,680q2,10 11,10h74q8,0 10-6L378,432q1-1 3-1t3,1L585,694Z" />
      <glyph unicode="N" glyph-name="N" horiz-adv-x="652" d="M545,690q0,4 3,7t7,3h74q9,0 9-10L554,10Q552,0 543,0H472q-6,0-10,7L221,518q-1,3-3,2.5t-2-3.5L154,10q0-4-3-7t-7-3H70q-9,0-9,10l84,680q2,10 11,10h72q7,0 10-7L478,182q1-3 3-2.5t2,3.5l62,507Z" />
      <glyph unicode="O" glyph-name="O" horiz-adv-x="603" d="M280-9Q183-9 125.5,46T68,194q0,24 2,37L99,469q9,71 45.5,125T239,678t129,30q98,0 155.5-55T581,506q0-24-2-37L550,231q-8-71-45-125.5T410,21T280-9Zm10,83q67,0 112.5,42T457,227l29,243q2,18 2,26q0,59-35,94t-95,35q-65,0-111-42.5T193,470L163,227q-2-18-2-26q0-58 35-92.5T290,74Z" />
      <glyph unicode="P" glyph-name="P" horiz-adv-x="576" d="M412,701q81,0 128.5-46.5T588,530q0-10-2-32q-11-91-73.5-145.5T359,298H188q-4,0-4-4L149,10Q147,0 138,0H64Q54,0 56,10l83,681q2,10 11,10H412ZM359,376q58,0 96.5,39T494,515q0,47-28.5,75T389,618H227q-4,0-4-4L194,380q0-2 1-3t2-1H359Z" />
      <glyph unicode="Q" glyph-name="Q" horiz-adv-x="565" d="M350,708q95,0 150-54t55-145q0-24-2-36L522,221q-11-89-67.5-149.5T313-3q-3-1-5-5L297-99q0-4-3-7t-8-3H213q-5,0-7.5,3T204-99L215-8q2,3-3,5Q139,10 97.5,60T56,186q0,23 2,35L89,473q8,70 44,123t92,82.5T350,708ZM460,478q2,16 2,24q0,56-33,89.5T340,625q-63,0-106-40.5T183,478L151,222q-1-8-1-22q0-57 32.5-91T272,75q62,0 105.5,40.5T429,222l31,256Z" />
      <glyph unicode="R" glyph-name="R" horiz-adv-x="594" d="M447,0q-7,0-10,7L338,306q0,3-3,3H195q-4,0-4-4L154,10q0-4-3-7t-7-3H70q-9,0-9,10l84,680q2,10 11,10H417q79,0 125.5-45.5T589,533q0-10-2-32q-8-70-49.5-118.5T431,317q-3-1-3-5L532,12l1-4q0-8-9-8H447ZM233,617q-4,0-4-4L201,389q0-4 3-4H366q56,0 92.5,37.5T495,519q0,45-27,71.5T395,617H233Z" />
      <glyph unicode="S" glyph-name="S" horiz-adv-x="571" d="M269-8Q165-8 106,37.5T47,162q0,7 2,25l4,29q0,4 3,7t8,3h70q5,0 7.5-3t1.5-7l-3-24q-1-4-1-13q0-46 39-75T286,75q71,0 109.5,33T434,193q0,38-33,63T284,318q-63,27-99.5,47.5t-60.5,53T100,499q0,64 31,111.5T217.5,683T346,708q100,0 158.5-47T563,535q0-8-2-26l-2-20q-2-10-11-10H475q-9,0-9,10l2,15q1,5 1,16q0,46-36,75.5T332,625q-66,0-102.5-30T193,511q0-27 15.5-46t45-34T342,392q61-26 99-47.5t63-55T529,207q0-8-2-24Q516,96 447,44T269-8Z" />
      <glyph unicode="T" glyph-name="T" horiz-adv-x="557" d="M578,700q10,0 8-10l-8-64q0-4-3-7t-8-3H381q-4,0-4-4L303,10Q301,0 292,0H218q-10,0-8,10l74,602q0,4-4,4H103q-9,0-9,10l8,64q2,10 11,10H578Z" />
      <glyph unicode="U" glyph-name="U" horiz-adv-x="622" d="M291-8Q193-8 136,45T79,188q0,10 2,34l57,468q2,10 11,10h74q10,0 8-10L173,220q-1-7-1-21q0-56 35-90t94-34q65,0 110,40t53,105l57,470q2,10 11,10h74q10,0 8-10L557,222q-8-68-44-120.5t-93.5-81T291-8Z" />
      <glyph unicode="V" glyph-name="V" horiz-adv-x="583" d="M232,0q-4,0-7,2t-4,6L97,689v2q0,9 9,9h79q8,0 11-8l92-553q0-2 2.5-2t3.5,2L521,692q5,8 12,8h77q11,0 6-11L323,8q-5-8-13-8H232Z" />
      <glyph unicode="W" glyph-name="W" horiz-adv-x="852" d="M199,0q-8,0-10,8L90,689v2q0,4 3,6.5t7,2.5h79q8,0 10-9l66-498q0-2 1.5-2t2.5,2L441,691q3,9 12,9h76q8,0 10-9l66-499q0-2 1-2t2,2L798,691q1,4 4.5,6.5T810,700h73q11,0 8-11L632,9q-4-9-12-9H545q-9,0-9,9L472,525q-1,3-2,3t-2-3L281,9q-1-9-11-9H199Z" />
      <glyph unicode="X" glyph-name="X" horiz-adv-x="585" d="M22,0q-5,0-7,3.5T17,12L258,347q1,2 1,6L100,688q-1,2-1,5q0,7 9,7h81q6,0 11-7L323,428q1-1 3-1t3,1L518,693q5,7 12,7h80q6,0 7.5-3.5T615,688L375,352q-2-4-1-6L532,12q1-2 1-5q0-7-9-7H444q-6,0-11,7L310,271q-1,2-3,2t-3-2L115,7q-5-7-12-7H22Z" />
      <glyph unicode="Y" glyph-name="Y" horiz-adv-x="567" d="M227,1q-10,0-8,10l34,281q0,1 0.5,2.5T253,297L99,688l-1,4q0,8 9,8h80q8,0 11-7L310,400q1-2 3-2t3,2L500,693q4,7 13,7h80q5,0 7-3.5t-1-8.5L348,297q-2-2-2-5L312,11Q310,1 301,1H227Z" />
      <glyph unicode="Z" glyph-name="Z" horiz-adv-x="535" d="M30,0Q20,0 22,10l8,70q2,9 6,13L439,612q2,2 1,3.5t-3,1.5H106q-9,0-9,10l8,63q2,10 11,10H547q10,0 8-10l-8-70q-2-9-6-13L136,88q-2-2-1-3.5t3-1.5H471q10,0 8-10l-7-63Q470,0 461,0H30Z" />
      <glyph unicode="[" glyph-name="bracketleft" horiz-adv-x="381" d="M6-130q-4,0-6.5,3T-2-120L108,774q0,4 3,7t8,3H322q9,0 9-10l-8-64q-2-10-11-10H196q-2,0-3.5-1t-1.5-3L100-43q0-4 4-4H221q9,0 9-10l-8-63q-2-10-11-10H6Z" />
      <glyph unicode="\" glyph-name="backslash" horiz-adv-x="413" d="M367,9q0-9-9-9H285q-8,0-10,8L130,689v2q0,9 9,9h73q8,0 11-8L367,11V9Z" />
      <glyph unicode="]" glyph-name="bracketright" horiz-adv-x="381" d="M315-120q-2-10-11-10H99q-4,0-6.5,3T91-120l8,63q0,4 3,7t8,3H227q4,0 4,4l91,739q0,4-3,4H201q-4,0-6.5,3t-1.5,7l8,64q2,10 11,10H416q5,0 7.5-3t1.5-7L315-120Z" />
      <glyph unicode="^" glyph-name="asciicircum" horiz-adv-x="444" d="M64,304q-5,0-7.5,3.5T57,316L244,692q4,8 12,8h65q8,0 9-8l96-376v-3q0-4-2.5-6.5T417,304H356q-9,0-10,8L279,598q0,3-2,3t-4-3L136,312q-3-8-12-8H64Z" />
      <glyph unicode="_" glyph-name="underscore" horiz-adv-x="483" d="M15,0Q10,0 7.5,3T6,10l7,55q2,10 11,10H439q10,0 8-10l-6-55Q439,0 430,0H15Z" />
      <glyph unicode="`" glyph-name="grave" horiz-adv-x="202" d="M225,585q1-1 1-4q0-4-3-6t-8-2H163q-6,0-11,7L98,688q-1,2-1,6q0,6 8,6h65q8,0 11-7l44-108Z" />
      <glyph unicode="a" glyph-name="a" horiz-adv-x="535" d="M416,499q2,10 11,10h74q10,0 8-10L449,10q0-4-3-7t-8-3H365q-9,0-9,10l7,56q1,3-1,3.5T359,67Q307-8 219-8Q155-8 112,31T60,135q-2,22-2,33q0,28 7,86q5,43 11.5,73T94,383q23,59 75,96.5T288,517q88,0 117-71q1-3 2.5-2.5T410,447l6,52ZM366,158q7,16 11,34.5t9,60.5q6,42 6,71q0,10-2,28q-5,36-28.5,59T299,434q-41,0-72.5-23T183,351q-7-15-11-33t-10-63q-6-52-6-69q0-14 3-28q3-37 29-60t67-23q40,0 68.5,23.5T366,158Z" />
      <glyph unicode="b" glyph-name="b" horiz-adv-x="536" d="M493,377q5-22 5-59q0-33-4-62q-9-76-34-128Q432,63 381,27.5T260-8Q226-8 198.5,5.5T153,45q-2,2-3.5,1T148,43l-4-33Q142,0 133,0H59Q49,0 51,10l83,680q2,10 11,10h74q10,0 8-10L200,467q0-6 4-2q25,25 56,38.5T324,517q72,0 114.5-37T493,377ZM360,130q30,45 40,124q3,24 3,45q0,54-18,87q-11,23-31.5,35.5T305,434q-55,0-89-51q-31-46-41-128q-4-40-4-54q0-43 12-72q22-54 78-54q64,0 99,55Z" />
      <glyph unicode="c" glyph-name="c" horiz-adv-x="510" d="M245-8Q172-8 124.5,30.5T65,135q-4,23-4,55q0,34 4,66q9,72 30,121q26,64 84,102t131,38t122.5-38T491,383q4-17 4-33q-1-9-10-10l-74-11h-2q-8,0-8,9l-2,16q-3,34-30,57t-70,23t-74-23t-45-61q-12-29-21-95q-4-33-4-62q0-14 2-32q5-40 30-63t68-23q42,0 75.5,23.5T376,158l2,5q0,3 1,4q1,4 4,5.5t7,0.5l71-12q8-2 7-8q0-3-1-4q-1-5-7-22q-25-61-83.5-98T245-8Z" />
      <glyph unicode="d" glyph-name="d" horiz-adv-x="536" d="M440,690q0,4 3,7t8,3h73q5,0 7.5-3t1.5-7L449,10q0-4-3-7t-8-3H365q-9,0-9,10l4,33q1,2-0.5,3T356,45Q332,19 301,5.5T236-8Q166-8 124,27.5T69,128q-7,29-7,68q0,32 4,60q9,71 31,121q28,66 79.5,103T300,517q34,0 61.5-13.5T407,465q2-2 3.5-1t1.5,3l28,223ZM347,129q28,43 37,126q4,28 4,57q0,43-12,71q-23,51-76,51q-57,0-93-48q-37-50-47-132q-3-27-3-49q0-45 12-75q10-27 32-41t54-14q55,0 92,54Z" />
      <glyph unicode="e" glyph-name="e" horiz-adv-x="520" d="M487,325q0-35-8-99q-1-10-11-10H158q-4,0-4-4q-2-24-2-32q0-10 2-20q5-40 34.5-62.5T268,75q71,0 118,61q6,10 13,3l51-38q6-6 1-13q-33-46-86-71.5T249-9Q178-9 134,22.5T72,114q-10,34-10,80q0,19 4,63q5,38 10.5,64T91,368q26,69 83,109t132,40q96,0 138.5-49T487,325ZM296,434q-42,0-71.5-21.5T180,355q-9-22-15-56q-1-4 3-4H390q4,0 4,4q2,24 2,32q0,46-26.5,74.5T296,434Z" />
      <glyph unicode="f" glyph-name="f" horiz-adv-x="356" d="M341,616q-49,0-68.5-19T247,525l-2-12q0-4 4-4H351q4,0 6.5-3t1.5-7l-8-68q-2-10-11-10H238q-4,0-4-4L184,10q-1-4-4-7t-7-3H99q-9,0-9,10l50,407q1,1 0,2.5t-3,1.5H72q-10,0-8,10l8,68q2,10 11,10h65q4,0 4,4l2,18q8,66 28,102t57.5,51.5T342,700h33q10,0 8-10l-7-64q-2-10-11-10H341Z" />
      <glyph unicode="g" glyph-name="g" horiz-adv-x="527" d="M413,499q2,10 11,10h74q10,0 8-10L448,26Q433-95 360.5-147T176-199q-16,0-48,2q-9,1-8,11l11,69q1,5 4.5,7.5T143-108q14-1 40-1q82,0 122.5,31.5T356,29l2,18q0,6-5,2Q307,0 228,0Q165,0 118,34T60,134q-3,21-3,45q0,32 5,77q10,80 31,128q26,60 77.5,96.5T286,517q79,0 119-50q3-5 5,1l3,31ZM366,163q5,15 8.5,32t9.5,62q6,54 6,69q0,8-2,24q-3,37-27,60.5T296,434q-40,0-70.5-23.5T179,350q-16-33-22-93q-5-45-5-64t3-30q5-37 31-60.5T252,79q42,0 72,23.5T366,163Z" />
      <glyph unicode="h" glyph-name="h" horiz-adv-x="526" d="M332,516q72,0 112.5-39.5T485,369q0-9-2-29L443,10q-1-4-4-7t-7-3H358q-9,0-9,10l39,311q1,6 1,18q0,42-24,68t-66,26q-47,0-79.5-31T181,322L143,10Q141,0 132,0H58Q48,0 50,10l83,680q2,10 11,10h74q10,0 8-10L198,463q0-2 1.5-3t2.5,1q48,55 130,55Z" />
      <glyph unicode="i" glyph-name="i" horiz-adv-x="247" d="M177,589q-25,0-40,15t-15,39q0,32 20.5,53T193,717q25,0 40-14.5T248,663q0-31-21-52.5T177,589ZM66,1Q56,1 58,11l60,488q0,4 3,7t7,3h74q9,0 9-10L151,11Q149,1 140,1H66Z" />
      <glyph unicode="j" glyph-name="j" horiz-adv-x="241" d="M170,589q-24,0-39,15.5T116,644q0,32 20,52.5T186,717q25,0 40-14.5T241,663q0-31-21-52.5T170,589ZM-78-207q-10,0-8,10l7,62q2,10 12,10q55,0 82.5,23T49-29l64,528q0,4 3,7t8,3h73q5,0 7.5-3t1.5-7L141-28q-8-66-32-105T40-190T-78-207Z" />
      <glyph unicode="k" glyph-name="k" horiz-adv-x="497" d="M58,0Q48,0 50,10l83,680q2,10 11,10h74q10,0 8-10L179,305q0-2 1.5-3t3.5,1L388,504q4,5 12,5h86q6,0 7-3.5t-3-8.5L346,348q-2-4-1-6L453,12V9q0-4-3-6.5T443,0H366q-9,0-10,8L274,280q-2,4-5,1L165,177q-2-4-2-5L143,10Q141,0 132,0H58Z" />
      <glyph unicode="l" glyph-name="l" horiz-adv-x="228" d="M58,0Q48,0 50,10l83,680q2,10 11,10h74q10,0 8-10L143,10Q141,0 132,0H58Z" />
      <glyph unicode="m" glyph-name="m" horiz-adv-x="801" d="M625,516q66,0 103-37t37-104q0-9-2-31L722,10Q720,0 711,0H638q-10,0-8,10l38,314q1,7 1,21q0,41-22.5,64.5T584,433q-45,0-76.5-29T470,326L431,10Q429,0 420,0H347q-10,0-8,10l38,314q1,7 1,21q0,41-22.5,64.5T293,433q-45,0-75-29t-36-78L143,10Q141,0 132,0H58Q48,0 50,10l60,489q2,10 11,10h73q5,0 7.5-3t1.5-7l-4-34q-1-2 0.5-3t3.5,1q50,53 131,53q49,0 82-19.5T463,439q3-4 6,0q27,39 68,58t88,19Z" />
      <glyph unicode="n" glyph-name="n" horiz-adv-x="526" d="M332,516q72,0 112.5-39.5T485,369q0-9-2-29L443,10q-1-4-4-7t-7-3H358q-9,0-9,10l39,311q1,6 1,18q0,42-24,68t-66,26q-47,0-79.5-31T181,322L143,10Q141,0 132,0H58Q48,0 50,10l60,489q2,10 11,10h73q5,0 7.5-3t1.5-7l-5-36q0-2 1.5-3t2.5,1q48,55 130,55Z" />
      <glyph unicode="o" glyph-name="o" horiz-adv-x="538" d="M249-8Q177-8 128.5,29.5T67,134q-6,29-6,67q0,28 3,55q10,73 32,120q29,66 87,103.5T315,517q70,0 117-37.5T493,377q6-28 6-64q0-27-3-56q-8-70-32-123Q434,67 377,29.5T249-8Zm10,83q40,0 72,22.5T380,161q16,43 22,94q4,44 4,62q0,13-2,31q-8,41-34.5,63.5T302,434q-40,0-72-22.5T180,348q-14-34-22-93q-3-27-3-52q0-24 3-42q6-40 33-63t68-23Z" />
      <glyph unicode="p" glyph-name="p" horiz-adv-x="541" d="M496,381q7-29 7-69q0-31-4-59q-9-71-31-121Q439,65 388,28.5T265-8Q231-8 203.5,5.5T158,44q-2,2-3.5,1T153,42L125-181q-2-10-11-10H41q-5,0-7.5,3T32-181l84,680q0,4 3,7t8,3h73q9,0 9-10l-4-33q-1-2 0.5-3t3.5,1q24,26 55,39.5T329,517q70,0 112-35.5T496,381ZM358,123q37,48 47,132q3,27 3,49q0,45-12,75q-10,27-32,41t-54,14q-55,0-92-54q-29-44-38-126q-4-40-4-54q0-43 13-74q22-51 76-51q57,0 93,48Z" />
      <glyph unicode="q" glyph-name="q" horiz-adv-x="541" d="M416,499q2,10 11,10h74q10,0 8-10L426-181q-2-10-11-10H341q-10,0-8,10L360,42q1,2-0.5,3T356,44Q332,19 301,5.5T236-8Q163-8 121,28.5T67,132q-5,23-5,59q0,33 4,62q9,74 34,128q29,65 79.5,100.5T300,517q34,0 61.5-13.5T407,464q2-2 3.5-1t1.5,3l4,33ZM344,126q30,43 40,128q4,28 4,57q0,41-11,69q-22,54-78,54q-64,0-99-55q-30-48-40-124q-3-24-3-46q0-53 18-86q23-48 81-48q54,0 88,51Z" />
      <glyph unicode="r" glyph-name="r" horiz-adv-x="360" d="M328,514q31,0 55-13q7-3 3-12l-25-75q-3-9-12-6q-16,7-38,7l-14-1q-45-2-78.5-32.5T179,302L143,10Q141,0 132,0H58Q48,0 50,10l60,489q2,10 11,10h73q5,0 7.5-3t1.5-7l-7-53q0-3 1.5-3.5T200,444q52,70 128,70Z" />
      <glyph unicode="s" glyph-name="s" horiz-adv-x="472" d="M221-6Q139-6 90.5,29T42,118q0,9 1,13l2,11q0,4 3,7t8,3h69q5,0 7.5-3t1.5-7l-1-5q-3-28 24-49t72-21q47,0 77,21.5T336,142q0,26-23.5,39.5T238,210t-84,30T98,282T75,350q0,75 57.5,119.5T280,514q79,0 126-35.5T453,386q0-11-1-16l-1-3q0-4-3-7t-7-3H373q-5,0-7.5,3t-1.5,7l1,3q3,29-22.5,48.5T270,438q-46,0-75-18.5T166,369q0-26 24-40t76-30q52-15 85-29t56.5-41T431,160q0-50-26.5-87.5T330,14.5T221-6Z" />
      <glyph unicode="t" glyph-name="t" horiz-adv-x="358" d="M346,440q-2-10-11-10H230q-4,0-4-4L193,161q-1-7-1-19q0-32 16.5-46T259,82h28q5,0 7.5-3t1.5-7l-8-62q0-10-10-10q-32-2-45-2Q166-2 132,19.5T98,98q0,9 2,29l37,299q0,4-4,4H74q-10,0-8,10l7,59q2,10 11,10h59q4,0 4,4l15,118q2,10 11,10h70q4,0 6.5-3t1.5-7L237,513q-1-1 0-2.5t3-1.5H345q10,0 8-10l-7-59Z" />
      <glyph unicode="u" glyph-name="u" horiz-adv-x="522" d="M404,499q0,4 3,7t8,3h72q5,0 7.5-3t1.5-7L436,10Q434,0 425,0H352q-10,0-8,10l4,37q1,2-0.5,2.5T344,48Q298-7 217-7Q150-7 105,30T60,134q0,16 1,24l42,341q2,10 11,10h73q4,0 6.5-3t1.5-7L157,188q-1-7-1-20q0-43 23-67.5T245,76q49,0 81.5,30.5T365,188l39,311Z" />
      <glyph unicode="v" glyph-name="v" horiz-adv-x="477" d="M178,0q-3,0-6,2t-4,6L70,498v2q0,9 9,9h81q4,0 7-2t4-6l62-362q1-2 3-2t3,2L389,501q5,8 13,8l81-1q12,0 7-11L273,8q-5-8-13-8H178Z" />
      <glyph unicode="w" glyph-name="w" horiz-adv-x="721" d="M158,0q-7,0-10,8L69,498v2q0,9 10,9h76q4,0 6.5-2.5T164,500l48-363q0-2 2-2t3,2L355,500q4,9 12,9h67q8,0 10-9l51-362q1-2 2.5-2t2.5,2L640,500q4,9 12,9l75-1q12,0 7-11L534,8q-5-8-12-8H446q-7,0-9,8L383,346q-1,2-2.5,2t-2.5-2L247,9q-4-9-12-9H158Z" />
      <glyph unicode="x" glyph-name="x" horiz-adv-x="484" d="M14,0Q8,0 6.5,3.5T8,12L199,251q2,3 0,6L68,497l-1,4q0,8 9,8h79q7,0 11-6l92-171q1-1 3-1t3,1L397,503q5,6 13,6h84q6,0 7.5-3.5T499,497L309,257q-1-2-1-6L440,12q1-1 1-4t-2.5-5.5T432,0H352q-7,0-11,6L250,177q-1,2-3,2t-3-2L109,6q-4-6-12-6H14Z" />
      <glyph unicode="y" glyph-name="y" horiz-adv-x="462" d="M10-199q-3,0-5,3t-1,7l7,59q2,10 11,10h2q39,1 62.5,10t41,33.5T165-3q1,1 0.5,3.5T165,3L64,498v2q0,9 9,9h79q8,0 10-8l64-377q0-2 2.5-2t3.5,2L386,501q5,8 13,8h77q11,0 6-11L240-35q-31-68-57-102t-64-48T16-199H10Z" />
      <glyph unicode="z" glyph-name="z" horiz-adv-x="437" d="M19,0q-4,0-6.5,3T11,10l9,70q0,7 5,12L322,416q2,2 1,3.5t-3,1.5H76q-9,0-9,10l9,68q2,10 11,10H437q10,0 8-10l-8-71q-1-7-6-12L131,92q-2-1-1.5-3t2.5-2H386q9,0 9-10l-9-67q0-4-3-7t-8-3H19Z" />
      <glyph unicode="{" glyph-name="braceleft" horiz-adv-x="319" d="M170-130q-97,0-97,90q0,7 2,27l26,213q2,18 2,26q0,58-45,64q-10,1-8,11l7,57q0,9 10,11q29,4 45,25.5T133,458l25,208q8,60 38.5,89T283,784h70q5,0 7.5-3t1.5-7l-8-64q-2-10-11-10H310q-54,0-63-70L225,448q-6-47-21.5-74.5T159,332q-5-2 0-5q20-11 29.5-31t9.5-52q0-9-2-33L173,24q-1-7-1-19q0-52 46-52h33q9,0 9-10l-8-63q-2-10-11-10H170Z" />
      <glyph unicode="|" glyph-name="bar" horiz-adv-x="174" d="M21-80q-10,0-8,10L113,750q1,4 4,7t7,3h74q9,0 9-10L106-70q-2-10-11-10H21Z" />
      <glyph unicode="}" glyph-name="braceright" horiz-adv-x="319" d="M6-130q-4,0-6.5,3T-2-120L6-57q0,4 3,7t8,3H50q27,0 43.5,18T114,24l22,187q6,47 22,75t44,41q5,4 0,5q-20,11-29,30t-9,50q0,23 2,36l22,182q1,6 1,17q0,53-47,53H108q-10,0-8,10l8,64q0,4 3,7t8,3h71q49,0 73-22.5T287,693q0-7-2-27L260,458q-2-20-2-27q0-29 10.5-44T302,369q9-1 9-11l-7-57q-2-10-11-11q-28-4-44-25.5T228,200L202-13q-7-60-37.5-88.5T78-130H6Z" />
      <glyph unicode="~" glyph-name="asciitilde" horiz-adv-x="497" d="M346,220q-27,0-46.5,8T256,252q-22,13-38.5,20T181,279q-42,0-74-37l-2-4q-6-6-12-1L55,265q-7,6-3,13q20,38 57.5,61.5T188,363q25,0 43-7t37-19q5-3 21-13t31-15t31-5q20,0 35,10t32,29q7,8 13,3l43-32q7-7 3-13q-22-36-57-58.5T346,220Z" />
      <glyph unicode="&#xa0;" glyph-name="uni00A0" horiz-adv-x="194" />
      <glyph unicode="&#xa1;" glyph-name="exclamdown" horiz-adv-x="318" d="M224,708q24,0 39-15.5T278,653q0-32-20-52.5T208,580q-25,0-40,14.5T153,634q0,31 21,52.5T224,708ZM160,468q1,10 11,10h57q10,0 9-10L190,21q-2-10-11-10H105q-10,0-8,10l63,447Z" />
      <glyph unicode="&#xa2;" glyph-name="cent" horiz-adv-x="510" d="M389,253q0,3 1,4q3,8 11,6l71-12q8-2 7-8q0-3-1-4q-1-5-7-22q-21-53-69-88.5T292,84q-5,0-5-4L280,6Q278-4 269-4H205q-10,0-8,10l11,77q0,4-3,5q-52,12-86,48T76,225q-4,21-4,53q0,35 4,68q9,72 30,121q21,51 63,86t97,48q4,1 4,5l9,75q0,4 3,7t8,3h63q4,0 6.5-3t1.5-7l-10-72q0-4 3-4q60-9 100-45t48-87q4-17 4-33q-1-9-10-10l-74-11h-2q-6,0-8,9l-1,16q-4,34-31,57t-70,23q-42,0-73.5-23T191,440q-12-29-21-95q-4-33-4-62q0-14 2-32q5-40 30-63t68-23q42,0 75.5,23.5T387,248l2,5Z" />
      <glyph unicode="&#xa3;" glyph-name="sterling" horiz-adv-x="590" d="M209,88q-3-2-2.5-3.5T210,83H540q10,0 8-10l-7-63q-1-4-4-7t-7-3H100q-9,0-9,10l8,65q2,8 9,12q25,15 41,44t21,68l12,98q0,4-3,4H107q-9,0-9,10l7,58q1,4 4,7t7,3h72q3,0 5,4l14,121q12,96 74,150t156,54q70,0 111.5-37T604,566v-2q0-8-8-10l-72-13h-3q-6,0-7,7q-9,40-30.5,58.5T427,625q-53,0-86-29.5T301,506L286,383q-1-1 0-2.5t3-1.5H472q5,0 7.5-3t1.5-7l-7-58q-2-10-11-10H279q-1,0-2.5-1t-1.5-3l-12-96q-8-69-54-113Z" />
      <glyph unicode="&#xa4;" glyph-name="currency" horiz-adv-x="524" d="M478,329q0-73-46-137q-2-4 0-6l56-65q2-2 2-5q0-5-4-9L434,65q-3-3-7-3q-3,0-7,4l-52,62q-3,3-6,1Q310,97 252,97q-59,0-100,29q-3,2-6-1L81,66q-8-7-14-1L27,107q-7,7 0,14l67,60q2,2 2,6q-22,42-22,90q0,76 47,136q2,3-1,6L65,484q-2,4-2,5q0,5 5,9l51,41q7,7 13-1l53-61q2-2 5-1q54,32 112,32q60,0 106-35q3-2 6,1l71,64q8,7 14,1l40-41q7-7 0-14l-77-69q-2-2-2-6q18-36 18-80ZM155,287q0-45 31-76.5T262,179q35,0 66,19t50,50.5T397,317q0,46-30,77.5T292,426q-35,0-66.5-19t-51-51T155,287Z" />
      <glyph unicode="&#xa5;" glyph-name="yen" horiz-adv-x="667" d="M645,700q5,0 7-3.5t-2-8.5L429,343q-2-5 1-5H535q9,0 9-10l-5-36q0-4-3-7t-8-3H400q-4,0-4-4l-9-71q0-4 4-4H519q4,0 6.5-3t1.5-7l-4-36q-2-10-11-10H384q-3,0-5-4L363,11Q361,1 352,1H279q-5,0-7.5,3T270,11l16,132q0,4-3,4H153q-9,0-9,10l5,36q2,10 11,10H290q4,0 4,4l9,71q0,4-4,4H169q-4,0-6.5,3t-1.5,7l4,36q1,4 4,7t7,3H283q3,0 3,5L150,688l-1,3q0,9 10,9h79q10,0 11-7L361,400q1-2 3-2t3,2L553,693q3,7 12,7h80Z" />
      <glyph unicode="&#xa6;" glyph-name="brokenbar" horiz-adv-x="174" d="M80,399q-10,0-8,10l41,341q1,4 4,7t7,3h74q9,0 9-10L165,409q-2-10-11-10H80ZM21-80q-10,0-8,10L55,271q0,4 3,7t8,3h73q9,0 9-10L106-70q-2-10-11-10H21Z" />
      <glyph unicode="&#xa7;" glyph-name="section" horiz-adv-x="454" d="M178-207q-71,0-110,37.5T29-67q0,16 1,25l2,28Q34-4 43-4h74q10,0 8-10l-1-14q-1-7-1-19q0-36 19-57t51-21q36,0 62,25.5T286-36q1,4 1,12q0,26-14.5,43t-35,27T176,72q-43,17-69,34.5T67,154q-12,27-12,64q0,36 10.5,67.5T94,340q32,40 79,55q6,2 1,5q-34,16-55,48T98,523q0,48 25.5,90.5t70.5,68T294,707q70,0 112-39t42-104q0-14-1-21l-3-20q0-4-3-7t-7-3H360q-9,0-9,10l2,11q1,5 1,14q0,34-19.5,55.5T283,625q-38,0-65.5-30.5T190,524q0-36 26-57.5T292,428q36-13 61-27t43-38q24-32 24-83q0-32-10.5-63.5T381,159q-32-47-77-57q-5-1-1-4q76-41 76-121q0-53-27-95t-73-65.5T178-207Zm47,361q50,0 79,38q10,15 16,35t6,41q0,26-11,43q-21,33-66,33q-24,0-45-12t-34-32q-21-27-21-72q0-22 7-36q22-38 69-38Z" />
      <glyph unicode="&#xa8;" glyph-name="dieresis" horiz-adv-x="349" d="M317,593q-25,0-40,15t-15,39q0,32 20.5,53T333,721q24,0 39-15.5T387,665q0-31-20.5-51.5T317,593Zm-176,0q-25,0-40,15T86,647q0,32 20.5,53T157,721q24,0 39-15.5T211,665q0-31-20.5-51.5T141,593Z" />
      <glyph unicode="&#xa9;" glyph-name="copyright" horiz-adv-x="825" d="M391-8Q300-8 229.5,31.5t-109,110T82,301q0,25 3,50q12,101 67.5,182.5t141,128T479,708q92,0 162.5-39.5T751,559t39-158q0-24-3-50q-12-102-67.5-184T578,38.5T391-8Zm8,66q82,0 151.5,38T665,201t55,150q3,21 3,42q0,72-31.5,128.5T603,610T471,642q-81,0-150.5-38t-114-104.5T152,351q-3-22-3-43q0-73 31-129.5T268,90T399,58Zm16,114q-46,0-72.5,24.5T316,263q0,10 1,16l17,144q6,48 40.5,77T459,529q46,0 73-24t27-65q0-9-1-14q-2-9-11-9H513q-9,0-9,10l1,9q0,21-14.5,33T453,481q-26,0-43.5-14.5T389,427L370,274q-3-24 11-39t40-15t44,15t21,39q0,4 3,7t8,3h34q10,0 8-9q-5-46-39.5-74.5T415,172Z" />
      <glyph unicode="&#xaa;" glyph-name="ordfeminine" horiz-adv-x="316" d="M271,565q3,0 5,4l2,20l1,11q0,27-17,43.5T214,660q-26,0-46-11.5T141,618q-5-9-13-8l-33,3q-10,2-8,11q11,37 47.5,60.5T220,708q53,0 83.5-26.5T334,611q0-10-1-15L306,377q0-4-3-7t-8-3H260q-4,0-6.5,3t-1.5,7l2,18q1,2-0.5,2.5T250,396q-37-35-97-35q-44,0-71,20.5T55,441q0,57 40.5,90.5T202,565h69ZM168,407q37,0 64.5,19.5T264,477l5,39q0,4-3,4H204q-43,0-68.5-17T110,451q0-44 58-44ZM35,297q1,4 4,7t7,3H296q10,0 8-10l-5-44q-2-10-11-10H39q-5,0-7.5,3T30,253l5,44Z" />
      <glyph unicode="&#xab;" glyph-name="guillemotleft" horiz-adv-x="513" d="M266,119q2-4 2-5q0-3-2.5-5t-6.5-2H186q-9,0-11,6L82,274q-1,2-1,6t3,8L216,449q5,6 13,6h72q6,0 7.5-3.5T306,443L174,284q-3-3-1-6l93-159Zm158,0q2-4 2-5q0-3-2.5-5t-6.5-2H344q-9,0-11,6L240,274q-1,2-1,6t3,8L374,449q5,6 13,6h72q6,0 7.5-3.5T464,443L333,284q-3-3-1-6l92-159Z" />
      <glyph unicode="&#xac;" glyph-name="logicalnot" horiz-adv-x="480" d="M56,340q2,10 11,10H460q9,0 9-10L446,160q0-4-3-7t-7-3H373q-4,0-6.5,3t-1.5,7l13,103q0,4-4,4H57q-10,0-8,10l7,63Z" />
      <glyph unicode="&#xad;" glyph-name="uni00AD" horiz-adv-x="388" d="M57,264q-5,0-7.5,3T48,274l8,63q2,10 11,10H367q4,0 6.5-3t1.5-7l-8-63q0-4-3-7t-8-3H57Z" />
      <glyph unicode="&#xae;" glyph-name="registered" horiz-adv-x="435" d="M285,712q50,0 89-22t61-60t22-86q0-62-30-114t-80.5-82T237,318q-49,0-88,22.5t-61,62T66,491q0,59 30,110t80.5,81T285,712ZM242,362q42,0 78.5,20.5t61,56T411,518q1,6 1,19q0,57-37,94t-95,37q-45,0-83.5-23T135,582.5T112,496q0-59 36.5-96.5T242,362Zm88,196q0-38-31-53q-4-4-3-6l17-62l1-3q0-9-10-9H286q-10,0-11,8l-14,63q-1,3-4,3H246q-2,0-3.5-1t-1.5-3l-7-60q-2-10-11-10H207q-4,0-6.5,3t-1.5,7l20,161q0,4 3,7t8,3h54q22,0 34-13t12-35Zm-75,17q-4,0-4-4l-6-41q0-4 4-4h20q10,0 17,6.5t9,17.5v3q0,22-20,22H255Z" />
      <glyph unicode="&#xaf;" glyph-name="macron" horiz-adv-x="269" d="M62,588q-4,0-6.5,3T54,598l6,47q2,10 11,10H321q10,0 8-10l-5-47q-2-10-11-10H62Z" />
      <glyph unicode="&#xb0;" glyph-name="degree" horiz-adv-x="368" d="M223,481q-61,0-100.5,40.5T83,624q0,49 25,91.5T174.5,783T263,808q62,0 101.5-40.5T404,666q0-50-25-92.5T312.5,506T223,481Zm8,65q44,0 77,33t33,79q0,38-24,62.5T255,745q-28,0-53-15.5T161.5,688T146,632q0-37 24-61.5T231,546Z" />
      <glyph unicode="&#xb1;" glyph-name="plusminus" horiz-adv-x="480" d="M467,409q9,0 9-10l-8-63q-2-10-11-10H305q-2,0-3.5-1t-1.5-3L281,168q0-4-3-7t-8-3H209q-10,0-8,10l19,154q0,4-4,4H64q-10,0-8,10l7,63q2,10 11,10H227q1,0 2.5,1t1.5,3l20,160q0,4 3,7t7,3h62q4,0 6.5-3t1.5-7L311,413q0-4 4-4H467ZM24,0Q14,0 16,10l7,63q2,10 11,10H427q9,0 9-10l-8-63Q426,0 417,0H24Z" />
      <glyph unicode="&#xb2;" glyph-name="uni00B2" horiz-adv-x="322" d="M76,433q-10,0-8,10l5,39q0,6 6,12q54,53 147,150q66,69 66,108q0,22-15,35.5T236,801q-28,0-47-16t-22-43l-2-13q-2-10-11-10H109q-4,0-6.5,3t-1.5,7l3,23q8,48 46.5,77T243,858q53,0 83-27.5T356,760q0-30-16-62t-50-69q-57-65-129-135q-1-2 0-3.5t3-1.5H325q10,0 8-10l-4-36q-2-10-11-10H76Z" />
      <glyph unicode="&#xb3;" glyph-name="uni00B3" horiz-adv-x="313" d="M327,637q7-18 7-45q0-8-2-28q-4-38-22-69q-18-32-50-50.5T189,426q-43,0-71.5,23T81,510q-4,18-2,44q0,4 3,7t7,3h45q9,0 9-10V533q0-4 2-12q4-17 17.5-27.5T196,483q36,0 55,31q15,21 18,52q1,7 1,20q0,22-6,37q-12,30-48,30q-10,0-22-6q-2-1-5-1q-5,0-8,4l-18,27q-1,2-1,5q0,5 4,9l106,99q2,1 1.5,3t-2.5,2H124q-5,0-7.5,3t-1.5,7l5,36q0,4 3,7t8,3H354q4,0 6.5-3t1.5-7l-5-39q0-4-6-12l-94-92q-3-3 2-5q50-7 68-56Z" />
      <glyph unicode="&#xb4;" glyph-name="acute" horiz-adv-x="202" d="M90,573q-6,0-8,3.5t2,8.5l70,108q4,7 13,7h65q5,0 6.5-3.5T236,688L154,580q-7-7-13-7H90Z" />
      <glyph unicode="&#xb5;" glyph-name="uni00B5" horiz-adv-x="531" d="M409,499q1,4 4,7t7,3h73q9,0 9-10L442,10Q440,0 431,0H358q-9,0-9,10l5,35q0,2-1.5,2.5T349,46Q304-7 223-7Q182-7 147,8q-3,2-5-3L118-190q0-4-3-7t-8-3H34q-5,0-7.5,3T25-190l85,689q2,10 11,10h73q5,0 7.5-3t1.5-7L162,169q-1-43 22-68t67-25q49,0 81.5,30.5T371,188l38,311Z" />
      <glyph unicode="&#xb6;" glyph-name="paragraph" horiz-adv-x="576" d="M557,700q5,0 7.5-3t1.5-7L458-190q-2-10-11-10H396q-4,0-6.5,3t-1.5,7L488,626q0,4-3,4H370q-4,0-4-4L266-190q-2-10-11-10H203q-4,0-6.5,3t-1.5,7l53,436q2,4-3,4q-80,6-128.5,59T68,443q0,10 2,32q8,64 42.5,115T201,670.5T320,700H557Z" />
      <glyph unicode="&#xb7;" glyph-name="periodcentered" horiz-adv-x="212" d="M114,219q-25,0-40,15T59,273q0,32 20.5,53T130,347q24,0 39-15.5T184,291q0-31-20.5-51.5T114,219Z" />
      <glyph unicode="&#xb8;" glyph-name="cedilla" horiz-adv-x="146" d="M-33-181q-8,3-5,12l9,33q1,4 4.5,6.5T-16-129q10-3 20-3q21,0 34.5,12T52-83q0,33-40,71Q9-9 9-6q0,6 8,6H57q8,0 12-4q46-43 46-90q0-17-6-33q-12-33-38-47T14-188q-24,0-47,7Z" />
      <glyph unicode="&#xb9;" glyph-name="uni00B9" horiz-adv-x="182" d="M159,851q5,2 12,2h47q9,0 9-10L177,443q0-4-3-7t-8-3H123q-9,0-9,10l43,347q0,3-4,3l-43-6h-2q-8,0-8,9l4,28q2,9 9,12l46,15Z" />
      <glyph unicode="&#xba;" glyph-name="ordmasculine" horiz-adv-x="347" d="M198,367q-44,0-73,24.5T85,460q-5,20-5,41q0,19 3,37q5,44 20,78q20,44 56,68t82,24q43,0 72.5-24T353,617q4-16 4-39q0-19-3-39q-5-44-20-79q-20-44-56-68.5T198,367Zm7,54q23,0 43.5,15T279,476t15,62q3,21 3,39q0,35-17,56t-47,21q-24,0-43.5-14.5T159,599q-12-26-15-61q-2-22-2-31q0-15 2-31q3-25 19.5-40T205,421ZM47,243q-10,0-8,10l5,46q1,4 4,7t7,3H330q10,0 8-10l-5-46q-2-10-11-10H47Z" />
      <glyph unicode="&#xbb;" glyph-name="guillemotright" horiz-adv-x="513" d="M88,107q-6,0-7.5,3.5T83,119L215,278q2,3 0,6L123,443q-2,4-2,5q0,7 10,7h72q9,0 11-6l93-161q1-2 1-6q0-3-3-8L173,113q-5-6-12-6H88Zm158,0q-6,0-7.5,3.5T241,119L373,278q2,3 0,6L281,443q-2,4-2,5q0,7 10,7h72q9,0 11-6l93-161q1-2 1-6q0-3-3-8L331,113q-5-6-12-6H246Z" />
      <glyph unicode="&#xbc;" glyph-name="onequarter" horiz-adv-x="789" d="M140,698q5,2 12,2h47q9,0 9-10L158,290q0-4-3-7t-8-3H104q-9,0-9,10l43,347q0,3-4,3l-43-6H89q-8,0-8,9l4,28q2,9 9,12l46,15ZM89,0q-6,0-7.5,3.5T84,12L572,693q5,7 12,7h49q6,0 7.5-3.5T638,688L151,7q-5-7-13-7H89ZM741,169q9,0 9-10l-5-39q-2-10-11-10H715q-2,0-3.5-1t-1.5-3L698,10q0-4-3-7t-8-3H643q-9,0-9,10l12,96q0,4-3,4H470q-10,0-8,10l4,33q0,5 4,12L610,412q5,8 12,8h45q5,0 7-3.5t0-8.5L542,174q-1-2-0.5-3.5T544,169H650q4,0 4,4l10,81q2,10 11,10h45q10,0 8-10l-10-81q0-4 4-4h19Z" />
      <glyph unicode="&#xbd;" glyph-name="onehalf" horiz-adv-x="774" d="M140,698q5,2 12,2h47q9,0 9-10L158,290q0-4-3-7t-8-3H104q-9,0-9,10l43,347q0,3-4,3l-43-6H89q-8,0-8,9l4,28q2,9 9,12l46,15ZM89,0q-6,0-7.5,3.5T84,12L572,693q5,7 12,7h49q6,0 7.5-3.5T638,688L151,7q-5-7-13-7H89ZM466,0q-10,0-8,10l5,39q0,6 6,12q54,53 147,150q66,69 66,108q0,22-15,35.5T626,368q-28,0-47-16t-22-43l-2-13q-2-10-11-10H499q-4,0-6.5,3t-1.5,7l3,23q8,48 46.5,77T633,425q53,0 83-27.5T746,327q0-30-16-62t-50-69Q623,131 551,61q-1-2 0-3.5t3-1.5H715q10,0 8-10l-4-36Q717,0 708,0H466Z" />
      <glyph unicode="&#xbe;" glyph-name="threequarters" horiz-adv-x="879" d="M309,491q7-18 7-45q0-8-2-28q-4-38-22-69q-18-32-50-50.5T171,280q-43,0-71.5,23T63,364q-4,18-2,44q0,4 3,7t7,3h45q9,0 9-10V387q0-4 2-12q4-17 17.5-27.5T178,337q36,0 55,31q15,21 18,52q1,7 1,20q0,22-6,37q-12,30-48,30q-10,0-22-6q-2-1-5-1q-5,0-8,4l-18,27q-1,2-1,5q0,5 4,9l106,99q2,1 1.5,3t-2.5,2H106q-5,0-7.5,3T97,659l5,36q0,4 3,7t8,3H336q4,0 6.5-3t1.5-7l-5-39q0-4-6-12l-94-92q-3-3 2-5q50-7 68-56ZM183,0q-6,0-7.5,3.5T178,12L666,693q5,7 12,7h49q6,0 7.5-3.5T732,688L245,7q-5-7-13-7H183ZM834,169q9,0 9-10l-5-39q-2-10-11-10H808q-2,0-3.5-1t-1.5-3L791,10q0-4-3-7t-8-3H736q-9,0-9,10l12,96q0,4-3,4H563q-10,0-8,10l4,33q0,5 4,12L703,412q5,8 12,8h45q5,0 7-3.5t0-8.5L635,174q-1-2-0.5-3.5T637,169H743q4,0 4,4l10,81q2,10 11,10h45q10,0 8-10l-10-81q0-4 4-4h19Z" />
      <glyph unicode="&#xbf;" glyph-name="questiondown" horiz-adv-x="468" d="M295,499q25,0 40-15t15-39q0-31-21-52.5T279,371q-24,0-39,15.5T225,426q0,31 20.5,52T295,499Zm10-207q4,0 6.5-3t1.5-7l-6-50q-5-45-31-74T203,96q-32-23-50.5-39.5T121,16T108-40q0-38 24.5-60T199-122q48,0 81,28t38,72l4,26q0,4 3,7t7,3l74-4q10,0 8-10l-3-22q-6-55-37-97.5t-79.5-66T187-209q-81,0-128,42T12-53q0,8 2,26q6,44 24.5,76t41,52T137,146q37,25 55.5,44.5T214,237l6,45q2,10 11,10h74Z" />
      <glyph unicode="&#xc0;" glyph-name="Agrave" horiz-adv-x="611" d="M472,0q-3,0-6,2t-4,6L441,125q0,3-3,3H165q-3,0-4-3L112,8q-5-8-13-8H20q-5,0-6.5,3T14,11L310,692q5,8 13,8h97q3,0 6-2t4-6L561,11V9q0-9-9-9H472ZM195,209q-1-2 0.5-3.5T199,204H422q2,0 3.5,1.5T426,209L359,580q0,2-2,2t-4-2L195,209ZM416,776q1-1 1-4q0-4-3-6t-8-2H354q-6,0-11,7L289,879q-1,2-1,6q0,6 8,6h65q8,0 11-7l44-108Z" />
      <glyph unicode="&#xc1;" glyph-name="Aacute" horiz-adv-x="611" d="M472,0q-3,0-6,2t-4,6L441,125q0,3-3,3H165q-3,0-4-3L112,8q-5-8-13-8H20q-5,0-6.5,3T14,11L310,692q5,8 13,8h97q3,0 6-2t4-6L561,11V9q0-9-9-9H472ZM195,209q-1-2 0.5-3.5T199,204H422q2,0 3.5,1.5T426,209L359,580q0,2-2,2t-4-2L195,209ZM339,764q-6,0-8,3.5t2,8.5l70,108q4,7 13,7h65q5,0 6.5-3.5T485,879L403,771q-7-7-13-7H339Z" />
      <glyph unicode="&#xc2;" glyph-name="Acircumflex" horiz-adv-x="611" d="M472,0q-3,0-6,2t-4,6L441,125q0,3-3,3H165q-3,0-4-3L112,8q-5-8-13-8H20q-5,0-6.5,3T14,11L310,692q5,8 13,8h97q3,0 6-2t4-6L561,11V9q0-9-9-9H472ZM195,209q-1-2 0.5-3.5T199,204H422q2,0 3.5,1.5T426,209L359,580q0,2-2,2t-4-2L195,209Zm58,555q-6,0-7.5,3.5T248,776l90,109q5,6 14,6h82q10,0 12-6l63-109l2-5q0-7-9-7H445q-9,0-11,6l-42,76q-1,2-3,2t-3-2l-63-76q-4-6-12-6H253Z" />
      <glyph unicode="&#xc3;" glyph-name="Atilde" horiz-adv-x="611" d="M472,0q-3,0-6,2t-4,6L441,125q0,3-3,3H165q-3,0-4-3L112,8q-5-8-13-8H20q-5,0-6.5,3T14,11L310,692q5,8 13,8h97q3,0 6-2t4-6L561,11V9q0-9-9-9H472ZM195,209q-1-2 0.5-3.5T199,204H422q2,0 3.5,1.5T426,209L359,580q0,2-2,2t-4-2L195,209ZM442,784q-19,0-32.5,5T382,804q-17,10-25.5,14T337,822q-32,0-54-22l-4-4q-6-6-12,0l-24,28q-5,7 0,14q19,26 44,40t54,14q16,0 28-4.5T390.5,877t13.5-8t13.5-8t17-8.5T450,850q31,0 54,27q6,10 14,2l20-28q3-4 3-6.5t-2-7.5q-15-25-41.5-39T442,784Z" />
      <glyph unicode="&#xc4;" glyph-name="Adieresis" horiz-adv-x="611" d="M472,0q-3,0-6,2t-4,6L441,125q0,3-3,3H165q-3,0-4-3L112,8q-5-8-13-8H20q-5,0-6.5,3T14,11L310,692q5,8 13,8h97q3,0 6-2t4-6L561,11V9q0-9-9-9H472ZM195,209q-1-2 0.5-3.5T199,204H422q2,0 3.5,1.5T426,209L359,580q0,2-2,2t-4-2L195,209ZM469,784q-25,0-40,15t-15,39q0,32 20.5,53T485,912q24,0 39-15.5T539,856q0-31-20.5-51.5T469,784Zm-176,0q-25,0-40,15t-15,39q0,32 20.5,53T309,912q24,0 39-15.5T363,856q0-31-20.5-51.5T293,784Z" />
      <glyph unicode="&#xc5;" glyph-name="Aring" horiz-adv-x="611" d="M472,0q-3,0-6,2t-4,6L441,125q0,3-3,3H165q-3,0-4-3L112,8q-5-8-13-8H20q-5,0-6.5,3T14,11L310,692q5,8 13,8h97q3,0 6-2t4-6L561,11V9q0-9-9-9H472ZM195,209q-1-2 0.5-3.5T199,204H422q2,0 3.5,1.5T426,209L359,580q0,2-2,2t-4-2L195,209ZM378,764q-43,0-71,28t-28,71q0,35 17.5,64.5t47,46.5T406,991q43,0 70.5-27.5T504,893q0-35-17-64.5t-46-47T378,764Zm6,54q26,0 46.5,20T451,885q0,23-14.5,38T399,938q-26,0-46-20.5T333,869q0-22 14.5-36.5T384,818Z" />
      <glyph unicode="&#xc6;" glyph-name="AE" horiz-adv-x="907" d="M915,627q-2-10-11-10H580q-4,0-4-4L549,398q0-4 4-4H769q9,0 9-10l-8-63q-2-10-11-10H543q-2,0-3.5-1t-1.5-3L511,87q0-4 4-4H839q4,0 6.5-3t1.5-7l-8-63q0-4-3-7t-8-3H417q-10,0-8,10l14,114q0,4-4,4H194q-2,0-4-3L116,7q-3-7-12-7H21q-5,0-6.5,3.5T16,12L442,693q4,7 13,7H914q5,0 7.5-3t1.5-7l-8-63ZM241,209q-2-5 2-5H429q4,0 4,4l46,376q1,3-1,3t-4-2L241,209Z" />
      <glyph unicode="&#xc7;" glyph-name="Ccedilla" horiz-adv-x="589" d="M573,482q0-2-3-4.5t-7-2.5l-74-4q-10,0-9,9v3q2,16 2,23q0,54-34.5,86.5T355,625q-64,0-108.5-39T194,483L161,217q-1-7-1-21q0-55 34-88t94-33q64,0 108,39t52,103v2q2,9 11,9l73-4q10,0 8-10q-11-96-78.5-157T293-9q-5,0-3-5q34-35 34-76q0-19-6-35q-12-33-37.5-47T224-186q-24,0-47,7q-8,3-5,12l8,33q3,10 13,7q11-3 20-3q21,0 34.5,12T261-81q0,38-47,77q-1,2-2,2t-2,1Q142,16 104.5,65T67,187q0,10 2,34l32,259q8,68 44,119.5t93,80T365,708q97,0 154-51t57-138q0-10-2-32l-1-5Z" />
      <glyph unicode="&#xc8;" glyph-name="Egrave" horiz-adv-x="580" d="M588,627q-2-10-11-10H233q-4,0-4-4L202,398q0-4 4-4H442q9,0 9-10l-8-63q-2-10-11-10H195q-4,0-4-4L164,87q0-4 3-4H512q10,0 8-10l-8-63q0-4-3-7t-8-3H70q-9,0-9,10l84,680q2,10 11,10H587q5,0 7.5-3t1.5-7l-8-63ZM414,776q1-1 1-4q0-4-3-6t-8-2H352q-6,0-11,7L287,879q-1,2-1,6q0,6 8,6h65q8,0 11-7l44-108Z" />
      <glyph unicode="&#xc9;" glyph-name="Eacute" horiz-adv-x="580" d="M588,627q-2-10-11-10H233q-4,0-4-4L202,398q0-4 4-4H442q9,0 9-10l-8-63q-2-10-11-10H195q-4,0-4-4L164,87q0-4 3-4H512q10,0 8-10l-8-63q0-4-3-7t-8-3H70q-9,0-9,10l84,680q2,10 11,10H587q5,0 7.5-3t1.5-7l-8-63ZM336,764q-6,0-8,3.5t2,8.5l70,108q4,7 13,7h65q5,0 6.5-3.5T482,879L400,771q-7-7-13-7H336Z" />
      <glyph unicode="&#xca;" glyph-name="Ecircumflex" horiz-adv-x="580" d="M588,627q-2-10-11-10H233q-4,0-4-4L202,398q0-4 4-4H442q9,0 9-10l-8-63q-2-10-11-10H195q-4,0-4-4L164,87q0-4 3-4H512q10,0 8-10l-8-63q0-4-3-7t-8-3H70q-9,0-9,10l84,680q2,10 11,10H587q5,0 7.5-3t1.5-7l-8-63ZM251,764q-6,0-7.5,3.5T246,776l90,109q5,6 14,6h82q10,0 12-6l63-109l2-5q0-7-9-7H443q-9,0-11,6l-42,76q-1,2-3,2t-3-2l-63-76q-4-6-12-6H251Z" />
      <glyph unicode="&#xcb;" glyph-name="Edieresis" horiz-adv-x="580" d="M588,627q-2-10-11-10H233q-4,0-4-4L202,398q0-4 4-4H442q9,0 9-10l-8-63q-2-10-11-10H195q-4,0-4-4L164,87q0-4 3-4H512q10,0 8-10l-8-63q0-4-3-7t-8-3H70q-9,0-9,10l84,680q2,10 11,10H587q5,0 7.5-3t1.5-7l-8-63ZM467,784q-25,0-40,15t-15,39q0,32 20.5,53T483,912q24,0 39-15.5T537,856q0-31-20.5-51.5T467,784Zm-176,0q-25,0-40,15t-15,39q0,32 20.5,53T307,912q24,0 39-15.5T361,856q0-31-20.5-51.5T291,784Z" />
      <glyph unicode="&#xcc;" glyph-name="Igrave" horiz-adv-x="253" d="M70,0q-9,0-9,10l84,680q2,10 11,10h74q4,0 6.5-3t1.5-7L154,10q0-4-3-7t-7-3H70ZM238,776q1-1 1-4q0-4-3-6t-8-2H176q-6,0-11,7L111,879q-1,2-1,6q0,6 8,6h65q8,0 11-7l44-108Z" />
      <glyph unicode="&#xcd;" glyph-name="Iacute" horiz-adv-x="253" d="M70,0q-9,0-9,10l84,680q2,10 11,10h74q4,0 6.5-3t1.5-7L154,10q0-4-3-7t-7-3H70Zm91,764q-6,0-8,3.5t2,8.5l70,108q4,7 13,7h65q5,0 6.5-3.5T307,879L225,771q-7-7-13-7H161Z" />
      <glyph unicode="&#xce;" glyph-name="Icircumflex" horiz-adv-x="253" d="M70,0q-9,0-9,10l84,680q2,10 11,10h74q4,0 6.5-3t1.5-7L154,10q0-4-3-7t-7-3H70Zm6,764q-6,0-7.5,3.5T71,776l90,109q5,6 14,6h82q10,0 12-6l63-109l2-5q0-7-9-7H268q-9,0-11,6l-42,76q-1,2-3,2t-3-2l-63-76q-4-6-12-6H76Z" />
      <glyph unicode="&#xcf;" glyph-name="Idieresis" horiz-adv-x="253" d="M70,0q-9,0-9,10l84,680q2,10 11,10h74q4,0 6.5-3t1.5-7L154,10q0-4-3-7t-7-3H70ZM292,784q-25,0-40,15t-15,39q0,32 20.5,53T308,912q24,0 39-15.5T362,856q0-31-20.5-51.5T292,784Zm-176,0q-25,0-40,15T61,838q0,32 20.5,53T132,912q24,0 39-15.5T186,856q0-31-20.5-51.5T116,784Z" />
      <glyph unicode="&#xd0;" glyph-name="Eth" horiz-adv-x="658" d="M449,700q93,0 146-46t53-125q0-9-2-29L609,200q-11-91-78-145.5T363,0H129q-10,0-8,10l38,315q0,4-3,4H110q-10,0-8,10l6,48q0,4 3,7t8,3h45q3,0 5,4l35,289q2,10 11,10H449ZM551,486q1,8 1,23q0,50-29.5,79T442,617H292q-4,0-4-4L262,401q-1-1 0-2.5t3-1.5H367q10,0 8-10l-6-48q0-4-3-7t-7-3H257q-3,0-5-4L223,87q0-4 4-4H377q57,0 95,35.5T518,214l33,272Z" />
      <glyph unicode="&#xd1;" glyph-name="Ntilde" horiz-adv-x="652" d="M545,690q0,4 3,7t7,3h74q9,0 9-10L554,10Q552,0 543,0H472q-6,0-10,7L221,518q-1,3-3,2.5t-2-3.5L154,10q0-4-3-7t-7-3H70q-9,0-9,10l84,680q2,10 11,10h72q7,0 10-7L478,182q1-3 3-2.5t2,3.5l62,507Zm-84,94q-19,0-32.5,5T401,804q-17,10-25.5,14T356,822q-32,0-54-22l-4-4q-6-6-12,0l-24,28q-5,7 0,14q19,26 44,40t54,14q16,0 28-4.5T409.5,877t13.5-8t13.5-8t17-8.5T469,850q31,0 54,27q6,10 14,2l20-28q3-4 3-6.5t-2-7.5q-15-25-41.5-39T461,784Z" />
      <glyph unicode="&#xd2;" glyph-name="Ograve" horiz-adv-x="603" d="M280-9Q183-9 125.5,46T68,194q0,24 2,37L99,469q9,71 45.5,125T239,678t129,30q98,0 155.5-55T581,506q0-24-2-37L550,231q-8-71-45-125.5T410,21T280-9Zm10,83q67,0 112.5,42T457,227l29,243q2,18 2,26q0,59-35,94t-95,35q-65,0-111-42.5T193,470L163,227q-2-18-2-26q0-58 35-92.5T290,74ZM413,776q1-1 1-4q0-4-3-6t-8-2H351q-6,0-11,7L286,879q-1,2-1,6q0,6 8,6h65q8,0 11-7l44-108Z" />
      <glyph unicode="&#xd3;" glyph-name="Oacute" horiz-adv-x="603" d="M280-9Q183-9 125.5,46T68,194q0,24 2,37L99,469q9,71 45.5,125T239,678t129,30q98,0 155.5-55T581,506q0-24-2-37L550,231q-8-71-45-125.5T410,21T280-9Zm10,83q67,0 112.5,42T457,227l29,243q2,18 2,26q0,59-35,94t-95,35q-65,0-111-42.5T193,470L163,227q-2-18-2-26q0-58 35-92.5T290,74Zm45,690q-6,0-8,3.5t2,8.5l70,108q4,7 13,7h65q5,0 6.5-3.5T481,879L399,771q-7-7-13-7H335Z" />
      <glyph unicode="&#xd4;" glyph-name="Ocircumflex" horiz-adv-x="603" d="M280-9Q183-9 125.5,46T68,194q0,24 2,37L99,469q9,71 45.5,125T239,678t129,30q98,0 155.5-55T581,506q0-24-2-37L550,231q-8-71-45-125.5T410,21T280-9Zm10,83q67,0 112.5,42T457,227l29,243q2,18 2,26q0,59-35,94t-95,35q-65,0-111-42.5T193,470L163,227q-2-18-2-26q0-58 35-92.5T290,74ZM250,764q-6,0-7.5,3.5T245,776l90,109q5,6 14,6h82q10,0 12-6l63-109l2-5q0-7-9-7H442q-9,0-11,6l-42,76q-1,2-3,2t-3-2l-63-76q-4-6-12-6H250Z" />
      <glyph unicode="&#xd5;" glyph-name="Otilde" horiz-adv-x="603" d="M280-9Q183-9 125.5,46T68,194q0,24 2,37L99,469q9,71 45.5,125T239,678t129,30q98,0 155.5-55T581,506q0-24-2-37L550,231q-8-71-45-125.5T410,21T280-9Zm10,83q67,0 112.5,42T457,227l29,243q2,18 2,26q0,59-35,94t-95,35q-65,0-111-42.5T193,470L163,227q-2-18-2-26q0-58 35-92.5T290,74ZM439,784q-19,0-32.5,5T379,804q-17,10-25.5,14T334,822q-32,0-54-22l-4-4q-6-6-12,0l-24,28q-5,7 0,14q19,26 44,40t54,14q16,0 28-4.5T387.5,877t13.5-8t13.5-8t17-8.5T447,850q31,0 54,27q6,10 14,2l20-28q3-4 3-6.5t-2-7.5q-15-25-41.5-39T439,784Z" />
      <glyph unicode="&#xd6;" glyph-name="Odieresis" horiz-adv-x="603" d="M280-9Q183-9 125.5,46T68,194q0,24 2,37L99,469q9,71 45.5,125T239,678t129,30q98,0 155.5-55T581,506q0-24-2-37L550,231q-8-71-45-125.5T410,21T280-9Zm10,83q67,0 112.5,42T457,227l29,243q2,18 2,26q0,59-35,94t-95,35q-65,0-111-42.5T193,470L163,227q-2-18-2-26q0-58 35-92.5T290,74ZM466,784q-25,0-40,15t-15,39q0,32 20.5,53T482,912q24,0 39-15.5T536,856q0-31-20.5-51.5T466,784Zm-176,0q-25,0-40,15t-15,39q0,32 20.5,53T306,912q24,0 39-15.5T360,856q0-31-20.5-51.5T290,784Z" />
      <glyph unicode="&#xd7;" glyph-name="multiply" horiz-adv-x="417" d="M412,445q2-4 2-5q0-5-4-9L289,320q-4-3-1-6l92-109q2-2 2-6q0-5-4-8l-48-44q-3-3-7-3t-6,3L224,256q-2,3-5,0L97,145q-3-3-7-3t-6,3L46,189q-2,4-2,5q0,5 4,9L170,314q3,3 0,6L75,433q-3,3-3,6q0,4 4,8l48,44q8,6 14,0l96-113q2-3 5,0L361,489q3,3 7,3t6-3l38-44Z" />
      <glyph unicode="&#xd8;" glyph-name="Oslash" horiz-adv-x="603" d="M623,687q6-6 1-14l-57-74q-1-2-1-6q16-36 16-86q0-25-2-38L551,231q-8-71-45-125.5T411,21T281-9Q195-9 140,34q-4,2-5-1L90-26q-7-8-13-3L24,8q-7,6-1,13l60,80q0,1 1.5,2.5T84,107q-15,38-15,86q0,25 2,38l29,238q9,71 45.5,125T240,678t129,30q87,0 142-43q4-2 5,1l44,58q3,4 7,5t7-2l49-40ZM164,227q-2-10-2-15q-1-3 1-3t4,2L454,585q2,3 0,5q-37,35-95,35q-66,0-111.5-42.5T194,470L164,227ZM487,470q2,12 2,19q-2,7-5,2L197,114q-2-3 0-5q35-35 94-35q67,0 112.5,42T458,227l29,243Z" />
      <glyph unicode="&#xd9;" glyph-name="Ugrave" horiz-adv-x="622" d="M291-8Q193-8 136,45T79,188q0,10 2,34l57,468q2,10 11,10h74q10,0 8-10L173,220q-1-7-1-21q0-56 35-90t94-34q65,0 110,40t53,105l57,470q2,10 11,10h74q10,0 8-10L557,222q-8-68-44-120.5t-93.5-81T291-8ZM423,776q1-1 1-4q0-4-3-6t-8-2H361q-6,0-11,7L296,879q-1,2-1,6q0,6 8,6h65q8,0 11-7l44-108Z" />
      <glyph unicode="&#xda;" glyph-name="Uacute" horiz-adv-x="622" d="M291-8Q193-8 136,45T79,188q0,10 2,34l57,468q2,10 11,10h74q10,0 8-10L173,220q-1-7-1-21q0-56 35-90t94-34q65,0 110,40t53,105l57,470q2,10 11,10h74q10,0 8-10L557,222q-8-68-44-120.5t-93.5-81T291-8Zm55,772q-6,0-8,3.5t2,8.5l70,108q4,7 13,7h65q5,0 6.5-3.5T492,879L410,771q-7-7-13-7H346Z" />
      <glyph unicode="&#xdb;" glyph-name="Ucircumflex" horiz-adv-x="622" d="M291-8Q193-8 136,45T79,188q0,10 2,34l57,468q2,10 11,10h74q10,0 8-10L173,220q-1-7-1-21q0-56 35-90t94-34q65,0 110,40t53,105l57,470q2,10 11,10h74q10,0 8-10L557,222q-8-68-44-120.5t-93.5-81T291-8ZM260,764q-6,0-7.5,3.5T255,776l90,109q5,6 14,6h82q10,0 12-6l63-109l2-5q0-7-9-7H452q-9,0-11,6l-42,76q-1,2-3,2t-3-2l-63-76q-4-6-12-6H260Z" />
      <glyph unicode="&#xdc;" glyph-name="Udieresis" horiz-adv-x="622" d="M291-8Q193-8 136,45T79,188q0,10 2,34l57,468q2,10 11,10h74q10,0 8-10L173,220q-1-7-1-21q0-56 35-90t94-34q65,0 110,40t53,105l57,470q2,10 11,10h74q10,0 8-10L557,222q-8-68-44-120.5t-93.5-81T291-8ZM476,784q-25,0-40,15t-15,39q0,32 20.5,53T492,912q24,0 39-15.5T546,856q0-31-20.5-51.5T476,784Zm-176,0q-25,0-40,15t-15,39q0,32 20.5,53T316,912q24,0 39-15.5T370,856q0-31-20.5-51.5T300,784Z" />
      <glyph unicode="&#xdd;" glyph-name="Yacute" horiz-adv-x="567" d="M227,1q-10,0-8,10l34,281q0,1 0.5,2.5T253,297L99,688l-1,4q0,8 9,8h80q8,0 11-7L310,400q1-2 3-2t3,2L500,693q4,7 13,7h80q5,0 7-3.5t-1-8.5L348,297q-2-2-2-5L312,11Q310,1 301,1H227Zm91,763q-6,0-8,3.5t2,8.5l70,108q4,7 13,7h65q5,0 6.5-3.5T464,879L382,771q-7-7-13-7H318Z" />
      <glyph unicode="&#xde;" glyph-name="Thorn" horiz-adv-x="555" d="M373,550q81,0 128.5-46.5T549,380q0-9-2-31q-7-59-39-104t-81-70T320,150H170q-3,0-5-4L149,10Q147,0 138,0H64Q54,0 56,10l83,680q2,10 11,10h74q10,0 8-10L215,554q0-4 4-4H373ZM321,229q59,0 96.5,37.5T455,366q0,47-28,73.5T350,466H209q-2,0-3.5-1t-1.5-3L176,233q0-4 3-4H321Z" />
      <glyph unicode="&#xdf;" glyph-name="germandbls" horiz-adv-x="546" d="M59,0Q49,0 51,10l60,491q12,98 73.5,153T343,709q86,0 137-44t51-120q0-16-1-24q-6-51-31-87.5T432,378q-5-2 0-5q32-17 50.5-53.5T501,233q0-9-2-33q-12-95-77.5-147.5T248,0H198q-9,0-9,10l8,62q2,10 11,10h59q64,0 103,40t39,111q0,48-27,75t-73,28H258q-5,0-7.5,3t-1.5,7l7,56q2,10 11,10h51q53,0 86,33.5T437,534q0,42-25.5,67T338,626q-52,0-89-31t-44-86L144,10Q142,0 133,0H59Z" />
      <glyph unicode="&#xe0;" glyph-name="agrave" horiz-adv-x="501" d="M416,499q2,10 11,10h74q10,0 8-10L449,10q0-4-3-7t-8-3H365q-9,0-9,10l7,56q1,3-1,3.5T359,67Q307-8 219-8Q155-8 112,31T60,135q-2,22-2,33q0,28 7,86q5,43 11.5,73T94,383q23,59 75,96.5T288,517q88,0 117-71q1-3 2.5-2.5T410,447l6,52ZM366,158q7,16 11,34.5t9,60.5q6,42 6,71q0,10-2,28q-5,36-28.5,59T299,434q-41,0-72.5-23T183,351q-7-15-11-33t-10-63q-6-52-6-69q0-14 3-28q3-37 29-60t67-23q40,0 68.5,23.5T366,158ZM339,585q1-1 1-4q0-4-3-6t-8-2H277q-6,0-11,7L212,688q-1,2-1,6q0,6 8,6h65q8,0 11-7l44-108Z" />
      <glyph unicode="&#xe1;" glyph-name="aacute" horiz-adv-x="501" d="M416,499q2,10 11,10h74q10,0 8-10L449,10q0-4-3-7t-8-3H365q-9,0-9,10l7,56q1,3-1,3.5T359,67Q307-8 219-8Q155-8 112,31T60,135q-2,22-2,33q0,28 7,86q5,43 11.5,73T94,383q23,59 75,96.5T288,517q88,0 117-71q1-3 2.5-2.5T410,447l6,52ZM366,158q7,16 11,34.5t9,60.5q6,42 6,71q0,10-2,28q-5,36-28.5,59T299,434q-41,0-72.5-23T183,351q-7-15-11-33t-10-63q-6-52-6-69q0-14 3-28q3-37 29-60t67-23q40,0 68.5,23.5T366,158ZM262,573q-6,0-8,3.5t2,8.5l70,108q4,7 13,7h65q5,0 6.5-3.5T408,688L326,580q-7-7-13-7H262Z" />
      <glyph unicode="&#xe2;" glyph-name="acircumflex" horiz-adv-x="501" d="M416,499q2,10 11,10h74q10,0 8-10L449,10q0-4-3-7t-8-3H365q-9,0-9,10l7,56q1,3-1,3.5T359,67Q307-8 219-8Q155-8 112,31T60,135q-2,22-2,33q0,28 7,86q5,43 11.5,73T94,383q23,59 75,96.5T288,517q88,0 117-71q1-3 2.5-2.5T410,447l6,52ZM366,158q7,16 11,34.5t9,60.5q6,42 6,71q0,10-2,28q-5,36-28.5,59T299,434q-41,0-72.5-23T183,351q-7-15-11-33t-10-63q-6-52-6-69q0-14 3-28q3-37 29-60t67-23q40,0 68.5,23.5T366,158ZM177,573q-6,0-7.5,3.5T172,585l90,109q5,6 14,6h82q10,0 12-6l63-109l2-5q0-7-9-7H369q-9,0-11,6l-42,76q-1,2-3,2t-3-2l-63-76q-4-6-12-6H177Z" />
      <glyph unicode="&#xe3;" glyph-name="atilde" horiz-adv-x="501" d="M416,499q2,10 11,10h74q10,0 8-10L449,10q0-4-3-7t-8-3H365q-9,0-9,10l7,56q1,3-1,3.5T359,67Q307-8 219-8Q155-8 112,31T60,135q-2,22-2,33q0,28 7,86q5,43 11.5,73T94,383q23,59 75,96.5T288,517q88,0 117-71q1-3 2.5-2.5T410,447l6,52ZM366,158q7,16 11,34.5t9,60.5q6,42 6,71q0,10-2,28q-5,36-28.5,59T299,434q-41,0-72.5-23T183,351q-7-15-11-33t-10-63q-6-52-6-69q0-14 3-28q3-37 29-60t67-23q40,0 68.5,23.5T366,158Zm-1,435q-19,0-32.5,5T305,613q-17,10-25.5,14T260,631q-32,0-54-22l-4-4q-6-6-12,0l-24,28q-5,7 0,14q19,26 44,40t54,14q16,0 28-4.5T313.5,686t13.5-8t13.5-8t17-8.5T373,659q31,0 54,27q6,10 14,2l20-28q3-4 3-6.5t-2-7.5q-15-25-41.5-39T365,593Z" />
      <glyph unicode="&#xe4;" glyph-name="adieresis" horiz-adv-x="501" d="M416,499q2,10 11,10h74q10,0 8-10L449,10q0-4-3-7t-8-3H365q-9,0-9,10l7,56q1,3-1,3.5T359,67Q307-8 219-8Q155-8 112,31T60,135q-2,22-2,33q0,28 7,86q5,43 11.5,73T94,383q23,59 75,96.5T288,517q88,0 117-71q1-3 2.5-2.5T410,447l6,52ZM366,158q7,16 11,34.5t9,60.5q6,42 6,71q0,10-2,28q-5,36-28.5,59T299,434q-41,0-72.5-23T183,351q-7-15-11-33t-10-63q-6-52-6-69q0-14 3-28q3-37 29-60t67-23q40,0 68.5,23.5T366,158Zm26,435q-25,0-40,15t-15,39q0,32 20.5,53T408,721q24,0 39-15.5T462,665q0-31-20.5-51.5T392,593Zm-176,0q-25,0-40,15t-15,39q0,32 20.5,53T232,721q24,0 39-15.5T286,665q0-31-20.5-51.5T216,593Z" />
      <glyph unicode="&#xe5;" glyph-name="aring" horiz-adv-x="501" d="M416,499q2,10 11,10h74q10,0 8-10L449,10q0-4-3-7t-8-3H365q-9,0-9,10l7,56q1,3-1,3.5T359,67Q307-8 219-8Q155-8 112,31T60,135q-2,22-2,33q0,28 7,86q5,43 11.5,73T94,383q23,59 75,96.5T288,517q88,0 117-71q1-3 2.5-2.5T410,447l6,52ZM366,158q7,16 11,34.5t9,60.5q6,42 6,71q0,10-2,28q-5,36-28.5,59T299,434q-41,0-72.5-23T183,351q-7-15-11-33t-10-63q-6-52-6-69q0-14 3-28q3-37 29-60t67-23q40,0 68.5,23.5T366,158ZM301,573q-43,0-71,28t-28,71q0,35 17.5,64.5t47,46.5T329,800q43,0 70.5-27.5T427,702q0-35-17-64.5t-46-47T301,573Zm6,54q26,0 46.5,20T374,694q0,23-14.5,38T322,747q-26,0-46-20.5T256,678q0-22 14.5-36.5T307,627Z" />
      <glyph unicode="&#xe6;" glyph-name="ae" horiz-adv-x="809" d="M195-8Q122-8 77.5,21.5T33,113q0,83 60,134t162,51H363q2,0 3.5,1t1.5,3l4,32q1,6 1,17q0,38-23,60.5T280,434q-39,0-67.5-16.5T174,373q-4-10-13-9L89,375q-9,2-8,11q15,57 73,94t134,37q54,0 94-24.5T435,434q2-5 5,0q22,33 67,58t94,25q66,0 115-38.5T775,375q2-18 2-30q0-37-10-118q-2-10-11-10H456q-4,0-4-4q-1-11-1.5-19.5T449,174q-2-45 29.5-68.5T562,82q42,0 70.5,15.5T680,145q3,4 7,4.5t7-1.5l45-32q8-6 2-13q-27-47-81-79T538-8q-52,0-92,22T390,71q-4,4-5,1q-28-37-79-58.5T195-8ZM462,302q0-4 3-4H680q4,0 4,4q1,13 1,35q0,42-26,69.5T589,434q-41,0-72.5-24T472,348q-5-16-10-46ZM215,68q51,0 91,26t46,75l5,44q0,2-1,3t-2,1H261q-62,0-98-21t-36-64q0-30 24-47t64-17Z" />
      <glyph unicode="&#xe7;" glyph-name="ccedilla" horiz-adv-x="510" d="M378,163q0,3 1,4q1,4 4,5.5t7,0.5l71-12q8-2 7-8q0-3-1-4q-1-5-7-22q-22-54-70.5-89.5T278-6q-6-2-2-5q36-37 36-79q0-17-6-35q-13-33-38-47t-56-14q-27,0-48,8q-8,3-5,12l9,33q3,10 13,7q11-3 20-3q20,0 34,12t14,36q0,35-43,75q-1,2-4,2Q146,6 110.5,43T65,135q-4,23-4,55q0,34 4,66q9,72 30,121q26,64 84,102t131,38t122.5-38T491,383q4-17 4-33q-1-9-10-10l-74-11h-2q-8,0-8,9l-2,16q-3,34-30,57t-70,23t-74-23t-45-61q-12-29-21-95q-4-33-4-62q0-14 2-32q5-40 30-63t68-23q42,0 75.5,23.5T376,158l2,5Z" />
      <glyph unicode="&#xe8;" glyph-name="egrave" horiz-adv-x="521" d="M487,325q0-35-8-99q-1-10-11-10H158q-4,0-4-4q-2-24-2-32q0-10 2-20q5-40 34.5-62.5T268,75q71,0 118,61q6,10 13,3l51-38q6-6 1-13q-33-46-86-71.5T249-9Q178-9 134,22.5T72,114q-10,34-10,80q0,19 4,63q5,38 10.5,64T91,368q26,69 83,109t132,40q96,0 138.5-49T487,325ZM296,434q-42,0-71.5-21.5T180,355q-9-22-15-56q-1-4 3-4H390q4,0 4,4q2,24 2,32q0,46-26.5,74.5T296,434Zm52,151q1-1 1-4q0-4-3-6t-8-2H286q-6,0-11,7L221,688q-1,2-1,6q0,6 8,6h65q8,0 11-7l44-108Z" />
      <glyph unicode="&#xe9;" glyph-name="eacute" horiz-adv-x="521" d="M487,325q0-35-8-99q-1-10-11-10H158q-4,0-4-4q-2-24-2-32q0-10 2-20q5-40 34.5-62.5T268,75q71,0 118,61q6,10 13,3l51-38q6-6 1-13q-33-46-86-71.5T249-9Q178-9 134,22.5T72,114q-10,34-10,80q0,19 4,63q5,38 10.5,64T91,368q26,69 83,109t132,40q96,0 138.5-49T487,325ZM296,434q-42,0-71.5-21.5T180,355q-9-22-15-56q-1-4 3-4H390q4,0 4,4q2,24 2,32q0,46-26.5,74.5T296,434ZM271,573q-6,0-8,3.5t2,8.5l70,108q4,7 13,7h65q5,0 6.5-3.5T417,688L335,580q-7-7-13-7H271Z" />
      <glyph unicode="&#xea;" glyph-name="ecircumflex" horiz-adv-x="521" d="M487,325q0-35-8-99q-1-10-11-10H158q-4,0-4-4q-2-24-2-32q0-10 2-20q5-40 34.5-62.5T268,75q71,0 118,61q6,10 13,3l51-38q6-6 1-13q-33-46-86-71.5T249-9Q178-9 134,22.5T72,114q-10,34-10,80q0,19 4,63q5,38 10.5,64T91,368q26,69 83,109t132,40q96,0 138.5-49T487,325ZM296,434q-42,0-71.5-21.5T180,355q-9-22-15-56q-1-4 3-4H390q4,0 4,4q2,24 2,32q0,46-26.5,74.5T296,434ZM186,573q-6,0-7.5,3.5T181,585l90,109q5,6 14,6h82q10,0 12-6l63-109l2-5q0-7-9-7H378q-9,0-11,6l-42,76q-1,2-3,2t-3-2l-63-76q-4-6-12-6H186Z" />
      <glyph unicode="&#xeb;" glyph-name="edieresis" horiz-adv-x="521" d="M487,325q0-35-8-99q-1-10-11-10H158q-4,0-4-4q-2-24-2-32q0-10 2-20q5-40 34.5-62.5T268,75q71,0 118,61q6,10 13,3l51-38q6-6 1-13q-33-46-86-71.5T249-9Q178-9 134,22.5T72,114q-10,34-10,80q0,19 4,63q5,38 10.5,64T91,368q26,69 83,109t132,40q96,0 138.5-49T487,325ZM296,434q-42,0-71.5-21.5T180,355q-9-22-15-56q-1-4 3-4H390q4,0 4,4q2,24 2,32q0,46-26.5,74.5T296,434ZM402,593q-25,0-40,15t-15,39q0,32 20.5,53T418,721q24,0 39-15.5T472,665q0-31-20.5-51.5T402,593Zm-176,0q-25,0-40,15t-15,39q0,32 20.5,53T242,721q24,0 39-15.5T296,665q0-31-20.5-51.5T226,593Z" />
      <glyph unicode="&#xec;" glyph-name="igrave" horiz-adv-x="214" d="M50,0q-4,0-6.5,3T42,10l60,489q2,10 11,10h74q4,0 6.5-3t1.5-7L135,10Q133,0 124,0H50ZM196,585q1-1 1-4q0-4-3-6t-8-2H134q-6,0-11,7L69,688q-1,2-1,6q0,6 8,6h65q8,0 11-7l44-108Z" />
      <glyph unicode="&#xed;" glyph-name="iacute" horiz-adv-x="214" d="M50,0q-4,0-6.5,3T42,10l60,489q2,10 11,10h74q4,0 6.5-3t1.5-7L135,10Q133,0 124,0H50Zm68,573q-6,0-8,3.5t2,8.5l70,108q4,7 13,7h65q5,0 6.5-3.5T264,688L182,580q-7-7-13-7H118Z" />
      <glyph unicode="&#xee;" glyph-name="icircumflex" horiz-adv-x="214" d="M50,0q-4,0-6.5,3T42,10l60,489q2,10 11,10h74q4,0 6.5-3t1.5-7L135,10Q133,0 124,0H50ZM33,573q-6,0-7.5,3.5T28,585l90,109q5,6 14,6h82q10,0 12-6l63-109l2-5q0-7-9-7H225q-9,0-11,6l-42,76q-1,2-3,2t-3-2l-63-76q-4-6-12-6H33Z" />
      <glyph unicode="&#xef;" glyph-name="idieresis" horiz-adv-x="214" d="M50,0q-4,0-6.5,3T42,10l60,489q2,10 11,10h74q4,0 6.5-3t1.5-7L135,10Q133,0 124,0H50ZM249,593q-25,0-40,15t-15,39q0,32 20.5,53T265,721q24,0 39-15.5T319,665q0-31-20.5-51.5T249,593ZM73,593q-25,0-40,15T18,647q0,32 20.5,53T89,721q24,0 39-15.5T143,665q0-31-20.5-51.5T73,593Z" />
      <glyph unicode="&#xf0;" glyph-name="eth" horiz-adv-x="521" d="M480,359q2-43-6-119q-9-72-26-114q-27-60-83-97T238-8Q168-8 120.5,28.5T61,126q-3,20-3,40q0,27 5,74q9,73 26,114q18,45 55.5,75.5T229,467q27,5 52,5q30,0 55.5-6T377,448q2-2 3.5-1t0.5,4q-13,54-43,105q-2,4-5,2l-97-27l-4-1q-6,0-8,8l-5,33q0,10 9,13l72,21q6,2 2,5q-34,43-67,78q-3,3-3,6q0,6 9,6h80q4,0 11-5q5-7 17-21q6-9 15-19.5T382,630q2-2 5-1l82,23l4,1q6,0 8-8l4-34v-2q0-8-8-11l-56-16q-4-1-3-4q31-48 47-100.5T480,359ZM362,149q9,24 17,89q5,45 5,66q0,46-25.5,74.5T289,407q-40,0-70.5-22.5T175,324q-6-13-10.5-36T157,238q-5-43-5-64q0-11 2-25q5-38 29-60.5T247,66q39,0 69.5,22.5T362,149Z" />
      <glyph unicode="&#xf1;" glyph-name="ntilde" horiz-adv-x="526" d="M332,516q72,0 112.5-39.5T485,369q0-9-2-29L443,10q-1-4-4-7t-7-3H358q-9,0-9,10l39,311q1,6 1,18q0,42-24,68t-66,26q-47,0-79.5-31T181,322L143,10Q141,0 132,0H58Q48,0 50,10l60,489q2,10 11,10h73q5,0 7.5-3t1.5-7l-5-36q0-2 1.5-3t2.5,1q48,55 130,55Zm48,77q-19,0-32.5,5T320,613q-17,10-25.5,14T275,631q-32,0-54-22l-4-4q-6-6-12,0l-24,28q-5,7 0,14q19,26 44,40t54,14q16,0 28-4.5T328.5,686t13.5-8t13.5-8t17-8.5T388,659q31,0 54,27q6,10 14,2l20-28q3-4 3-6.5t-2-7.5q-15-25-41.5-39T380,593Z" />
      <glyph unicode="&#xf2;" glyph-name="ograve" horiz-adv-x="525" d="M249-8Q177-8 128.5,29.5T67,134q-6,29-6,67q0,28 3,55q10,73 32,120q29,66 87,103.5T315,517q70,0 117-37.5T493,377q6-28 6-64q0-27-3-56q-8-70-32-123Q434,67 377,29.5T249-8Zm10,83q40,0 72,22.5T380,161q16,43 22,94q4,44 4,62q0,13-2,31q-8,41-34.5,63.5T302,434q-40,0-72-22.5T180,348q-14-34-22-93q-3-27-3-52q0-24 3-42q6-40 33-63t68-23Zm92,510q1-1 1-4q0-4-3-6t-8-2H289q-6,0-11,7L224,688q-1,2-1,6q0,6 8,6h65q8,0 11-7l44-108Z" />
      <glyph unicode="&#xf3;" glyph-name="oacute" horiz-adv-x="525" d="M249-8Q177-8 128.5,29.5T67,134q-6,29-6,67q0,28 3,55q10,73 32,120q29,66 87,103.5T315,517q70,0 117-37.5T493,377q6-28 6-64q0-27-3-56q-8-70-32-123Q434,67 377,29.5T249-8Zm10,83q40,0 72,22.5T380,161q16,43 22,94q4,44 4,62q0,13-2,31q-8,41-34.5,63.5T302,434q-40,0-72-22.5T180,348q-14-34-22-93q-3-27-3-52q0-24 3-42q6-40 33-63t68-23Zm14,498q-6,0-8,3.5t2,8.5l70,108q4,7 13,7h65q5,0 6.5-3.5T419,688L337,580q-7-7-13-7H273Z" />
      <glyph unicode="&#xf4;" glyph-name="ocircumflex" horiz-adv-x="525" d="M249-8Q177-8 128.5,29.5T67,134q-6,29-6,67q0,28 3,55q10,73 32,120q29,66 87,103.5T315,517q70,0 117-37.5T493,377q6-28 6-64q0-27-3-56q-8-70-32-123Q434,67 377,29.5T249-8Zm10,83q40,0 72,22.5T380,161q16,43 22,94q4,44 4,62q0,13-2,31q-8,41-34.5,63.5T302,434q-40,0-72-22.5T180,348q-14-34-22-93q-3-27-3-52q0-24 3-42q6-40 33-63t68-23ZM188,573q-6,0-7.5,3.5T183,585l90,109q5,6 14,6h82q10,0 12-6l63-109l2-5q0-7-9-7H380q-9,0-11,6l-42,76q-1,2-3,2t-3-2l-63-76q-4-6-12-6H188Z" />
      <glyph unicode="&#xf5;" glyph-name="otilde" horiz-adv-x="525" d="M249-8Q177-8 128.5,29.5T67,134q-6,29-6,67q0,28 3,55q10,73 32,120q29,66 87,103.5T315,517q70,0 117-37.5T493,377q6-28 6-64q0-27-3-56q-8-70-32-123Q434,67 377,29.5T249-8Zm10,83q40,0 72,22.5T380,161q16,43 22,94q4,44 4,62q0,13-2,31q-8,41-34.5,63.5T302,434q-40,0-72-22.5T180,348q-14-34-22-93q-3-27-3-52q0-24 3-42q6-40 33-63t68-23ZM377,593q-19,0-32.5,5T317,613q-17,10-25.5,14T272,631q-32,0-54-22l-4-4q-6-6-12,0l-24,28q-5,7 0,14q19,26 44,40t54,14q16,0 28-4.5T325.5,686t13.5-8t13.5-8t17-8.5T385,659q31,0 54,27q6,10 14,2l20-28q3-4 3-6.5t-2-7.5q-15-25-41.5-39T377,593Z" />
      <glyph unicode="&#xf6;" glyph-name="odieresis" horiz-adv-x="525" d="M249-8Q177-8 128.5,29.5T67,134q-6,29-6,67q0,28 3,55q10,73 32,120q29,66 87,103.5T315,517q70,0 117-37.5T493,377q6-28 6-64q0-27-3-56q-8-70-32-123Q434,67 377,29.5T249-8Zm10,83q40,0 72,22.5T380,161q16,43 22,94q4,44 4,62q0,13-2,31q-8,41-34.5,63.5T302,434q-40,0-72-22.5T180,348q-14-34-22-93q-3-27-3-52q0-24 3-42q6-40 33-63t68-23ZM404,593q-25,0-40,15t-15,39q0,32 20.5,53T420,721q24,0 39-15.5T474,665q0-31-20.5-51.5T404,593Zm-176,0q-25,0-40,15t-15,39q0,32 20.5,53T244,721q24,0 39-15.5T298,665q0-31-20.5-51.5T228,593Z" />
      <glyph unicode="&#xf7;" glyph-name="divide" horiz-adv-x="480" d="M273,432q-22,0-36,14.5T223,483q0,26 19.5,45.5T287,548q22,0 36-14.5T337,497q0-26-20-45.5T273,432ZM59,279q-5,0-7.5,3T50,289l8,62q0,4 3,7t8,3H461q5,0 7.5-3t1.5-7l-8-62q0-4-3-7t-8-3H59ZM233,107q-22,0-36,14.5T183,158q0,25 20,45t45,20q21,0 35-15t14-36q0-26-20-45.5T233,107Z" />
      <glyph unicode="&#xf8;" glyph-name="oslash" horiz-adv-x="514" d="M485,377q6-28 6-64q0-31-4-56q-8-70-32-123Q425,67 368.5,29.5T241-8Q182-8 136,18q-4,2-5-1L91-34q-7-9-14-2L30,7q-6,6 0,14L75,78q2,3 0,6q-11,24-17,50q-5,30-5,62q0,33 4,60q8,74 30,120q30,66 87.5,103.5T306,517q54,0 94-22q4-2 5,1l40,51q7,9 14,2l48-42q3-3 3-6t-3-8l-43-54q-1-2-1-6q14-22 22-56ZM151,255q-5-33-5-60q0-13 1-19q0-2 2-2.5t3,1.5L344,417q2,5-1,6q-19,11-49,11q-40,0-72.5-22.5T172,348q-14-32-21-93Zm220-94q15,32 22,94q4,31 4,62q0,18-1,25v1l-1,7h-1L192,95q-2-4 1-5q24-15 58-15q39,0 71,23t49,63Z" />
      <glyph unicode="&#xf9;" glyph-name="ugrave" horiz-adv-x="525" d="M404,499q0,4 3,7t8,3h72q5,0 7.5-3t1.5-7L436,10Q434,0 425,0H352q-10,0-8,10l4,37q1,2-0.5,2.5T344,48Q298-7 217-7Q150-7 105,30T60,134q0,16 1,24l42,341q2,10 11,10h73q4,0 6.5-3t1.5-7L157,188q-1-7-1-20q0-43 23-67.5T245,76q49,0 81.5,30.5T365,188l39,311Zm-53,86q1-1 1-4q0-4-3-6t-8-2H289q-6,0-11,7L224,688q-1,2-1,6q0,6 8,6h65q8,0 11-7l44-108Z" />
      <glyph unicode="&#xfa;" glyph-name="uacute" horiz-adv-x="525" d="M404,499q0,4 3,7t8,3h72q5,0 7.5-3t1.5-7L436,10Q434,0 425,0H352q-10,0-8,10l4,37q1,2-0.5,2.5T344,48Q298-7 217-7Q150-7 105,30T60,134q0,16 1,24l42,341q2,10 11,10h73q4,0 6.5-3t1.5-7L157,188q-1-7-1-20q0-43 23-67.5T245,76q49,0 81.5,30.5T365,188l39,311ZM273,573q-6,0-8,3.5t2,8.5l70,108q4,7 13,7h65q5,0 6.5-3.5T419,688L337,580q-7-7-13-7H273Z" />
      <glyph unicode="&#xfb;" glyph-name="ucircumflex" horiz-adv-x="525" d="M404,499q0,4 3,7t8,3h72q5,0 7.5-3t1.5-7L436,10Q434,0 425,0H352q-10,0-8,10l4,37q1,2-0.5,2.5T344,48Q298-7 217-7Q150-7 105,30T60,134q0,16 1,24l42,341q2,10 11,10h73q4,0 6.5-3t1.5-7L157,188q-1-7-1-20q0-43 23-67.5T245,76q49,0 81.5,30.5T365,188l39,311ZM188,573q-6,0-7.5,3.5T183,585l90,109q5,6 14,6h82q10,0 12-6l63-109l2-5q0-7-9-7H380q-9,0-11,6l-42,76q-1,2-3,2t-3-2l-63-76q-4-6-12-6H188Z" />
      <glyph unicode="&#xfc;" glyph-name="udieresis" horiz-adv-x="525" d="M404,499q0,4 3,7t8,3h72q5,0 7.5-3t1.5-7L436,10Q434,0 425,0H352q-10,0-8,10l4,37q1,2-0.5,2.5T344,48Q298-7 217-7Q150-7 105,30T60,134q0,16 1,24l42,341q2,10 11,10h73q4,0 6.5-3t1.5-7L157,188q-1-7-1-20q0-43 23-67.5T245,76q49,0 81.5,30.5T365,188l39,311Zm0,94q-25,0-40,15t-15,39q0,32 20.5,53T420,721q24,0 39-15.5T474,665q0-31-20.5-51.5T404,593Zm-176,0q-25,0-40,15t-15,39q0,32 20.5,53T244,721q24,0 39-15.5T298,665q0-31-20.5-51.5T228,593Z" />
      <glyph unicode="&#xfd;" glyph-name="yacute" horiz-adv-x="462" d="M10-199q-3,0-5,3t-1,7l7,59q2,10 11,10h2q39,1 62.5,10t41,33.5T165-3q1,1 0.5,3.5T165,3L64,498v2q0,9 9,9h79q8,0 10-8l64-377q0-2 2.5-2t3.5,2L386,501q5,8 13,8h77q11,0 6-11L240-35q-31-68-57-102t-64-48T16-199H10ZM242,579q-6,0-8,3.5t2,8.5l70,108q4,7 13,7h65q5,0 6.5-3.5T388,694L306,586q-7-7-13-7H242Z" />
      <glyph unicode="&#xfe;" glyph-name="thorn" horiz-adv-x="527" d="M489,383q3-21 3-44q0-37-6-85q-5-44-10-70t-14-49Q437,70 384,31T267-8Q188-8 153,53q-1,2-3,1t-2-3L118-190q0-4-3-7t-8-3H34q-5,0-7.5,3T25-190L133,690q2,10 11,10h74q10,0 8-10L198,461q0-2 2-3t3,1q45,58 125,58q66,0 109-37.5T489,383ZM369,158q7,17 11,36t9,61q6,50 6,67q0,16-3,29q-5,37-30,60t-65,23t-69-22.5T187,354q-1-1-1-2t-1-1l-1-2L161,160v-4q5-35 28.5-58T253,75q41,0 72.5,23T369,158Z" />
      <glyph unicode="&#xff;" glyph-name="ydieresis" horiz-adv-x="462" d="M10-199q-3,0-5,3t-1,7l7,59q2,10 11,10h2q39,1 62.5,10t41,33.5T165-3q1,1 0.5,3.5T165,3L64,498v2q0,9 9,9h79q8,0 10-8l64-377q0-2 2.5-2t3.5,2L386,501q5,8 13,8h77q11,0 6-11L240-35q-31-68-57-102t-64-48T16-199H10ZM373,599q-25,0-40,15t-15,39q0,32 20.5,53T389,727q24,0 39-15.5T443,671q0-31-20.5-51.5T373,599Zm-176,0q-25,0-40,15t-15,39q0,32 20.5,53T213,727q24,0 39-15.5T267,671q0-31-20.5-51.5T197,599Z" />
      <glyph unicode="&#x2013;" glyph-name="endash" horiz-adv-x="446" d="M54,241q-9,0-9,10l8,64q2,10 11,10H422q9,0 9-10l-8-64q-2-10-11-10H54Z" />
      <glyph unicode="&#x2014;" glyph-name="emdash" horiz-adv-x="656" d="M54,242q-9,0-9,10l8,63q2,10 11,10H633q4,0 6.5-3t1.5-7l-8-63q0-4-3-7t-8-3H54Z" />
      <glyph unicode="&#x2018;" glyph-name="quoteleft" horiz-adv-x="158" d="M53,488q-5,0-7,3.5t1,8.5l99,192q4,8 12,8h55q12,0 7-11L140,496q-3-8-12-8H53Z" />
      <glyph unicode="&#x2019;" glyph-name="quoteright" horiz-adv-x="158" d="M212,700q5,0 7-3.5t-1-8.5L119,496q-4-8-12-8H52q-12,0-7,11l80,193q3,8 12,8h75Z" />
      <glyph unicode="&#x201a;" glyph-name="quotesinglbase" horiz-adv-x="582" d="M35-86q-5,0-7,3t0,8L94,147q2,9 11,9h65q5,0 7-3t0-8L92-77q-1-4-4-6.5T81-86H35Z" />
      <glyph unicode="&#x201c;" glyph-name="quotedblleft" horiz-adv-x="292" d="M52,488q-5,0-6.5,3.5T46,500l93,192q4,8 12,8h52q11,0 8-11L136,497q-4-9-12-9H52Zm145,0q-10,0-7,12l93,192q4,8 11,8h53q12,0 7-11L280,497q-1-4-4.5-6.5T268,488H197Z" />
      <glyph unicode="&#x201d;" glyph-name="quotedblright" horiz-adv-x="292" d="M202,700q10,0 7-12L116,496q-3-8-11-8H52q-12,0-7,11l74,192q1,4 4.5,6.5T131,700h71Zm145,0q5,0 6.5-3.5T353,688L260,496q-4-8-12-8H196q-11,0-8,11l75,192q4,9 12,9h72Z" />
      <glyph unicode="&#x201e;" glyph-name="quotedblbase" horiz-adv-x="304" d="M132,128q10,0 7-12L46-76q-3-8-11-8H-18q-12,0-7,11L49,119q1,4 4.5,6.5T61,128h71Zm145,0q5,0 6.5-3.5T283,116L190-76q-4-8-12-8H126q-11,0-8,11l75,192q4,9 12,9h72Z" />
      <glyph unicode="&#x2022;" glyph-name="bullet" horiz-adv-x="302" d="M150,150q-44,0-73.5,30.5T47,256q0,36 18.5,67T115,372t65,18q44,0 73.5-29.5T283,286q0-36-18.5-67.5t-49.5-50T150,150Z" />
      <glyph unicode="&#x2039;" glyph-name="guilsinglleft" horiz-adv-x="343" d="M251,114q0-7-9-7H169q-7,0-11,6L67,274q-2,4-2,6q0,4 3,8L200,449q4,6 12,6h73q6,0 7.5-3.5T289,443L158,284q-1-2-1-6l92-159l2-5Z" />
      <glyph unicode="&#x203a;" glyph-name="guilsinglright" horiz-adv-x="371" d="M88,107q-6,0-7.5,3.5T83,119L215,278q2,3 0,6L123,443q-2,4-2,5q0,7 10,7h72q9,0 11-6l93-161q1-2 1-6q0-3-3-8L173,113q-5-6-12-6H88Z" />
    </font>
</defs>
</svg>
