<?xml version="1.0" standalone="no"?>
<!DOCTYPE svg PUBLIC "-//W3C//DTD SVG 1.1//EN" "http://www.w3.org/Graphics/SVG/1.1/DTD/svg11.dtd">
<svg xmlns="http://www.w3.org/2000/svg">
  <defs>
    <font id="Barlow" horiz-adv-x="527">
      <font-face font-family="Barlow" units-per-em="1000" panose-1="0 0 8 0 0 0 0 0 0 0" ascent="1000" descent="-200" alphabetic="0" />
      <glyph unicode=" " glyph-name="space" horiz-adv-x="200" />
      <glyph unicode="!" glyph-name="exclam" horiz-adv-x="344" d="M128,240q-5,0-8.5,3.5T116,252L103,688q0,5 3.5,8.5T115,700H232q5,0 8.5-3.5T244,688L229,252q0-5-3.5-8.5T217,240H128ZM167,1q-34,0-56.5,22.5T88,80q0,35 22,57t57,22t56.5-22T245,80q0-34-22-56.5T167,1Z" />
      <glyph unicode="&quot;" glyph-name="quotedbl" horiz-adv-x="359" d="M41,471q-5,0-9,3.5T28,483L15,686q0,12 11,12H138q13,0 11-12L136,483q0-6-3.5-9t-9.5-3H41Zm198,0q-5,0-9,3.5t-4,8.5L213,686q0,12 11,12H335q13,0 11-12L333,483q0-6-3.5-9t-9.5-3H239Z" />
      <glyph unicode="#" glyph-name="numbersign" horiz-adv-x="687" d="M639,416q0-5-3.5-8.5T627,404H552q-6,0-6-5l-15-99q0-5 4-5h56q5,0 8.5-3.5T603,283V187q0-5-3.5-8.5T591,175H517q-6,0-6-5L491,38q-1-11-13-11H361q-12,0-11,13l20,130q0,5-4,5H266q-6,0-6-5L240,38q-1-11-13-11H110Q98,27 99,40l20,130q0,5-4,5H59q-5,0-8.5,3.5T47,187v96q0,5 3.5,8.5T59,295h74q6,0 6,5l15,99q0,5-4,5H96q-5,0-8.5,3.5T84,416v97q0,5 3.5,8.5T96,525h73q6,0 6,5l20,132q1,11 13,11H325q12,0 11-13L316,530q0-5 4-5h99q6,0 6,5l20,132q1,11 13,11H575q12,0 11-13L566,530q0-5 4-5h58q5,0 8.5-3.5T640,513l-1-97ZM384,295q6,0 6,5l15,99q0,5-4,5H301q-6,0-6-5l-15-99q0-5 4-5H384Z" />
      <glyph unicode="$" glyph-name="dollar" horiz-adv-x="572" d="M533,195q0-80-49-132T350-3q-5-2-5-6l1-65q0-5-3.5-8.5T334-86H234q-5,0-8.5,3.5T222-74l1,66q0,4-5,6Q133,15 84.5,68T36,201v22q0,5 3.5,8.5T48,235H156q5,0 8.5-3.5T168,223V208q0-40 35-67.5T299,113q51,0 75.5,22.5T399,191q0,24-15,40.5t-41.5,29T259,295q-65,23-109,47T75.5,407.5T45,510q0,77 46.5,127.5T217,703q5,2 5,6l-2,73q0,5 3.5,8.5T232,794H332q5,0 8.5-3.5T344,782l-1-75q0-4 5-6q83-17 132-72.5T529,493V478q0-5-3.5-8.5T517,466H408q-5,0-8.5,3.5T396,478v8q0,42-33,71.5T273,587q-45,0-70-20t-25-55q0-25 14.5-42T236,439t90-36q67-25 106-45t70-60t31-103Z" />
      <glyph unicode="%" glyph-name="percent" horiz-adv-x="825" d="M221,393q-44,0-80.5,21t-58,57.5T61,551t21.5,79t58,57.5T221,709q43,0 79-21.5T357.5,630T379,551t-21-79.5T300.5,414T221,393ZM182,0q-7,0-9,4t1,10L551,692q5,8 15,8h74q7,0 9-4t-1-10L272,8q-5-8-15-8H182Zm39,475q31,0 52.5,22T295,551q0,31-21.5,53T221,626q-32,0-54-22t-22-53q0-32 22-54t54-22ZM611-9q-43,0-79.5,21.5t-58,58T452,150t21.5,79t58,57T611,307t79.5-21t58-57T770,150T748.5,70.5t-58-58T611-9Zm0,83q31,0 53,22t22,54q0,31-22,53t-53,22t-53-21.5T536,150t21.5-54T611,74Z" />
      <glyph unicode="&amp;" glyph-name="ampersand" horiz-adv-x="705" d="M654,15q4-6 4-8q0-7-11-7H516q-9,0-15,7L462,49q-2,3-7,1Q362-8 255-8Q161-8 98.5,36.5T36,168q0,67 36,113t98,83q6,4 1,7q-50,61-66,94.5T89,537q0,47 25.5,86.5t72,62T293,708q61,0 109.5-23T478,620.5T505,526q0-62-34.5-107.5T377,336q-5-3-1-7l89-101q4-4 8,0q38,42 62,80q6,11 16,4l87-49q11-6 5-16q-42-66-88-115q-3-3 2-9L654,15ZM296,580q-30,0-48-15.5T230,523q0-14 10-31t44-58q2-4 7-2q36,23 54.5,44T364,523t-19,41.5T296,580ZM260,110q48,0 108,34q6,4 1,7l-31,35l-23,25q-22,23-51,56q-2,3-7,1q-36-22-55-42t-22-46q-1-3-1-10q0-27 22.5-43.5T260,110Z" />
      <glyph unicode="&apos;" glyph-name="quotesingle" horiz-adv-x="168" d="M41,473q-5,0-9,3.5T28,485L15,687q0,12 11,12H145q13,0 11-12L143,485q0-6-3.5-9t-9.5-3H41Z" />
      <glyph unicode="(" glyph-name="parenleft" horiz-adv-x="347" d="M143-91q-9,0-15,7Q69-8 34,96.5T-1,332T34.5,569.5T129,752q6,7 15,7H257q7,0 9.5-4T266,745Q157,559 157,333T266-77q2-4 2-6q0-8-11-8H143Z" />
      <glyph unicode=")" glyph-name="parenright" horiz-adv-x="347" d="M204,759q9,0 15-7q59-76 94-181t35-236T312.5,98T218-84q-6-7-15-7H90q-7,0-9.5,4T81-77Q190,107 190,335q0,224-109,410q-2,4-2,6q0,8 11,8H204Z" />
      <glyph unicode="*" glyph-name="asterisk" horiz-adv-x="399" d="M171,393q-5,0-8.5,3.5T159,405l1,90q0,3-2,4t-4-1L70,449q-4-2-6-2q-7,0-11,7L25,506q-2,4-2,7q0,7 7,10l84,45q5,3 0,6L30,617q-5,2-6.5,7T25,634l28,52q3,5 7.5,6.5T70,691l84-48q2-1 4,0t2,4l-1,88q0,5 3.5,8.5T171,747h57q5,0 8.5-3.5T240,735l-1-88q0-3 2-4t4,0l84,48q4,2 6,2q7,0 11-7l28-52q2-4 2-7q0-6-7-9l-85-44q-5-3 0-6l85-45q5-2 6.5-7T374,506l-28-52q-3-5-7.5-6.5T329,449l-84,49q-2,2-4,1t-2-4l1-90q0-5-3.5-8.5T228,393H171Z" />
      <glyph unicode="+" glyph-name="plus" horiz-adv-x="486" d="M445,361q5,0 8.5-3.5T457,349V252q0-5-3.5-8.5T445,240H308q-5,0-5-5V100q0-5-3.5-8.5T291,88H195q-5,0-8.5,3.5T183,100V235q0,5-5,5H41q-5,0-8.5,3.5T29,252v97q0,5 3.5,8.5T41,361H178q5,0 5,5V504q0,5 3.5,8.5T195,516h96q5,0 8.5-3.5T303,504V366q0-5 5-5H445Z" />
      <glyph unicode="," glyph-name="comma" horiz-adv-x="265" d="M52-98Q40-98 41-85L74,147q1,11 13,11H189q13,0 10-13L137-88q-3-10-14-10H52Z" />
      <glyph unicode="-" glyph-name="hyphen" horiz-adv-x="409" d="M41,235q-5,0-8.5,3.5T29,247v97q0,5 3.5,8.5T41,356H368q5,0 8.5-3.5T380,344V247q0-5-3.5-8.5T368,235H41Z" />
      <glyph unicode="." glyph-name="period" horiz-adv-x="270" d="M130-4Q96-4 73.5,18.5T51,75q0,35 22,57t57,22t57-22t22-57q0-34-22.5-56.5T130-4Z" />
      <glyph unicode="/" glyph-name="slash" horiz-adv-x="473" d="M34,0Q19,0 24,14L281,691q3,9 14,9H411q15,0 10-14L164,9q-3-9-14-9H34Z" />
      <glyph unicode="0" glyph-name="zero" horiz-adv-x="570" d="M284-11Q174-11 110,50.5T46,218V482q0,104 64,165t174,61t174.5-61T523,482V218q0-106-64.5-167.5T284-11Zm0,121q45,0 71.5,27.5T382,211V486q0,46-26.5,73.5T284,587q-44,0-70.5-27.5T187,486V211q0-46 26.5-73.5T284,110Z" />
      <glyph unicode="1" glyph-name="one" horiz-adv-x="354" d="M150,697q5,3 15,3H286q5,0 8.5-3.5T298,688V12q0-5-3.5-8.5T286,0H169q-5,0-8.5,3.5T157,12V560q0,2-2,4t-4,1L52,538l-4-1q-9,0-9,11l-3,86q0,10 9,14l105,49Z" />
      <glyph unicode="2" glyph-name="two" horiz-adv-x="560" d="M233,127q-2-2-1-4t4-2H507q5,0 8.5-3.5T519,109V12q0-5-3.5-8.5T507,0H57q-5,0-8.5,3.5T45,12v92q0,9 6,15q49,48 100,104.5T215,294q28,33 57,63q91,101 91,150q0,35-25,57.5T273,587t-65-22.5T183,505V480q0-5-3.5-8.5T171,468H53q-5,0-8.5,3.5T41,480v47q3,54 34,95.5T157.5,686T273,708q71,0 123.5-26.5t81-71.5T506,510q0-42-21-86t-63-95q-31-39-67-77T248,142l-15-15Z" />
      <glyph unicode="3" glyph-name="three" horiz-adv-x="540" d="M477,334q20-46 20-106q0-54-18-100Q455,64 398.5,28T265-8Q189-8 131.5,30T49,133q-14,39-16,84q0,12 12,12H163q12,0 12-12q4-33 11-49q9-26 29.5-40.5T264,113q56,0 77,49q14,30 14,70q0,47-15,77q-23,47-77,47q-11,0-23-6.5T211,331q-4-3-8-3q-6,0-9,6l-59,83q-2,3-2,7q0,6 4,10L296,573q2,2 1.5,4t-3.5,2H59q-5,0-8.5,3.5T47,591v97q0,5 3.5,8.5T59,700H476q5,0 8.5-3.5T488,688V578q0-8-7-15L350,443q-2-2-1.5-4t4.5-2q87-17 124-103Z" />
      <glyph unicode="4" glyph-name="four" horiz-adv-x="605" d="M546,305q5,0 8.5-3.5T558,293V192q0-5-3.5-8.5T546,180H503q-5,0-5-5V12q0-5-3.5-8.5T486,0H369q-5,0-8.5,3.5T357,12V175q0,5-5,5H45q-5,0-8.5,3.5T33,192v80q0,6 3,15L216,691q4,9 14,9H355q7,0 9.5-3.5T364,686L197,311q-1-2 0-4t3-2H352q5,0 5,5V434q0,5 3.5,8.5T369,446H486q5,0 8.5-3.5T498,434V310q0-5 5-5h43Z" />
      <glyph unicode="5" glyph-name="five" horiz-adv-x="539" d="M491,319q15-49 15-95q0-51-16-92Q467,68 409,30.5T273-7Q197-7 139.5,29.5T58,129q-10,26-15,55v2q0,11 12,11H176q10,0 13-11q1-6 3-10t3-7q10-26 30-40t47-14q28,0 49,15t31,42q10,20 10,52q0,29-9,52q-7,26-28,40t-49,14t-52-13t-32-34q-3-10-13-10H56q-5,0-8.5,3.5T44,285V688q0,5 3.5,8.5T56,700H469q5,0 8.5-3.5T481,688V591q0-5-3.5-8.5T469,579H190q-5,0-5-5l-1-148q0-7 6-3q45,29 104,29q70,0 122.5-35.5T491,319Z" />
      <glyph unicode="6" glyph-name="six" horiz-adv-x="537" d="M480,339q24-45 24-115q0-58-19-104q-26-59-81-93T274-7Q197-7 141,28.5T60,127q-18,44-18,98V526q0,54 28.5,95.5t79.5,64T267,708q65,0 115-22.5t77.5-63T487,529V501q0-5-3.5-8.5T475,489H358q-5,0-8.5,3.5T346,501v9q0,33-22,55t-57,22q-37,0-60.5-22.5T183,507V413q0-3 2-3.5t4,1.5q41,35 109,35q60,0 107.5-27.5T480,339ZM348,159q15,26 15,63q0,40-16,66q-25,40-73,40q-54,0-75-41q-15-26-15-67q0-36 13-61q22-44 76-44q52,0 75,44Z" />
      <glyph unicode="7" glyph-name="seven" horiz-adv-x="496" d="M124,0q-15,0-10,14L331,573q2,6-4,6H140q-5,0-5-5V528q0-5-3.5-8.5T123,516H32q-5,0-8.5,3.5T20,528l1,160q0,5 3.5,8.5T33,700H470q5,0 8.5-3.5T482,688V587q0-6-3-15L263,9q-3-9-14-9H124Z" />
      <glyph unicode="8" glyph-name="eight" horiz-adv-x="541" d="M480,308q23-46 23-103q0-60-25-103q-26-51-79.5-80.5T271-8Q201-8 145,20.5T61,103Q37,150 37,206q0,55 23,103q17,35 50,57q4,3 0,7q-24,18-41,48q-23,40-23,90q0,71 40,120q29,39 77.5,60.5T271,713q61,0 108-22t76-60q40-52 40-120q0-52-26-93q-17-26-41-44q-4-4 0-7q33-21 52-59ZM196,548q-10-20-10-42q0-29 13-52q23-36 71-36t73,36q13,22 13,53q0,22-10,42t-30,31.5T269,592q-24,0-43.5-11.5T196,548ZM342,148q19,27 19,70q0,37-14,62q-22,42-77,42q-52,0-74-41q-15-25-15-65q0-39 17-65q23-38 73-38q48,0 71,35Z" />
      <glyph unicode="9" glyph-name="nine" horiz-adv-x="531" d="M471,573q17-41 17-98V174q0-54-28-95.5t-79-64T264-8Q199-8 149,14.5t-78,63T43,171v28q0,5 3.5,8.5T55,211H172q5,0 8.5-3.5T184,199v-9q0-33 22.5-55T264,113q37,0 60,22.5T347,193v93q0,3-2,4t-4-1q-41-35-108-35q-60,0-107.5,27.5T51,361Q26,408 26,476q0,59 20,104q25,59 80.5,93T257,707q76,0 132.5-35.5T471,573ZM257,372q52,0 75,41q15,26 15,67q0,33-13,61q-22,44-76,44q-52,0-76-44q-15-28-15-63q0-38 17-66q25-40 73-40Z" />
      <glyph unicode=":" glyph-name="colon" horiz-adv-x="364" d="M179,332q-34,0-56.5,22.5T100,411q0,35 22,57t57,22t57-22t22-57q0-34-22.5-56.5T179,332ZM179,5q-34,0-56.5,22.5T100,84q0,35 22,57t57,22t57-22t22-57q0-34-22.5-56.5T179,5Z" />
      <glyph unicode=";" glyph-name="semicolon" horiz-adv-x="316" d="M159,313q-39,0-65,25.5T68,400q0,35 28,60.5T159,486q36,0 64-25.5T251,400q0-36-26.5-61.5T159,313ZM87-97q-6,0-9.5,3.5T75-84L99,145q1,11 12,11H213q14,0 11-13L170-87q-3-10-13-10H87Z" />
      <glyph unicode="&lt;" glyph-name="less" horiz-adv-x="486" d="M457,39q0-7-4-9.5T443,30L38,209q-9,5-9,14V325q0,10 9,14L443,518q4,2 6,2q8,0 8-11V400q0-9-9-14L181,277q-6-3 0-6L448,163q9-4 9-14V39Z" />
      <glyph unicode="=" glyph-name="equal" horiz-adv-x="486" d="M41,333q-5,0-8.5,3.5T29,345v97q0,5 3.5,8.5T41,454H445q5,0 8.5-3.5T457,442V345q0-5-3.5-8.5T445,333H41Zm0-192q-5,0-8.5,3.5T29,153v97q0,5 3.5,8.5T41,262H445q5,0 8.5-3.5T457,250V153q0-5-3.5-8.5T445,141H41Z" />
      <glyph unicode="&gt;" glyph-name="greater" horiz-adv-x="486" d="M43,30q-4-2-6-2q-8,0-8,11V149q0,10 9,14L305,271q6,3 0,6L38,386q-9,5-9,14V509q0,7 4,9.5T43,518L448,339q9-4 9-14V223q0-9-9-14L43,30Z" />
      <glyph unicode="?" glyph-name="question" horiz-adv-x="521" d="M185,222q-5,0-8.5,3.5T173,234v32q0,50 25.5,80.5T272,411q39,27 58,48t19,51q0,32-24,51.5T262,581q-42,0-67.5-21T169,506V490q0-11-12-11L40,484q-5,0-8.5,3.5T28,496v10q0,60 30,106.5t83.5,72T265,710q68,0 119.5-24.5T464,617t28-102q0-44-15.5-75.5T439,388t-56-44q-36-25-53-43t-17-44V234q0-5-3.5-8.5T301,222H185ZM239-2q-34,0-56.5,22.5T160,77t22,56t57,22t56.5-21.5T317,77q0-34-22-56.5T239-2Z" />
      <glyph unicode="@" glyph-name="at" horiz-adv-x="819" d="M459,659q97,0 170-39T741,511.5T780,352q0-26-3-53q-12-98-60-152.5T588,92q-70,0-108,41q-3,4-7,0q-20-20-48.5-30T366,93q-53,0-87.5,27.5T236,191q-3,17-3,35q0,17 4,51q6,45 20,83q17,49 55.5,75.5T397,462q49,0 76-30q2-3 4-2.5t2,3.5l2,16q1,11 13,11h70q12,0 11-13L550,261q-1-7-1-20q0-28 11.5-45T595,179q61,0 78,114q4,25 4,55q0,107-61,163T452,567q-82,0-149.5-35t-110-101.5T141,274q-2-15-2-43q0-106 61-166T367,5q48,0 88,11t65,28q2,2 7,2q7,0 9-5l40-54q3-5 3-8q0-5-5-8q-37-28-96.5-44.5T356-90q-92,0-164,39T79,61.5T38,233q0,25 3,50q12,111 71.5,196.5T263,612t196,47ZM381,173q20,0 35,11.5T440,215q11,21 16,63q2,18 2,39q0,16-1,22q-2,19-15.5,30.5T407,381q-20,0-36.5-11.5T345,339q-10-19-16-66q-3-22-3-37q0-9 2-21q4-20 17.5-31T381,173Z" />
      <glyph unicode="A" glyph-name="A" horiz-adv-x="671" d="M506,0q-10,0-13,10l-30,98q-2,4-5,4H212q-3,0-5-4L178,10Q175,0 165,0H38q-6,0-9,3.5T28,14L244,690q3,10 13,10H414q10,0 13-10L643,14q1-2 1-5q0-9-11-9H506ZM243,227q-1-6 4-6H423q6,0 4,6L337,524q-1,4-3,3.5t-3-3.5L243,227Z" />
      <glyph unicode="B" glyph-name="B" horiz-adv-x="620" d="M476,365q-6-3 0-6q95-49 95-163q0-97-66-146.5T332,0H73q-5,0-8.5,3.5T61,12V688q0,5 3.5,8.5T73,700H324q237,0 237-192q0-100-85-143ZM207,579q-5,0-5-5V418q0-5 5-5H324q47,0 73,22t26,60q0,39-26,61.5T324,579H207ZM332,122q46,0 72,23.5T430,210t-26,64.5T331,298H207q-5,0-5-5V127q0-5 5-5H332Z" />
      <glyph unicode="C" glyph-name="C" horiz-adv-x="608" d="M307-8Q229-8 170,22.5T79,108T47,235V466q0,72 32,127t91,85t137,30q77,0 135.5-28.5t91-81T566,477q0-9-12-11l-117-7h-2q-10,0-10,11q0,53-32.5,85T307,587q-54,0-86.5-32T188,470V229q0-52 32.5-84T307,113q53,0 85.5,32T425,229q0,11 12,11l117-5q5,0 8.5-3t3.5-7q0-69-32.5-122t-91-82T307-8Z" />
      <glyph unicode="D" glyph-name="D" horiz-adv-x="618" d="M73,0q-5,0-8.5,3.5T61,12V688q0,5 3.5,8.5T73,700H323q75,0 131.5-26.5T542,599t31-111V212q0-63-31-111T454.5,26.5T323,0H73ZM202,126q0-5 5-5H328q46,0 74.5,31T432,235V465q0,52-28.5,83T327,579H207q-5,0-5-5V126Z" />
      <glyph unicode="E" glyph-name="E" horiz-adv-x="584" d="M547,591q0-5-3.5-8.5T535,579H207q-5,0-5-5V419q0-5 5-5H422q5,0 8.5-3.5T434,402V305q0-5-3.5-8.5T422,293H207q-5,0-5-5V126q0-5 5-5H535q5,0 8.5-3.5T547,109V12q0-5-3.5-8.5T535,0H73q-5,0-8.5,3.5T61,12V688q0,5 3.5,8.5T73,700H535q5,0 8.5-3.5T547,688V591Z" />
      <glyph unicode="F" glyph-name="F" horiz-adv-x="560" d="M546,591q0-5-3.5-8.5T534,579H207q-5,0-5-5V419q0-5 5-5H422q5,0 8.5-3.5T434,402V305q0-5-3.5-8.5T422,293H207q-5,0-5-5V12q0-5-3.5-8.5T190,0H73q-5,0-8.5,3.5T61,12V688q0,5 3.5,8.5T73,700H534q5,0 8.5-3.5T546,688V591Z" />
      <glyph unicode="G" glyph-name="G" horiz-adv-x="612" d="M307-8Q230-8 171,23T79.5,109.5T47,238V462q0,73 32.5,129T171,677.5T307,708q76,0 134.5-30t91-81.5T565,482v-7q0-5-3.5-8.5T553,463H436q-5,0-8.5,3.5T424,475v3q0,46-32,77.5T307,587q-54,0-86.5-33.5T188,466V234q0-54 35-87.5T312,113q52,0 83,27.5T426,217v45q0,5-5,5H309q-5,0-8.5,3.5T297,279v92q0,5 3.5,8.5T309,383H553q5,0 8.5-3.5T565,371V239q0-76-32-132T442.5,21.5T307-8Z" />
      <glyph unicode="H" glyph-name="H" horiz-adv-x="628" d="M433,688q0,5 3.5,8.5T445,700H562q5,0 8.5-3.5T574,688V12q0-5-3.5-8.5T562,0H445q-5,0-8.5,3.5T433,12V288q0,5-5,5H207q-5,0-5-5V12q0-5-3.5-8.5T190,0H73q-5,0-8.5,3.5T61,12V688q0,5 3.5,8.5T73,700H190q5,0 8.5-3.5T202,688V419q0-5 5-5H428q5,0 5,5V688Z" />
      <glyph unicode="I" glyph-name="I" horiz-adv-x="263" d="M73,0q-5,0-8.5,3.5T61,12V688q0,5 3.5,8.5T73,700H190q5,0 8.5-3.5T202,688V12q0-5-3.5-8.5T190,0H73Z" />
      <glyph unicode="J" glyph-name="J" horiz-adv-x="583" d="M270-8Q194-8 137.5,20.5T50,100.5T19,220v63q0,5 3.5,8.5T31,295H148q5,0 8.5-3.5T160,283V220q0-48 29.5-77.5T270,113q49,0 80.5,29.5T382,220V688q0,5 3.5,8.5T394,700H510q5,0 8.5-3.5T522,688V220q0-68-32-119.5t-89-80T270-8Z" />
      <glyph unicode="K" glyph-name="K" horiz-adv-x="626" d="M73,0q-5,0-8.5,3.5T61,12V688q0,5 3.5,8.5T73,700H190q5,0 8.5-3.5T202,688V408q0-3 2-3.5t4,1.5L439,693q6,7 15,7H586q8,0 10-4.5T594,685L371,400q-3-4-1-7L606,14q2-6 2-7q0-7-10-7H466q-10,0-14,8L274,296q-1,2-3,2t-4-2l-63-79q-2-4-2-6V12q0-5-3.5-8.5T190,0H73Z" />
      <glyph unicode="L" glyph-name="L" horiz-adv-x="572" d="M73,0q-5,0-8.5,3.5T61,12V688q0,5 3.5,8.5T73,700H190q5,0 8.5-3.5T202,688V126q0-5 5-5H534q5,0 8.5-3.5T546,109V12q0-5-3.5-8.5T534,0H73Z" />
      <glyph unicode="M" glyph-name="M" horiz-adv-x="715" d="M511,692q5,8 14,8H642q5,0 8.5-3.5T654,688V12q0-5-3.5-8.5T642,0H525q-5,0-8.5,3.5T513,12V453q0,4-2,4t-4-3L401,288q-5-8-14-8H328q-9,0-14,8L208,454q-2,3-4,2.5t-2-4.5V12q0-5-3.5-8.5T190,0H73q-5,0-8.5,3.5T61,12V688q0,5 3.5,8.5T73,700H190q9,0 14-8L354,459q3-6 6,0L511,692Z" />
      <glyph unicode="N" glyph-name="N" horiz-adv-x="665" d="M463,688q0,5 3.5,8.5T475,700H592q5,0 8.5-3.5T604,688V12q0-5-3.5-8.5T592,0H479q-10,0-14,8L206,436q-2,3-4,2.5t-2-4.5l2-422q0-5-3.5-8.5T190,0H73q-5,0-8.5,3.5T61,12V688q0,5 3.5,8.5T73,700H186q10,0 14-8L458,266q2-3 4-2.5t2,4.5l-1,420Z" />
      <glyph unicode="O" glyph-name="O" horiz-adv-x="621" d="M310-11q-78,0-137.5,32T80,110.5T47,243V457q0,74 33,131t92.5,88.5T310,708q79,0 138.5-31.5T541,588t33-131V243q0-75-33-133T448.5,20.5T310-11Zm0,121q55,0 89,35t34,93V458q0,58-33.5,93.5T310,587q-55,0-88.5-35.5T188,458V238q0-58 33.5-93T310,110Z" />
      <glyph unicode="P" glyph-name="P" horiz-adv-x="597" d="M350,701q66,0 116-27t77.5-76.5T571,484q0-63-28.5-111t-80-74.5T344,272H202q-5,0-5-5V12q0-5-3.5-8.5T185,0H68q-5,0-8.5,3.5T56,12V689q0,5 3.5,8.5T68,701H350ZM329,385q46,0 74,26.5T431,481q0,44-28,71t-74,27H202q-5,0-5-5V390q0-5 5-5H329Z" />
      <glyph unicode="Q" glyph-name="Q" horiz-adv-x="593" d="M296,708q76,0 134-31t90-88t32-132V233q0-89-48-150.5T372,1q-4-1-4-5V-86q0-5-3.5-8.5T356-98H239q-5,0-8.5,3.5T227-86V-5q0,4-4,5Q139,20 90,82T41,233V457q0,75 32,131.5t90,88T296,708ZM411,464q0,55-31.5,89T296,587q-51,0-82.5-34T182,464V236q0-55 31.5-89T296,113q52,0 83.5,34T411,236V464Z" />
      <glyph unicode="R" glyph-name="R" horiz-adv-x="614" d="M445,0q-10,0-14,9L306,286q-2,4-6,4H207q-5,0-5-5V12q0-5-3.5-8.5T190,0H73q-5,0-8.5,3.5T61,12V688q0,5 3.5,8.5T73,700H359q64,0 112.5-26t75-74T573,489q0-68-34-116.5T444,304q-5-2-3-7L577,14q2-4 2-6q0-8-11-8H445ZM207,579q-5,0-5-5V403q0-5 5-5H338q42,0 68.5,25T433,488t-26.5,65.5T338,579H207Z" />
      <glyph unicode="S" glyph-name="S" horiz-adv-x="595" d="M301-8Q221-8 161,17.5t-92.5,73T36,201v22q0,5 3.5,8.5T48,235H162q5,0 8.5-3.5T174,223V208q0-40 37-67.5T311,113q53,0 79,22.5T416,191q0,24-16,40.5t-43.5,29T269,295q-67,23-113.5,47t-78,65.5T46,510q0,60 31,105t86,69t127,24q76,0 135.5-27t93-75.5T552,493V478q0-5-3.5-8.5T540,466H425q-5,0-8.5,3.5T413,478v8q0,42-34.5,71.5T284,587q-47,0-73.5-20T184,512q0-25 15.5-42t46-30.5T340,403q71-26 111.5-46t73-59.5T557,195q0-94-69-148.5T301-8Z" />
      <glyph unicode="T" glyph-name="T" horiz-adv-x="585" d="M544,700q5,0 8.5-3.5T556,688V590q0-5-3.5-8.5T544,578H365q-5,0-5-5V12q0-5-3.5-8.5T348,0H231q-5,0-8.5,3.5T219,12V573q0,5-5,5H40q-5,0-8.5,3.5T28,590v98q0,5 3.5,8.5T40,700H544Z" />
      <glyph unicode="U" glyph-name="U" horiz-adv-x="629" d="M315-8Q238-8 179.5,22t-91,84.5T56,232V688q0,5 3.5,8.5T68,700H185q5,0 8.5-3.5T197,688V231q0-53 32.5-85.5T315,113t85.5,32.5T433,231V688q0,5 3.5,8.5T445,700H562q5,0 8.5-3.5T574,688V232q0-71-32.5-125.5T450.5,22T315-8Z" />
      <glyph unicode="V" glyph-name="V" horiz-adv-x="622" d="M247,0q-10,0-13,10L28,686l-1,4q0,10 11,10H164q11,0 14-10L311,202q1-3 3-3t3,3L448,690q3,10 14,10H585q6,0 9-4t1-10L386,10Q383,0 373,0H247Z" />
      <glyph unicode="W" glyph-name="W" horiz-adv-x="877" d="M216,0q-11,0-14,10L25,687l-1,4q0,9 11,9H159q10,0 13-10l95-407q1-4 3-4t3,4l92,406q3,11 13,11H499q11,0 14-10L613,283q1-3 3-3.5t3,3.5l92,406q3,11 13,11H842q14,0 11-13L689,10Q686,0 675,0H556q-10,0-13,10L441,443q-1,4-3,4t-3-4L340,11Q338,0 327,0H216Z" />
      <glyph unicode="X" glyph-name="X" horiz-adv-x="631" d="M41,0Q34,0 31,4t1,10L226,347q2,3 0,6L32,686l-2,6q0,8 11,8H168q10,0 15-8L313,463q3-6 6,0L449,692q5,8 15,8H590q7,0 10-4t-1-10L405,353q-1-3 0-6L599,14l2-6q0-8-11-8H464q-10,0-15,8L319,236q-3,6-6,0L182,8q-5-8-15-8H41Z" />
      <glyph unicode="Y" glyph-name="Y" horiz-adv-x="617" d="M250,1q-5,0-8.5,3.5T238,13V266q0,4-1,6L31,686q-2,4-2,6q0,8 11,8H166q10,0 14-9L305,425q3-6 6,0L436,691q4,9 14,9H578q7,0 9.5-3.5T587,686L379,272q-1-2-1-6V13q0-5-3.5-8.5T366,1H250Z" />
      <glyph unicode="Z" glyph-name="Z" horiz-adv-x="557" d="M44,0q-5,0-8.5,3.5T32,12V120q0,8 5,15L360,573q2,2 0.5,4t-4.5,2H44q-5,0-8.5,3.5T32,591v97q0,5 3.5,8.5T44,700H507q5,0 8.5-3.5T519,688V580q0-8-5-15L191,127q-1-2 0-4t4-2H507q5,0 8.5-3.5T519,109V12q0-5-3.5-8.5T507,0H44Z" />
      <glyph unicode="[" glyph-name="bracketleft" horiz-adv-x="416" d="M47-147q-5,0-8.5,3.5T35-135V788q0,5 3.5,8.5T47,800H284q5,0 8.5-3.5T296,788V691q0-5-3.5-8.5T284,679H181q-5,0-5-5V-20q0-5 5-5H285q5,0 8.5-3.5T297-37v-98q0-5-3.5-8.5T285-147H47Z" />
      <glyph unicode="\" glyph-name="backslash" horiz-adv-x="473" d="M449,14q1-2 1-5q0-9-11-9H323q-11,0-14,9L52,686q-1,2-1,5q0,9 11,9H177q11,0 14-9L449,14Z" />
      <glyph unicode="]" glyph-name="bracketright" horiz-adv-x="416" d="M382-135q0-5-3.5-8.5T370-147H132q-5,0-8.5,3.5T120-135v98q0,5 3.5,8.5T132-25H236q5,0 5,5V674q0,5-5,5H132q-5,0-8.5,3.5T120,691v97q0,5 3.5,8.5T132,800H370q5,0 8.5-3.5T382,788V-135Z" />
      <glyph unicode="^" glyph-name="asciicircum" horiz-adv-x="473" d="M44,298q-6,0-9,3.5T34,312L172,690q3,10 14,10h98q11,0 14-10L439,312q1-2 1-5q0-9-11-9H334q-10,0-13,10L239,551q-1,3-3,3t-3-3L152,308q-3-10-13-10H44Z" />
      <glyph unicode="_" glyph-name="underscore" horiz-adv-x="523" d="M31,0q-5,0-8.5,3.5T19,12V95q0,5 3.5,8.5T31,107H492q5,0 8.5-3.5T504,95V12q0-5-3.5-8.5T492,0H31Z" />
      <glyph unicode="`" glyph-name="grave" horiz-adv-x="233" d="M206,590q2-4 2-6q0-8-10-8H114q-9,0-14,8L29,685q-2,3-2,7q0,8 10,8H138q10,0 15-9l53-101Z" />
      <glyph unicode="a" glyph-name="a" horiz-adv-x="528" d="M257,522q65,0 116-22.5T452.5,438T481,351V12q0-5-3.5-8.5T469,0H352q-5,0-8.5,3.5T340,12V45q0,3-2,4t-4-2Q292-8 199-8Q121-8 73,30T25,142q0,77 54,119.5T233,304H335q5,0 5,5v22q0,33-20,51.5T260,401q-31,0-51.5-11T182,359q-3-11-13-10L48,365q-12,2-11,9q4,42 33.5,76t78,53T257,522ZM237,97q43,0 73,23t30,59v36q0,5-5,5H263q-45,0-70.5-17T167,155q0-27 19-42.5T237,97Z" />
      <glyph unicode="b" glyph-name="b" horiz-adv-x="566" d="M507,383q19-52 19-124q0-69-17-121Q486,70 435.5,31T316-8Q243-8 201,47q-2,2-4,1.5T195,45V12q0-5-3.5-8.5T183,0H66q-5,0-8.5,3.5T54,12V688q0,5 3.5,8.5T66,700H183q5,0 8.5-3.5T195,688V474q0-3 2-4t4,2q39,50 111,50q73,0 122.5-37.5T507,383ZM359,156q21,38 21,100q0,69-24,106q-24,39-71,39q-44,0-67-39q-22-38-22-105t20-101q24-43 70-43q49,0 73,43Z" />
      <glyph unicode="c" glyph-name="c" horiz-adv-x="537" d="M278-8Q198-8 139.5,32T56,142Q39,192 39,260q0,67 17,116q24,68 83,107t139,39t140.5-40T499,381q8-24 8-36v-2q0-9-10-11L382,315h-2q-9,0-12,10l-3,16q-7,26-31,43t-57,17q-32,0-54-16t-31-44q-11-30-11-82t10-82q9-30 31.5-47T277,113q31,0 54.5,16.5T364,175q1,2 1,6q1,1 1,3q1,12 14,10l115-18q10-2 10-11q0-8-6-30Q478,68 417.5,30T278-8Z" />
      <glyph unicode="d" glyph-name="d" horiz-adv-x="566" d="M371,688q0,5 3.5,8.5T383,700H500q5,0 8.5-3.5T512,688V12q0-5-3.5-8.5T500,0H383q-5,0-8.5,3.5T371,12V45q0,3-2,3.5T365,47Q323-8 250-8Q180-8 129.5,31T57,138Q40,190 40,259q0,71 18,124q23,64 72.5,101.5T253,522q72,0 112-50q2-3 4-2t2,4V688ZM350,156q20,37 20,101q0,67-22,105q-23,39-67,39q-47,0-71-39q-25-39-25-106q0-60 21-100q25-43 74-43q45,0 70,43Z" />
      <glyph unicode="e" glyph-name="e" horiz-adv-x="546" d="M507,310q6-38 4-85q-1-12-13-12H189q-6,0-4-5q3-20 11-40q26-56 106-56q64,1 101,52q4,6 9,6q3,0 7-4l72-71q5-5 5-9q0-2-4-8q-33-41-85-63.5T293-8Q207-8 147.5,31T62,140Q41,190 41,271q0,55 15,97q23,71 80.5,113T273,523q100,0 160.5-58T507,310ZM274,401q-63,0-83-59q-4-13-7-32q0-5 5-5H362q6,0 4,5q-5,29-5,28q-9,30-31.5,46.5T274,401Z" />
      <glyph unicode="f" glyph-name="f" horiz-adv-x="387" d="M345,515q5,0 8.5-3.5T357,503V408q0-5-3.5-8.5T345,396H248q-5,0-5-5V12q0-5-3.5-8.5T231,0H114q-5,0-8.5,3.5T102,12V391q0,5-5,5H38q-5,0-8.5,3.5T26,408v95q0,5 3.5,8.5T38,515H97q5,0 5,5v22q0,62 19,96.5t61.5,49T300,700h38q5,0 8.5-3.5T350,688V607q0-5-3.5-8.5T338,595H305q-35-1-48.5-14.5T243,531V520q0-5 5-5h97Z" />
      <glyph unicode="g" glyph-name="g" horiz-adv-x="556" d="M366,502q0,5 3.5,8.5T378,514H495q5,0 8.5-3.5T507,502V46q0-131-75.5-187T237-197q-35,0-78,5q-10,1-10,13l4,103q0,13 14,11q36-6 66-6q64,0 98.5,28T366,47q0,3-2,3.5T360,49Q322,8 249,8Q184,8 129.5,39.5T52,141Q37,187 37,260q0,78 18,127q21,61 71,98t116,37q77,0 118-46q2-2 4-1.5t2,3.5v24Zm-8-323q8,30 8,82q0,31-2,48t-7,32q-9,27-30,43.5T275,401q-30,0-51-16.5T193,341q-14-30-14-81q0-56 12-80q9-27 31.5-43.5T276,120q32,0 53,16.5T358,179Z" />
      <glyph unicode="h" glyph-name="h" horiz-adv-x="547" d="M320,522q80,0 129-49t49-133V12q0-5-3.5-8.5T486,0H369q-5,0-8.5,3.5T357,12V311q0,40-22.5,65T275,401t-59.5-25T193,311V12q0-5-3.5-8.5T181,0H64q-5,0-8.5,3.5T52,12V688q0,5 3.5,8.5T64,700H181q5,0 8.5-3.5T193,688V467q0-3 2-4t3,1q41,58 122,58Z" />
      <glyph unicode="i" glyph-name="i" horiz-adv-x="255" d="M128,572q-34,0-56.5,22.5T49,651q0,35 22,57t57,22t57-22t22-57q0-34-22.5-56.5T128,572ZM68,0q-5,0-8.5,3.5T56,12V503q0,5 3.5,8.5T68,515H185q5,0 8.5-3.5T197,503V12q0-5-3.5-8.5T185,0H68Z" />
      <glyph unicode="j" glyph-name="j" horiz-adv-x="254" d="M127,572q-34,0-56,22.5T49,651q0,35 22,57t56,22q35,0 57-22t22-57q0-34-22.5-56.5T127,572ZM-48-204q-12,0-12,12v95q0,13 13,11q59-2 82.5,17T59-2L57,502q0,5 3.5,8.5T69,514H186q5,0 8.5-3.5T198,502V0q0-81-22-125.5T101.5-188T-48-204Z" />
      <glyph unicode="k" glyph-name="k" horiz-adv-x="533" d="M64,0q-5,0-8.5,3.5T52,12V688q0,5 3.5,8.5T64,700H181q5,0 8.5-3.5T193,688V351q0-3 2-3.5t4,1.5L335,507q7,7 15,7H483q10,0 10-7q0-3-3-8L363,338q-2-4-1-7L511,14q2-4 2-6q0-8-11-8H379q-10,0-14,9L266,243q-1,2-3.5,2.5T259,244l-64-80q-2-4-2-6V12q0-5-3.5-8.5T181,0H64Z" />
      <glyph unicode="l" glyph-name="l" horiz-adv-x="244" d="M64,0q-5,0-8.5,3.5T52,12V688q0,5 3.5,8.5T64,700H181q5,0 8.5-3.5T193,688V12q0-5-3.5-8.5T181,0H64Z" />
      <glyph unicode="m" glyph-name="m" horiz-adv-x="835" d="M622,522q78,0 122-47t44-132V12q0-5-3.5-8.5T776,0H659q-5,0-8.5,3.5T647,12V312q0,41-21,65t-56,24t-57-24t-22-64V12q0-5-3.5-8.5T479,0H363q-5,0-8.5,3.5T351,12V312q0,40-22,64.5T272,401q-32,0-53.5-19T193,329V12q0-5-3.5-8.5T181,0H64q-5,0-8.5,3.5T52,12V502q0,5 3.5,8.5T64,514H181q5,0 8.5-3.5T193,502V463q0-3 2-4t4,2q41,61 127,61q50,0 87.5-21T471,441q3-6 7,0q22,41 59.5,61T622,522Z" />
      <glyph unicode="n" glyph-name="n" horiz-adv-x="547" d="M320,522q80,0 129-49t49-133V12q0-5-3.5-8.5T486,0H369q-5,0-8.5,3.5T357,12V311q0,40-22.5,65T275,401t-59.5-25T193,311V12q0-5-3.5-8.5T181,0H64q-5,0-8.5,3.5T52,12V502q0,5 3.5,8.5T64,514H181q5,0 8.5-3.5T193,502V467q0-3 2-4t3,1q41,58 122,58Z" />
      <glyph unicode="o" glyph-name="o" horiz-adv-x="557" d="M279-8Q195-8 135,36T53,156Q39,203 39,258q0,59 14,106q23,74 83,116t144,42q82,0 140-41.5T502,365q16-50 16-105q0-54-14-101Q482,81 422.5,36.5T279-8Zm0,121q33,0 56,20t33,55q8,32 8,70q0,42-8,71q-11,34-34,53t-56,19q-34,0-56.5-19T189,329q-8-24-8-71q0-45 7-70q10-35 33.5-55T279,113Z" />
      <glyph unicode="p" glyph-name="p" horiz-adv-x="568" d="M511,376q18-51 18-120T510,131Q487,67 437.5,29.5T315-8Q243-8 203,42q-2,3-4,2t-2-4V-174q0-5-3.5-8.5T185-186H68q-5,0-8.5,3.5T56-174V502q0,5 3.5,8.5T68,514H185q5,0 8.5-3.5T197,502V469q0-3 2-3.5t4,1.5q42,55 116,55q69,0 119.5-38.5T511,376ZM358,152q25,39 25,106q0,63-21,100q-23,43-74,43q-46,0-69-43q-21-36-21-101q0-67 22-104q23-40 68-40t70,39Z" />
      <glyph unicode="q" glyph-name="q" horiz-adv-x="568" d="M371,502q0,5 3.5,8.5T383,514H500q5,0 8.5-3.5T512,502V-174q0-5-3.5-8.5T500-186H383q-5,0-8.5,3.5T371-174V40q0,3-2,4t-4-2Q325-8 253-8Q180-8 130.5,29.5T58,131Q40,184 40,256q0,68 17,120q22,69 72.5,107.5T250,522q73,0 115-55q2-2 4-1.5t2,3.5v33ZM348,153q22,37 22,104q0,64-20,101q-25,43-70,43q-49,0-74-43q-21-40-21-100q0-67 25-106t71-39q44,0 67,40Z" />
      <glyph unicode="r" glyph-name="r" horiz-adv-x="383" d="M308,521q36,0 57-14q8-4 6-15L350,378q-1-12-14-7q-15,5-35,5q-8,0-22-2q-36-3-61-26.5T193,285V12q0-5-3.5-8.5T181,0H64q-5,0-8.5,3.5T52,12V502q0,5 3.5,8.5T64,514H181q5,0 8.5-3.5T193,502V464q0-3 2-4t3,1q41,60 110,60Z" />
      <glyph unicode="s" glyph-name="s" horiz-adv-x="502" d="M257-7Q190-7 140,12T62.5,65T35,142v10q0,5 3.5,8.5T47,164H158q5,0 8.5-3.5T170,152v-1q0-22 24.5-37.5T256,98q34,0 55,13.5T332,145q0,18-18,27t-59,19q-47,12-74,23q-64,22-102,54T41,360q0,74 57.5,117.5T251,521q64,0 112-20.5T437.5,443T464,359q0-5-3.5-8.5T452,347H345q-5,0-8.5,3.5T333,359q0,22-22.5,37T251,411q-33,0-54-12t-21-33q0-20 20.5-30T265,315q11-3 25-6.5t30-8.5q71-21 112-54t41-96q0-74-58.5-115.5T257-7Z" />
      <glyph unicode="t" glyph-name="t" horiz-adv-x="380" d="M347,413q0-5-3.5-8.5T335,401H239q-5,0-5-5V184q0-33 13.5-49T291,119h33q5,0 8.5-3.5T336,107V12q0-11-12-13q-42-2-60-2Q181-3 140,24.5T98,128V396q0,5-5,5H36q-5,0-8.5,3.5T24,413v89q0,5 3.5,8.5T36,514H93q5,0 5,5V638q0,5 3.5,8.5T110,650H222q5,0 8.5-3.5T234,638V519q0-5 5-5h96q5,0 8.5-3.5T347,502V413Z" />
      <glyph unicode="u" glyph-name="u" horiz-adv-x="545" d="M352,502q0,5 3.5,8.5T364,514H481q5,0 8.5-3.5T493,502V12q0-5-3.5-8.5T481,0H364q-5,0-8.5,3.5T352,12V46q0,3-2,3.5T346,47Q306-7 222-7Q146-7 97,39T48,168V502q0,5 3.5,8.5T60,514H176q5,0 8.5-3.5T188,502V203q0-40 21.5-65T269,113q34,0 56,20.5T352,187V502Z" />
      <glyph unicode="v" glyph-name="v" horiz-adv-x="520" d="M195,0q-10,0-13,10L22,501q-1,2-1,5q0,9 11,9H161q11,0 14-10l82-303q1-3 3-3t3,3l82,303q3,10 14,10l129-2q6,0 9-3.5t1-10.5L339,10Q336,0 326,0H195Z" />
      <glyph unicode="w" glyph-name="w" horiz-adv-x="783" d="M180,0q-11,0-14,10L22,501l-1,4q0,10 11,10H153q11,0 14-10l72-302q1-3 3-3t3,3l75,302q3,10 14,10H439q11,0 14-10l79-303q1-3 3-3t3,3l78,303q3,10 14,10l120-2q6,0 8.5-3.5T760,500L614,10Q611,0 601,0H480q-11,0-14,10L389,278q-1,3-3,3t-3-3L315,10Q312,0 301,0H180Z" />
      <glyph unicode="x" glyph-name="x" horiz-adv-x="538" d="M32,0q-7,0-9.5,4.5T24,15L185,254q2,3 0,6L24,499q-2,4-2,7q0,8 10,8H157q9,0 14-8l90-137q4-6 7,0l90,137q5,8 14,8H506q7,0 9-4.5T513,499L353,260q-1-3 0-6L513,15q2-3 2-7q0-8-9-8H380q-9,0-14,8L276,145q-3,6-6,0L180,8q-5-8-14-8H32Z" />
      <glyph unicode="y" glyph-name="y" horiz-adv-x="504" d="M49-199q-3,0-5,3.5T42-187v92q0,5 3.5,8.5T54-83q42,1 66.5,7t39,23T182-3q1,2 0,6L18,501q-1,2-1,5q0,9 11,9H153q11,0 14-10l84-324q1-3 3-3t3,3l84,324q3,10 14,10H477q6,0 8.5-3.5T486,501L313-19q-25-73-51-109.5T189-182T56-199H49Z" />
      <glyph unicode="z" glyph-name="z" horiz-adv-x="460" d="M36,0q-5,0-8.5,3.5T24,12V119q0,8 6,15L255,381q5,6-2,6H42q-5,0-8.5,3.5T30,399V502q0,5 3.5,8.5T42,514H416q5,0 8.5-3.5T428,502V396q0-7-6-15L190,134q-4-6 2-6H421q5,0 8.5-3.5T433,116V12q0-5-3.5-8.5T421,0H36Z" />
      <glyph unicode="{" glyph-name="braceleft" horiz-adv-x="376" d="M238-147q-65,0-98,31.5T107-23V184q0,43-14.5,64T47,273q-12,2-12,13v87q0,12 12,13q31,4 45.5,25T107,474V677q0,61 33,92t98,31h91q5,0 8.5-3.5T341,788V691q0-5-3.5-8.5T329,679H302q-24,0-39-17t-15-46V455q0-49-14-78.5T190,333q-6-3 0-6q30-15 44-45t14-79V38q0-30 15-46.5T302-25h27q5,0 8.5-3.5T341-37v-98q0-5-3.5-8.5T329-147H238Z" />
      <glyph unicode="|" glyph-name="bar" horiz-adv-x="203" d="M43-80q-5,0-8.5,3.5T31-68V748q0,5 3.5,8.5T43,760H160q5,0 8.5-3.5T172,748V-68q0-5-3.5-8.5T160-80H43Z" />
      <glyph unicode="}" glyph-name="braceright" horiz-adv-x="376" d="M47-147q-5,0-8.5,3.5T35-135v98q0,5 3.5,8.5T47-25H74q24,0 39,16.5T128,38V203q0,49 14,79t43,45q6,3 0,6q-29,14-43,43.5T128,455V616q0,29-15,46T74,679H47q-5,0-8.5,3.5T35,691v97q0,5 3.5,8.5T47,800h90q65,0 98.5-31T269,677V474q0-42 14.5-63T329,386q12-1 12-13V286q0-11-12-13q-31-4-45.5-25T269,184V-23q0-61-33.5-92.5T137-147H47Z" />
      <glyph unicode="~" glyph-name="asciitilde" horiz-adv-x="534" d="M356,201q-26,0-46,7t-42,20q-25,14-43.5,22T185,258q-40,0-65-36q-8-9-17-3L38,263q-9,6-6,16q17,44 58.5,72.5T180,380q24,0 43-6.5T264,354q7-4 23.5-13T318,327t28-5q19,0 32.5,9.5T404,358q7,10 17,4l76-49q9-6 5-16q-19-43-59.5-69.5T356,201Z" />
      <glyph unicode="&#xa0;" glyph-name="uni00A0" horiz-adv-x="200" />
      <glyph unicode="&#xa1;" glyph-name="exclamdown" horiz-adv-x="344" d="M167,708q34,0 56-22.5T245,629t-21.5-56T167,551t-57,22T88,629q0,35 22.5,57T167,708ZM116,457q0,5 3.5,8.5T128,469h89q5,0 8.5-3.5T229,457L244,21q0-5-3.5-8.5T232,9H115q-5,0-8.5,3.5T103,21l13,436Z" />
      <glyph unicode="&#xa2;" glyph-name="cent" horiz-adv-x="537" d="M364,265q1,2 1,6q1,1 1,3q1,12 14,10l115-18q10-2 10-11q0-8-6-30q-18-54-60.5-89.5T337,88q-5-2-5-6l2-76q0-5-3.5-8.5T322-6H222q-5,0-8.5,3.5T210,6l2,80q0,4-4,5q-54,15-93.5,51.5T56,232Q39,282 39,350q0,67 17,116q19,52 57.5,87T206,603q4,1 4,5l-2,77q0,5 3.5,8.5T220,697h99q5,0 8.5-3.5T331,685l-1-73q0-4 5-6q60-13 103.5-49.5T499,471q8-24 8-36v-2q0-9-10-11L382,405h-2q-9,0-12,10l-3,16q-7,26-31,43t-57,17q-32,0-54-16t-31-44q-11-30-11-82t10-82q9-30 31.5-47T277,203q31,0 54.5,16.5T364,265Z" />
      <glyph unicode="&#xa3;" glyph-name="sterling" horiz-adv-x="613" d="M286,222q0-56-37-95q-2-2-1-4t4-2H571q5,0 8.5-3.5T583,109V12q0-5-3.5-8.5T571,0H105q-5,0-8.5,3.5T93,12V112q0,8 8,14q24,16 34,39t10,57v60q0,5-5,5H73q-5,0-8.5,3.5T61,299v90q0,5 3.5,8.5T73,401h67q5,0 5,5v84q0,103 61,160.5T370,708q81,0 134.5-41.5T582,551q1-2 1-5q0-6-10-9L465,517h-3q-7,0-12,9q-11,33-30.5,47T372,587q-40,0-63-23t-23-71V406q0-5 5-5H473q5,0 8.5-3.5T485,389V299q0-5-3.5-8.5T473,287H291q-5,0-5-5V222Z" />
      <glyph unicode="&#xa4;" glyph-name="currency" horiz-adv-x="574" d="M504,304q0-57-26-103q-1-4 1-7l66-66q4-4 4-9q0-4-4-8L472,48q-4-4-9-4q-4,0-8,4l-61,61q-2,3-7,1Q340,84 284,84q-53,0-99,23q-4,2-7-1L119,48q-4-4-8-4q-5,0-9,4L29,111q-4,4-4,8q0,5 4,9l62,61q3,3 1,7Q63,245 63,304q0,56 26,103q2,5-1,7L23,478q-4,4-4,9q0,4 4,8l73,64q4,4 9,4t8-4l61-61q3-2 7-1q46,26 103,26q59,0 107-28q4-2 7,1l64,63q4,4 8,4q5,0 9-4l72-64q4-4 4-8q0-5-4-9l-69-69q-2-2-1-7q23-44 23-98Zm-320,0q0-41 29.5-70.5T284,204t70.5,29T384,304q0,41-29.5,70.5T284,404t-70.5-29.5T184,304Z" />
      <glyph unicode="&#xa5;" glyph-name="yen" horiz-adv-x="686" d="M615,700q7,0 9.5-3.5T624,686L451,340q-1-3 0-4.5t4-1.5h89q5,0 8.5-3.5T556,322V268q0-5-3.5-8.5T544,256H421q-5,0-5-5V202q0-5 5-5H544q5,0 8.5-3.5T556,185V130q0-5-3.5-8.5T544,118H421q-5,0-5-5V13q0-5-3.5-8.5T404,1H287q-5,0-8.5,3.5T275,13V113q0,5-5,5H146q-5,0-8.5,3.5T134,130v55q0,5 3.5,8.5T146,197H270q5,0 5,5v49q0,5-5,5H146q-5,0-8.5,3.5T134,268v54q0,5 3.5,8.5T146,334h90q3,0 4,1.5t0,4.5L68,686q-2,4-2,6q0,8 11,8H204q10,0 14-9L343,425q3-6 6,0L474,691q4,9 14,9H615Z" />
      <glyph unicode="&#xa6;" glyph-name="brokenbar" horiz-adv-x="203" d="M43,402q-5,0-8.5,3.5T31,414V748q0,5 3.5,8.5T43,760H160q5,0 8.5-3.5T172,748V414q0-5-3.5-8.5T160,402H43ZM43-80q-5,0-8.5,3.5T31-68V266q0,5 3.5,8.5T43,278H160q5,0 8.5-3.5T172,266V-68q0-5-3.5-8.5T160-80H43Z" />
      <glyph unicode="&#xa7;" glyph-name="section" horiz-adv-x="494" d="M241-208q-91,0-143,45.5T43-39L41-2q0,12 12,12H170q5,0 8.5-3.5T182-2V-16q0-32 18-51.5T248-87q28,0 46.5,17.5T313-25q0,23-14.5,37.5t-35,24T189,67q-50,19-79,37T62,150q-26,38-26,91q0,55 29,99q25,33 63,48q6,3 0,6q-39,20-63.5,56T40,535q0,47 26.5,87T140,685t107,23q58,0 104.5-22T424,624t26-91V510q0-5-3.5-8.5T438,498H321q-5,0-8.5,3.5T309,510v8q0,31-18,50t-46,19t-46-18t-18-46q0-33 27-51t82-37q40-12 71-27t53-39q42-42 42-110q0-52-27-96q-25-42-65-53q-3-1-3-2.5t3-3.5q45-26 67.5-60.5T454-38q0-52-28-90.5t-76.5-59T241-208Zm5,390q39,0 57,26q12,17 12,42q0,27-12,43q-22,25-57,25q-18,0-33.5-8T188,288q-11-17-11-40t12-40q21-26 57-26Z" />
      <glyph unicode="&#xa8;" glyph-name="dieresis" horiz-adv-x="394" d="M297,578q-34,0-56.5,22.5T218,657q0,35 22,57t57,22t57-22t22-57q0-34-22.5-56.5T297,578ZM98,578q-34,0-56.5,22.5T19,657q0,35 22,57t57,22t57-22t22-57q0-34-22.5-56.5T98,578Z" />
      <glyph unicode="&#xa9;" glyph-name="copyright" horiz-adv-x="817" d="M408-8Q305-8 223,39T94,168T47,353q0,100 47,181T223.5,661.5T408,708q103,0 185.5-46.5T723,534t47-181q0-103-47-185T593.5,39T408-8Zm0,94q75,0 135.5,34.5t95,95.5T673,353q0,74-34.5,133.5t-95,93.5T408,614T272.5,580T178,486.5T144,353q0-76 34-137t94.5-95.5T408,86Zm2,88q-55,0-89,31.5T287,289V414q0,52 33.5,83T410,528t89-29t33-79q0-3-3.5-5t-8.5-2l-51-2q-12,0-12,8q0,21-13,33.5T410,465q-22,0-34.5-12.5T363,419V283q0-20 12.5-32.5T410,238q21,0 34,12.5T457,283q0,4 3.5,6.5T469,292l51-2q12,0 12-8q0-49-33.5-78.5T410,174Z" />
      <glyph unicode="&#xaa;" glyph-name="ordfeminine" horiz-adv-x="330" d="M217,567q5,0 5,5v11q0,26-17.5,42.5T158,642q-21,0-37.5-9T99,610q-3-11-13-10l-52,4q-12,2-11,13q5,39 42.5,65T157,708q62,0 101.5-32.5T298,595V376q0-5-3.5-8.5T286,364H234q-5,0-8.5,3.5T222,376v9q0,3-2,4t-4-2q-29-29-86-29q-54,0-85.5,25T13,455q0,51 38,81.5T153,567h64ZM144,419q34,0 56,18t22,42v24q0,5-5,5H164q-73,0-73-46q0-22 14-32.5T144,419ZM13,298q0,5 3.5,8.5T25,310H295q5,0 8.5-3.5T307,298V245q0-5-3.5-8.5T295,233H25q-5,0-8.5,3.5T13,245v53Z" />
      <glyph unicode="&#xab;" glyph-name="guillemotleft" horiz-adv-x="509" d="M274,121q2-6 2-7q0-7-10-7H165q-10,0-14,8L57,273l-2,8q0,2 2,8l94,158q4,8 14,8H266q7,0 9.5-3.5T274,441L177,284q-1-3 0-6l97-157Zm172,0q2-6 2-7q0-7-10-7H337q-10,0-14,8L228,273l-2,8q0,2 2,8l95,158q4,8 14,8H438q7,0 9.5-3.5T446,441L349,284q-1-3 0-6l97-157Z" />
      <glyph unicode="&#xac;" glyph-name="logicalnot" horiz-adv-x="486" d="M29,349q0,5 3.5,8.5T41,361H445q5,0 8.5-3.5T457,349V140q0-5-3.5-8.5T445,128H348q-5,0-8.5,3.5T336,140v95q0,5-5,5H41q-5,0-8.5,3.5T29,252v97Z" />
      <glyph unicode="&#xad;" glyph-name="uni00AD" horiz-adv-x="409" d="M41,235q-5,0-8.5,3.5T29,247v97q0,5 3.5,8.5T41,356H368q5,0 8.5-3.5T380,344V247q0-5-3.5-8.5T368,235H41Z" />
      <glyph unicode="&#xae;" glyph-name="registered" horiz-adv-x="445" d="M222,710q57,0 104-26t73.5-71T426,512q0-58-26.5-105T326,333.5T222,307T118.5,333.5T45.5,407T19,512q0,56 26.5,101t73,71T222,710Zm0-344q62,0 103,41.5T366,512q0,39-19,71t-52,50.5T222,652t-73-18.5T97.5,583T79,512q0-64 40.5-105T222,366Zm71,178q0-33-24-47q-4-1-2-6l21-59q1-2 1-5q0-9-11-9H253q-10,0-13,10l-19,56q-2,4-5,4h-2q-5,0-5-5V430q0-5-3.5-8.5T197,418H175q-5,0-8.5,3.5T163,430V591q0,5 3.5,8.5T175,603h59q26,0 42.5-17T293,544Zm-79,19q-5,0-5-5V528q0-5 5-5h13q9,0 14.5,6t5.5,14q0,9-5.5,14.5T227,563H214Z" />
      <glyph unicode="&#xaf;" glyph-name="macron" horiz-adv-x="294" d="M12,578q-5,0-8.5,3.5T0,590v71q0,5 3.5,8.5T12,673H282q5,0 8.5-3.5T294,661V590q0-5-3.5-8.5T282,578H12Z" />
      <glyph unicode="&#xb0;" glyph-name="degree" horiz-adv-x="376" d="M188,471q-46,0-85,22.5t-61.5,61T19,640q0,46 22.5,84.5t61.5,61T188,808q47,0 85.5-22.5t61-61T357,640q0-47-22.5-85.5t-61-61T188,471Zm0,91q33,0 55.5,22.5T266,640q0,34-22.5,56.5T188,719q-32,0-55-22.5T110,640q0-33 23-55.5T188,562Z" />
      <glyph unicode="&#xb1;" glyph-name="plusminus" horiz-adv-x="486" d="M445,456q5,0 8.5-3.5T457,444V347q0-5-3.5-8.5T445,335H308q-5,0-5-5V195q0-5-3.5-8.5T291,183H195q-5,0-8.5,3.5T183,195V330q0,5-5,5H41q-5,0-8.5,3.5T29,347v97q0,5 3.5,8.5T41,456H178q5,0 5,5V599q0,5 3.5,8.5T195,611h96q5,0 8.5-3.5T303,599V461q0-5 5-5H445ZM41,0q-5,0-8.5,3.5T29,12v97q0,5 3.5,8.5T41,121H445q5,0 8.5-3.5T457,109V12q0-5-3.5-8.5T445,0H41Z" />
      <glyph unicode="&#xb2;" glyph-name="uni00B2" horiz-adv-x="343" d="M43,416q-5,0-8.5,3.5T31,428v56q0,9 6,15q52,50 129,133q55,58 55,86q0,20-14,32.5T171,763q-23,0-37-13t-14-33V707q0-5-3.5-8.5T108,695H40q-5,0-8.5,3.5T28,707v24q4,50 44,80t99,30q64,0 103-35t39-86q0-25-12-50.5T264,614q-33-41-106-114q-2-2-1-4t4-2H308q5,0 8.5-3.5T320,482V428q0-5-3.5-8.5T308,416H43Z" />
      <glyph unicode="&#xb3;" glyph-name="uni00B3" horiz-adv-x="324" d="M291,620q12-30 12-67t-13-66q-15-36-49-56.5T162,410q-46,0-81,23T30,496q-8,19-10,46q0,12 12,12H99q12,0 13-12q2-16 6-24q5-14 16.5-21.5T162,489q27,0 40,22q10,17 10,44q0,30-11,48q-12,23-40,23q-13,0-25-8q-6-2-7-2q-5,0-10,5L86,661q-4,6-4,8q0,4 5,9l89,73q2,2 1.5,4t-3.5,2H41q-5,0-8.5,3.5T29,769v54q0,5 3.5,8.5T41,835H286q5,0 8.5-3.5T298,823V766q0-8-7-15l-74-66q-2-2-1.5-4t4.5-3q47-11 71-58Z" />
      <glyph unicode="&#xb4;" glyph-name="acute" horiz-adv-x="233" d="M35,576q-7,0-9,4t1,10L80,691q4,9 15,9H196q7,0 9.5-4.5T204,685L133,584q-5-8-14-8H35Z" />
      <glyph unicode="&#xb5;" glyph-name="uni00B5" horiz-adv-x="551" d="M357,502q0,5 3.5,8.5T369,514H486q5,0 8.5-3.5T498,502V12q0-5-3.5-8.5T486,0H369q-5,0-8.5,3.5T357,12V46q0,3-2,3.5T351,47Q311-7 227-7q-9,0-29,2q-5,2-5-4V-188q0-5-3.5-8.5T181-200H64q-5,0-8.5,3.5T52-188V502q0,5 3.5,8.5T64,514H181q5,0 8.5-3.5T193,502V203q0-40 21.5-65T273,113q34,0 56.5,20.5T357,188V502Z" />
      <glyph unicode="&#xb6;" glyph-name="paragraph" horiz-adv-x="625" d="M558,700q5,0 8.5-3.5T570,688V-188q0-5-3.5-8.5T558-200H479q-5,0-8.5,3.5T467-188V595q0,5-5,5H365q-5,0-5-5V-188q0-5-3.5-8.5T348-200H268q-5,0-8.5,3.5T256-188V246q0,5-5,5q-67,5-118,34.5T53.5,364T25,475q0,65 30,116t86.5,80T273,700H558Z" />
      <glyph unicode="&#xb7;" glyph-name="periodcentered" horiz-adv-x="235" d="M118,211q-34,0-56.5,22.5T39,290q0,35 22,57t57,22t57-22t22-57q0-34-22.5-56.5T118,211Z" />
      <glyph unicode="&#xb8;" glyph-name="cedilla" horiz-adv-x="169" d="M10-182q-11,3-9,14l7,50q1,12 15,9q10-3 20-3q15,0 24,8t9,23q0,30-47,66q-6,4-6,9q0,6 10,6H98q9,0 15-5q56-47 56-99q0-13-3-25q-9-34-35-49T71-193q-32,0-61,11Z" />
      <glyph unicode="&#xb9;" glyph-name="uni00B9" horiz-adv-x="194" d="M65,833q8,3 15,3h71q5,0 8.5-3.5T163,824V428q0-5-3.5-8.5T151,416H84q-5,0-8.5,3.5T72,428V751q0,5-5,5l-32-3H33q-10,0-10,12v43q0,10 10,13l32,12Z" />
      <glyph unicode="&#xba;" glyph-name="ordmasculine" horiz-adv-x="356" d="M179,362q-50,0-86.5,25.5T38,459q-13,32-13,77q0,46 12,77q16,46 53.5,70.5T180,708q47,0 83-24.5T316,614q14-36 14-77q0-42-14-78q-17-46-53.5-71.5T179,362Zm0,77q17,0 31,10.5T231,480q8,21 8,56q0,37-7,54q-8,20-22.5,31T177,632q-36,0-53-42q-8-19-8-54q0-36 8-56q7-20 21-30.5T179,439ZM38,232q-5,0-8.5,3.5T26,244v56q0,5 3.5,8.5T38,312H322q5,0 8.5-3.5T334,300V244q0-5-3.5-8.5T322,232H38Z" />
      <glyph unicode="&#xbb;" glyph-name="guillemotright" horiz-adv-x="509" d="M78,107q-7,0-9.5,3.5T70,121l96,157q2,3 0,6L70,441q-2,6-2,7q0,7 10,7H178q10,0 14-8l95-158q2-3 2-8t-2-8L192,115q-4-8-14-8H78Zm172,0q-7,0-9.5,3.5T242,121l96,157q2,3 0,6L242,441q-2,6-2,7q0,7 10,7H350q10,0 14-8l95-158q2-3 2-8t-2-8L364,115q-4-8-14-8H250Z" />
      <glyph unicode="&#xbc;" glyph-name="onequarter" horiz-adv-x="826" d="M65,697q8,3 15,3h71q5,0 8.5-3.5T163,688V292q0-5-3.5-8.5T151,280H84q-5,0-8.5,3.5T72,292V615q0,5-5,5l-32-3H33q-10,0-10,12v43q0,10 10,13l32,12ZM114,0q-7,0-10,4t1,10L501,692q4,8 15,8h75q7,0 10-4t-1-10L204,8q-4-8-15-8H114ZM783,187q5,0 8.5-3.5T795,175V117q0-5-3.5-8.5T783,105H765q-5,0-5-5V12q0-5-3.5-8.5T748,0H681q-5,0-8.5,3.5T669,12v88q0,5-5,5H484q-5,0-8.5,3.5T472,117v46q0,6 3,15L579,411q4,9 14,9h70q7,0 9-4t0-10L580,193q-1-2 0-4t3-2h81q5,0 5,5v65q0,5 3.5,8.5T681,269h67q5,0 8.5-3.5T760,257V192q0-5 5-5h18Z" />
      <glyph unicode="&#xbd;" glyph-name="onehalf" horiz-adv-x="802" d="M65,697q8,3 15,3h71q5,0 8.5-3.5T163,688V292q0-5-3.5-8.5T151,280H84q-5,0-8.5,3.5T72,292V615q0,5-5,5l-32-3H33q-10,0-10,12v43q0,10 10,13l32,12ZM114,0q-7,0-10,4t1,10L501,692q4,8 15,8h75q7,0 10-4t-1-10L204,8q-4-8-15-8H114ZM497,0q-5,0-8.5,3.5T485,12V68q0,9 6,15q52,50 129,133q55,58 55,86q0,20-14,32.5T625,347q-23,0-37-13t-14-33V291q0-5-3.5-8.5T562,279H494q-5,0-8.5,3.5T482,291v24q4,50 44,80t99,30q64,0 103-35t39-86q0-25-12-50.5T718,198Q685,157 612,84q-2-2-1-4t4-2H762q5,0 8.5-3.5T774,66V12q0-5-3.5-8.5T762,0H497Z" />
      <glyph unicode="&#xbe;" glyph-name="threequarters" horiz-adv-x="916" d="M291,487q12-30 12-67t-13-66q-15-36-49-56.5T162,277q-46,0-81,23T30,363q-8,19-10,46q0,12 12,12H99q12,0 13-12q2-16 6-24q5-14 16.5-21.5T162,356q27,0 40,22q10,17 10,44q0,30-11,48q-12,23-40,23q-13,0-25-8q-6-2-7-2q-5,0-10,5L86,528q-4,6-4,8q0,4 5,9l89,73q2,2 1.5,4t-3.5,2H41q-5,0-8.5,3.5T29,636v54q0,5 3.5,8.5T41,702H286q5,0 8.5-3.5T298,690V633q0-8-7-15l-74-66q-2-2-1.5-4t4.5-3q47-11 71-58ZM206,0q-7,0-10,4t1,10L593,692q4,8 15,8h75q7,0 10-4t-1-10L296,8q-4-8-15-8H206ZM874,187q5,0 8.5-3.5T886,175V117q0-5-3.5-8.5T874,105H856q-5,0-5-5V12q0-5-3.5-8.5T839,0H772q-5,0-8.5,3.5T760,12v88q0,5-5,5H575q-5,0-8.5,3.5T563,117v46q0,6 3,15L670,411q4,9 14,9h70q7,0 9-4t0-10L671,193q-1-2 0-4t3-2h81q5,0 5,5v65q0,5 3.5,8.5T772,269h67q5,0 8.5-3.5T851,257V192q0-5 5-5h18Z" />
      <glyph unicode="&#xbf;" glyph-name="questiondown" horiz-adv-x="521" d="M283,502q34,0 56-22t22-57q0-34-21.5-56T283,345t-57,22t-22,56q0,35 22.5,57T283,502Zm54-224q5,0 8.5-3.5T349,266V234q0-50-26-81T249,89q-39-27-58-48T172-10q0-32 24-51.5T259-81q42,0 67.5,21T352-6V10q0,11 12,11l117-5q5,0 8.5-3.5T493,4V-6q0-60-30-106.5t-83.5-72T256-210q-68,0-119.5,24.5T57-117T29-15q0,44 15.5,75.5T82,112t56,44q36,25 53,43t17,44v23q0,5 3.5,8.5T220,278H337Z" />
      <glyph unicode="&#xc0;" glyph-name="Agrave" horiz-adv-x="671" d="M506,0q-10,0-13,10l-30,98q-2,4-5,4H212q-3,0-5-4L178,10Q175,0 165,0H38q-6,0-9,3.5T28,14L244,690q3,10 13,10H414q10,0 13-10L643,14q1-2 1-5q0-9-11-9H506ZM243,227q-1-6 4-6H423q6,0 4,6L337,524q-1,4-3,3.5t-3-3.5L243,227ZM385,776q2-4 2-6q0-8-10-8H293q-9,0-14,8L208,871q-2,3-2,7q0,8 10,8H317q10,0 15-9l53-101Z" />
      <glyph unicode="&#xc1;" glyph-name="Aacute" horiz-adv-x="671" d="M506,0q-10,0-13,10l-30,98q-2,4-5,4H212q-3,0-5-4L178,10Q175,0 165,0H38q-6,0-9,3.5T28,14L244,690q3,10 13,10H414q10,0 13-10L643,14q1-2 1-5q0-9-11-9H506ZM243,227q-1-6 4-6H423q6,0 4,6L337,524q-1,4-3,3.5t-3-3.5L243,227Zm35,535q-7,0-9,4t1,10l53,101q4,9 15,9H439q7,0 9.5-4.5T447,871L376,770q-5-8-14-8H278Z" />
      <glyph unicode="&#xc2;" glyph-name="Acircumflex" horiz-adv-x="671" d="M506,0q-10,0-13,10l-30,98q-2,4-5,4H212q-3,0-5-4L178,10Q175,0 165,0H38q-6,0-9,3.5T28,14L244,690q3,10 13,10H414q10,0 13-10L643,14q1-2 1-5q0-9-11-9H506ZM243,227q-1-6 4-6H423q6,0 4,6L337,524q-1,4-3,3.5t-3-3.5L243,227ZM187,758q-7,0-9.5,4.5T179,773l73,105q5,8 14,8H399q9,0 14-8l76-105q3-4 3-7q0-8-11-8H391q-9,0-14,8l-40,61q-3,6-6,0l-40-61q-5-8-14-8H187Z" />
      <glyph unicode="&#xc3;" glyph-name="Atilde" horiz-adv-x="671" d="M506,0q-10,0-13,10l-30,98q-2,4-5,4H212q-3,0-5-4L178,10Q175,0 165,0H38q-6,0-9,3.5T28,14L244,690q3,10 13,10H414q10,0 13-10L643,14q1-2 1-5q0-9-11-9H506ZM243,227q-1-6 4-6H423q6,0 4,6L337,524q-1,4-3,3.5t-3-3.5L243,227ZM398,759q-21,0-35,4.5T331,777q-21,10-30.5,13.5T280,794q-31,0-53-22q-5-5-9-5q-5,0-8,4l-41,44q-7,9-2,17q16,28 44,45t62,17q19,0 33.5-5t26-10.5T348,871q19-10 29-14t21-4q31,0 48,24q4,5 9,5t8-4l37-45q6-7 3-14q-13-27-40.5-43.5T398,759Z" />
      <glyph unicode="&#xc4;" glyph-name="Adieresis" horiz-adv-x="671" d="M506,0q-10,0-13,10l-30,98q-2,4-5,4H212q-3,0-5-4L178,10Q175,0 165,0H38q-6,0-9,3.5T28,14L244,690q3,10 13,10H414q10,0 13-10L643,14q1-2 1-5q0-9-11-9H506ZM243,227q-1-6 4-6H423q6,0 4,6L337,524q-1,4-3,3.5t-3-3.5L243,227ZM433,764q-34,0-56.5,22.5T354,843q0,35 22,57t57,22t57-22t22-57q0-34-22.5-56.5T433,764Zm-199,0q-34,0-56.5,22.5T155,843q0,35 22,57t57,22t57-22t22-57q0-34-22.5-56.5T234,764Z" />
      <glyph unicode="&#xc5;" glyph-name="Aring" horiz-adv-x="671" d="M506,0q-10,0-13,10l-30,98q-2,4-5,4H212q-3,0-5-4L178,10Q175,0 165,0H38q-6,0-9,3.5T28,14L244,690q3,10 13,10H414q10,0 13-10L643,14q1-2 1-5q0-9-11-9H506ZM243,227q-1-6 4-6H423q6,0 4,6L337,524q-1,4-3,3.5t-3-3.5L243,227Zm91,522q-53,0-89,35.5T209,873t36,88.5T334,997q52,0 88-35.5T458,873q0-52-36-88t-88-36Zm0,74q20,0 35,14.5T384,873q0,22-15,36.5T334,924q-21,0-36-14.5T283,873q0-21 15-35.5T334,823Z" />
      <glyph unicode="&#xc6;" glyph-name="AE" horiz-adv-x="960" d="M922,591q0-5-3.5-8.5T910,579H592q-5,0-5-5V419q0-5 5-5H798q5,0 8.5-3.5T810,402V305q0-5-3.5-8.5T798,293H592q-5,0-5-5V126q0-5 5-5H910q5,0 8.5-3.5T922,109V12q0-5-3.5-8.5T910,0H458q-5,0-8.5,3.5T446,12v95q0,5-5,5H238q-4,0-6-4L183,9q-4-9-14-9H40q-7,0-9.5,3.5T31,14L374,691q5,9 14,9H910q5,0 8.5-3.5T922,688V591ZM291,227q-1-3 0-4.5t4-1.5H441q5,0 5,5V527q0,4-2,4t-4-3L291,227Z" />
      <glyph unicode="&#xc7;" glyph-name="Ccedilla" horiz-adv-x="608" d="M566,472q0-4-12-6l-117-7h-2q-10,0-10,11q0,53-32.5,85T307,587q-54,0-86.5-32T188,470V229q0-52 32.5-84T307,113q53,0 85.5,32T425,229q0,11 12,11l117-5q5,0 8.5-3t3.5-7q0-96-61-158.5T343-6q-6-2-2-7q41-40 41-85q0-12-3-24q-9-34-35-49t-60-15q-32,0-61,11q-11,3-9,14l7,50q1,13 15,8q11-3 19-3q15,0 24.5,7.5T289-75q0,33-54,73q-2,2-3.5,2.5T229,1Q144,21 95.5,83.5T47,235V466q0,72 32,127t91,85t137,30q77,0 135.5-28.5t91-81T566,477v-5Z" />
      <glyph unicode="&#xc8;" glyph-name="Egrave" horiz-adv-x="584" d="M547,591q0-5-3.5-8.5T535,579H207q-5,0-5-5V419q0-5 5-5H422q5,0 8.5-3.5T434,402V305q0-5-3.5-8.5T422,293H207q-5,0-5-5V126q0-5 5-5H535q5,0 8.5-3.5T547,109V12q0-5-3.5-8.5T535,0H73q-5,0-8.5,3.5T61,12V688q0,5 3.5,8.5T73,700H535q5,0 8.5-3.5T547,688V591ZM352,776q2-4 2-6q0-8-10-8H260q-9,0-14,8L175,871q-2,3-2,7q0,8 10,8H284q10,0 15-9l53-101Z" />
      <glyph unicode="&#xc9;" glyph-name="Eacute" horiz-adv-x="584" d="M547,591q0-5-3.5-8.5T535,579H207q-5,0-5-5V419q0-5 5-5H422q5,0 8.5-3.5T434,402V305q0-5-3.5-8.5T422,293H207q-5,0-5-5V126q0-5 5-5H535q5,0 8.5-3.5T547,109V12q0-5-3.5-8.5T535,0H73q-5,0-8.5,3.5T61,12V688q0,5 3.5,8.5T73,700H535q5,0 8.5-3.5T547,688V591ZM246,762q-7,0-9,4t1,10l53,101q4,9 15,9H407q7,0 9.5-4.5T415,871L344,770q-5-8-14-8H246Z" />
      <glyph unicode="&#xca;" glyph-name="Ecircumflex" horiz-adv-x="584" d="M547,591q0-5-3.5-8.5T535,579H207q-5,0-5-5V419q0-5 5-5H422q5,0 8.5-3.5T434,402V305q0-5-3.5-8.5T422,293H207q-5,0-5-5V126q0-5 5-5H535q5,0 8.5-3.5T547,109V12q0-5-3.5-8.5T535,0H73q-5,0-8.5,3.5T61,12V688q0,5 3.5,8.5T73,700H535q5,0 8.5-3.5T547,688V591ZM154,758q-7,0-9.5,4.5T146,773l73,105q5,8 14,8H366q9,0 14-8l76-105q3-4 3-7q0-8-11-8H358q-9,0-14,8l-40,61q-3,6-6,0l-40-61q-5-8-14-8H154Z" />
      <glyph unicode="&#xcb;" glyph-name="Edieresis" horiz-adv-x="584" d="M547,591q0-5-3.5-8.5T535,579H207q-5,0-5-5V419q0-5 5-5H422q5,0 8.5-3.5T434,402V305q0-5-3.5-8.5T422,293H207q-5,0-5-5V126q0-5 5-5H535q5,0 8.5-3.5T547,109V12q0-5-3.5-8.5T535,0H73q-5,0-8.5,3.5T61,12V688q0,5 3.5,8.5T73,700H535q5,0 8.5-3.5T547,688V591ZM401,764q-34,0-56.5,22.5T322,843q0,35 22,57t57,22t57-22t22-57q0-34-22.5-56.5T401,764Zm-199,0q-34,0-56.5,22.5T123,843q0,35 22,57t57,22t57-22t22-57q0-34-22.5-56.5T202,764Z" />
      <glyph unicode="&#xcc;" glyph-name="Igrave" horiz-adv-x="263" d="M73,0q-5,0-8.5,3.5T61,12V688q0,5 3.5,8.5T73,700H190q5,0 8.5-3.5T202,688V12q0-5-3.5-8.5T190,0H73ZM183,776q2-4 2-6q0-8-10-8H91q-9,0-14,8L6,871q-2,3-2,7q0,8 10,8H115q10,0 15-9l53-101Z" />
      <glyph unicode="&#xcd;" glyph-name="Iacute" horiz-adv-x="263" d="M73,0q-5,0-8.5,3.5T61,12V688q0,5 3.5,8.5T73,700H190q5,0 8.5-3.5T202,688V12q0-5-3.5-8.5T190,0H73Zm3,762q-7,0-9,4t1,10l53,101q4,9 15,9H237q7,0 9.5-4.5T245,871L174,770q-5-8-14-8H76Z" />
      <glyph unicode="&#xce;" glyph-name="Icircumflex" horiz-adv-x="263" d="M73,0q-5,0-8.5,3.5T61,12V688q0,5 3.5,8.5T73,700H190q5,0 8.5-3.5T202,688V12q0-5-3.5-8.5T190,0H73ZM-16,758q-7,0-9.5,4.5T-24,773L49,878q5,8 14,8H196q9,0 14-8l76-105q3-4 3-7q0-8-11-8H188q-9,0-14,8l-40,61q-3,6-6,0L88,766q-5-8-14-8H-16Z" />
      <glyph unicode="&#xcf;" glyph-name="Idieresis" horiz-adv-x="263" d="M73,0q-5,0-8.5,3.5T61,12V688q0,5 3.5,8.5T73,700H190q5,0 8.5-3.5T202,688V12q0-5-3.5-8.5T190,0H73ZM231,764q-34,0-56.5,22.5T152,843q0,35 22,57t57,22t57-22t22-57q0-34-22.5-56.5T231,764ZM32,764q-34,0-56.5,22.5T-47,843q0,35 22,57t57,22t57-22t22-57q0-34-22.5-56.5T32,764Z" />
      <glyph unicode="&#xd0;" glyph-name="Eth" horiz-adv-x="669" d="M374,700q75,0 132-26.5T594,599t31-111V212q0-63-31-111T506,26.5T374,0H124q-5,0-8.5,3.5T112,12V308q0,5-5,5H73q-5,0-8.5,3.5T61,325v72q0,5 3.5,8.5T73,409h34q5,0 5,5V688q0,5 3.5,8.5T124,700H374ZM484,465q0,52-28.5,83T379,579H258q-5,0-5-5V414q0-5 5-5h80q5,0 8.5-3.5T350,397V325q0-5-3.5-8.5T338,313H258q-5,0-5-5V126q0-5 5-5H380q46,0 74,31t30,83V465Z" />
      <glyph unicode="&#xd1;" glyph-name="Ntilde" horiz-adv-x="665" d="M463,688q0,5 3.5,8.5T475,700H592q5,0 8.5-3.5T604,688V12q0-5-3.5-8.5T592,0H479q-10,0-14,8L206,436q-2,3-4,2.5t-2-4.5l2-422q0-5-3.5-8.5T190,0H73q-5,0-8.5,3.5T61,12V688q0,5 3.5,8.5T73,700H186q10,0 14-8L458,266q2-3 4-2.5t2,4.5l-1,420Zm-74,71q-21,0-35,4.5T322,777q-21,10-30.5,13.5T271,794q-31,0-53-22q-5-5-9-5q-5,0-8,4l-41,44q-7,9-2,17q16,28 44,45t62,17q19,0 33.5-5t26-10.5T339,871q19-10 29-14t21-4q31,0 48,24q4,5 9,5t8-4l37-45q6-7 3-14q-13-27-40.5-43.5T389,759Z" />
      <glyph unicode="&#xd2;" glyph-name="Ograve" horiz-adv-x="621" d="M310-11q-78,0-137.5,32T80,110.5T47,243V457q0,74 33,131t92.5,88.5T310,708q79,0 138.5-31.5T541,588t33-131V243q0-75-33-133T448.5,20.5T310-11Zm0,121q55,0 89,35t34,93V458q0,58-33.5,93.5T310,587q-55,0-88.5-35.5T188,458V238q0-58 33.5-93T310,110Zm51,666q2-4 2-6q0-8-10-8H269q-9,0-14,8L184,871q-2,3-2,7q0,8 10,8H293q10,0 15-9l53-101Z" />
      <glyph unicode="&#xd3;" glyph-name="Oacute" horiz-adv-x="621" d="M310-11q-78,0-137.5,32T80,110.5T47,243V457q0,74 33,131t92.5,88.5T310,708q79,0 138.5-31.5T541,588t33-131V243q0-75-33-133T448.5,20.5T310-11Zm0,121q55,0 89,35t34,93V458q0,58-33.5,93.5T310,587q-55,0-88.5-35.5T188,458V238q0-58 33.5-93T310,110ZM255,762q-7,0-9,4t1,10l53,101q4,9 15,9H416q7,0 9.5-4.5T424,871L353,770q-5-8-14-8H255Z" />
      <glyph unicode="&#xd4;" glyph-name="Ocircumflex" horiz-adv-x="621" d="M310-11q-78,0-137.5,32T80,110.5T47,243V457q0,74 33,131t92.5,88.5T310,708q79,0 138.5-31.5T541,588t33-131V243q0-75-33-133T448.5,20.5T310-11Zm0,121q55,0 89,35t34,93V458q0,58-33.5,93.5T310,587q-55,0-88.5-35.5T188,458V238q0-58 33.5-93T310,110ZM163,758q-7,0-9.5,4.5T155,773l73,105q5,8 14,8H375q9,0 14-8l76-105q3-4 3-7q0-8-11-8H367q-9,0-14,8l-40,61q-3,6-6,0l-40-61q-5-8-14-8H163Z" />
      <glyph unicode="&#xd5;" glyph-name="Otilde" horiz-adv-x="621" d="M310-11q-78,0-137.5,32T80,110.5T47,243V457q0,74 33,131t92.5,88.5T310,708q79,0 138.5-31.5T541,588t33-131V243q0-75-33-133T448.5,20.5T310-11Zm0,121q55,0 89,35t34,93V458q0,58-33.5,93.5T310,587q-55,0-88.5-35.5T188,458V238q0-58 33.5-93T310,110Zm64,649q-21,0-35,4.5T307,777q-21,10-30.5,13.5T256,794q-31,0-53-22q-5-5-9-5q-5,0-8,4l-41,44q-7,9-2,17q16,28 44,45t62,17q19,0 33.5-5t26-10.5T324,871q19-10 29-14t21-4q31,0 48,24q4,5 9,5t8-4l37-45q6-7 3-14q-13-27-40.5-43.5T374,759Z" />
      <glyph unicode="&#xd6;" glyph-name="Odieresis" horiz-adv-x="621" d="M310-11q-78,0-137.5,32T80,110.5T47,243V457q0,74 33,131t92.5,88.5T310,708q79,0 138.5-31.5T541,588t33-131V243q0-75-33-133T448.5,20.5T310-11Zm0,121q55,0 89,35t34,93V458q0,58-33.5,93.5T310,587q-55,0-88.5-35.5T188,458V238q0-58 33.5-93T310,110Zm99,654q-34,0-56.5,22.5T330,843q0,35 22,57t57,22t57-22t22-57q0-34-22.5-56.5T409,764Zm-199,0q-34,0-56.5,22.5T131,843q0,35 22,57t57,22t57-22t22-57q0-34-22.5-56.5T210,764Z" />
      <glyph unicode="&#xd7;" glyph-name="multiply" horiz-adv-x="446" d="M409,431q4-3 4-8q0-4-4-8l-97-97q-2-2-2-4t2-4l96-96q4-3 4-8q0-4-4-8l-69-69q-4-4-8-4q-2,0-8,4l-96,96q-2,2-4,2t-4-2l-96-96q-3-4-8-4t-9,4L38,197q-4,6-4,8q0,4 4,8l97,97q2,2 2,4t-2,4L37,416q-4,6-4,8q0,4 4,8l68,68q4,4 9,4t8-4l97-97q4-4 8,0l97,97q4,4 8,4q5,0 8-4l69-69Z" />
      <glyph unicode="&#xd8;" glyph-name="Oslash" horiz-adv-x="614" d="M588,676q5-3 5-8q0-4-3-9l-50-75q-1-3 0-7q27-51 27-120V243q0-75-33-133T441.5,20.5T303-11q-80,0-139,33q-4,1-7-2L120-36q-3-6-9-6q-5,0-8,3L20,24q-5,3-5,9q0,4 3,8l49,73q1,3 0,7Q40,174 40,243V457q0,74 33,131t92.5,88.5T303,708q80,0 139-32q4-1 7,2l38,58q3,6 9,6q5,0 8-3l84-63ZM426,458q0,58-33.5,93.5T303,587q-55,0-88.5-35.5T181,458V238q0-58 33.5-93T303,110t89,35t34,93V458Z" />
      <glyph unicode="&#xd9;" glyph-name="Ugrave" horiz-adv-x="629" d="M315-8Q238-8 179.5,22t-91,84.5T56,232V688q0,5 3.5,8.5T68,700H185q5,0 8.5-3.5T197,688V231q0-53 32.5-85.5T315,113t85.5,32.5T433,231V688q0,5 3.5,8.5T445,700H562q5,0 8.5-3.5T574,688V232q0-71-32.5-125.5T450.5,22T315-8Zm51,784q2-4 2-6q0-8-10-8H274q-9,0-14,8L189,871q-2,3-2,7q0,8 10,8H298q10,0 15-9l53-101Z" />
      <glyph unicode="&#xda;" glyph-name="Uacute" horiz-adv-x="629" d="M315-8Q238-8 179.5,22t-91,84.5T56,232V688q0,5 3.5,8.5T68,700H185q5,0 8.5-3.5T197,688V231q0-53 32.5-85.5T315,113t85.5,32.5T433,231V688q0,5 3.5,8.5T445,700H562q5,0 8.5-3.5T574,688V232q0-71-32.5-125.5T450.5,22T315-8ZM259,762q-7,0-9,4t1,10l53,101q4,9 15,9H420q7,0 9.5-4.5T428,871L357,770q-5-8-14-8H259Z" />
      <glyph unicode="&#xdb;" glyph-name="Ucircumflex" horiz-adv-x="629" d="M315-8Q238-8 179.5,22t-91,84.5T56,232V688q0,5 3.5,8.5T68,700H185q5,0 8.5-3.5T197,688V231q0-53 32.5-85.5T315,113t85.5,32.5T433,231V688q0,5 3.5,8.5T445,700H562q5,0 8.5-3.5T574,688V232q0-71-32.5-125.5T450.5,22T315-8ZM168,758q-7,0-9.5,4.5T160,773l73,105q5,8 14,8H380q9,0 14-8l76-105q3-4 3-7q0-8-11-8H372q-9,0-14,8l-40,61q-3,6-6,0l-40-61q-5-8-14-8H168Z" />
      <glyph unicode="&#xdc;" glyph-name="Udieresis" horiz-adv-x="629" d="M315-8Q238-8 179.5,22t-91,84.5T56,232V688q0,5 3.5,8.5T68,700H185q5,0 8.5-3.5T197,688V231q0-53 32.5-85.5T315,113t85.5,32.5T433,231V688q0,5 3.5,8.5T445,700H562q5,0 8.5-3.5T574,688V232q0-71-32.5-125.5T450.5,22T315-8Zm99,772q-34,0-56.5,22.5T335,843q0,35 22,57t57,22t57-22t22-57q0-34-22.5-56.5T414,764Zm-199,0q-34,0-56.5,22.5T136,843q0,35 22,57t57,22t57-22t22-57q0-34-22.5-56.5T215,764Z" />
      <glyph unicode="&#xdd;" glyph-name="Yacute" horiz-adv-x="617" d="M250,1q-5,0-8.5,3.5T238,13V266q0,4-1,6L31,686q-2,4-2,6q0,8 11,8H166q10,0 14-9L305,425q3-6 6,0L436,691q4,9 14,9H578q7,0 9.5-3.5T587,686L379,272q-1-2-1-6V13q0-5-3.5-8.5T366,1H250Zm3,760q-7,0-9,4t1,10l53,101q4,9 15,9H414q7,0 9.5-4.5T422,870L351,769q-5-8-14-8H253Z" />
      <glyph unicode="&#xde;" glyph-name="Thorn" horiz-adv-x="581" d="M335,561q65,0 115.5-27t78-75.5T556,348T526,238.5T444,165T328,139H202q-5,0-5-5V12q0-5-3.5-8.5T185,0H68q-5,0-8.5,3.5T56,12V688q0,5 3.5,8.5T68,700H185q5,0 8.5-3.5T197,688V566q0-5 5-5H335ZM313,253q46,0 74,24.5T415,345q0,45-28,70t-74,25H202q-5,0-5-5V258q0-5 5-5H313Z" />
      <glyph unicode="&#xdf;" glyph-name="germandbls" horiz-adv-x="574" d="M66,1q-5,0-8.5,3.5T54,13V484q0,106 60.5,165T286,708q70,0 124-23.5T494,617t30-103q2-90-72-131q-5-3 0-6q38-22 61-67t23-104q0-98-66-152T282,0H249q-5,0-8.5,3.5T237,12v96q0,5 3.5,8.5T249,120h47q43,0 71,27t28,74q0,46-26.5,73T302,321H258q-5,0-8.5,3.5T246,333v87q0,5 3.5,8.5T258,432h42q36,0 59.5,21.5T383,508q0,34-22,57t-65,23t-72-24t-29-67V12q0-5-3.5-8.5T183,0L66,1Z" />
      <glyph unicode="&#xe0;" glyph-name="agrave" horiz-adv-x="528" d="M257,522q65,0 116-22.5T452.5,438T481,351V12q0-5-3.5-8.5T469,0H352q-5,0-8.5,3.5T340,12V45q0,3-2,4t-4-2Q292-8 199-8Q121-8 73,30T25,142q0,77 54,119.5T233,304H335q5,0 5,5v22q0,33-20,51.5T260,401q-31,0-51.5-11T182,359q-3-11-13-10L48,365q-12,2-11,9q4,42 33.5,76t78,53T257,522ZM237,97q43,0 73,23t30,59v36q0,5-5,5H263q-45,0-70.5-17T167,155q0-27 19-42.5T237,97Zm78,493q2-4 2-6q0-8-10-8H223q-9,0-14,8L138,685q-2,3-2,7q0,8 10,8H247q10,0 15-9l53-101Z" />
      <glyph unicode="&#xe1;" glyph-name="aacute" horiz-adv-x="528" d="M257,522q65,0 116-22.5T452.5,438T481,351V12q0-5-3.5-8.5T469,0H352q-5,0-8.5,3.5T340,12V45q0,3-2,4t-4-2Q292-8 199-8Q121-8 73,30T25,142q0,77 54,119.5T233,304H335q5,0 5,5v22q0,33-20,51.5T260,401q-31,0-51.5-11T182,359q-3-11-13-10L48,365q-12,2-11,9q4,42 33.5,76t78,53T257,522ZM237,97q43,0 73,23t30,59v36q0,5-5,5H263q-45,0-70.5-17T167,155q0-27 19-42.5T237,97ZM209,576q-7,0-9,4t1,10l53,101q4,9 15,9H370q7,0 9.5-4.5T378,685L307,584q-5-8-14-8H209Z" />
      <glyph unicode="&#xe2;" glyph-name="acircumflex" horiz-adv-x="528" d="M257,522q65,0 116-22.5T452.5,438T481,351V12q0-5-3.5-8.5T469,0H352q-5,0-8.5,3.5T340,12V45q0,3-2,4t-4-2Q292-8 199-8Q121-8 73,30T25,142q0,77 54,119.5T233,304H335q5,0 5,5v22q0,33-20,51.5T260,401q-31,0-51.5-11T182,359q-3-11-13-10L48,365q-12,2-11,9q4,42 33.5,76t78,53T257,522ZM237,97q43,0 73,23t30,59v36q0,5-5,5H263q-45,0-70.5-17T167,155q0-27 19-42.5T237,97ZM117,572q-7,0-9.5,4.5T109,587l73,105q5,8 14,8H329q9,0 14-8l76-105q3-4 3-7q0-8-11-8H321q-9,0-14,8l-40,61q-3,6-6,0l-40-61q-5-8-14-8H117Z" />
      <glyph unicode="&#xe3;" glyph-name="atilde" horiz-adv-x="528" d="M257,522q65,0 116-22.5T452.5,438T481,351V12q0-5-3.5-8.5T469,0H352q-5,0-8.5,3.5T340,12V45q0,3-2,4t-4-2Q292-8 199-8Q121-8 73,30T25,142q0,77 54,119.5T233,304H335q5,0 5,5v22q0,33-20,51.5T260,401q-31,0-51.5-11T182,359q-3-11-13-10L48,365q-12,2-11,9q4,42 33.5,76t78,53T257,522ZM237,97q43,0 73,23t30,59v36q0,5-5,5H263q-45,0-70.5-17T167,155q0-27 19-42.5T237,97Zm91,476q-21,0-35,4.5T261,591q-21,10-30.5,13.5T210,608q-31,0-53-22q-5-5-9-5q-5,0-8,4L99,629q-7,9-2,17q16,28 44,45t62,17q19,0 33.5-5t26-10.5T278,685q19-10 29-14t21-4q31,0 48,24q4,5 9,5t8-4l37-45q6-7 3-14q-13-27-40.5-43.5T328,573Z" />
      <glyph unicode="&#xe4;" glyph-name="adieresis" horiz-adv-x="528" d="M257,522q65,0 116-22.5T452.5,438T481,351V12q0-5-3.5-8.5T469,0H352q-5,0-8.5,3.5T340,12V45q0,3-2,4t-4-2Q292-8 199-8Q121-8 73,30T25,142q0,77 54,119.5T233,304H335q5,0 5,5v22q0,33-20,51.5T260,401q-31,0-51.5-11T182,359q-3-11-13-10L48,365q-12,2-11,9q4,42 33.5,76t78,53T257,522ZM237,97q43,0 73,23t30,59v36q0,5-5,5H263q-45,0-70.5-17T167,155q0-27 19-42.5T237,97ZM363,578q-34,0-56.5,22.5T284,657q0,35 22,57t57,22t57-22t22-57q0-34-22.5-56.5T363,578Zm-199,0q-34,0-56.5,22.5T85,657q0,35 22,57t57,22t57-22t22-57q0-34-22.5-56.5T164,578Z" />
      <glyph unicode="&#xe5;" glyph-name="aring" horiz-adv-x="528" d="M257,522q65,0 116-22.5T452.5,438T481,351V12q0-5-3.5-8.5T469,0H352q-5,0-8.5,3.5T340,12V45q0,3-2,4t-4-2Q292-8 199-8Q121-8 73,30T25,142q0,77 54,119.5T233,304H335q5,0 5,5v22q0,33-20,51.5T260,401q-31,0-51.5-11T182,359q-3-11-13-10L48,365q-12,2-11,9q4,42 33.5,76t78,53T257,522ZM237,97q43,0 73,23t30,59v36q0,5-5,5H263q-45,0-70.5-17T167,155q0-27 19-42.5T237,97Zm28,466q-53,0-89,35.5T140,687t36,88.5T265,811q52,0 88-35.5T389,687q0-52-36-88t-88-36Zm0,74q20,0 35,14.5T315,687q0,22-15,36.5T265,738q-21,0-36-14.5T214,687q0-21 15-35.5T265,637Z" />
      <glyph unicode="&#xe6;" glyph-name="ae" horiz-adv-x="839" d="M218-8Q131-8 78,30T25,142q0,73 54,116.5T233,302H335q5,0 5,5v20q0,34-21,54t-62,20q-30,0-51-11.5T179,359q-3-12-14-10L48,364q-5,1-8.5,4.5T37,378q4,41 34,74t76.5,51.5T248,522q56,0 101-22.5T416,444q3-4 6,0q20,31 62.5,54.5T577,522q70,0 130-40.5T789,374q14-41 15-149q0-13-12-13H490q-5,0-5-5t3-23q6-34 36.5-51.5T599,115q70,0 105,44q5,6 8,6q2,0 8-4l61-56q8-8 2-17q-32-43-83-69.5T586-8Q528-8 482,14.5T415,72q-3,7-5,2q-23-36-74.5-59T218-8ZM483,307q0-5 5-5H656q5,0 5,5q-2,22-5,31q-8,29-30.5,46T572,401t-53-17.5T489,338q-2-6-6-31ZM241,94q40,0 69.5,22.5T340,177v30q0,5-5,5H262q-45,0-70.5-15T166,153q0-26 20-42.5T241,94Z" />
      <glyph unicode="&#xe7;" glyph-name="ccedilla" horiz-adv-x="537" d="M364,175q1,2 1,6q1,1 1,3q1,12 14,10l115-18q10-2 10-11q0-8-6-30q-18-55-63-91.5T329-4q-3,0-3-2t2-4q43-42 43-88q0-12-3-24q-9-34-34.5-49T274-186q-33,0-62,11q-11,3-9,15l7,49q1,12 15,9q10-3 20-3q26,0 32,22q1,3 1,9q0,16-13,33.5T228-5l-6,3Q162,10 119,47.5T56,142Q39,192 39,260q0,67 17,116q24,68 83,107t139,39t140.5-40T499,381q8-24 8-36v-2q0-9-10-11L382,315h-2q-9,0-12,10l-3,16q-7,26-31,43t-57,17q-32,0-54-16t-31-44q-11-30-11-82t10-82q9-30 31.5-47T277,113q31,0 54.5,16.5T364,175Z" />
      <glyph unicode="&#xe8;" glyph-name="egrave" horiz-adv-x="544" d="M507,310q6-38 4-85q-1-12-13-12H189q-6,0-4-5q3-20 11-40q26-56 106-56q64,1 101,52q4,6 9,6q3,0 7-4l72-71q5-5 5-9q0-2-4-8q-33-41-85-63.5T293-8Q207-8 147.5,31T62,140Q41,190 41,271q0,55 15,97q23,71 80.5,113T273,523q100,0 160.5-58T507,310ZM274,401q-63,0-83-59q-4-13-7-32q0-5 5-5H362q6,0 4,5q-5,29-5,28q-9,30-31.5,46.5T274,401Zm48,189q2-4 2-6q0-8-10-8H230q-9,0-14,8L145,685q-2,3-2,7q0,8 10,8H254q10,0 15-9l53-101Z" />
      <glyph unicode="&#xe9;" glyph-name="eacute" horiz-adv-x="544" d="M507,310q6-38 4-85q-1-12-13-12H189q-6,0-4-5q3-20 11-40q26-56 106-56q64,1 101,52q4,6 9,6q3,0 7-4l72-71q5-5 5-9q0-2-4-8q-33-41-85-63.5T293-8Q207-8 147.5,31T62,140Q41,190 41,271q0,55 15,97q23,71 80.5,113T273,523q100,0 160.5-58T507,310ZM274,401q-63,0-83-59q-4-13-7-32q0-5 5-5H362q6,0 4,5q-5,29-5,28q-9,30-31.5,46.5T274,401ZM216,576q-7,0-9,4t1,10l53,101q4,9 15,9H377q7,0 9.5-4.5T385,685L314,584q-5-8-14-8H216Z" />
      <glyph unicode="&#xea;" glyph-name="ecircumflex" horiz-adv-x="544" d="M507,310q6-38 4-85q-1-12-13-12H189q-6,0-4-5q3-20 11-40q26-56 106-56q64,1 101,52q4,6 9,6q3,0 7-4l72-71q5-5 5-9q0-2-4-8q-33-41-85-63.5T293-8Q207-8 147.5,31T62,140Q41,190 41,271q0,55 15,97q23,71 80.5,113T273,523q100,0 160.5-58T507,310ZM274,401q-63,0-83-59q-4-13-7-32q0-5 5-5H362q6,0 4,5q-5,29-5,28q-9,30-31.5,46.5T274,401ZM124,572q-7,0-9.5,4.5T116,587l73,105q5,8 14,8H336q9,0 14-8l76-105q3-4 3-7q0-8-11-8H328q-9,0-14,8l-40,61q-3,6-6,0l-40-61q-5-8-14-8H124Z" />
      <glyph unicode="&#xeb;" glyph-name="edieresis" horiz-adv-x="544" d="M507,310q6-38 4-85q-1-12-13-12H189q-6,0-4-5q3-20 11-40q26-56 106-56q64,1 101,52q4,6 9,6q3,0 7-4l72-71q5-5 5-9q0-2-4-8q-33-41-85-63.5T293-8Q207-8 147.5,31T62,140Q41,190 41,271q0,55 15,97q23,71 80.5,113T273,523q100,0 160.5-58T507,310ZM274,401q-63,0-83-59q-4-13-7-32q0-5 5-5H362q6,0 4,5q-5,29-5,28q-9,30-31.5,46.5T274,401Zm97,177q-34,0-56.5,22.5T292,657q0,35 22,57t57,22t57-22t22-57q0-34-22.5-56.5T371,578Zm-199,0q-34,0-56.5,22.5T93,657q0,35 22,57t57,22t57-22t22-57q0-34-22.5-56.5T172,578Z" />
      <glyph unicode="&#xec;" glyph-name="igrave" horiz-adv-x="237" d="M60,0q-5,0-8.5,3.5T48,12V502q0,5 3.5,8.5T60,514H177q5,0 8.5-3.5T189,502V12q0-5-3.5-8.5T177,0H60ZM170,590q2-4 2-6q0-8-10-8H78q-9,0-14,8L-7,685q-2,3-2,7q0,8 10,8H102q10,0 15-9l53-101Z" />
      <glyph unicode="&#xed;" glyph-name="iacute" horiz-adv-x="237" d="M60,0q-5,0-8.5,3.5T48,12V502q0,5 3.5,8.5T60,514H177q5,0 8.5-3.5T189,502V12q0-5-3.5-8.5T177,0H60Zm3,576q-7,0-9,4t1,10l53,101q4,9 15,9H224q7,0 9.5-4.5T232,685L161,584q-5-8-14-8H63Z" />
      <glyph unicode="&#xee;" glyph-name="icircumflex" horiz-adv-x="237" d="M60,0q-5,0-8.5,3.5T48,12V502q0,5 3.5,8.5T60,514H177q5,0 8.5-3.5T189,502V12q0-5-3.5-8.5T177,0H60ZM-29,572q-7,0-9.5,4.5T-37,587L36,692q5,8 14,8H183q9,0 14-8l76-105q3-4 3-7q0-8-11-8H175q-9,0-14,8l-40,61q-3,6-6,0L75,580q-5-8-14-8H-29Z" />
      <glyph unicode="&#xef;" glyph-name="idieresis" horiz-adv-x="237" d="M60,0q-5,0-8.5,3.5T48,12V502q0,5 3.5,8.5T60,514H177q5,0 8.5-3.5T189,502V12q0-5-3.5-8.5T177,0H60ZM218,578q-34,0-56.5,22.5T139,657q0,35 22,57t57,22t57-22t22-57q0-34-22.5-56.5T218,578ZM19,578q-34,0-56.5,22.5T-60,657q0,35 22,57t57,22t57-22t22-57q0-34-22.5-56.5T19,578Z" />
      <glyph unicode="&#xf0;" glyph-name="eth" horiz-adv-x="550" d="M490,366q13-58 13-132q0-65-15-107q-25-61-83-98T271-8Q194-8 136.5,28.5T55,127Q39,170 39,234q0,66 16,106q13,36 40.5,63T160,441q38,16 96,16q45,0 70-11q3-2 4-1t0,4q-12,34-42,80q-1,2-2.5,3t-3.5,0L182,505l-4-1q-8,0-11,10l-13,51l-1,4q0,8 9,11l68,18q5,2 2,7q-29,34-75,80q-4,4-4,8q0,7 10,7H286q9,0 15-7l48-60q3-4 7-2l85,23l4,1q8,0 11-10l13-51l1-4q0-8-10-11l-51-13q-2-1-3-3t1-4q33-48 53.5-94.5T490,366ZM351,158q10,24 10,72q0,46-10,70q-9,27-30,42.5T271,358t-50.5-15.5T191,300q-10-26-10-70q0-45 11-72q8-27 29-43.5T271,98t50,16t30,44Z" />
      <glyph unicode="&#xf1;" glyph-name="ntilde" horiz-adv-x="547" d="M320,522q80,0 129-49t49-133V12q0-5-3.5-8.5T486,0H369q-5,0-8.5,3.5T357,12V311q0,40-22.5,65T275,401t-59.5-25T193,311V12q0-5-3.5-8.5T181,0H64q-5,0-8.5,3.5T52,12V502q0,5 3.5,8.5T64,514H181q5,0 8.5-3.5T193,502V467q0-3 2-4t3,1q41,58 122,58Zm23,51q-21,0-35,4.5T276,591q-21,10-30.5,13.5T225,608q-31,0-53-22q-5-5-9-5q-5,0-8,4l-41,44q-7,9-2,17q16,28 44,45t62,17q19,0 33.5-5t26-10.5T293,685q19-10 29-14t21-4q31,0 48,24q4,5 9,5t8-4l37-45q6-7 3-14q-13-27-40.5-43.5T343,573Z" />
      <glyph unicode="&#xf2;" glyph-name="ograve" horiz-adv-x="549" d="M279-8Q195-8 135,36T53,156Q39,203 39,258q0,59 14,106q23,74 83,116t144,42q82,0 140-41.5T502,365q16-50 16-105q0-54-14-101Q482,81 422.5,36.5T279-8Zm0,121q33,0 56,20t33,55q8,32 8,70q0,42-8,71q-11,34-34,53t-56,19q-34,0-56.5-19T189,329q-8-24-8-71q0-45 7-70q10-35 33.5-55T279,113Zm47,477q2-4 2-6q0-8-10-8H234q-9,0-14,8L149,685q-2,3-2,7q0,8 10,8H258q10,0 15-9l53-101Z" />
      <glyph unicode="&#xf3;" glyph-name="oacute" horiz-adv-x="549" d="M279-8Q195-8 135,36T53,156Q39,203 39,258q0,59 14,106q23,74 83,116t144,42q82,0 140-41.5T502,365q16-50 16-105q0-54-14-101Q482,81 422.5,36.5T279-8Zm0,121q33,0 56,20t33,55q8,32 8,70q0,42-8,71q-11,34-34,53t-56,19q-34,0-56.5-19T189,329q-8-24-8-71q0-45 7-70q10-35 33.5-55T279,113ZM219,576q-7,0-9,4t1,10l53,101q4,9 15,9H380q7,0 9.5-4.5T388,685L317,584q-5-8-14-8H219Z" />
      <glyph unicode="&#xf4;" glyph-name="ocircumflex" horiz-adv-x="549" d="M279-8Q195-8 135,36T53,156Q39,203 39,258q0,59 14,106q23,74 83,116t144,42q82,0 140-41.5T502,365q16-50 16-105q0-54-14-101Q482,81 422.5,36.5T279-8Zm0,121q33,0 56,20t33,55q8,32 8,70q0,42-8,71q-11,34-34,53t-56,19q-34,0-56.5-19T189,329q-8-24-8-71q0-45 7-70q10-35 33.5-55T279,113ZM127,572q-7,0-9.5,4.5T119,587l73,105q5,8 14,8H339q9,0 14-8l76-105q3-4 3-7q0-8-11-8H331q-9,0-14,8l-40,61q-3,6-6,0l-40-61q-5-8-14-8H127Z" />
      <glyph unicode="&#xf5;" glyph-name="otilde" horiz-adv-x="549" d="M279-8Q195-8 135,36T53,156Q39,203 39,258q0,59 14,106q23,74 83,116t144,42q82,0 140-41.5T502,365q16-50 16-105q0-54-14-101Q482,81 422.5,36.5T279-8Zm0,121q33,0 56,20t33,55q8,32 8,70q0,42-8,71q-11,34-34,53t-56,19q-34,0-56.5-19T189,329q-8-24-8-71q0-45 7-70q10-35 33.5-55T279,113Zm59,460q-21,0-35,4.5T271,591q-21,10-30.5,13.5T220,608q-31,0-53-22q-5-5-9-5q-5,0-8,4l-41,44q-7,9-2,17q16,28 44,45t62,17q19,0 33.5-5t26-10.5T288,685q19-10 29-14t21-4q31,0 48,24q4,5 9,5t8-4l37-45q6-7 3-14q-13-27-40.5-43.5T338,573Z" />
      <glyph unicode="&#xf6;" glyph-name="odieresis" horiz-adv-x="549" d="M279-8Q195-8 135,36T53,156Q39,203 39,258q0,59 14,106q23,74 83,116t144,42q82,0 140-41.5T502,365q16-50 16-105q0-54-14-101Q482,81 422.5,36.5T279-8Zm0,121q33,0 56,20t33,55q8,32 8,70q0,42-8,71q-11,34-34,53t-56,19q-34,0-56.5-19T189,329q-8-24-8-71q0-45 7-70q10-35 33.5-55T279,113Zm95,465q-34,0-56.5,22.5T295,657q0,35 22,57t57,22t57-22t22-57q0-34-22.5-56.5T374,578Zm-199,0q-34,0-56.5,22.5T96,657q0,35 22,57t57,22t57-22t22-57q0-34-22.5-56.5T175,578Z" />
      <glyph unicode="&#xf7;" glyph-name="divide" horiz-adv-x="486" d="M243,417q-29,0-49,20t-20,49q0,28 20.5,48T243,554t48-20t20-48t-20-48.5T243,417ZM41,251q-5,0-8.5,3.5T29,263v97q0,5 3.5,8.5T41,372H445q5,0 8.5-3.5T457,360V263q0-5-3.5-8.5T445,251H41ZM243,78q-29,0-49,20t-20,49q0,28 20.5,48T243,215t48-20t20-48T291,98.5T243,78Z" />
      <glyph unicode="&#xf8;" glyph-name="oslash" horiz-adv-x="551" d="M481,424q-1-3 0-7q12-18 24-52q16-50 16-105q0-54-14-101Q485,81 425.5,36.5T282-8Q232-8 190,7q-5,2-7-2L146-49q-3-5-9-5q-3,0-8,3L48,14q-5,3-5,9q0,4 3,8L84,87q2,3 0,6q-17,27-28,63Q42,203 42,258q0,59 14,106q23,74 83,116t144,42q54,0 93-16q5-2 7,2l40,57q3,5 9,5q3,0 8-3l81-65q5-5 5-9q0-3-3-8l-42-61ZM371,188q8,32 8,70q0,42-8,71q-11,34-34,53t-56,19q-34,0-56.5-19T192,329q-8-24-8-71q0-45 7-70q10-35 33.5-55T282,113q33,0 56,20t33,55Z" />
      <glyph unicode="&#xf9;" glyph-name="ugrave" horiz-adv-x="547" d="M352,502q0,5 3.5,8.5T364,514H481q5,0 8.5-3.5T493,502V12q0-5-3.5-8.5T481,0H364q-5,0-8.5,3.5T352,12V46q0,3-2,3.5T346,47Q306-7 222-7Q146-7 97,39T48,168V502q0,5 3.5,8.5T60,514H176q5,0 8.5-3.5T188,502V203q0-40 21.5-65T269,113q34,0 56,20.5T352,187V502Zm-29,88q2-4 2-6q0-8-10-8H231q-9,0-14,8L146,685q-2,3-2,7q0,8 10,8H255q10,0 15-9l53-101Z" />
      <glyph unicode="&#xfa;" glyph-name="uacute" horiz-adv-x="547" d="M352,502q0,5 3.5,8.5T364,514H481q5,0 8.5-3.5T493,502V12q0-5-3.5-8.5T481,0H364q-5,0-8.5,3.5T352,12V46q0,3-2,3.5T346,47Q306-7 222-7Q146-7 97,39T48,168V502q0,5 3.5,8.5T60,514H176q5,0 8.5-3.5T188,502V203q0-40 21.5-65T269,113q34,0 56,20.5T352,187V502ZM217,576q-7,0-9,4t1,10l53,101q4,9 15,9H378q7,0 9.5-4.5T386,685L315,584q-5-8-14-8H217Z" />
      <glyph unicode="&#xfb;" glyph-name="ucircumflex" horiz-adv-x="547" d="M352,502q0,5 3.5,8.5T364,514H481q5,0 8.5-3.5T493,502V12q0-5-3.5-8.5T481,0H364q-5,0-8.5,3.5T352,12V46q0,3-2,3.5T346,47Q306-7 222-7Q146-7 97,39T48,168V502q0,5 3.5,8.5T60,514H176q5,0 8.5-3.5T188,502V203q0-40 21.5-65T269,113q34,0 56,20.5T352,187V502ZM125,572q-7,0-9.5,4.5T117,587l73,105q5,8 14,8H337q9,0 14-8l76-105q3-4 3-7q0-8-11-8H329q-9,0-14,8l-40,61q-3,6-6,0l-40-61q-5-8-14-8H125Z" />
      <glyph unicode="&#xfc;" glyph-name="udieresis" horiz-adv-x="547" d="M352,502q0,5 3.5,8.5T364,514H481q5,0 8.5-3.5T493,502V12q0-5-3.5-8.5T481,0H364q-5,0-8.5,3.5T352,12V46q0,3-2,3.5T346,47Q306-7 222-7Q146-7 97,39T48,168V502q0,5 3.5,8.5T60,514H176q5,0 8.5-3.5T188,502V203q0-40 21.5-65T269,113q34,0 56,20.5T352,187V502Zm19,76q-34,0-56.5,22.5T292,657q0,35 22,57t57,22t57-22t22-57q0-34-22.5-56.5T371,578Zm-199,0q-34,0-56.5,22.5T93,657q0,35 22,57t57,22t57-22t22-57q0-34-22.5-56.5T172,578Z" />
      <glyph unicode="&#xfd;" glyph-name="yacute" horiz-adv-x="505" d="M49-199q-3,0-5,3.5T42-187v92q0,5 3.5,8.5T54-83q42,1 66.5,7t39,23T182-3q1,2 0,6L18,501q-1,2-1,5q0,9 11,9H153q11,0 14-10l84-324q1-3 3-3t3,3l84,324q3,10 14,10H477q6,0 8.5-3.5T486,501L313-19q-25-73-51-109.5T189-182T56-199H49ZM196,585q-7,0-9,4t1,10l53,101q4,9 15,9H357q7,0 9.5-4.5T365,694L294,593q-5-8-14-8H196Z" />
      <glyph unicode="&#xfe;" glyph-name="thorn" horiz-adv-x="551" d="M494,386q18-49 18-128q0-69-13-116Q480,73 428.5,32.5T310-8Q240-8 199,39q-2,2-4,1t-2-4V-188q0-5-3.5-8.5T181-200H64q-5,0-8.5,3.5T52-188V688q0,5 3.5,8.5T64,700H181q5,0 8.5-3.5T193,688V483q0-3 2-3.5t4,1.5q38,41 106,41q69,0 119-38t70-98ZM353,172q6,14 8.5,33t2.5,52t-2.5,52.5T353,343q-9,26-30.5,42T271,401q-28,0-47.5-14T194,350q-1-2-1-6V172q0-4 1-6q23-53 77-53q30,0 52,16t30,43Z" />
      <glyph unicode="&#xff;" glyph-name="ydieresis" horiz-adv-x="505" d="M49-199q-3,0-5,3.5T42-187v92q0,5 3.5,8.5T54-83q42,1 66.5,7t39,23T182-3q1,2 0,6L18,501q-1,2-1,5q0,9 11,9H153q11,0 14-10l84-324q1-3 3-3t3,3l84,324q3,10 14,10H477q6,0 8.5-3.5T486,501L313-19q-25-73-51-109.5T189-182T56-199H49ZM351,587q-34,0-56.5,22.5T272,666q0,35 22,57t57,22t57-22t22-57q0-34-22.5-56.5T351,587Zm-199,0q-34,0-56.5,22.5T73,666q0,35 22,57t57,22t57-22t22-57q0-34-22.5-56.5T152,587Z" />
      <glyph unicode="&#x2013;" glyph-name="endash" horiz-adv-x="476" d="M41,223q-5,0-8.5,3.5T29,235v97q0,5 3.5,8.5T41,344H436q5,0 8.5-3.5T448,332V235q0-5-3.5-8.5T436,223H41Z" />
      <glyph unicode="&#x2014;" glyph-name="emdash" horiz-adv-x="659" d="M41,224q-5,0-8.5,3.5T29,236v96q0,5 3.5,8.5T41,344H618q5,0 8.5-3.5T630,332V236q0-5-3.5-8.5T618,224H41Z" />
      <glyph unicode="&#x2018;" glyph-name="quoteleft" horiz-adv-x="204" d="M15,474q-7,0-9,4t0,10L88,691q3,9 14,9h88q13,0 10-13L146,484q-3-10-14-10H15Z" />
      <glyph unicode="&#x2019;" glyph-name="quoteright" horiz-adv-x="204" d="M189,700q7,0 9-4t0-10L116,483q-3-9-14-9H14Q1,474 4,487L58,690q3,10 14,10H189Z" />
      <glyph unicode="&#x201a;" glyph-name="quotesinglbase" horiz-adv-x="600" d="M52-98Q40-98 41-85L74,147q1,11 13,11H189q13,0 10-13L137-88q-3-10-14-10H52Z" />
      <glyph unicode="&#x201c;" glyph-name="quotedblleft" horiz-adv-x="363" d="M15,474q-6,0-9,3.5T5,488L77,690q3,10 13,10h84q14,0 11-13L139,485q-3-11-13-11H15Zm177,0q-6,0-9,3.5T182,488l71,202q3,10 13,10h84q13,0 10-13L316,485q-2-11-13-11H192Z" />
      <glyph unicode="&#x201d;" glyph-name="quotedblright" horiz-adv-x="363" d="M171,700q6,0 9-3.5t1-10.5L110,484q-3-10-13-10H13Q0,474 3,487L47,689q2,11 13,11H171Zm177,0q6,0 9-3.5t1-10.5L286,484q-3-10-13-10H189q-14,0-11,13l46,202q3,11 13,11H348Z" />
      <glyph unicode="&#x201e;" glyph-name="quotedblbase" horiz-adv-x="383" d="M171,128q6,0 9-3.5t1-10.5L110-88q-3-10-13-10H13Q0-98 3-85L47,117q2,11 13,11H171Zm177,0q6,0 9-3.5t1-10.5L286-88q-3-10-13-10H189q-14,0-11,13l46,202q3,11 13,11H348Z" />
      <glyph unicode="&#x2022;" glyph-name="bullet" horiz-adv-x="317" d="M159,146q-35,0-65,17.5t-47.5,48T29,277t17.5,65T94,389t65,17t64.5-17t47-47T288,277t-17.5-65.5t-47-48T159,146Z" />
      <glyph unicode="&#x2039;" glyph-name="guilsinglleft" horiz-adv-x="335" d="M265,121q2-6 2-7q0-7-10-7H157q-10,0-14,8L48,273l-2,8q0,2 2,8l95,158q4,8 14,8H257q7,0 9.5-3.5T265,441L169,284q-1-3 0-6l96-157Z" />
      <glyph unicode="&#x203a;" glyph-name="guilsinglright" horiz-adv-x="347" d="M78,107q-7,0-9.5,3.5T70,121l96,157q2,3 0,6L70,441q-2,6-2,7q0,7 10,7H178q10,0 14-8l95-158q2-3 2-8t-2-8L192,115q-4-8-14-8H78Z" />
    </font>
</defs>
</svg>
