<?xml version="1.0" standalone="no"?>
<!DOCTYPE svg PUBLIC "-//W3C//DTD SVG 1.1//EN" "http://www.w3.org/Graphics/SVG/1.1/DTD/svg11.dtd">
<svg xmlns="http://www.w3.org/2000/svg">
  <defs>
    <font id="SourceSansPro" horiz-adv-x="521">
      <font-face font-family="Source Sans Pro" units-per-em="1000" panose-1="2 11 5 3 3 4 3 2 2 4" ascent="984" descent="-273" alphabetic="0" />
      <glyph unicode=" " glyph-name="space" horiz-adv-x="200" />
      <glyph unicode="!" glyph-name="exclam" horiz-adv-x="289" d="M116,198L105,576l-2,94h83l-2-94L173,198H116ZM145-12q-25,0-42.5,17.5T85,50q0,29 17.5,46.5T145,114q24,0 41.5-17.5T204,50q0-27-17.5-44.5T145-12Z" />
      <glyph unicode="&quot;" glyph-name="quotedbl" horiz-adv-x="426" d="M99,431L83,598l-3,92h88l-3-92L149,431H99Zm177,0L260,598l-3,92h88l-3-92L326,431H276Z" />
      <glyph unicode="#" glyph-name="numbersign" horiz-adv-x="497" d="M90,0l25,204H35v57h87l18,148H55v58h92l23,183h53L200,467H333l24,183h53L386,467h81V409H380L362,261h85V204H355L330,0H277l24,204H169L144,0H90Zm86,261H308l18,148H194L176,261Z" />
      <glyph unicode="$" glyph-name="dollar" horiz-adv-x="497" d="M222-110v99q-48,5-93,26.5T52,66l38,57q32-28 70.5-47.5T245,56q56,0 83.5,28.5T356,159q0,41-20,67t-52,45t-67.5,36.5t-67.5,39T97,400T77,481q0,67 40,111.5T222,647V748h60V649q48-5 81.5-26T424,573l-44-49q-28,27-54.5,42T258,581q-46,0-73-26t-27-70q0-36 20-59.5T230,385t67.5-34T365,311.5T417,254t20-89q0-71-42-117.5T282-9V-110H222Z" />
      <glyph unicode="%" glyph-name="percent" horiz-adv-x="824" d="M184,254q-67,0-108,54T35,462q0,98 41,152t108,54t108-54t41-152q0-100-41-154T184,254Zm0,51q38,0 62,39.5T270,462T246,578.5T184,617q-39,0-63-38.5T97,462t24-117.5T184,305ZM203-12L565,668h56L259-12H203Zm438,0q-67,0-108,54T492,196q0,98 41,152t108,54t108-54t41-152q0-100-41-154T641-12Zm0,51q38,0 62,39.5T727,196T703,312.5T641,351q-39,0-63-38.5T554,196T578,78.5T641,39Z" />
      <glyph unicode="&amp;" glyph-name="ampersand" horiz-adv-x="609" d="M189,514q0-27 8.5-56T220,399q45,30 78.5,62.5T332,537q0,29-14.5,50.5T270,609q-37,0-59-27t-22-68ZM232-12q-59,0-104.5,23.5T57,76T32,170q0,44 18.5,78T98,309t63,50q-20,41-31.5,79.5T118,513q0,44 19,79t53.5,55.5T270,668q61,0 95-36t34-94q0-43-22-77t-55.5-62T251,344q32-50 76-97.5T417,160q30,41 53.5,89.5T509,354h77q-19-64-47.5-123.5T471,119q34-23 65-39t58-24L572-12Q538-2 499.5,16.5T421,63Q384,29 337,8.5T232-12ZM112,175q0-55 37.5-88T241,54q34,0 65.5,14T366,107q-48,42-92.5,92T194,302q-34-28-58-58.5T112,175Z" />
      <glyph unicode="&apos;" glyph-name="quotesingle" horiz-adv-x="249" d="M99,431L83,598l-3,92h88l-3-92L149,431H99Z" />
      <glyph unicode="(" glyph-name="parenleft" horiz-adv-x="303" d="M214-176Q152-75 117,35.5T82,278t35,243t97,211l51-24q-58-95-86.5-205.5T150,278T178.5,53.5T265-152l-51-24Z" />
      <glyph unicode=")" glyph-name="parenright" horiz-adv-x="303" d="M89-176L38-152Q96-57 124.5,53.5T153,278T124.5,502.5T38,708l51,24q62-100 97-211t35-243T186,35.5T89-176Z" />
      <glyph unicode="*" glyph-name="asterisk" horiz-adv-x="418" d="M138,420L98,449l57,94L58,583l15,46l102-25l9,108h49l9-107l103,24l15-46l-97-40l56-94l-39-29l-71,86l-71-86Z" />
      <glyph unicode="+" glyph-name="plus" horiz-adv-x="497" d="M216,104V299H34v62H216V556h65V361H463V299H281V104H216Z" />
      <glyph unicode="," glyph-name="comma" horiz-adv-x="249" d="M67-170L47-122q43,19 67,50.5T137,0q-2-1-5-1t-5,0Q103-1 85.5,13.5T68,56q0,27 18,42.5T129,114q32,0 50.5-26T198,17q0-64-35-112.5T67-170Z" />
      <glyph unicode="-" glyph-name="hyphen" horiz-adv-x="311" d="M41,219v63H271V219H41Z" />
      <glyph unicode="." glyph-name="period" horiz-adv-x="249" d="M125-12Q100-12 82.5,5.5T65,50q0,29 17.5,46.5T125,114q24,0 41.5-17.5T184,50q0-27-17.5-44.5T125-12Z" />
      <glyph unicode="/" glyph-name="slash" horiz-adv-x="350" d="M10-160L277,710h60L70-160H10Z" />
      <glyph unicode="0" glyph-name="zero" horiz-adv-x="497" d="M249-12Q153-12 98.5,74.5T44,321q0,161 54.5,245T249,650q95,0 149.5-84T453,321q0-160-54.5-246.5T249-12Zm0,66q56,0 90,63.5T373,321T339,522.5T249,584t-90.5-61.5T124,321t34.5-203.5T249,54Z" />
      <glyph unicode="1" glyph-name="one" horiz-adv-x="497" d="M79,0V68H225V538H109v53q44,8 76.5,19.5T244,638h63V68H439V0H79Z" />
      <glyph unicode="2" glyph-name="two" horiz-adv-x="497" d="M40,0V49q96,96 163,168.5t102,131T340,458q0,55-30,90t-91,35q-40,0-74-22.5T83,506L36,553q40,44 85.5,70.5T229,650q89,0 140-51.5T420,462q0-60-33.5-121.5t-92-129T160,65q26,2 54,4t53,2H452V0H40Z" />
      <glyph unicode="3" glyph-name="three" horiz-adv-x="497" d="M236-12q-76,0-127,27.5T26,78l42,54q29-30 68-53t95-23q58,0 95,32t37,85q0,38-19.5,66.5t-64,44.5T159,300v63q68,0 107.5,16T323,422t17,60q0,47-29.5,74T230,583q-40,0-73.5-18T94,518L50,570q37,35 82,57.5T233,650q83,0 137-42.5T424,488q0-58-32-95t-84-57v-4q58-13 98-54.5T446,170q0-56-28-97T342.5,10T236-12Z" />
      <glyph unicode="4" glyph-name="four" horiz-adv-x="497" d="M104,242H304V427q0,26 2,62t3,61h-4q-12-23-25-45t-27-45L104,242ZM304,0V176H17v54L290,638h92V242h87V176H382V0H304Z" />
      <glyph unicode="5" glyph-name="five" horiz-adv-x="497" d="M234-12q-76,0-126,27T25,75l40,54q29-28 67-50.5T226,56q59,0 99.5,39.5T366,202q0,66-37,103t-99,37q-33,0-56.5-10T121,303L77,331L98,638H417V567H170L153,378q23,12 46,19t52,7q55,0 99.5-21.5T422,317t27-113T418.5,86.5T339,13T234-12Z" />
      <glyph unicode="6" glyph-name="six" horiz-adv-x="497" d="M261,328q-31,0-67-20t-66-64q8-93 43.5-142T268,53q47,0 79,38.5T379,193q0,62-29.5,98.5T261,328Zm7-340q-62,0-112,34T77,124.5T48,295q0,128 34.5,206t90,113.5T291,650q52,0 89.5-19.5T445,582l-46-51q-19,23-47,36.5T294,581q-45,0-82-25.5t-60.5-85T126,310q30,37 70,58.5T275,390q83,0 132.5-49.5T457,193q0-61-26-107T362.5,14T268-12Z" />
      <glyph unicode="7" glyph-name="seven" horiz-adv-x="497" d="M177,0q6,120 25.5,215.5t58,180T362,567H44v71H455V587q-57-72-93-138.5t-56-134T276,170T262,0H177Z" />
      <glyph unicode="8" glyph-name="eight" horiz-adv-x="497" d="M250-12q-60,0-107,22.5T68.5,73T41,163q0,42 17.5,74.5t45,57T161,335v4q-35,25-62,61T72,486q0,49 24,86t65,57.5T253,650q83,0 131.5-48T433,480q0-33-14-62.5t-34-53T345,326v-4q29-16 54-38t41-52.5T456,158q0-47-25.5-86t-72-61.5T250-12Zm45,360q32,29 49.5,61T362,476q0,47-29,80t-82,33q-44,0-73.5-28T148,486q0-38 20.5-63T223,380.5T295,348ZM252,49q56,0 90.5,31.5T377,161q0,41-24,67t-63.5,45T204,310q-38-25-63.5-60T115,171q0-53 39.5-87.5T252,49Z" />
      <glyph unicode="9" glyph-name="nine" horiz-adv-x="497" d="M117,445q0-62 29.5-98.5T235,310q32,0 67.5,20T369,395q-8,93-44,141.5T228,585q-46,0-78.5-38.5T117,445ZM205-12q-51,0-89.5,19.5T51,55l46,52q20-23 47.5-37T202,56q45,0 83,26t61.5,86T371,330q-30-38-70-60t-80-22q-82,0-131.5,49.5T40,445q0,61 26,107t68.5,72T228,650q63,0 113-34t78.5-102T448,343q0-128-34.5-206T324,23.5T205-12Z" />
      <glyph unicode=":" glyph-name="colon" horiz-adv-x="249" d="M125,349q-25,0-42.5,17.5T65,411q0,29 17.5,46.5T125,475q24,0 41.5-17.5T184,411q0-27-17.5-44.5T125,349Zm0-361Q100-12 82.5,5.5T65,50q0,29 17.5,46.5T125,114q24,0 41.5-17.5T184,50q0-27-17.5-44.5T125-12Z" />
      <glyph unicode=";" glyph-name="semicolon" horiz-adv-x="249" d="M125,349q-25,0-42.5,17.5T65,411q0,29 17.5,46.5T125,475q24,0 41.5-17.5T184,411q0-27-17.5-44.5T125,349ZM67-170L47-122q43,19 67,50.5T137,0q-2-1-5-1t-5,0Q103-1 85.5,13.5T68,56q0,27 18,42.5T129,114q32,0 50.5-26T198,17q0-64-35-112.5T67-170Z" />
      <glyph unicode="&lt;" glyph-name="less" horiz-adv-x="497" d="M463,131L34,299v66L463,533V462L252,384L118,334v-4l134-50l211-78V131Z" />
      <glyph unicode="=" glyph-name="equal" horiz-adv-x="497" d="M34,406v62H463V406H34Zm0-214v62H463V192H34Z" />
      <glyph unicode="&gt;" glyph-name="greater" horiz-adv-x="497" d="M34,131v71l211,78l134,50v4L245,384L34,462v71L463,365V299L34,131Z" />
      <glyph unicode="?" glyph-name="question" horiz-adv-x="425" d="M160,198q-7,47 5,83t33.5,66t44,57T281,458t16,59q0,40-24.5,68.5T200,614q-33,0-62.5-15.5T85,556L38,599q32,36 74.5,59.5T210,682q76,0 121.5-43T377,522q0-39-16-70.5T321.5,392T276,335t-35.5-62T232,198H160ZM198-12q-25,0-42,17.5T139,50q0,29 17,46.5T198,114t42.5-17.5T258,50q0-27-17.5-44.5T198-12Z" />
      <glyph unicode="@" glyph-name="at" horiz-adv-x="847" d="M403-155q-98,0-178,41T98,7T51,203q0,101 33,182.5T175.5,525T309,614.5T468,646q101,0 174.5-41.5T756,488.5T796,315q0-87-31-146.5T688,79T596,49q-40,0-69,19.5T493,125h-2q-25-29-57-48.5T369,57q-51,0-85.5,36.5T249,198q0,40 13.5,81T301,354t60.5,55T441,430q26,0 46.5-11.5T521,382h2l11,40h55L550,222q-30-117 54-117q32,0 62.5,24.5t51,71T738,312q0,81-31.5,144t-93,99T461,591q-67,0-129.5-27T219,486.5T140,365T111,206q0-97 39-165.5T256.5-64T409-100q46,0 87,13t75,32l22-49q-43-26-90.5-38.5T403-155ZM385,113q21,0 44,14t48,45l29,159q-14,23-29,32.5T442,373q-39,0-67.5-27t-44-66T315,203q0-48 20-69t50-21Z" />
      <glyph unicode="A" glyph-name="A" horiz-adv-x="544" d="M203,367L172,267H369L338,367q-18,55-34,109.5T272,588h-4q-15-57-31-111.5T203,367ZM3,0L225,656h94L541,0H452L390,200H151L88,0H3Z" />
      <glyph unicode="B" glyph-name="B" horiz-adv-x="588" d="M90,0V656H285q67,0 117.5-16t79-51T510,496q0-49-24.5-88.5T414,353v-4q59-11 96.5-50T548,192q0-64-31.5-107T429,21T299,0H90Zm83,377h97q84,0 121,29t37,79q0,57-38.5,81T274,590H173V377Zm0-311H287q85,0 132,31.5T466,195q0,61-46.5,89.5T287,313H173V66Z" />
      <glyph unicode="C" glyph-name="C" horiz-adv-x="571" d="M338-12q-82,0-146.5,40.5T89.5,145T52,328q0,106 38,182T194,627t149,41q60,0 106-24.5T523,587l-45-54q-26,28-59,45t-75,17q-62,0-108.5-32.5t-72-91.5T138,330t25-142.5T233.5,94T341,61q47,0 84,20t68,54l46-52q-39-45-88-70T338-12Z" />
      <glyph unicode="D" glyph-name="D" horiz-adv-x="615" d="M90,0V656H254q152,0 231-84.5T564,331q0-157-78.5-244T258,0H90Zm83,68h75q115,0 172.5,69.5T478,331T420.5,521.5T248,588H173V68Z" />
      <glyph unicode="E" glyph-name="E" horiz-adv-x="527" d="M90,0V656H468V586H173V380H422V309H173V71H478V0H90Z" />
      <glyph unicode="F" glyph-name="F" horiz-adv-x="494" d="M90,0V656H468V586H173V364H423V294H173V0H90Z" />
      <glyph unicode="G" glyph-name="G" horiz-adv-x="617" d="M348-12q-86,0-153,40.5T90,145T52,328q0,106 39,182T198,627t155,41q68,0 114.5-25.5T542,587l-46-54q-25,26-58,44t-83,18q-66,0-115-32.5T164.5,471T138,330q0-124 56.5-196.5T356,61q35,0 67,10.5T474,100V271H335v69H550V64Q519,31 466.5,9.5T348-12Z" />
      <glyph unicode="H" glyph-name="H" horiz-adv-x="652" d="M90,0V656h83V381H478V656h84V0H478V309H173V0H90Z" />
      <glyph unicode="I" glyph-name="I" horiz-adv-x="263" d="M90,0V656h83V0H90Z" />
      <glyph unicode="J" glyph-name="J" horiz-adv-x="480" d="M212-12Q89-12 31,93l60,42q22-39 50-56.5T204,61q53,0 79,32.5T309,201V656h84V193q0-56-18.5-103T316,15.5T212-12Z" />
      <glyph unicode="K" glyph-name="K" horiz-adv-x="579" d="M90,0V656h83V327h3L449,656h94L338,406L575,0H482L286,341L173,208V0H90Z" />
      <glyph unicode="L" glyph-name="L" horiz-adv-x="486" d="M90,0V656h83V71H460V0H90Z" />
      <glyph unicode="M" glyph-name="M" horiz-adv-x="727" d="M90,0V656H190L316,306q12-34 23.5-68.5T363,169h4q12,34 22.5,68.5T412,306L536,656H637V0H559V361q0,44 4,97.5t7,96.5h-4L514,406L390,66H335L211,406L159,555h-4q3-43 6.5-96.5T165,361V0H90Z" />
      <glyph unicode="N" glyph-name="N" horiz-adv-x="647" d="M90,0V656h86L413,244l71-136h4q-3,50-6.5,103.5T478,317V656h79V0H471L233,413L162,548h-4q4-49 7.5-101T169,343V0H90Z" />
      <glyph unicode="O" glyph-name="O" horiz-adv-x="664" d="M332-12q-82,0-145.5,42t-99,119T52,331T87.5,511.5t99,116T332,668q83,0 146-40.5t99-116T613,331T577,149T478,30T332-12Zm0,73q59,0 102.5,33.5t67.5,94T526,331q0,122-53,193T332,595T191,524T138,331q0-82 24-142.5t68-94T332,61Z" />
      <glyph unicode="P" glyph-name="P" horiz-adv-x="566" d="M90,0V656H277q74,0 129-18t86-60.5T523,463q0-103-67-153T281,260H173V0H90Zm83,328h98q86,0 127.5,32.5T440,463q0,71-43.5,98.5T267,589H173V328Z" />
      <glyph unicode="Q" glyph-name="Q" horiz-adv-x="664" d="M332,57q59,0 102.5,33.5t67.5,95T526,331q0,122-53,193T332,595T191,524T138,331q0-84 24-145.5t68-95T332,57ZM533-165q-91,0-152,44.5T291-9Q220,1 166,45T82,162T52,331q0,105 35.5,180.5t99,116T332,668q83,0 146-40.5t99-116T613,331q0-94-29-166T503,48.5T381-8q23-43 65.5-65T542-95q22,0 39,2.5T611-86l16-64q-15-6-40-10.5T533-165Z" />
      <glyph unicode="R" glyph-name="R" horiz-adv-x="569" d="M90,0V656H295q67,0 119-17.5t81.5-58T525,472q0-76-40-122.5T377,286L544,0H450L292,277H173V0H90Zm83,345H283q77,0 118,31.5T442,472q0,65-41,91T283,589H173V345Z" />
      <glyph unicode="S" glyph-name="S" horiz-adv-x="534" d="M272-12q-69,0-128,26.5T42,85l50,58q35-37 82.5-59.5T273,61q65,0 101,29.5T410,168q0,34-14.5,54t-39,34T301,284l-94,41q-31,13-61.5,34t-51,54T74,494q0,50 26.5,89.5t73.5,62T280,668t109-22.5T474,587l-45-54q-30,29-66.5,45.5T280,595q-55,0-88.5-26T158,499q0-31 16.5-51.5T216,414t51-24l93-40q38-16 68.5-38.5t48.5-55T495,175q0-52-27-94.5T391,13T272-12Z" />
      <glyph unicode="T" glyph-name="T" horiz-adv-x="536" d="M226,0V586H28v70H508V586H310V0H226Z" />
      <glyph unicode="U" glyph-name="U" horiz-adv-x="645" d="M323-12q-67,0-120.5,27T118,104T87,271V656h83V269q0-79 20.5-124.5t55-64.5T323,61q44,0 79,19t55.5,64.5T478,269V656h80V271q0-105-31-167T443,15T323-12Z" />
      <glyph unicode="V" glyph-name="V" horiz-adv-x="515" d="M210,0L0,656H89L194,302q18-58 31.5-108.5T258,85h4q18,58 32,108.5T325,302L430,656h85L307,0H210Z" />
      <glyph unicode="W" glyph-name="W" horiz-adv-x="786" d="M162,0L23,656h86l69-357q9-53 19-106T216,87h4q11,53 23,106.5T266,299l91,357h76l91-357q12-52 24-105.5T572,87h4q9,53 18,106.5T613,299l69,357h80L626,0H526L427,395q-9,38-16.5,74.5T395,544h-4q-7-38-16-74.5T358,395L261,0H162Z" />
      <glyph unicode="X" glyph-name="X" horiz-adv-x="513" d="M15,0L206,339L28,656h92l89-168q13-22 24.5-44T260,393h4q14,29 24.5,51T311,488l87,168h88L307,335L498,0H406L310,177q-13,24-26.5,49.5T254,282h-4q-14-30-27-55.5T198,177L103,0H15Z" />
      <glyph unicode="Y" glyph-name="Y" horiz-adv-x="476" d="M196,0V254L-1,656H88l85-185q16-36 31.5-71T236,328h4q17,37 34,72t32,71l84,185h87L280,254V0H196Z" />
      <glyph unicode="Z" glyph-name="Z" horiz-adv-x="539" d="M45,0V50L390,586H76v70H494V607L148,71H497V0H45Z" />
      <glyph unicode="[" glyph-name="bracketleft" horiz-adv-x="303" d="M94-152V708H273V661H156V-105H273v-47H94Z" />
      <glyph unicode="\" glyph-name="backslash" horiz-adv-x="350" d="M281-160L14,710H73L340-160H281Z" />
      <glyph unicode="]" glyph-name="bracketright" horiz-adv-x="303" d="M31-152v47H147V661H31v47H209V-152H31Z" />
      <glyph unicode="^" glyph-name="asciicircum" horiz-adv-x="497" d="M60,284L212,670h73L437,284H365L300,460L251,593h-4L197,460L132,284H60Z" />
      <glyph unicode="_" glyph-name="underscore" horiz-adv-x="500" d="M12-126v55H488v-55H12Z" />
      <glyph unicode="`" glyph-name="grave" horiz-adv-x="542" d="M285,573L128,726l58,55L327,614l-42-41Z" />
      <glyph unicode="a" glyph-name="a" horiz-adv-x="504" d="M194-12Q133-12 92.5,24.5T52,126q0,80 71.5,122.5T350,308q0,31-8.5,59t-30,45.5T250,430q-42,0-79-16t-66-36L73,435q34,22 83.5,42.5T264,498q89,0 129-54.5T433,298V0H365l-7,58h-3Q321,30 280.5,9T194-12Zm24,66q35,0 66,17t66,48V254q-121-15-169.5-45T132,132q0-41 25-59.5T218,54Z" />
      <glyph unicode="b" glyph-name="b" horiz-adv-x="553" d="M297-12q-34,0-70.5,16.5T158,50h-3L148,0H82V712h82V518l-2-88q33,29 72.5,48.5T314,498q95,0 144-67t49-180q0-83-29.5-142t-77-90T297-12ZM283,57q60,0 99.5,51.5T422,250q0,80-29.5,129.5T294,429q-31,0-63-17t-67-49V108q32-28 63.5-39.5T283,57Z" />
      <glyph unicode="c" glyph-name="c" horiz-adv-x="456" d="M274-12q-64,0-116,30T76,105T46,242q0,82 32.5,139t86,87T280,498q48,0 82.5-17T422,441l-42-54q-21,19-44.5,31T283,430q-44,0-78.5-23.5t-54-66T131,242q0-83 41.5-134.5T281,56q34,0 63,14.5T395,105l36-55Q398,21 358,4.5T274-12Z" />
      <glyph unicode="d" glyph-name="d" horiz-adv-x="555" d="M248-12q-91,0-146,66.5T47,242q0,79 29.5,136.5t78,88.5T258,498q42,0 73-15t63-41l-4,83V712h83V0H405l-7,57h-3Q367,29 329,8.5T248-12Zm18,69q64,0 124,67V378q-31,28-59.5,39.5T272,429q-39,0-70.5-23.5t-50.5-65T132,243q0-87 35-136.5T266,57Z" />
      <glyph unicode="e" glyph-name="e" horiz-adv-x="496" d="M279-12q-65,0-118,30.5T77,106T46,242q0,80 31.5,137T159,467t105,31q93,0 143.5-62T458,270q0-13-0.5-25.5T455,223H127q5-77 48.5-123T289,54q35,0 64.5,10.5T410,92l29-54Q408,18 368.5,3T279-12ZM126,282H386q0,74-31.5,112.5T266,433q-51,0-91.5-39.5T126,282Z" />
      <glyph unicode="f" glyph-name="f" horiz-adv-x="292" d="M96,0V419H30v62l66,5v77q0,74 34.5,117.5T238,724q23,0 44-4.5T319,708l-18-63q-27,12-55,12q-68,0-68-94V486H281V419H178V0H96Z" />
      <glyph unicode="g" glyph-name="g" horiz-adv-x="504" d="M246-224q-89,0-145,34T45-93q0,31 19,59.5T116,17v4Q98,32 85.5,52T73,100q0,31 17,54t36,36v4q-24,20-43.5,54T63,325q0,53 25,92t67,60t91,21q20,0 38-3.5t31-8.5H484V423H384q17-16 28.5-42.5T424,323q0-52-24-90t-64-58.5T246,154q-39,0-73,17q-13-11-22-24.5T142,113q0-23 18.5-38T228,60h94q85,0 127.5-27.5T492-56q0-45-30-83t-85-61.5T246-224Zm0,433q42,0 72.5,31.5T349,325t-30,83t-73,30t-73-30t-30-83t30.5-84.5T246,209Zm12-376q70,0 112,30.5T412-68q0,34-25.5,47T314-8H230q-14,0-30.5,2T167,0q-26-19-38-40T117-82q0-39 37.5-62T258-167Z" />
      <glyph unicode="h" glyph-name="h" horiz-adv-x="544" d="M82,0V712h82V518l-3-100q35,33 73.5,56.5T323,498q77,0 112.5-48.5T471,308V0H389V297q0,68-22,99t-70,31q-37,0-66.5-19T164,352V0H82Z" />
      <glyph unicode="i" glyph-name="i" horiz-adv-x="246" d="M82,0V486h82V0H82Zm42,586q-24,0-39.5,14.5T69,640q0,24 15.5,39T124,694t39.5-15T179,640q0-25-15.5-39.5T124,586Z" />
      <glyph unicode="j" glyph-name="j" horiz-adv-x="247" d="M32-217q-22,0-40.5,4T-40-204l17,62q9-3 21-5.5T23-150q36,0 48,25.5T83-55V486h82V-55q0-74-30-118T32-217Zm91,803q-24,0-39.5,14.5T68,640q0,24 15.5,39T123,694t39.5-15T178,640q0-25-15.5-39.5T123,586Z" />
      <glyph unicode="k" glyph-name="k" horiz-adv-x="495" d="M82,0V712h81V230h3L373,486h91L301,291L486,0H396L254,234L163,128V0H82Z" />
      <glyph unicode="l" glyph-name="l" horiz-adv-x="255" d="M169-12q-46,0-66.5,28.5T82,98V712h82V92q0-19 7-27.5T187,56q4,0 7.5,0.5T205,58L216-4q-8-4-19-6t-28-2Z" />
      <glyph unicode="m" glyph-name="m" horiz-adv-x="829" d="M82,0V486h68l7-70h3q32,35 70,58.5T311,498q56,0 87.5-24.5T445,405q38,41 77,67t83,26q75,0 111.5-48.5T753,308V0H671V297q0,68-22,99t-68,31q-54,0-122-75V0H377V297q0,68-22,99t-69,31q-54,0-122-75V0H82Z" />
      <glyph unicode="n" glyph-name="n" horiz-adv-x="547" d="M82,0V486h68l7-70h3q35,35 74,58.5T323,498q77,0 112.5-48.5T471,308V0H389V297q0,68-22,99t-70,31q-37,0-66.5-19T164,352V0H82Z" />
      <glyph unicode="o" glyph-name="o" horiz-adv-x="542" d="M271-12q-59,0-110.5,30t-83,87T46,242q0,82 31.5,139t83,87T271,498q60,0 111-30t82.5-87T496,242q0-80-31.5-137T382,18T271-12Zm0,68q63,0 101.5,51.5T411,242q0,84-38.5,136T271,430q-62,0-101-52T131,242q0-83 39-134.5T271,56Z" />
      <glyph unicode="p" glyph-name="p" horiz-adv-x="555" d="M82-205V486h68l7-56h3q33,28 72.5,48T315,498q94,0 143-67.5T507,250q0-82-29.5-141t-77-90T297-12q-34,0-67.5,15T162,44l2-85V-205H82ZM283,57q60,0 99.5,51.5T422,250q0,80-29.5,129.5T294,429q-31,0-62.5-17T164,363V108q33-28 64-39.5T283,57Z" />
      <glyph unicode="q" glyph-name="q" horiz-adv-x="555" d="M390-205V-32l4,88Q365,28 327.5,8T248-12q-91,0-146,66.5T47,242q0,79 29.5,136.5t78,88.5T258,498q42,0 74-14.5T397,440h2l8,46h66V-205H390ZM266,57q64,0 124,67V378q-31,28-59.5,39.5T272,429q-39,0-70.5-23.5t-50.5-65T132,243q0-87 35-136.5T266,57Z" />
      <glyph unicode="r" glyph-name="r" horiz-adv-x="347" d="M82,0V486h68l7-88h3q25,46 61,73t77,27q29,0 52-10l-16-72q-12,4-22,6t-25,2q-31,0-64.5-25T164,312V0H82Z" />
      <glyph unicode="s" glyph-name="s" horiz-adv-x="419" d="M209-12q-52,0-99,19.5T28,55l41,55q32-25 66-41.5T212,52q48,0 72,22.5T308,128q0,25-16.5,42t-42,28.5T197,220q-34,13-67,29.5t-54,43T55,360q0,59 44.5,98.5T223,498q45,0 84-16t67-39l-40-52q-25,19-52,31t-59,12q-46,0-67.5-21T134,364q0-23 15-37.5t39-25T239,280q35-13 69-29.5t56.5-44T387,133q0-39-20.5-72t-60-53T209-12Z" />
      <glyph unicode="t" glyph-name="t" horiz-adv-x="338" d="M235-12q-78,0-108.5,45T96,150V419H24v62l76,5l10,136h69V486H310V419H179V149q0-45 16.5-69.5T254,55q13,0 28,4.5T309,68L325,6Q305-1 281.5-6.5T235-12Z" />
      <glyph unicode="u" glyph-name="u" horiz-adv-x="544" d="M224-12q-77,0-113,48.5T75,178V486h83V189q0-68 21.5-99T249,59q38,0 67.5,19.5T380,141V486h82V0H394l-7,76h-3q-34-40-72-64T224-12Z" />
      <glyph unicode="v" glyph-name="v" horiz-adv-x="467" d="M187,0L12,486H97l92-276q11-36 22.5-72T234,67h4q11,35 22.5,71T282,210l92,276h81L283,0H187Z" />
      <glyph unicode="w" glyph-name="w" horiz-adv-x="718" d="M159,0L24,486h84l72-281q8-34 15-67.5T209,70h4q8,34 16,67.5T246,205l75,281h80l76-281q9-34 17.5-67.5T511,70h4q8,34 15.5,67.5T545,205l71,281h78L564,0H464L394,261q-9,35-16.5,69T361,401h-4q-8-37-16-71.5T323,260L255,0H159Z" />
      <glyph unicode="x" glyph-name="x" horiz-adv-x="446" d="M14,0L173,254L26,486h89l65-107q11-19 23-40t25-41h4q11,20 22,41t22,40l59,107h86L274,245L432,0H343L272,113q-13,22-26,44t-27,43h-4q-13-21-25-42.5T166,113L100,0H14Z" />
      <glyph unicode="y" glyph-name="y" horiz-adv-x="467" d="M90-209q-16,0-30.5,3T33-199l16,65q8-2 18-4.5T86-141q41,0 68,29.5T196-37L207-1L12,486H97l99-269q11-31 23.5-67T243,80h4q11,33 21,69t20,68l87,269h80L272-40q-17-48-40.5-86t-58-60.5T90-209Z" />
      <glyph unicode="z" glyph-name="z" horiz-adv-x="425" d="M31,0V44L287,419H59v67H391V442L135,67H399V0H31Z" />
      <glyph unicode="{" glyph-name="braceleft" horiz-adv-x="303" d="M228-152q-59,0-88,28T111-19q0,55 4.5,99t4.5,94q0,29-17.5,53T34,252v52q51,1 68.5,25T120,381q0,51-4.5,95T111,575q0,77 29,105t88,28h45V661H246q-40,0-54-21t-14-70q0-46 3-88t3-93q0-49-14-74.5T124,280v-4q32-9 46-35t14-74q0-51-3-93t-3-88q0-49 14-70t54-21h27v-47H228Z" />
      <glyph unicode="|" glyph-name="bar" horiz-adv-x="241" d="M92-250V750h58V-250H92Z" />
      <glyph unicode="}" glyph-name="braceright" horiz-adv-x="303" d="M31-152v47H57q41,0 54.5,21T125-14q0,46-2.5,88T120,167q0,48 13.5,74T179,276v4q-32,9-45.5,34.5T120,389q0,51 2.5,93t2.5,88q0,49-13.5,70T57,661H31v47H75q60,0 88.5-28T192,575q0-55-4.5-99T183,381q0-28 18-52t68-25V252q-50-1-68-25t-18-53q0-50 4.5-94T192-19q0-77-28.5-105T75-152H31Z" />
      <glyph unicode="~" glyph-name="asciitilde" horiz-adv-x="497" d="M336,257q-30,0-53.5,12.5T239,299t-39.5,29.5T159,341q-22,0-41-14.5T82,280L36,313q27,48 60,69t65,21q30,0 53.5-12.5T258,361t39.5-29.5T338,319q22,0 41,14.5T415,380l46-34q-27-47-60-68t-65-21Z" />
      <glyph unicode="&#xa0;" glyph-name="space" horiz-adv-x="200" />
      <glyph unicode="&#xa1;" glyph-name="exclamdown" horiz-adv-x="289" d="M103-184l2,94l11,378h57L184-90l2-94H103Zm42,556q-25,0-42.5,18T85,436q0,27 17.5,44.5T145,498q24,0 41.5-17.5T204,436q0-28-17.5-46T145,372Z" />
      <glyph unicode="&#xa2;" glyph-name="cent" horiz-adv-x="497" d="M262-33V71q-89,11-145,72T61,310q0,69 26.5,119T160,509t102,38V653h52V550q44-2 76-19t55-39l-40-52q-20,18-42.5,29.5T314,482V138q32,2 58,15.5T418,185l36-52q-29-26-65-43T314,70V-33H262ZM143,310q0-67 31.5-111T262,142V477q-55-13-87-57T143,310Z" />
      <glyph unicode="&#xa3;" glyph-name="sterling" horiz-adv-x="497" d="M54,0V50q51,28 78.5,76T160,230q0,14-2,28t-5,27H53v52l67,4h18q-10,32-18.5,63T111,466q0,85 51.5,134.5T297,650q53,0 91-21.5T452,575l-48-47q-19,23-43,38t-58,15q-54,0-82.5-32.5T192,464q0-31 7.5-61T216,341H375V285H229q2-13 3.5-27t1.5-29q0-52-16-87.5T172,75V71H453V0H54Z" />
      <glyph unicode="&#xa4;" glyph-name="currency" horiz-adv-x="497" d="M70,103L26,148l64,65Q54,262 54,329q0,68 36,117L26,512l44,45l68-70q48,37 111,37q62,0 110-37l68,70l44-45l-65-66q17-23 27-52.5T443,329q0-34-10-63.5T406,213l65-65l-44-45l-68,69q-23-19-52-28.5T249,134q-64,0-111,38L70,103Zm179,92q48,0 83,37t35,97t-35,97t-83,37q-49,0-84-37t-35-97t35-97t84-37Z" />
      <glyph unicode="&#xa5;" glyph-name="yen" horiz-adv-x="497" d="M207,0V158H45v48H207v65H45v47H186L23,638h86l78-171q15-33 29.5-66.5T247,332h4q17,35 31.5,68.5T312,467l78,171h84L310,318H452V271H289V206H452V158H289V0H207Z" />
      <glyph unicode="&#xa6;" glyph-name="brokenbar" horiz-adv-x="241" d="M92,291V750h58V291H92Zm0-541V214h58V-250H92Z" />
      <glyph unicode="&#xa7;" glyph-name="section" horiz-adv-x="497" d="M236-64q-53,0-97.5,19T63,7l50,45q25-24 54-38T236,0t62.5,20.5T321,69q0,29-20,47.5t-51.5,33T183,179t-66.5,35.5T65,266T45,343q0,44 24.5,76T131,472q-15,16-23.5,36T99,554q0,52 38.5,91T251,684q47,0 86.5-17T405,627l-40-53q-24,20-51,33t-60,13q-42,0-60.5-18.5T175,557q0-27 20-45.5t51.5-33t67-29.5t67-36T432,361t20-77q0-47-23.5-77T367,155q14-16 22-36t8-46q0-39-20.5-70t-57-49T236-64ZM117,348q0-33 19.5-54.5T187,256t66.5-30.5T320,193q29,14 44.5,33T380,278q0,34-19.5,56T310,372t-66,30.5T178,435q-28-16-44.5-36T117,348Z" />
      <glyph unicode="&#xa8;" glyph-name="dieresis" horiz-adv-x="542" d="M175,587q-22,0-36,14.5T125,637t14,35.5T175,687q21,0 35-14.5T224,637t-14-35.5T175,587Zm192,0q-21,0-35,14.5T318,637t14,35.5T367,687q22,0 36-14.5T417,637t-14-35.5T367,587Z" />
      <glyph unicode="&#xa9;" glyph-name="copyright" horiz-adv-x="744" d="M372-11q-65,0-123.5,23.5T145,79.5T74.5,185T49,323T74.5,460T145,564t103.5,66T372,653t123.5-23T599,564t70.5-104T695,323T669.5,185T599,79.5t-103.5-67T372-11Zm0,42q76,0 138.5,36.5T610.5,170T648,323T610.5,475t-100,101T372,612q-75,0-138-36T133.5,475T96,323t37.5-153T234,67.5T372,31Zm8,94q-50,0-91.5,23.5t-66,68T198,323q0,58 26,100.5T292.5,489T383,512q42,0 71.5-16.5T508,455l-35-39q-20,20-40.5,30.5T386,457q-55,0-88.5-37.5T264,323q0-66 32.5-104.5T383,180q32,0 56,12.5T485,224l30-42q-28-24-59-40.5T380,125Z" />
      <glyph unicode="&#xaa;" glyph-name="ordfeminine" horiz-adv-x="345" d="M136,387q-44,0-71.5,25.5T37,481q0,53 48,81t151,38q-1,32-14,52.5T174,673q-26,0-53.5-10.5T73,639L50,682q25,15 59.5,28.5T183,724q60,0 87.5-35T298,591V395H248l-7,37h-4q-20-18-45-31.5T136,387Zm18,49q39,0 82,40v85q-77-8-107.5-27.5T98,486q0-25 15.5-37.5T154,436Z" />
      <glyph unicode="&#xab;" glyph-name="guillemotleft" horiz-adv-x="429" d="M181,66L45,221v62L181,438l36-30L99,252L217,94L181,66Zm158,0L203,221v62L339,438l36-30L257,252L375,94L339,66Z" />
      <glyph unicode="&#xac;" glyph-name="logicalnot" horiz-adv-x="497" d="M397,104V299H34v62H463V104H397Z" />
      <glyph unicode="&#xad;" glyph-name="hyphen" horiz-adv-x="311" d="M41,219v63H271V219H41Z" />
      <glyph unicode="&#xae;" glyph-name="registered" horiz-adv-x="423" d="M211,319q-51,0-94,25T48.5,413.5T23,516q0,59 25.5,103T117,688t94,25q52,0 95-25t68.5-69T400,516q0-58-25.5-102.5T306,344t-95-25Zm0,37q42,0 75.5,20T340,432.5T360,516t-20,83.5t-53.5,57T211,677t-75.5-20.5t-53-57T63,516t19.5-83.5t53-56.5T211,356Zm-72,61V620h76q32,0 55-14.5T293,555q0-18-10-33.5T256,500l46-83H256l-35,70H180V417H139Zm41,102h26q43,0 43,34q0,15-9,24t-32,9H180V519Z" />
      <glyph unicode="&#xaf;" glyph-name="macron" horiz-adv-x="542" d="M138,601v57H404V601H138Z" />
      <glyph unicode="&#xb0;" glyph-name="degree" horiz-adv-x="331" d="M166,429q-33,0-61.5,15.5T58.5,489T41,556q0,59 37.5,94T166,685t87.5-35T291,556q0-38-17.5-67T228,444.5T166,429Zm0,46q33,0 54,23t21,58q0,37-21,60t-54,23t-54-23T91,556q0-35 21-58t54-23Z" />
      <glyph unicode="&#xb1;" glyph-name="plusminus" horiz-adv-x="497" d="M216,127V304H34v62H216V556h65V366H463V304H281V127H216ZM34,0V62H463V0H34Z" />
      <glyph unicode="&#xb2;" glyph-name="two.sups" horiz-adv-x="367" d="M52,395v37q91,82 138,133.5T237,661q0,38-20,60t-55,22q-25,0-46-16.5T78,686L40,721q23,34 56.5,55T170,797q59,0 94.5-32T300,671q0-37-19-71.5T229.5,529T155,450H320V395H52Z" />
      <glyph unicode="&#xb3;" glyph-name="three.sups" horiz-adv-x="367" d="M180,383q-47,0-84.5,21.5T35,459l43,33q18-27 43-42.5T177,434q32,0 55,18t23,52t-32,51.5T134,573v41q50,0 78,20t28,50q0,28-19.5,45T169,746q-22,0-42-13.5T90,699L51,733q26,29 57,46.5T179,797q50,0 87-27.5T303,692q0-34-19-58t-49-38q33-8 58.5-32.5T319,500q0-54-41-85.5T180,383Z" />
      <glyph unicode="&#xb4;" glyph-name="acute" horiz-adv-x="542" d="M257,573l-42,41L356,781l58-55L257,573Z" />
      <glyph unicode="&#xb5;" glyph-name="mu" horiz-adv-x="562" d="M82-179V486h82V189q0-64 21-97t68-33q33,0 64,17.5T382,154V486h83q-1-98-3.5-200.5T459,95q0-20 10-29.5T495,56q13,0 29,6L535,0q-10-5-24-8.5T477-12q-41,0-62,22.5T389,82h-2q-26-46-60.5-69T252-10q-29,0-53,9.5T158,37q1-48 1.5-82t2-64.5T165-179H82Z" />
      <glyph unicode="&#xb6;" glyph-name="paragraph" horiz-adv-x="560" d="M380-80V656h84V-80H380ZM293,226q-72,0-129,23T74,320T41,443q0,79 31.5,125.5t86,67T282,656h44V226H293Z" />
      <glyph unicode="&#xb7;" glyph-name="periodcentered" horiz-adv-x="249" d="M125,259q-25,0-42.5,17.5T65,321q0,29 17.5,46.5T125,385q24,0 41.5-17.5T184,321q0-27-17.5-44.5T125,259Z" />
      <glyph unicode="&#xb8;" glyph-name="cedilla" horiz-adv-x="542" d="M190-226l-8,40q63,5 86,16.5T291-136q0,20-17,31T214-88L258,3h53L282-64q35-8 54-24t19-47q0-43-42.5-65T190-226Z" />
      <glyph unicode="&#xb9;" glyph-name="one.sups" horiz-adv-x="367" d="M172,395V703H87v42q33,6 55,15.5T184,785h52V395H172Z" />
      <glyph unicode="&#xba;" glyph-name="ordmasculine" horiz-adv-x="365" d="M182,387q-41,0-76,20T50.5,464.5T30,555q0,54 20.5,92T106,704.5T182,724t75.5-19.5T313,647t21-92q0-53-21-90.5T257.5,407T182,387Zm0,51q41,0 64.5,32.5T270,555q0,53-23.5,85.5T182,673t-65-32.5T93,555q0-52 24-84.5T182,438Z" />
      <glyph unicode="&#xbb;" glyph-name="guillemotright" horiz-adv-x="429" d="M89,66L54,94L172,252L54,408l35,30L226,283V221L89,66Zm158,0L212,94L330,252L212,408l35,30L384,283V221L247,66Z" />
      <glyph unicode="&#xbc;" glyph-name="onequarter" horiz-adv-x="781" d="M148,266V574H63v42q33,6 55,15.5T160,656h52V266H148ZM180-12L542,668h56L236-12H180ZM522,150H633v70l4,109h-4l-50-81l-61-98ZM633,0V104H455v33L619,390h72V150h58V104H691V0H633Z" />
      <glyph unicode="&#xbd;" glyph-name="onehalf" horiz-adv-x="808" d="M148,266V574H63v42q33,6 55,15.5T160,656h52V266H148ZM160-12L522,668h56L216-12H160ZM493,0V37q91,82 138,133.5T678,266q0,38-20,60t-55,22q-25,0-46-16.5T519,291l-38,35q23,34 56.5,55T611,402q59,0 94.5-32T741,276q0-37-19-71.5T670.5,134T596,55H761V0H493Z" />
      <glyph unicode="&#xbe;" glyph-name="threequarters" horiz-adv-x="796" d="M179,254q-47,0-84.5,21.5T34,330l43,33q18-27 43-42.5T176,305q32,0 55,18t23,52t-32,51.5T133,444v41q50,0 78,20t28,50q0,28-19.5,45T168,617q-22,0-42-13.5T89,570L50,604q26,29 57,46.5T178,668q50,0 87-27.5T302,563q0-34-19-58t-49-38q33-8 58.5-32.5T318,371q0-54-41-85.5T179,254ZM218-12L580,668h56L274-12H218ZM537,150H648v70l4,109h-4l-50-81l-61-98ZM648,0V104H470v33L634,390h72V150h58V104H706V0H648Z" />
      <glyph unicode="&#xbf;" glyph-name="questiondown" horiz-adv-x="425" d="M215-196q-76,0-121.5,43T48-36Q48,3 64,34.5T103.5,94T149,151t35,62t8,75h73q7-47-5-83t-33.5-66t-44-57T144,28T128-31q0-40 24-68t73-28q33,0 62,15t52,42l48-43q-32-35-74.5-59T215-196Zm12,568q-25,0-42.5,18T167,436q0,27 17.5,44.5T227,498q24,0 41.5-17.5T286,436q0-28-17.5-46T227,372Z" />
      <glyph unicode="&#xc0;" glyph-name="Agrave" horiz-adv-x="544" d="M203,367L172,267H369L338,367q-18,55-34,109.5T272,588h-4q-15-57-31-111.5T203,367ZM3,0L225,656h94L541,0H452L390,200H151L88,0H3ZM288,697L136,812l47,55L325,739l-37-42Z" />
      <glyph unicode="&#xc1;" glyph-name="Aacute" horiz-adv-x="544" d="M203,367L172,267H369L338,367q-18,55-34,109.5T272,588h-4q-15-57-31-111.5T203,367ZM3,0L225,656h94L541,0H452L390,200H151L88,0H3ZM254,697l-37,42L359,867l47-55L254,697Z" />
      <glyph unicode="&#xc2;" glyph-name="Acircumflex" horiz-adv-x="544" d="M203,367L172,267H369L338,367q-18,55-34,109.5T272,588h-4q-15-57-31-111.5T203,367ZM3,0L225,656h94L541,0H452L390,200H151L88,0H3ZM159,699l-36,26L228,838h86L419,725l-36-26L273,792h-4L159,699Z" />
      <glyph unicode="&#xc3;" glyph-name="Atilde" horiz-adv-x="544" d="M203,367L172,267H369L338,367q-18,55-34,109.5T272,588h-4q-15-57-31-111.5T203,367ZM3,0L225,656h94L541,0H452L390,200H151L88,0H3ZM346,709q-28,0-48.5,10.5t-36,25t-30.5,25T198,780q-19,0-32-17t-16-49l-56,4q3,57 30,90t72,33q28,0 48.5-10.5t36-25t30.5-25T344,770q40,0 48,66l56-4q-3-58-30-90.5T346,709Z" />
      <glyph unicode="&#xc4;" glyph-name="Adieresis" horiz-adv-x="544" d="M203,367L172,267H369L338,367q-18,55-34,109.5T272,588h-4q-15-57-31-111.5T203,367ZM3,0L225,656h94L541,0H452L390,200H151L88,0H3ZM168,715q-21,0-35,14t-14,35q0,22 14,35.5T168,813q22,0 35.5-13.5T217,764q0-21-13.5-35T168,715Zm206,0q-22,0-35.5,14T325,764q0,22 13.5,35.5T374,813q21,0 35-13.5T423,764q0-21-14-35t-35-14Z" />
      <glyph unicode="&#xc5;" glyph-name="Aring" horiz-adv-x="544" d="M203,367L172,267H369L338,367q-18,55-34,109.5T272,588h-4q-15-57-31-111.5T203,367ZM3,0L225,656h94L541,0H452L390,200H151L88,0H3ZM271,699q-42,0-69.5,25T174,789q0,41 27.5,66T271,880q41,0 69-25t28-66q0-40-28-65t-69-25Zm0,36q20,0 35.5,14T322,789t-15.5,40T271,843q-22,0-37-14t-15-40t15-40t37-14Z" />
      <glyph unicode="&#xc6;" glyph-name="AE" horiz-adv-x="822" d="M290,376L229,258H401V590h-4Q344,483 290,376ZM8,0L352,656H763V586H485V380H717V309H485V71H773V0H401V191H195L96,0H8Z" />
      <glyph unicode="&#xc7;" glyph-name="Ccedilla" horiz-adv-x="571" d="M338-12q-82,0-146.5,40.5T89.5,145T52,328q0,106 38,182T194,627t149,41q60,0 106-24.5T523,587l-45-54q-26,28-59,45t-75,17q-62,0-108.5-32.5t-72-91.5T138,330t25-142.5T233.5,94T341,61q47,0 84,20t68,54l46-52q-39-45-88-70T338-12ZM256-226l-8,40q63,5 86,16.5T357-136q0,20-17,31T280-88L324,3h53L348-64q35-8 54-24t19-47q0-43-42.5-65T256-226Z" />
      <glyph unicode="&#xc8;" glyph-name="Egrave" horiz-adv-x="527" d="M90,0V656H468V586H173V380H422V309H173V71H478V0H90ZM307,697L155,812l47,55L344,739l-37-42Z" />
      <glyph unicode="&#xc9;" glyph-name="Eacute" horiz-adv-x="527" d="M90,0V656H468V586H173V380H422V309H173V71H478V0H90ZM273,697l-37,42L378,867l47-55L273,697Z" />
      <glyph unicode="&#xca;" glyph-name="Ecircumflex" horiz-adv-x="527" d="M90,0V656H468V586H173V380H422V309H173V71H478V0H90Zm88,699l-36,26L247,838h86L438,725l-36-26L292,792h-4L178,699Z" />
      <glyph unicode="&#xcb;" glyph-name="Edieresis" horiz-adv-x="527" d="M90,0V656H468V586H173V380H422V309H173V71H478V0H90Zm97,715q-21,0-35,14t-14,35q0,22 14,35.5T187,813q22,0 35.5-13.5T236,764q0-21-13.5-35T187,715Zm206,0q-22,0-35.5,14T344,764q0,22 13.5,35.5T393,813q21,0 35-13.5T442,764q0-21-14-35t-35-14Z" />
      <glyph unicode="&#xcc;" glyph-name="Igrave" horiz-adv-x="263" d="M90,0V656h83V0H90Zm59,697L-3,812l47,55L186,739l-37-42Z" />
      <glyph unicode="&#xcd;" glyph-name="Iacute" horiz-adv-x="263" d="M90,0V656h83V0H90Zm25,697L78,739L220,867l47-55L115,697Z" />
      <glyph unicode="&#xce;" glyph-name="Icircumflex" horiz-adv-x="263" d="M90,0V656h83V0H90ZM20,699l-36,26L89,838h86L280,725l-36-26L134,792h-4L20,699Z" />
      <glyph unicode="&#xcf;" glyph-name="Idieresis" horiz-adv-x="263" d="M90,0V656h83V0H90ZM29,715Q8,715-6,729t-14,35q0,22 14,35.5T29,813q22,0 35.5-13.5T78,764q0-21-13.5-35T29,715Zm206,0q-22,0-35.5,14T186,764q0,22 13.5,35.5T235,813q21,0 35-13.5T284,764q0-21-14-35t-35-14Z" />
      <glyph unicode="&#xd0;" glyph-name="Eth" horiz-adv-x="638" d="M112,0V321H33v43l79,4V656H276q152,0 231-84.5T586,331q0-157-78.5-244T280,0H112Zm83,68h75q115,0 172.5,69.5T500,331T442.5,521.5T270,588H195V368H344V321H195V68Z" />
      <glyph unicode="&#xd1;" glyph-name="Ntilde" horiz-adv-x="647" d="M90,0V656h86L413,244l71-136h4q-3,50-6.5,103.5T478,317V656h79V0H471L233,413L162,548h-4q4-49 7.5-101T169,343V0H90ZM409,709q-28,0-48.5,10.5t-36,25t-30.5,25T261,780q-19,0-32-17t-16-49l-56,4q3,57 30,90t72,33q28,0 48.5-10.5t36-25t30.5-25T407,770q40,0 48,66l56-4q-3-58-30-90.5T409,709Z" />
      <glyph unicode="&#xd2;" glyph-name="Ograve" horiz-adv-x="664" d="M332-12q-82,0-145.5,42t-99,119T52,331T87.5,511.5t99,116T332,668q83,0 146-40.5t99-116T613,331T577,149T478,30T332-12Zm0,73q59,0 102.5,33.5t67.5,94T526,331q0,122-53,193T332,595T191,524T138,331q0-82 24-142.5t68-94T332,61Zm17,636L197,812l47,55L386,739l-37-42Z" />
      <glyph unicode="&#xd3;" glyph-name="Oacute" horiz-adv-x="664" d="M332-12q-82,0-145.5,42t-99,119T52,331T87.5,511.5t99,116T332,668q83,0 146-40.5t99-116T613,331T577,149T478,30T332-12Zm0,73q59,0 102.5,33.5t67.5,94T526,331q0,122-53,193T332,595T191,524T138,331q0-82 24-142.5t68-94T332,61ZM315,697l-37,42L420,867l47-55L315,697Z" />
      <glyph unicode="&#xd4;" glyph-name="Ocircumflex" horiz-adv-x="664" d="M332-12q-82,0-145.5,42t-99,119T52,331T87.5,511.5t99,116T332,668q83,0 146-40.5t99-116T613,331T577,149T478,30T332-12Zm0,73q59,0 102.5,33.5t67.5,94T526,331q0,122-53,193T332,595T191,524T138,331q0-82 24-142.5t68-94T332,61ZM220,699l-36,26L289,838h86L480,725l-36-26L334,792h-4L220,699Z" />
      <glyph unicode="&#xd5;" glyph-name="Otilde" horiz-adv-x="664" d="M332-12q-82,0-145.5,42t-99,119T52,331T87.5,511.5t99,116T332,668q83,0 146-40.5t99-116T613,331T577,149T478,30T332-12Zm0,73q59,0 102.5,33.5t67.5,94T526,331q0,122-53,193T332,595T191,524T138,331q0-82 24-142.5t68-94T332,61Zm75,648q-28,0-48.5,10.5t-36,25t-30.5,25T259,780q-19,0-32-17t-16-49l-56,4q3,57 30,90t72,33q28,0 48.5-10.5t36-25t30.5-25T405,770q40,0 48,66l56-4q-3-58-30-90.5T407,709Z" />
      <glyph unicode="&#xd6;" glyph-name="Odieresis" horiz-adv-x="664" d="M332-12q-82,0-145.5,42t-99,119T52,331T87.5,511.5t99,116T332,668q83,0 146-40.5t99-116T613,331T577,149T478,30T332-12Zm0,73q59,0 102.5,33.5t67.5,94T526,331q0,122-53,193T332,595T191,524T138,331q0-82 24-142.5t68-94T332,61ZM229,715q-21,0-35,14t-14,35q0,22 14,35.5T229,813q22,0 35.5-13.5T278,764q0-21-13.5-35T229,715Zm206,0q-22,0-35.5,14T386,764q0,22 13.5,35.5T435,813q21,0 35-13.5T484,764q0-21-14-35t-35-14Z" />
      <glyph unicode="&#xd7;" glyph-name="multiply" horiz-adv-x="497" d="M94,126L50,171L205,330L50,488l44,45L249,374L403,533l44-45L292,330L447,171l-44-45L249,286L94,126Z" />
      <glyph unicode="&#xd8;" glyph-name="Oslash" horiz-adv-x="664" d="M96-30L50,6l70,91Q89,141 72,200T55,331q0,105 35.5,180.5t99,116T335,668q104,0 176-63l62,81l46-35l-69-89q32-43 49-101.5T616,331q0-105-36-182T481,30T335-12Q231-12 160,53L96-30Zm45,361q0-48 8.5-89.5T174,168L462,541q-51,54-127,54q-88,0-141-71T141,331ZM335,61q59,0 102.5,33.5t67.5,94T529,331q0,48-8.5,88.5T496,491L209,117q50-56 126-56Z" />
      <glyph unicode="&#xd9;" glyph-name="Ugrave" horiz-adv-x="645" d="M323-12q-67,0-120.5,27T118,104T87,271V656h83V269q0-79 20.5-124.5t55-64.5T323,61q44,0 79,19t55.5,64.5T478,269V656h80V271q0-105-31-167T443,15T323-12Zm16,709L187,812l47,55L376,739l-37-42Z" />
      <glyph unicode="&#xda;" glyph-name="Uacute" horiz-adv-x="645" d="M323-12q-67,0-120.5,27T118,104T87,271V656h83V269q0-79 20.5-124.5t55-64.5T323,61q44,0 79,19t55.5,64.5T478,269V656h80V271q0-105-31-167T443,15T323-12ZM305,697l-37,42L410,867l47-55L305,697Z" />
      <glyph unicode="&#xdb;" glyph-name="Ucircumflex" horiz-adv-x="645" d="M323-12q-67,0-120.5,27T118,104T87,271V656h83V269q0-79 20.5-124.5t55-64.5T323,61q44,0 79,19t55.5,64.5T478,269V656h80V271q0-105-31-167T443,15T323-12ZM210,699l-36,26L279,838h86L470,725l-36-26L324,792h-4L210,699Z" />
      <glyph unicode="&#xdc;" glyph-name="Udieresis" horiz-adv-x="645" d="M323-12q-67,0-120.5,27T118,104T87,271V656h83V269q0-79 20.5-124.5t55-64.5T323,61q44,0 79,19t55.5,64.5T478,269V656h80V271q0-105-31-167T443,15T323-12ZM219,715q-21,0-35,14t-14,35q0,22 14,35.5T219,813q22,0 35.5-13.5T268,764q0-21-13.5-35T219,715Zm206,0q-22,0-35.5,14T376,764q0,22 13.5,35.5T425,813q21,0 35-13.5T474,764q0-21-14-35t-35-14Z" />
      <glyph unicode="&#xdd;" glyph-name="Yacute" horiz-adv-x="476" d="M196,0V254L-1,656H88l85-185q16-36 31.5-71T236,328h4q17,37 34,72t32,71l84,185h87L280,254V0H196Zm25,697l-37,42L326,867l47-55L221,697Z" />
      <glyph unicode="&#xde;" glyph-name="Thorn" horiz-adv-x="583" d="M90,0V656h83V546H291q73,0 127-18.5T502.5,467T533,353q0-104-67-153.5T291,150H173V0H90Zm83,218H281q86,0 127.5,32.5T450,353q0,71-42,98T281,478H173V218Z" />
      <glyph unicode="&#xdf;" glyph-name="germandbls" horiz-adv-x="576" d="M387-12q-41,0-75.5,13.5T246,37l33,58q52-43 106-43q41,0 62.5,24.5T469,132q0,35-20,56t-49,36t-58.5,31.5T292,297t-20,67q0,34 13.5,58.5t30.5,46t30.5,45T360,568q0,38-21,62.5T277,655q-53,0-83-39T164,500V0H82V515q0,94 51,150.5T278,722q53,0 89-20t55-53t19-73q0-37-13.5-64t-32-48.5t-32-42.5T350,374q0-29 20-46.5t49.5-32t58.5-33T527,215t20-78q0-63-43-106T387-12Z" />
      <glyph unicode="&#xe0;" glyph-name="agrave" horiz-adv-x="504" d="M194-12Q133-12 92.5,24.5T52,126q0,80 71.5,122.5T350,308q0,31-8.5,59t-30,45.5T250,430q-42,0-79-16t-66-36L73,435q34,22 83.5,42.5T264,498q89,0 129-54.5T433,298V0H365l-7,58h-3Q321,30 280.5,9T194-12Zm24,66q35,0 66,17t66,48V254q-121-15-169.5-45T132,132q0-41 25-59.5T218,54Zm63,519L124,726l58,55L323,614l-42-41Z" />
      <glyph unicode="&#xe1;" glyph-name="aacute" horiz-adv-x="504" d="M194-12Q133-12 92.5,24.5T52,126q0,80 71.5,122.5T350,308q0,31-8.5,59t-30,45.5T250,430q-42,0-79-16t-66-36L73,435q34,22 83.5,42.5T264,498q89,0 129-54.5T433,298V0H365l-7,58h-3Q321,30 280.5,9T194-12Zm24,66q35,0 66,17t66,48V254q-121-15-169.5-45T132,132q0-41 25-59.5T218,54Zm35,519l-42,41L352,781l58-55L253,573Z" />
      <glyph unicode="&#xe2;" glyph-name="acircumflex" horiz-adv-x="504" d="M194-12Q133-12 92.5,24.5T52,126q0,80 71.5,122.5T350,308q0,31-8.5,59t-30,45.5T250,430q-42,0-79-16t-66-36L73,435q34,22 83.5,42.5T264,498q89,0 129-54.5T433,298V0H365l-7,58h-3Q321,30 280.5,9T194-12Zm24,66q35,0 66,17t66,48V254q-121-15-169.5-45T132,132q0-41 25-59.5T218,54ZM112,600L226,740h82L422,600l-35-32L269,681h-4L147,568l-35,32Z" />
      <glyph unicode="&#xe3;" glyph-name="atilde" horiz-adv-x="504" d="M194-12Q133-12 92.5,24.5T52,126q0,80 71.5,122.5T350,308q0,31-8.5,59t-30,45.5T250,430q-42,0-79-16t-66-36L73,435q34,22 83.5,42.5T264,498q89,0 129-54.5T433,298V0H365l-7,58h-3Q321,30 280.5,9T194-12Zm24,66q35,0 66,17t66,48V254q-121-15-169.5-45T132,132q0-41 25-59.5T218,54ZM339,577q-27,0-46,12.5T258.5,619T228,648.5T196,661q-22,0-33.5-22T149,582l-55,3q2,59 25.5,97.5T195,721q27,0 46-12.5T276,679t30.5-29.5T339,637q22,0 33,22.5T385,716l55-4q-2-58-25.5-96.5T339,577Z" />
      <glyph unicode="&#xe4;" glyph-name="adieresis" horiz-adv-x="504" d="M194-12Q133-12 92.5,24.5T52,126q0,80 71.5,122.5T350,308q0,31-8.5,59t-30,45.5T250,430q-42,0-79-16t-66-36L73,435q34,22 83.5,42.5T264,498q89,0 129-54.5T433,298V0H365l-7,58h-3Q321,30 280.5,9T194-12Zm24,66q35,0 66,17t66,48V254q-121-15-169.5-45T132,132q0-41 25-59.5T218,54ZM171,587q-22,0-36,14.5T121,637t14,35.5T171,687q21,0 35-14.5T220,637t-14-35.5T171,587Zm192,0q-21,0-35,14.5T314,637t14,35.5T363,687q22,0 36-14.5T413,637t-14-35.5T363,587Z" />
      <glyph unicode="&#xe5;" glyph-name="aring" horiz-adv-x="504" d="M194-12Q133-12 92.5,24.5T52,126q0,80 71.5,122.5T350,308q0,31-8.5,59t-30,45.5T250,430q-42,0-79-16t-66-36L73,435q34,22 83.5,42.5T264,498q89,0 129-54.5T433,298V0H365l-7,58h-3Q321,30 280.5,9T194-12Zm24,66q35,0 66,17t66,48V254q-121-15-169.5-45T132,132q0-41 25-59.5T218,54Zm49,500q-50,0-80,28t-30,71q0,42 30,70t80,28t80-28t30-70q0-43-30-71t-80-28Zm0,37q24,0 40.5,17T324,653t-16.5,44.5T267,714t-40.5-16.5T210,653t16.5-45T267,591Z" />
      <glyph unicode="&#xe6;" glyph-name="ae" horiz-adv-x="785" d="M201-12Q140-12 99,24.5T58,126q0,80 71.5,122.5T352,308q0,31-8,59t-29.5,45.5T253,430t-76-16t-65-36L79,435q34,22 82,42.5T263,498t89-28t50-75q29,47 70,75t90,28q89,0 137-62.5T747,269q0-28-3-46H429q3-76 46-122T580,55q35,0 63,11.5T698,95l30-57Q697,18 658.5,3T570-12q-61,0-102,27.5T399,79Q297-12 201-12Zm23,66q34,0 74,19.5T371,129q-8,19-13,45.5T352,229v25q-115-15-164-45t-49-77q0-41 24.5-59.5T224,54ZM429,278H675q0,75-29.5,115T560,433q-50,0-87-42T429,278Z" />
      <glyph unicode="&#xe7;" glyph-name="ccedilla" horiz-adv-x="456" d="M274-12q-64,0-116,30T76,105T46,242q0,82 32.5,139t86,87T280,498q48,0 82.5-17T422,441l-42-54q-21,19-44.5,31T283,430q-44,0-78.5-23.5t-54-66T131,242q0-83 41.5-134.5T281,56q34,0 63,14.5T395,105l36-55Q398,21 358,4.5T274-12ZM179-226l-8,40q63,5 86,16.5T280-136q0,20-17,31T203-88L247,3h53L271-64q35-8 54-24t19-47q0-43-42.5-65T179-226Z" />
      <glyph unicode="&#xe8;" glyph-name="egrave" horiz-adv-x="496" d="M279-12q-65,0-118,30.5T77,106T46,242q0,80 31.5,137T159,467t105,31q93,0 143.5-62T458,270q0-13-0.5-25.5T455,223H127q5-77 48.5-123T289,54q35,0 64.5,10.5T410,92l29-54Q408,18 368.5,3T279-12ZM126,282H386q0,74-31.5,112.5T266,433q-51,0-91.5-39.5T126,282ZM278,573L121,726l58,55L320,614l-42-41Z" />
      <glyph unicode="&#xe9;" glyph-name="eacute" horiz-adv-x="496" d="M279-12q-65,0-118,30.5T77,106T46,242q0,80 31.5,137T159,467t105,31q93,0 143.5-62T458,270q0-13-0.5-25.5T455,223H127q5-77 48.5-123T289,54q35,0 64.5,10.5T410,92l29-54Q408,18 368.5,3T279-12ZM126,282H386q0,74-31.5,112.5T266,433q-51,0-91.5-39.5T126,282ZM250,573l-42,41L349,781l58-55L250,573Z" />
      <glyph unicode="&#xea;" glyph-name="ecircumflex" horiz-adv-x="496" d="M279-12q-65,0-118,30.5T77,106T46,242q0,80 31.5,137T159,467t105,31q93,0 143.5-62T458,270q0-13-0.5-25.5T455,223H127q5-77 48.5-123T289,54q35,0 64.5,10.5T410,92l29-54Q408,18 368.5,3T279-12ZM126,282H386q0,74-31.5,112.5T266,433q-51,0-91.5-39.5T126,282ZM109,600L223,740h82L419,600l-35-32L266,681h-4L144,568l-35,32Z" />
      <glyph unicode="&#xeb;" glyph-name="edieresis" horiz-adv-x="496" d="M279-12q-65,0-118,30.5T77,106T46,242q0,80 31.5,137T159,467t105,31q93,0 143.5-62T458,270q0-13-0.5-25.5T455,223H127q5-77 48.5-123T289,54q35,0 64.5,10.5T410,92l29-54Q408,18 368.5,3T279-12ZM126,282H386q0,74-31.5,112.5T266,433q-51,0-91.5-39.5T126,282Zm42,305q-22,0-36,14.5T118,637t14,35.5T168,687q21,0 35-14.5T217,637t-14-35.5T168,587Zm192,0q-21,0-35,14.5T311,637t14,35.5T360,687q22,0 36-14.5T410,637t-14-35.5T360,587Z" />
      <glyph unicode="&#xec;" glyph-name="igrave" horiz-adv-x="246" d="M82,0V486h82V0H82Zm56,573L-19,726l58,55L180,614l-42-41Z" />
      <glyph unicode="&#xed;" glyph-name="iacute" horiz-adv-x="246" d="M82,0V486h82V0H82Zm28,573L68,614L209,781l58-55L110,573Z" />
      <glyph unicode="&#xee;" glyph-name="icircumflex" horiz-adv-x="246" d="M82,0V486h82V0H82ZM-31,600L83,740h82L279,600l-35-32L126,681h-4L4,568l-35,32Z" />
      <glyph unicode="&#xef;" glyph-name="idieresis" horiz-adv-x="246" d="M82,0V486h82V0H82ZM28,587Q6,587-8,601.5T-22,637t14,35.5T28,687q21,0 35-14.5T77,637T63,601.5T28,587Zm192,0q-21,0-35,14.5T171,637t14,35.5T220,687q22,0 36-14.5T270,637t-14-35.5T220,587Z" />
      <glyph unicode="&#xf0;" glyph-name="eth" horiz-adv-x="545" d="M131,222q0-50 19-87.5t51-58T271,56q68,0 101.5,55T406,254q0,14-0.5,28T404,309q-33,44-66,59t-67,15q-67,0-103.5-46T131,222ZM269-12q-56,0-105.5,28.5t-80,81T53,222q0,68 27.5,118.5t74,78.5T259,447q38,0 73.5-16T393,381q-13,62-41,108.5T286,573L145,500l-24,41l127,65q-52,40-112,72l38,52q36-19 71-41.5T312,639l142,73l24-41L349,605q60-61 98-145t38-203q0-80-27-140.5T382.5,22T269-12Z" />
      <glyph unicode="&#xf1;" glyph-name="ntilde" horiz-adv-x="547" d="M82,0V486h68l7-70h3q35,35 74,58.5T323,498q77,0 112.5-48.5T471,308V0H389V297q0,68-22,99t-70,31q-37,0-66.5-19T164,352V0H82ZM367,577q-27,0-46,12.5T286.5,619T256,648.5T224,661q-22,0-33.5-22T177,582l-55,3q2,59 25.5,97.5T223,721q27,0 46-12.5T304,679t30.5-29.5T367,637q22,0 33,22.5T413,716l55-4q-2-58-25.5-96.5T367,577Z" />
      <glyph unicode="&#xf2;" glyph-name="ograve" horiz-adv-x="542" d="M271-12q-59,0-110.5,30t-83,87T46,242q0,82 31.5,139t83,87T271,498q60,0 111-30t82.5-87T496,242q0-80-31.5-137T382,18T271-12Zm0,68q63,0 101.5,51.5T411,242q0,84-38.5,136T271,430q-62,0-101-52T131,242q0-83 39-134.5T271,56Zm14,517L128,726l58,55L327,614l-42-41Z" />
      <glyph unicode="&#xf3;" glyph-name="oacute" horiz-adv-x="542" d="M271-12q-59,0-110.5,30t-83,87T46,242q0,82 31.5,139t83,87T271,498q60,0 111-30t82.5-87T496,242q0-80-31.5-137T382,18T271-12Zm0,68q63,0 101.5,51.5T411,242q0,84-38.5,136T271,430q-62,0-101-52T131,242q0-83 39-134.5T271,56ZM257,573l-42,41L356,781l58-55L257,573Z" />
      <glyph unicode="&#xf4;" glyph-name="ocircumflex" horiz-adv-x="542" d="M271-12q-59,0-110.5,30t-83,87T46,242q0,82 31.5,139t83,87T271,498q60,0 111-30t82.5-87T496,242q0-80-31.5-137T382,18T271-12Zm0,68q63,0 101.5,51.5T411,242q0,84-38.5,136T271,430q-62,0-101-52T131,242q0-83 39-134.5T271,56ZM116,600L230,740h82L426,600l-35-32L273,681h-4L151,568l-35,32Z" />
      <glyph unicode="&#xf5;" glyph-name="otilde" horiz-adv-x="542" d="M271-12q-59,0-110.5,30t-83,87T46,242q0,82 31.5,139t83,87T271,498q60,0 111-30t82.5-87T496,242q0-80-31.5-137T382,18T271-12Zm0,68q63,0 101.5,51.5T411,242q0,84-38.5,136T271,430q-62,0-101-52T131,242q0-83 39-134.5T271,56Zm72,521q-27,0-46,12.5T262.5,619T232,648.5T200,661q-22,0-33.5-22T153,582l-55,3q2,59 25.5,97.5T199,721q27,0 46-12.5T280,679t30.5-29.5T343,637q22,0 33,22.5T389,716l55-4q-2-58-25.5-96.5T343,577Z" />
      <glyph unicode="&#xf6;" glyph-name="odieresis" horiz-adv-x="542" d="M271-12q-59,0-110.5,30t-83,87T46,242q0,82 31.5,139t83,87T271,498q60,0 111-30t82.5-87T496,242q0-80-31.5-137T382,18T271-12Zm0,68q63,0 101.5,51.5T411,242q0,84-38.5,136T271,430q-62,0-101-52T131,242q0-83 39-134.5T271,56ZM175,587q-22,0-36,14.5T125,637t14,35.5T175,687q21,0 35-14.5T224,637t-14-35.5T175,587Zm192,0q-21,0-35,14.5T318,637t14,35.5T367,687q22,0 36-14.5T417,637t-14-35.5T367,587Z" />
      <glyph unicode="&#xf7;" glyph-name="divide" horiz-adv-x="497" d="M34,299v62H463V299H34ZM249,96q-23,0-39,15t-16,39q0,23 16,38t39,15t38.5-15T303,150q0-24-15.5-39T249,96Zm0,360q-23,0-39,15t-16,39q0,23 16,38t39,15t38.5-15T303,510q0-24-15.5-39T249,456Z" />
      <glyph unicode="&#xf8;" glyph-name="oslash" horiz-adv-x="542" d="M127,246q0-67 23-113L364,392q-37,40-93,40q-41,0-74-23.5T145.5,343T127,246ZM83-23L46,6l54,65q-25,32-39.5,75T46,242q0,82 31.5,139t83,87T271,498q80,0 139-50l50,61l36-29l-54-65q25-32 39.5-75.5T496,242q0-80-31.5-137T382,18T271-12q-79,0-139,49L83-23ZM271,54q63,0 103.5,51.5T415,239q0,68-24,114L178,93q39-39 93-39Z" />
      <glyph unicode="&#xf9;" glyph-name="ugrave" horiz-adv-x="544" d="M224-12q-77,0-113,48.5T75,178V486h83V189q0-68 21.5-99T249,59q38,0 67.5,19.5T380,141V486h82V0H394l-7,76h-3q-34-40-72-64T224-12Zm61,585L128,726l58,55L327,614l-42-41Z" />
      <glyph unicode="&#xfa;" glyph-name="uacute" horiz-adv-x="544" d="M224-12q-77,0-113,48.5T75,178V486h83V189q0-68 21.5-99T249,59q38,0 67.5,19.5T380,141V486h82V0H394l-7,76h-3q-34-40-72-64T224-12Zm33,585l-42,41L356,781l58-55L257,573Z" />
      <glyph unicode="&#xfb;" glyph-name="ucircumflex" horiz-adv-x="544" d="M224-12q-77,0-113,48.5T75,178V486h83V189q0-68 21.5-99T249,59q38,0 67.5,19.5T380,141V486h82V0H394l-7,76h-3q-34-40-72-64T224-12ZM116,600L230,740h82L426,600l-35-32L273,681h-4L151,568l-35,32Z" />
      <glyph unicode="&#xfc;" glyph-name="udieresis" horiz-adv-x="544" d="M224-12q-77,0-113,48.5T75,178V486h83V189q0-68 21.5-99T249,59q38,0 67.5,19.5T380,141V486h82V0H394l-7,76h-3q-34-40-72-64T224-12ZM175,587q-22,0-36,14.5T125,637t14,35.5T175,687q21,0 35-14.5T224,637t-14-35.5T175,587Zm192,0q-21,0-35,14.5T318,637t14,35.5T367,687q22,0 36-14.5T417,637t-14-35.5T367,587Z" />
      <glyph unicode="&#xfd;" glyph-name="yacute" horiz-adv-x="467" d="M90-209q-16,0-30.5,3T33-199l16,65q8-2 18-4.5T86-141q41,0 68,29.5T196-37L207-1L12,486H97l99-269q11-31 23.5-67T243,80h4q11,33 21,69t20,68l87,269h80L272-40q-17-48-40.5-86t-58-60.5T90-209ZM229,573l-42,41L328,781l58-55L229,573Z" />
      <glyph unicode="&#xfe;" glyph-name="thorn" horiz-adv-x="555" d="M82-205V712h82V519l-1-84q32,26 70,44.5T311,498q96,0 146-67.5T507,250q0-82-29.5-141t-77-90T297-12q-35,0-68,14.5T163,42l1-83V-205H82ZM283,57q60,0 99.5,51.5T422,250q0,80-29.5,129.5T294,429q-31,0-62.5-17T164,363V108q33-28 64-39.5T283,57Z" />
      <glyph unicode="&#xff;" glyph-name="ydieresis" horiz-adv-x="467" d="M90-209q-16,0-30.5,3T33-199l16,65q8-2 18-4.5T86-141q41,0 68,29.5T196-37L207-1L12,486H97l99-269q11-31 23.5-67T243,80h4q11,33 21,69t20,68l87,269h80L272-40q-17-48-40.5-86t-58-60.5T90-209Zm57,796q-22,0-36,14.5T97,637t14,35.5T147,687q21,0 35-14.5T196,637t-14-35.5T147,587Zm192,0q-21,0-35,14.5T290,637t14,35.5T339,687q22,0 36-14.5T389,637t-14-35.5T339,587Z" />
      <glyph unicode="&#x2013;" glyph-name="endash" horiz-adv-x="480" d="M41,223v57H439V223H41Z" />
      <glyph unicode="&#x2014;" glyph-name="emdash" horiz-adv-x="800" d="M41,223v57H759V223H41Z" />
      <glyph unicode="&#x2018;" glyph-name="quoteleft" horiz-adv-x="249" d="M120,428q-30,0-46.5,23.5T57,518q0,60 27,104t79,74l24-39q-38-25-57-53.5T111,533q3,1 9,1q20,0 36.5-13T173,483t-15-40t-38-15Z" />
      <glyph unicode="&#x2019;" glyph-name="quoteright" horiz-adv-x="249" d="M86,431L63,469q38,25 56.5,53.5T138,594q-3-1-8-1q-21,0-37,13T77,643q0,26 15,41t38,15q29,0 46-23.5T193,608q0-60-27.5-103.5T86,431Z" />
      <glyph unicode="&#x201a;" glyph-name="quotesinglbase" horiz-adv-x="249" d="M86-145L63-107q38,25 56.5,53.5T138,18q-3-1-8-1q-21,0-37,13T77,67q0,26 15,41t38,15q29,0 46-23.5T193,32q0-60-27.5-103.5T86-145Z" />
      <glyph unicode="&#x201c;" glyph-name="quotedblleft" horiz-adv-x="426" d="M120,428q-30,0-46.5,23.5T57,518q0,60 27,104t79,74l24-39q-38-25-57-53.5T111,533q3,1 9,1q20,0 36.5-13T173,483t-15-40t-38-15Zm177,0q-30,0-46.5,23.5T234,518q0,60 27,104t79,74l24-39q-38-25-57-53.5T288,533q3,1 9,1q20,0 36.5-13T350,483t-15-40t-38-15Z" />
      <glyph unicode="&#x201d;" glyph-name="quotedblright" horiz-adv-x="426" d="M86,431L63,469q38,25 56.5,53.5T138,594q-3-1-8-1q-21,0-37,13T77,643q0,26 15,41t38,15q29,0 46-23.5T193,608q0-60-27.5-103.5T86,431Zm177,0l-23,38q38,25 56.5,53.5T315,594q-3-1-8-1q-21,0-37,13t-16,37q0,26 15,41t38,15q29,0 46-23.5T370,608q0-60-27.5-103.5T263,431Z" />
      <glyph unicode="&#x201e;" glyph-name="quotedblbase" horiz-adv-x="426" d="M86-145L63-107q38,25 56.5,53.5T138,18q-3-1-8-1q-21,0-37,13T77,67q0,26 15,41t38,15q29,0 46-23.5T193,32q0-60-27.5-103.5T86-145Zm177,0l-23,38q38,25 56.5,53.5T315,18q-3-1-8-1q-21,0-37,13T254,67q0,26 15,41t38,15q29,0 46-23.5T370,32q0-60-27.5-103.5T263-145Z" />
      <glyph unicode="&#x2022;" glyph-name="bullet" horiz-adv-x="304" d="M152,143q-45,0-78.5,33T40,263t33.5,87.5T152,384t78.5-33.5T264,263t-33.5-87T152,143Z" />
      <glyph unicode="&#x2039;" glyph-name="guilsinglleft" horiz-adv-x="271" d="M181,66L45,221v62L181,438l36-30L99,252L217,94L181,66Z" />
      <glyph unicode="&#x203a;" glyph-name="guilsinglright" horiz-adv-x="271" d="M89,66L54,94L172,252L54,408l35,30L226,283V221L89,66Z" />
    </font>
</defs>
</svg>
