<?xml version="1.0" standalone="no"?>
<!DOCTYPE svg PUBLIC "-//W3C//DTD SVG 1.1//EN" "http://www.w3.org/Graphics/SVG/1.1/DTD/svg11.dtd">
<svg xmlns="http://www.w3.org/2000/svg">
<defs >
<font id="ProductSans" horiz-adv-x="582" ><font-face
    font-family="Product Sans"
    units-per-em="1000"
    panose-1="2 11 4 3 3 5 2 4 2 3"
    ascent="960"
    descent="-253"
    alphabetic="0" />
<glyph unicode=" " glyph-name="space" horiz-adv-x="220" />
<glyph unicode="!" glyph-name="exclam" horiz-adv-x="232" d="M152 222H80L70 490V716H162V490L152 222ZM184 62Q184 34 165 14T116 -6Q88 -6 68 14T48 62Q48 91 68 110T116 130Q145 130 164 111T184 62Z" />
<glyph unicode="&quot;" glyph-name="quotedbl" horiz-adv-x="320" d="M128 716V490H44V716H128ZM276 716V490H192V716H276Z" />
<glyph unicode="#" glyph-name="numbersign" horiz-adv-x="632" d="M238 279H374L394 414H258L238 279ZM412 0H332L362 203H226L196 0H116L146 203H23L36 279H158L178 414H53L65 490H189L218 684H298L269 490H405L434 684H514L485 490H608L596 414H474L454 279H579L567
203H442L412 0Z" />
<glyph unicode="$" glyph-name="dollar" horiz-adv-x="533" d="M141 517Q141 457 233 412V609Q191 602 166 577T141 517ZM401 180Q401 242 309 284V77Q401 98 401 180ZM309 -13V-100H233V-14Q157 -4 100 45T24 169L106 202Q118 154 152 120T233 75V315Q133 355
91 403T49 517Q49 588 100 639T233 699V784H309V696Q371 686 416 649T478 562L396 527Q378 589 309 606V381Q411 338 452 292T493 182Q493 103 444 52T309 -13Z" />
<glyph unicode="%" glyph-name="percent" horiz-adv-x="814" d="M374 529Q374 459 323 408Q273 358 203 358Q134 358 82 408Q32 460 32 529Q32 599 82 649Q133 700 203 700Q273 700 323 649Q374 599 374 529ZM657 654L213 -8L156 29L601 692L657 654ZM300 529Q300
574 273 603T203 633Q162 633 134 603Q106 574 106 529Q106 484 134 455Q162 425 203 425Q245 425 272 454T300 529ZM782 155Q782 85 731 34Q681 -16 611 -16Q542 -16 490 34Q440 86 440 155Q440 225 490 275Q541 326 611 326Q681 326 731 275Q782 225 782 155ZM708
155Q708 200 681 229T611 259Q570 259 542 229Q514 200 514 155Q514 110 542 81Q570 51 611 51Q653 51 680 80T708 155Z" />
<glyph unicode="&amp;" glyph-name="ampersand" horiz-adv-x="618" d="M514 124L581 36L512 -16L463 49Q390 -16 297 -16Q188 -16 112 57T36 237Q36 300 69 356T160 448Q108 515 108 567Q108 635 159 683T281 732Q338 732 380 700T441 611L362 569Q334 644 281
644Q246 644 224 623T201 567Q201 533 224 503L461 193L525 300L597 256L514 124ZM120 237Q120 165 171 117T297 68Q368 68 412 116L211 381Q169 358 145 319T120 237Z" />
<glyph unicode="&apos;" glyph-name="quotesingle" horiz-adv-x="172" d="M128 716V490H44V716H128Z" />
<glyph unicode="(" glyph-name="parenleft" horiz-adv-x="330" d="M310 732Q241 650 198 538Q156 428 156 322Q156 215 198 106Q241 -6 310 -88L242 -136Q159 -39 111 80Q64 203 64 322Q64 442 111 563Q158 682 242 780L310 732Z" />
<glyph unicode=")" glyph-name="parenright" horiz-adv-x="330" d="M88 780Q130 732 162 678T218 563Q266 443 266 322Q266 201 218 80Q172 -38 88 -136L20 -88Q89 -6 132 106Q174 215 174 322Q174 428 132 538Q89 650 20 732L88 780Z" />
<glyph unicode="*" glyph-name="asterisk" horiz-adv-x="436" d="M359 413L297 368L221 472H215L139 368L77 413L154 517L152 524L40 562L64 635L175 595L180 598V716H256V598L261 595L372 635L396 562L284 524L282 517L359 413Z" />
<glyph unicode="+" glyph-name="plus" horiz-adv-x="550" d="M494 309V233H313V52H237V233H56V309H237V490H313V309H494Z" />
<glyph unicode="," glyph-name="comma" horiz-adv-x="232" d="M87 -112L44 -84L98 0Q77 4 63 21T48 62Q48 91 68 110T116 130Q145 130 164 111T184 62Q184 35 164 3L87 -112Z" />
<glyph unicode="-" glyph-name="hyphen" horiz-adv-x="432" d="M376 272H56V348H376V272Z" />
<glyph unicode="." glyph-name="period" horiz-adv-x="232" d="M184 62Q184 34 165 14T116 -6Q88 -6 68 14T48 62Q48 91 68 110T116 130Q145 130 164 111T184 62Z" />
<glyph unicode="/" glyph-name="slash" horiz-adv-x="437" d="M410 716L113 0H27L324 716H410Z" />
<glyph unicode="0" glyph-name="zero" horiz-adv-x="638" d="M44 342Q44 498 121 599Q198 700 319 700Q440 700 517 598Q594 497 594 342Q594 188 517 85Q440 -16 319 -16Q198 -16 121 85Q44 188 44 342ZM500 342Q500 460 450 536Q401 612 319 612Q237 612 188
536Q138 460 138 342Q138 224 188 147Q237 72 319 72Q401 72 450 148Q500 225 500 342Z" />
<glyph unicode="1" glyph-name="one" horiz-adv-x="384" d="M300 684V0H208V570L75 512L40 590L241 684H300Z" />
<glyph unicode="2" glyph-name="two" horiz-adv-x="520" d="M476 88V0H40V92L217 271Q306 362 340 407T374 503Q374 548 339 580T249 612Q202 612 168 584T124 516L40 550Q60 613 117 656T251 700Q344 700 406 643T468 503Q468 404 359 289L159 88H476Z" />
<glyph unicode="3" glyph-name="three" horiz-adv-x="531" d="M491 194Q491 104 424 44Q358 -16 260 -16Q183 -16 121 30Q58 78 36 155L120 190Q136 133 172 103T260 72Q316 72 357 107Q397 143 397 194Q397 245 355 280Q314 315 256 315H197V401H249Q304 401
339 431T374 511Q374 556 341 584T254 612Q167 612 135 523L50 559Q73 622 127 661T254 700Q345 700 407 646Q468 594 468 511Q468 412 376 364V360Q430 337 460 293T491 194Z" />
<glyph unicode="4" glyph-name="four" horiz-adv-x="589" d="M457 144V0H365V144H40V214L357 684H457V230H545V144H457ZM144 230H365V549H361L144 230Z" />
<glyph unicode="5" glyph-name="five" horiz-adv-x="555" d="M507 214Q507 116 439 50T271 -16Q191 -16 126 34T40 169L122 202Q137 142 176 107T269 72Q333 72 373 111T414 213Q414 276 374 316T270 356Q197 356 155 297L62 337L106 684H465V596H183L158 400L162
399Q213 440 286 440Q378 440 442 375T507 214Z" />
<glyph unicode="6" glyph-name="six" horiz-adv-x="549" d="M295 434Q378 434 443 368Q509 303 509 213Q509 121 439 52Q368 -16 275 -16Q176 -16 108 52Q40 120 40 213Q40 296 107 402L306 700L380 649L211 415L213 413Q244 434 295 434ZM133 212Q133 153 174
112Q215 72 275 72Q335 72 375 112Q416 153 416 212Q416 270 374 311Q333 352 275 352Q218 352 175 311Q133 270 133 212Z" />
<glyph unicode="7" glyph-name="seven" horiz-adv-x="523" d="M483 590L151 -16L69 26L386 596H40L42 684H483V590Z" />
<glyph unicode="8" glyph-name="eight" horiz-adv-x="544" d="M504 189Q504 101 437 43Q369 -16 272 -16Q175 -16 107 43Q40 101 40 189Q40 243 69 287T152 358V362Q112 388 88 426T63 506Q63 589 122 645Q180 700 272 700Q364 700 422 645Q481 589 481 506Q481
464 457 426T392 362V358Q446 332 475 288T504 189ZM157 508Q157 460 189 431T272 401Q323 401 355 430T387 508Q387 556 355 584T272 612Q221 612 189 584T157 508ZM134 194Q134 167 144 145T173 107T217 81T272 72Q302 72 327 81T370 106T399 145T410 194Q410
246 370 280Q330 315 272 315Q214 315 173 280Q134 245 134 194Z" />
<glyph unicode="9" glyph-name="nine" horiz-adv-x="549" d="M254 250Q172 250 105 315Q40 382 40 471Q40 564 110 631Q180 700 274 700Q373 700 441 632Q509 564 509 471Q509 388 442 282L243 -16L169 35L338 269L336 271Q304 250 254 250ZM416 472Q416 530 374
571Q333 612 274 612Q215 612 174 571Q133 530 133 472Q133 414 174 373Q217 332 274 332Q331 332 374 373Q416 413 416 472Z" />
<glyph unicode=":" glyph-name="colon" horiz-adv-x="232" d="M184 428Q184 400 165 380T116 360Q88 360 68 380T48 428Q48 457 68 476T116 496Q145 496 164 477T184 428ZM184 62Q184 34 165 14T116 -6Q88 -6 68 14T48 62Q48 91 68 110T116 130Q145 130 164 111T184 62Z" />
<glyph unicode=";" glyph-name="semicolon" horiz-adv-x="232" d="M184 428Q184 400 165 380T116 360Q88 360 68 380T48 428Q48 457 68 476T116 496Q145 496 164 477T184 428ZM87 -93L44 -65L98 19Q77 23 63 40T48 81Q48 110 68 129T116 149Q145 149 164 130T184
81Q184 54 164 22L87 -93Z" />
<glyph unicode="&lt;" glyph-name="less" horiz-adv-x="506" d="M446 136V52L56 237V305L446 490V406L152 273V269L446 136Z" />
<glyph unicode="=" glyph-name="equal" horiz-adv-x="562" d="M506 376H56V452H506V376ZM506 186H56V262H506V186Z" />
<glyph unicode="&gt;" glyph-name="greater" horiz-adv-x="506" d="M450 305V237L60 52V136L354 269V273L60 406V490L450 305Z" />
<glyph unicode="?" glyph-name="question" horiz-adv-x="493" d="M286 222H192V269Q192 310 208 342T271 417T334 485T351 542Q351 589 321 616T240 644Q153 644 122 548L36 584Q60 650 114 691T240 732Q330 732 387 679T445 542Q445 500 424 462T345 370T286
265V222ZM307 62Q307 34 288 14T239 -6Q211 -6 191 14T171 62Q171 91 191 110T239 130Q268 130 287 111T307 62Z" />
<glyph unicode="@" glyph-name="at" horiz-adv-x="868" d="M824 304Q824 208 784 152T674 96Q599 96 562 169Q513 96 422 96Q338 96 283 154Q228 212 228 300Q228 387 283 445Q339 504 418 504Q495 504 546 445H550V490H622V241Q622 161 681 161Q752 161 752 304Q752
434 660 526Q568 618 436 618Q304 618 212 526Q120 434 120 304Q120 173 212 81Q303 -10 436 -10Q508 -10 563 18L591 -50Q519 -82 436 -82Q329 -82 238 -31Q149 20 96 110Q70 156 57 205T44 305Q44 355 56 403T95 497Q121 542 157 578T238 638T333 676T436 690Q542
690 631 639Q721 588 772 498Q824 409 824 304ZM308 300Q308 272 317 249T342 208T381 182T429 172Q455 172 477 181T515 207T541 247T550 300Q550 328 541 352T516 392T477 418T429 428Q403 428 381 419T343 392T317 352T308 300Z" />
<glyph unicode="A" glyph-name="A" horiz-adv-x="668" d="M332 603L215 280H453L336 603H332ZM114 0H12L282 716H386L656 0H554L485 194H184L114 0Z" />
<glyph unicode="B" glyph-name="B" horiz-adv-x="594" d="M72 0V716H331Q416 716 477 660Q538 605 538 521Q538 415 441 372V368Q496 350 529 306T562 204Q562 116 498 58Q436 0 345 0H72ZM164 628V409H331Q380 409 413 442Q446 476 446 519Q446 561 414 595Q382
628 335 628H164ZM164 323V88H349Q399 88 434 123Q468 158 468 206Q468 253 433 288Q398 323 345 323H164Z" />
<glyph unicode="C" glyph-name="C" horiz-adv-x="729" d="M409 -16Q250 -16 143 91Q37 198 37 358Q37 518 143 624Q249 732 409 732Q571 732 672 615L606 551Q529 644 409 644Q290 644 210 564Q131 485 131 358Q131 231 210 152Q290 72 409 72Q534 72 626 177L693
112Q642 51 568 18T409 -16Z" />
<glyph unicode="D" glyph-name="D" horiz-adv-x="691" d="M72 0V716H291Q455 716 554 617T654 358Q654 197 555 99T291 0H72ZM164 628V88H291Q416 88 488 159T560 358Q560 484 488 556T291 628H164Z" />
<glyph unicode="E" glyph-name="E" horiz-adv-x="542" d="M490 716V628H164V401H458V315H164V88H490V0H72V716H490Z" />
<glyph unicode="F" glyph-name="F" horiz-adv-x="522" d="M164 307V0H72V716H490V628H164V393H458V307H164Z" />
<glyph unicode="G" glyph-name="G" horiz-adv-x="801" d="M761 329Q761 179 672 90Q572 -16 409 -16Q253 -16 145 92Q37 200 37 358Q37 516 145 624Q253 732 409 732Q488 732 558 704T673 625L607 559Q574 599 522 621T409 644Q292 644 211 563Q131 481 131 358Q131
235 211 153Q292 72 409 72Q516 72 587 132Q658 192 669 297H409V383H756Q761 355 761 329Z" />
<glyph unicode="H" glyph-name="H" horiz-adv-x="686" d="M164 0H72V716H164V409H522V716H614V0H522V323H164V0Z" />
<glyph unicode="I" glyph-name="I" horiz-adv-x="236" d="M164 0H72V716H164V0Z" />
<glyph unicode="J" glyph-name="J" horiz-adv-x="524" d="M247 -16Q166 -16 107 28T24 150L111 186Q145 72 247 72Q303 72 337 111T372 214V716H464V222Q464 111 406 48T247 -16Z" />
<glyph unicode="K" glyph-name="K" horiz-adv-x="622" d="M483 716H602V712L336 405L620 4V0H507L274 334L164 207V0H72V716H164V347H168L483 716Z" />
<glyph unicode="L" glyph-name="L" horiz-adv-x="498" d="M474 0H72V716H164V88H474V0Z" />
<glyph unicode="M" glyph-name="M" horiz-adv-x="830" d="M164 0H72V716H164L413 280H417L666 716H758V0H666V425L670 545H666L442 152H388L164 545H160L164 425V0Z" />
<glyph unicode="N" glyph-name="N" horiz-adv-x="696" d="M164 0H72V716H184L532 159H536L532 297V716H624V0H528L164 584H160L164 446V0Z" />
<glyph unicode="O" glyph-name="O" horiz-adv-x="810" d="M773 358Q773 199 667 92Q560 -16 405 -16Q249 -16 143 92Q37 199 37 358Q37 517 143 624Q249 732 405 732Q561 732 667 623Q773 516 773 358ZM131 358Q131 234 209 153Q288 72 405 72Q522 72 600 153Q679
233 679 358Q679 483 600 563Q522 644 405 644Q288 644 209 563Q131 482 131 358Z" />
<glyph unicode="P" glyph-name="P" horiz-adv-x="564" d="M164 290V0H72V716H316Q409 716 474 654Q540 592 540 503Q540 412 474 351Q410 290 316 290H164ZM164 628V378H318Q373 378 409 415Q446 452 446 503Q446 553 409 590Q373 628 318 628H164Z" />
<glyph unicode="Q" glyph-name="Q" horiz-adv-x="810" d="M698 -1L626 -48L577 25Q493 -16 405 -16Q249 -16 143 92Q37 199 37 358Q37 517 143 624Q249 732 405 732Q561 732 667 623Q773 516 773 358Q773 274 741 201T648 74L698 -1ZM405 72Q469 72 526 100L442
226L514 275L597 150Q679 229 679 358Q679 483 600 563Q522 644 405 644Q288 644 209 563Q131 482 131 358Q131 234 209 153Q288 72 405 72Z" />
<glyph unicode="R" glyph-name="R" horiz-adv-x="578" d="M164 628V376H312Q368 376 407 412T446 503Q446 553 410 590T318 628H164ZM164 0H72V716H316Q409 716 474 655T540 503Q540 429 492 372T369 298L367 295L568 4V0H459L266 290H164V0Z" />
<glyph unicode="S" glyph-name="S" horiz-adv-x="553" d="M514 191Q514 97 445 40Q375 -16 275 -16Q186 -16 118 36Q50 88 24 178L112 214Q121 182 137 156T174 112T222 83T277 72Q340 72 380 104T420 191Q420 236 387 268Q356 299 271 328Q185 359 164 370Q50
428 50 541Q50 620 113 676Q177 732 270 732Q352 732 412 690Q472 649 492 587L406 551Q394 591 359 617T272 644Q218 644 181 614Q144 586 144 541Q144 504 173 477Q205 450 312 413Q421 376 467 323T514 191Z" />
<glyph unicode="T" glyph-name="T" horiz-adv-x="540" d="M316 628V0H224V628H24V716H516V628H316Z" />
<glyph unicode="U" glyph-name="U" horiz-adv-x="642" d="M321 -16Q202 -16 129 62Q56 139 56 266V716H148V262Q148 174 194 123T321 72Q402 72 448 123T494 262V716H586V266Q586 136 514 60Q442 -16 321 -16Z" />
<glyph unicode="V" glyph-name="V" horiz-adv-x="632" d="M360 0H264L12 716H114L310 135H314L518 716H620L360 0Z" />
<glyph unicode="W" glyph-name="W" horiz-adv-x="922" d="M810 716H906L715 0H621L467 472H463L309 0H215L16 716H112L263 153H267L422 620H508L663 153H667L810 716Z" />
<glyph unicode="X" glyph-name="X" horiz-adv-x="632" d="M124 0H16L256 370L30 716H140L314 442H318L492 716H602L376 370L616 0H508L318 293H314L124 0Z" />
<glyph unicode="Y" glyph-name="Y" horiz-adv-x="594" d="M345 333V0H253V333L12 716H120L297 425H301L474 716H582L345 333Z" />
<glyph unicode="Z" glyph-name="Z" horiz-adv-x="564" d="M524 0H32V96L413 628H48V716H520V620L139 88H524V0Z" />
<glyph unicode="[" glyph-name="bracketleft" horiz-adv-x="308" d="M276 -124H72V792H276V716H156V-48H276V-124Z" />
<glyph unicode="\" glyph-name="backslash" horiz-adv-x="437" d="M113 716L410 0H324L27 716H113Z" />
<glyph unicode="]" glyph-name="bracketright" horiz-adv-x="308" d="M236 -124H32V-48H152V716H32V792H236V-124Z" />
<glyph unicode="^" glyph-name="asciicircum" horiz-adv-x="470" d="M271 716L458 410H362L237 628H233L108 410H12L199 716H271Z" />
<glyph unicode="_" glyph-name="underscore" horiz-adv-x="480" d="M480 -216H0V-140H480V-216Z" />
<glyph unicode="`" glyph-name="grave" horiz-adv-x="400" d="M196 716L248 588H168L96 716H196Z" />
<glyph unicode="a" glyph-name="a" horiz-adv-x="510" d="M123 150Q123 114 153 90T225 66Q283 66 328 109T374 210Q331 244 254 244Q198 244 161 217T123 150ZM242 506Q344 506 403 452T462 302V0H374V68H370Q313 -16 218 -16Q137 -16 83 32T28 152Q28 228 85
273T239 318Q321 318 374 288V309Q374 357 336 390T247 424Q170 424 125 359L44 410Q111 506 242 506Z" />
<glyph unicode="b" glyph-name="b" horiz-adv-x="576" d="M315 -16Q261 -16 217 7T148 68H144V0H56V716H148V490L144 422H148Q172 460 216 483T315 506Q412 506 479 430Q548 353 548 245Q548 136 479 60Q412 -16 315 -16ZM300 68Q366 68 411 118Q456 167 456 245Q456
322 411 372Q366 422 300 422Q233 422 188 372Q144 322 144 245Q144 167 188 117Q233 68 300 68Z" />
<glyph unicode="c" glyph-name="c" horiz-adv-x="522" d="M280 -16Q171 -16 99 58Q28 134 28 245Q28 358 99 432Q171 506 280 506Q355 506 411 469T495 365L411 330Q372 422 274 422Q211 422 165 371Q120 320 120 245Q120 170 165 119Q211 68 274 68Q375 68 416
160L498 125Q471 59 414 22T280 -16Z" />
<glyph unicode="d" glyph-name="d" horiz-adv-x="576" d="M276 68Q344 68 387 117Q432 166 432 245Q432 322 387 372Q343 422 276 422Q210 422 165 372Q120 322 120 245Q120 167 165 118Q210 68 276 68ZM261 -16Q165 -16 96 60Q28 137 28 245Q28 353 96 430Q165
506 261 506Q315 506 359 483T428 422H432L428 490V716H520V0H432V68H428Q404 30 360 7T261 -16Z" />
<glyph unicode="e" glyph-name="e" horiz-adv-x="536" d="M276 -16Q168 -16 98 58T28 245Q28 357 96 431T270 506Q379 506 443 436T508 238L507 228H122Q124 156 170 112T280 68Q368 68 418 156L500 116Q467 54 409 19T276 -16ZM129 304H410Q406 355 369 388T268
422Q216 422 179 390T129 304Z" />
<glyph unicode="f" glyph-name="f" horiz-adv-x="368" d="M282 724Q332 724 364 707L339 626Q315 638 285 638Q251 638 230 615T208 552V490H336V406H208V0H116V406H24V490H116V561Q116 634 162 679T282 724Z" />
<glyph unicode="g" glyph-name="g" horiz-adv-x="576" d="M276 68Q344 68 387 117Q432 166 432 245Q432 322 387 372Q343 422 276 422Q210 422 165 372Q120 322 120 245Q120 167 165 118Q210 68 276 68ZM273 -232Q232 -232 196 -222T131 -192T80 -147T48 -89L135
-53Q150 -96 187 -122T273 -148Q348 -148 390 -103T432 21V68H428Q402 29 358 7T261 -16Q165 -16 96 59Q28 136 28 245Q28 354 96 430Q165 506 261 506Q313 506 357 484T428 422H432V490H520V21Q520 -97 453 -164Q385 -232 273 -232Z" />
<glyph unicode="h" glyph-name="h" horiz-adv-x="542" d="M56 716H148V490L144 422H148Q169 458 212 482T303 506Q393 506 441 455T490 308V0H398V290Q398 422 281 422Q225 422 187 376T148 267V0H56V716Z" />
<glyph unicode="i" glyph-name="i" horiz-adv-x="220" d="M175 659Q175 632 156 613T110 594Q83 594 64 613T45 659Q45 686 64 705T110 724Q137 724 156 705T175 659ZM156 490V0H64V490H156Z" />
<glyph unicode="j" glyph-name="j" horiz-adv-x="220" d="M175 659Q175 632 156 613T110 594Q83 594 64 613T45 659Q45 686 64 705T110 724Q137 724 156 705T175 659ZM9 -226Q-21 -226 -45 -216L-21 -136Q-5 -142 6 -142Q62 -142 64 -73V490H156V-59Q156 -226 9 -226Z" />
<glyph unicode="k" glyph-name="k" horiz-adv-x="483" d="M487 0H376L223 231L148 157V0H56V716H148V275L360 490H478V486L287 296L487 4V0Z" />
<glyph unicode="l" glyph-name="l" horiz-adv-x="204" d="M148 716V0H56V716H148Z" />
<glyph unicode="m" glyph-name="m" horiz-adv-x="852" d="M148 0H56V490H144V422H148Q169 458 212 482T299 506Q353 506 394 481T454 412Q515 506 623 506Q708 506 754 454T800 306V0H708V292Q708 361 683 391T599 422Q546 422 510 377T474 271V0H382V292Q382
361 357 391T273 422Q220 422 184 377T148 271V0Z" />
<glyph unicode="n" glyph-name="n" horiz-adv-x="542" d="M56 490H144V422H148Q169 458 212 482T303 506Q393 506 441 455T490 308V0H398V302Q395 422 277 422Q222 422 185 378T148 271V0H56V490Z" />
<glyph unicode="o" glyph-name="o" horiz-adv-x="560" d="M28 245Q28 358 99 432Q171 506 280 506Q389 506 460 432Q532 358 532 245Q532 131 460 58Q389 -16 280 -16Q171 -16 99 58Q28 132 28 245ZM120 245Q120 166 166 117Q212 68 280 68Q348 68 394 117Q440
166 440 245Q440 323 394 372Q347 422 280 422Q213 422 166 372Q120 323 120 245Z" />
<glyph unicode="p" glyph-name="p" horiz-adv-x="572" d="M296 68Q362 68 407 118Q452 167 452 245Q452 322 407 372Q362 422 296 422Q229 422 184 372Q140 322 140 245Q140 167 184 117Q229 68 296 68ZM311 -16Q257 -16 213 7T144 68H140L144 0V-216H52V490H140V422H144Q168
460 212 483T311 506Q408 506 475 430Q544 353 544 245Q544 136 475 60Q408 -16 311 -16Z" />
<glyph unicode="q" glyph-name="q" horiz-adv-x="572" d="M520 -216H428V0L432 68H428Q404 30 360 7T261 -16Q165 -16 96 60Q28 137 28 245Q28 353 96 430Q165 506 261 506Q315 506 359 483T428 422H432V490H520V-216ZM276 68Q344 68 387 117Q432 166 432 245Q432
322 387 372Q343 422 276 422Q210 422 165 372Q120 322 120 245Q120 167 165 118Q210 68 276 68Z" />
<glyph unicode="r" glyph-name="r" horiz-adv-x="363" d="M148 0H56V490H144V410H148Q162 449 205 476T291 504Q331 504 359 492L331 403Q314 410 277 410Q225 410 187 368T148 270V0Z" />
<glyph unicode="s" glyph-name="s" horiz-adv-x="455" d="M431 136Q431 72 375 28T234 -16Q160 -16 104 22T24 124L106 159Q124 115 158 91T234 66Q278 66 307 85T337 130Q337 177 265 199L181 220Q38 256 38 358Q38 425 92 465T232 506Q297 506 349 475T423 392L341
358Q327 389 296 406T225 424Q189 424 161 406T132 362Q132 320 211 302L285 283Q431 247 431 136Z" />
<glyph unicode="t" glyph-name="t" horiz-adv-x="354" d="M250 -8Q190 -8 151 29T110 132V406H24V490H110V640H202V490H322V406H202V162Q202 113 221 96T264 78Q275 78 285 80T305 87L334 5Q298 -8 250 -8Z" />
<glyph unicode="u" glyph-name="u" horiz-adv-x="542" d="M486 0H398V68H394Q373 32 330 8T239 -16Q149 -16 101 35T52 182V490H144V188Q147 68 265 68Q320 68 357 112T394 219V490H486V0Z" />
<glyph unicode="v" glyph-name="v" horiz-adv-x="498" d="M294 0H202L4 490H104L248 110H250L396 490H494L294 0Z" />
<glyph unicode="w" glyph-name="w" horiz-adv-x="754" d="M750 490L592 0H498L376 376L255 0H162L4 490H100L209 120H210L331 490H426L547 120H548L656 490H750Z" />
<glyph unicode="x" glyph-name="x" horiz-adv-x="472" d="M289 249L464 0H356L235 181L116 0H8L181 249L12 490H116L237 317L352 490H460L289 249Z" />
<glyph unicode="y" glyph-name="y" horiz-adv-x="498" d="M494 490L187 -216H92L206 31L4 490H104L250 138H252L394 490H494Z" />
<glyph unicode="z" glyph-name="z" horiz-adv-x="460" d="M428 0H32V80L311 406H40V490H424V410L145 84H428V0Z" />
<glyph unicode="{" glyph-name="braceleft" horiz-adv-x="318" d="M286 -124H264Q188 -124 143 -80T98 41V203Q98 296 24 296V372Q98 372 98 465V627Q98 703 143 747T264 792H286V716H271Q182 716 182 615V449Q181 360 113 336V332Q180 310 182 222V53Q182 -48
271 -48H286V-124Z" />
<glyph unicode="|" glyph-name="bar" horiz-adv-x="228" d="M156 -120H72V792H156V-120Z" />
<glyph unicode="}" glyph-name="braceright" horiz-adv-x="318" d="M32 -124V-48H47Q136 -48 136 53V222Q138 310 205 332V336Q137 360 136 449V615Q136 716 47 716H32V792H54Q130 792 175 748T220 627V465Q220 372 294 372V296Q220 296 220 203V41Q220 -35 175
-79T54 -124H32Z" />
<glyph unicode="~" glyph-name="asciitilde" horiz-adv-x="530" d="M377 234Q346 234 261 266T155 299Q134 299 120 284T104 248H32Q32 306 67 344T153 382Q188 382 270 350T375 317Q396 317 410 332T426 368H498Q498 310 463 272T377 234Z" />
<glyph unicode="&#xa0;" glyph-name="uni00A0" horiz-adv-x="220" />
<glyph unicode="&#xa1;" glyph-name="exclamdown" horiz-adv-x="232" d="M162 10V-216H70V10L80 278H152L162 10ZM184 438Q184 410 165 390T116 370Q88 370 68 390T48 438Q48 467 68 486T116 506Q145 506 164 487T184 438Z" />
<glyph unicode="&#xa2;" glyph-name="cent" horiz-adv-x="522" d="M240 515Q213 507 191 491T154 453T129 402T120 342Q120 310 129 282T153 232T191 193T240 169V515ZM498 222Q447 102 316 85V0H240V86Q145 99 87 170Q28 241 28 342Q28 443 86 513Q145 584 240
598V684H316V599Q444 582 495 462L411 427Q381 497 316 514V170Q386 186 416 257L498 222Z" />
<glyph unicode="&#xa3;" glyph-name="sterling" horiz-adv-x="519" d="M32 0V80Q130 125 130 229V239L129 246H32V323H100Q32 425 32 502Q32 585 90 642T238 700Q310 700 362 661T436 558L352 523Q324 612 238 612Q188 612 156 580T124 502Q124 454 160 393T200
323H335V246H220Q220 150 161 91L164 88H342Q404 88 427 145L503 113Q458 2 345 0H32Z" />
<glyph unicode="&#xa4;" glyph-name="currency" horiz-adv-x="598" d="M113 91L60 145L120 203Q83 261 83 325Q83 395 120 447L60 506L113 560L172 503Q228 544 299 544Q370 544 426 503L485 560L538 506L479 448Q515 394 515 325Q515 257 479 203L538 145L485
91L426 148Q366 106 299 106Q266 106 234 116T172 148L113 91ZM167 325Q167 267 205 226Q244 186 299 186Q355 186 392 226Q431 266 431 325Q431 382 392 423Q354 464 299 464Q244 464 205 423Q167 382 167 325Z" />
<glyph unicode="&#xa5;" glyph-name="yen" horiz-adv-x="572" d="M501 242V166H334V0H242V166H71V242H242V326H71V402H193L12 684H117L286 402H290L455 684H560L382 402H501V326H334V242H501Z" />
<glyph unicode="&#xa6;" glyph-name="brokenbar" horiz-adv-x="228" d="M156 756V376H72V756H156ZM156 292V-120H72V292H156Z" />
<glyph unicode="&#xa7;" glyph-name="section" horiz-adv-x="535" d="M157 279Q157 226 232 193L358 146Q377 160 389 185T401 235Q401 284 366 315T240 374L236 375Q202 365 180 337T157 279ZM495 -41Q495 -126 430 -179T272 -232Q190 -232 126 -180T40 -39L126
-4Q143 -69 181 -106T272 -144Q326 -144 363 -115T401 -43Q401 4 366 35T243 93T109 164T63 277Q63 317 85 354T148 414Q63 465 63 557Q63 628 121 680T269 732Q340 732 397 689T473 587L388 552Q377 589 344 616T271 644Q223 644 190 618T157 557Q157 494 276
456T445 367T495 239Q495 149 430 101Q495 48 495 -41Z" />
<glyph unicode="&#xa8;" glyph-name="dieresis" horiz-adv-x="400" d="M173 659Q173 636 157 619T116 602Q94 602 77 619T59 659Q59 683 76 699T116 716Q141 716 157 700T173 659ZM341 659Q341 636 325 619T284 602Q262 602 245 619T227 659Q227 683 244 699T284
716Q309 716 325 700T341 659Z" />
<glyph unicode="&#xa9;" glyph-name="copyright" horiz-adv-x="532" d="M496 502Q496 407 428 339Q361 272 266 272Q170 272 103 339Q36 406 36 502Q36 597 103 664Q171 732 266 732Q360 732 428 664Q496 596 496 502ZM84 502Q84 428 138 374Q192 320 266 320Q341
320 394 373Q448 427 448 502Q448 578 395 631Q342 684 266 684Q191 684 137 630Q84 577 84 502ZM270 383Q219 383 185 417Q151 451 151 502Q151 552 185 586Q220 621 270 621Q318 621 357 582L325 553Q302 577 270 577Q240 577 219 555T197 502Q197 487 203 473T219
449T242 433T270 427Q308 427 330 458L364 431Q328 383 270 383Z" />
<glyph unicode="&#xaa;" glyph-name="ordfeminine" horiz-adv-x="478" d="M132 415Q132 385 158 367T222 348Q274 348 314 383T354 469Q340 481 306 492Q276 499 251 499Q194 499 163 477T132 415ZM208 272Q137 272 89 313T40 419Q40 486 93 526T232 566Q307 566
354 538V553Q354 598 323 626T244 654Q171 654 139 599L61 637Q80 680 127 706T240 732Q328 732 383 682T438 547V286H354V348H350Q329 313 291 293T208 272Z" />
<glyph unicode="&#xab;" glyph-name="guillemotleft" horiz-adv-x="556" d="M296 440L136 271L296 102L242 52L40 271L242 490L296 440ZM496 440L336 271L496 102L442 52L240 271L442 490L496 440Z" />
<glyph unicode="&#xac;" glyph-name="logicalnot" horiz-adv-x="562" d="M482 385V105H410V309H48V385H482Z" />
<glyph unicode="&#xad;" glyph-name="uni00AD" horiz-adv-x="432" d="M376 272H56V348H376V272Z" />
<glyph unicode="&#xae;" glyph-name="registered" horiz-adv-x="532" d="M496 502Q496 407 428 339Q361 272 266 272Q170 272 103 339Q36 406 36 502Q36 597 103 664Q171 732 266 732Q360 732 428 664Q496 596 496 502ZM84 502Q84 428 138 374Q192 320 266 320Q341
320 394 373Q448 427 448 502Q448 578 395 631Q342 684 266 684Q191 684 137 630Q84 577 84 502ZM235 515H281Q294 515 303 523T312 543Q312 571 275 571H235V515ZM314 389L259 473H235V389H189V615H285Q315 615 336 594T358 543Q358 520 344 502T308 477L306 475L366
391V389H314Z" />
<glyph unicode="&#xaf;" glyph-name="overscore" horiz-adv-x="400" d="M340 695V623H60V695H340Z" />
<glyph unicode="&#xb0;" glyph-name="degree" horiz-adv-x="325" d="M293 571Q293 517 254 480Q216 442 163 442Q110 442 70 480Q32 518 32 571Q32 624 70 662Q110 700 163 700Q217 700 255 662Q293 624 293 571ZM163 506Q188 506 206 525T225 571Q226 599 206
617T161 636Q136 636 118 617Q100 600 100 574Q100 561 104 549T117 527T137 511T163 506Z" />
<glyph unicode="&#xb1;" glyph-name="plusminus" horiz-adv-x="550" d="M494 372V296H313V139H237V296H56V372H237V529H313V372H494ZM494 76V0H56V76H494Z" />
<glyph unicode="&#xb2;" glyph-name="twosuperior" horiz-adv-x="304" d="M276 414V350H26V410L169 554Q202 589 202 616Q202 635 187 647T150 660Q101 660 89 602L24 629Q33 672 68 698T149 724Q201 724 237 694T274 616Q274 572 223 518L118 414H276Z" />
<glyph unicode="&#xb3;" glyph-name="threesuperior" horiz-adv-x="323" d="M158 342Q107 342 72 368T24 442L89 466Q102 406 158 406Q183 406 201 421T219 460Q219 510 148 510H118V570H147Q207 570 207 617Q207 636 193 648T157 660Q115 660 99 617L37 642Q65
724 157 724Q211 724 245 695T279 618Q279 571 234 543Q291 510 291 459Q291 433 281 412T253 375T211 351T158 342Z" />
<glyph unicode="&#xb4;" glyph-name="acute" horiz-adv-x="400" d="M304 716L232 588H152L204 716H304Z" />
<glyph unicode="&#xb5;" glyph-name="mu" horiz-adv-x="542" d="M486 490V0H398V68H394Q344 -16 243 -16Q190 -16 144 24H140L144 -32V-216H52V490H144V207Q144 68 265 68Q320 68 357 113T394 220V490H486Z" />
<glyph unicode="&#xb6;" glyph-name="paragraph" horiz-adv-x="624" d="M544 -216H460V628H376V-216H292V296H248Q152 296 88 355T24 506T88 657T248 716H544V-216Z" />
<glyph unicode="&#xb7;" glyph-name="middot" horiz-adv-x="176" d="M156 324Q156 296 137 276T88 256Q60 256 40 276T20 324Q20 353 40 372T88 392Q117 392 136 373T156 324Z" />
<glyph unicode="&#xb8;" glyph-name="cedilla" horiz-adv-x="400" d="M266 -141Q266 -181 237 -209T165 -237Q134 -237 108 -219T71 -170L123 -147Q134 -181 165 -181Q183 -181 194 -170T206 -141Q206 -123 195 -111T165 -99Q146 -99 132 -115L85 -93L120 0H176L155
-48L175 -46Q213 -46 239 -73T266 -141Z" />
<glyph unicode="&#xb9;" glyph-name="onesuperior" horiz-adv-x="242" d="M182 716V350H112V635L48 609L24 663L136 716H182Z" />
<glyph unicode="&#xba;" glyph-name="ordmasculine" horiz-adv-x="516" d="M480 502Q480 403 417 337Q354 272 258 272Q162 272 99 337Q36 403 36 502Q36 601 99 666Q162 732 258 732Q354 732 417 666Q480 601 480 502ZM124 502Q124 438 163 395Q203 352 258 352Q313
352 352 395Q392 438 392 502Q392 565 352 608Q313 652 258 652Q203 652 163 609Q124 565 124 502Z" />
<glyph unicode="&#xbb;" glyph-name="guillemotright" horiz-adv-x="556" d="M114 52L60 102L220 271L60 440L114 490L316 271L114 52ZM314 52L260 102L420 271L260 440L314 490L516 271L314 52Z" />
<glyph unicode="&#xbc;" glyph-name="onequarter" horiz-adv-x="736" d="M632 72V0H562V72H391V120L565 366H632V132H680V72H632ZM558 263L464 132H562V263H558ZM622 686L157 -8L100 29L566 724L622 686ZM206 716V350H136V635L72 609L48 663L160 716H206Z" />
<glyph unicode="&#xbd;" glyph-name="onehalf" horiz-adv-x="776" d="M720 64V0H470V60L613 204Q646 239 646 266Q646 285 631 297T594 310Q545 310 533 252L468 279Q477 322 512 348T593 374Q645 374 681 344T718 266Q718 222 667 168L562 64H720ZM614 686L149
-8L92 29L558 724L614 686ZM206 716V350H136V635L72 609L48 663L160 716H206Z" />
<glyph unicode="&#xbe;" glyph-name="threequarters" horiz-adv-x="829" d="M723 72V0H653V72H482V120L656 366H723V132H771V72H723ZM649 263L555 132H653V263H649ZM701 686L236 -8L179 29L645 724L701 686ZM182 342Q131 342 96 368T48 442L113 466Q126 406 182
406Q207 406 225 421T243 460Q243 510 172 510H142V570H171Q231 570 231 617Q231 636 217 648T181 660Q139 660 123 617L61 642Q89 724 181 724Q235 724 269 695T303 618Q303 571 258 543Q315 510 315 459Q315 433 305 412T277 375T235 351T182 342Z" />
<glyph unicode="&#xbf;" glyph-name="questiondown" horiz-adv-x="482" d="M196 278H290V231Q290 190 274 158T211 83T148 15T131 -42Q131 -89 161 -116T242 -144Q329 -144 360 -48L446 -84Q422 -150 368 -191T242 -232Q152 -232 95 -179T37 -42Q37 0 58 38T137
130T196 235V278ZM175 438Q175 467 195 486T243 506Q272 506 291 487T311 438Q311 410 292 390T243 370Q215 370 195 390T175 438Z" />
<glyph unicode="&#xc0;" glyph-name="Agrave" horiz-adv-x="668" d="M332 603L215 280H453L336 603H332ZM114 0H12L282 716H386L656 0H554L485 194H184L114 0ZM320 900L372 772H292L220 900H320Z" />
<glyph unicode="&#xc1;" glyph-name="Aacute" horiz-adv-x="668" d="M332 603L215 280H453L336 603H332ZM114 0H12L282 716H386L656 0H554L485 194H184L114 0ZM448 900L376 772H296L348 900H448Z" />
<glyph unicode="&#xc2;" glyph-name="Acircumflex" horiz-adv-x="668" d="M332 603L215 280H453L336 603H332ZM114 0H12L282 716H386L656 0H554L485 194H184L114 0ZM280 778H191V783L294 900H374L477 783V778H388L338 838H330L280 778Z" />
<glyph unicode="&#xc3;" glyph-name="Atilde" horiz-adv-x="668" d="M332 603L215 280H453L336 603H332ZM114 0H12L282 716H386L656 0H554L485 194H184L114 0ZM394 778Q370 778 328 800T278 823Q247 823 245 788H169Q169 841 201 873T280 906Q309 906 361 876Q391
861 396 861Q427 861 429 896H505Q505 843 473 811T394 778Z" />
<glyph unicode="&#xc4;" glyph-name="Adieresis" horiz-adv-x="668" d="M332 603L215 280H453L336 603H332ZM114 0H12L282 716H386L656 0H554L485 194H184L114 0ZM307 843Q307 820 291 803T250 786Q228 786 211 803T193 843Q193 867 210 883T250 900Q275 900 291
884T307 843ZM475 843Q475 820 459 803T418 786Q396 786 379 803T361 843Q361 867 378 883T418 900Q443 900 459 884T475 843Z" />
<glyph unicode="&#xc5;" glyph-name="Aring" horiz-adv-x="668" d="M294 756Q294 740 306 728T334 716Q351 716 362 728T374 756Q374 773 363 784T334 796Q318 796 306 785T294 756ZM332 603L215 280H453L336 603H332ZM485 194H184L114 0H12L267 676Q230 709 230
756Q230 778 238 797T260 830T294 852T334 860Q355 860 374 852T407 830T430 796T438 756Q438 708 401 677L656 0H554L485 194Z" />
<glyph unicode="&#xc6;" glyph-name="AE" horiz-adv-x="960" d="M490 628H486L280 280H490V628ZM908 0H490V194H229L114 0H4L436 716H908V628H582V401H876V315H582V88H908V0Z" />
<glyph unicode="&#xc7;" glyph-name="Ccedilla" horiz-adv-x="729" d="M515 -141Q515 -181 486 -209T414 -237Q383 -237 357 -219T320 -170L372 -147Q382 -181 414 -181Q432 -181 443 -170T455 -141Q455 -123 444 -111T414 -99Q394 -99 381 -115L334 -93L364 -13Q220
4 129 107Q37 211 37 358Q37 518 143 624Q249 732 409 732Q571 732 672 615L606 551Q529 644 409 644Q290 644 210 564Q131 485 131 358Q131 231 210 152Q290 72 409 72Q534 72 626 177L693 112Q644 54 572 20T418 -16L404 -48L424 -46Q462 -46 488 -73T515 -141Z"
/>
<glyph unicode="&#xc8;" glyph-name="Egrave" horiz-adv-x="542" d="M490 716V628H164V401H458V315H164V88H490V0H72V716H490ZM277 900L329 772H249L177 900H277Z" />
<glyph unicode="&#xc9;" glyph-name="Eacute" horiz-adv-x="542" d="M490 716V628H164V401H458V315H164V88H490V0H72V716H490ZM387 900L315 772H235L287 900H387Z" />
<glyph unicode="&#xca;" glyph-name="Ecircumflex" horiz-adv-x="542" d="M490 716V628H164V401H458V315H164V88H490V0H72V716H490ZM227 778H138V783L241 900H321L424 783V778H335L285 838H277L227 778Z" />
<glyph unicode="&#xcb;" glyph-name="Edieresis" horiz-adv-x="542" d="M490 716V628H164V401H458V315H164V88H490V0H72V716H490ZM250 843Q250 820 234 803T193 786Q171 786 154 803T136 843Q136 867 153 883T193 900Q218 900 234 884T250 843ZM418 843Q418 820
402 803T361 786Q339 786 322 803T304 843Q304 867 321 883T361 900Q386 900 402 884T418 843Z" />
<glyph unicode="&#xcc;" glyph-name="Igrave" horiz-adv-x="236" d="M164 0H72V716H164V0ZM106 900L158 772H78L6 900H106Z" />
<glyph unicode="&#xcd;" glyph-name="Iacute" horiz-adv-x="236" d="M164 0H72V716H164V0ZM230 900L158 772H78L130 900H230Z" />
<glyph unicode="&#xce;" glyph-name="Icircumflex" horiz-adv-x="236" d="M164 0H72V716H164V0ZM64 778H-25V783L78 900H158L261 783V778H172L122 838H114L64 778Z" />
<glyph unicode="&#xcf;" glyph-name="Idieresis" horiz-adv-x="236" d="M243 844Q243 821 227 804T186 787Q164 787 147 804T129 844Q129 868 146 884T186 901Q211 901 227 885T243 844ZM107 844Q107 821 91 804T50 787Q28 787 11 804T-7 844Q-7 868 10 884T50
901Q75 901 91 885T107 844ZM164 0H72V716H164V0Z" />
<glyph unicode="&#xd0;" glyph-name="Eth" horiz-adv-x="751" d="M714 358Q714 197 615 99T351 0H132V319H56V395H132V716H351Q515 716 614 617T714 358ZM224 319V88H351Q476 88 548 159T620 358Q620 484 548 556T351 628H224V395H424V319H224Z" />
<glyph unicode="&#xd1;" glyph-name="Ntilde" horiz-adv-x="696" d="M164 0H72V716H184L532 159H536L532 297V716H624V0H528L164 584H160L164 446V0ZM413 778Q389 778 347 800T297 823Q266 823 264 788H188Q188 841 220 873T299 906Q328 906 380 876Q410 861 415
861Q446 861 448 896H524Q524 843 492 811T413 778Z" />
<glyph unicode="&#xd2;" glyph-name="Ograve" horiz-adv-x="810" d="M773 358Q773 199 667 92Q560 -16 405 -16Q249 -16 143 92Q37 199 37 358Q37 517 143 624Q249 732 405 732Q561 732 667 623Q773 516 773 358ZM131 358Q131 234 209 153Q288 72 405 72Q522 72
600 153Q679 233 679 358Q679 483 600 563Q522 644 405 644Q288 644 209 563Q131 482 131 358ZM393 900L445 772H365L293 900H393Z" />
<glyph unicode="&#xd3;" glyph-name="Oacute" horiz-adv-x="810" d="M773 358Q773 199 667 92Q560 -16 405 -16Q249 -16 143 92Q37 199 37 358Q37 517 143 624Q249 732 405 732Q561 732 667 623Q773 516 773 358ZM131 358Q131 234 209 153Q288 72 405 72Q522 72
600 153Q679 233 679 358Q679 483 600 563Q522 644 405 644Q288 644 209 563Q131 482 131 358ZM517 900L445 772H365L417 900H517Z" />
<glyph unicode="&#xd4;" glyph-name="Ocircumflex" horiz-adv-x="810" d="M773 358Q773 199 667 92Q560 -16 405 -16Q249 -16 143 92Q37 199 37 358Q37 517 143 624Q249 732 405 732Q561 732 667 623Q773 516 773 358ZM131 358Q131 234 209 153Q288 72 405 72Q522
72 600 153Q679 233 679 358Q679 483 600 563Q522 644 405 644Q288 644 209 563Q131 482 131 358ZM351 779H262V784L365 901H445L548 784V779H459L409 839H401L351 779Z" />
<glyph unicode="&#xd5;" glyph-name="Otilde" horiz-adv-x="810" d="M773 358Q773 199 667 92Q560 -16 405 -16Q249 -16 143 92Q37 199 37 358Q37 517 143 624Q249 732 405 732Q561 732 667 623Q773 516 773 358ZM131 358Q131 234 209 153Q288 72 405 72Q522 72
600 153Q679 233 679 358Q679 483 600 563Q522 644 405 644Q288 644 209 563Q131 482 131 358ZM462 778Q438 778 396 800T346 823Q315 823 313 788H237Q237 841 269 873T348 906Q377 906 429 876Q459 861 464 861Q495 861 497 896H573Q573 843 541 811T462 778Z"
/>
<glyph unicode="&#xd6;" glyph-name="Odieresis" horiz-adv-x="810" d="M773 358Q773 199 667 92Q560 -16 405 -16Q249 -16 143 92Q37 199 37 358Q37 517 143 624Q249 732 405 732Q561 732 667 623Q773 516 773 358ZM131 358Q131 234 209 153Q288 72 405 72Q522
72 600 153Q679 233 679 358Q679 483 600 563Q522 644 405 644Q288 644 209 563Q131 482 131 358ZM378 843Q378 820 362 803T321 786Q299 786 282 803T264 843Q264 867 281 883T321 900Q346 900 362 884T378 843ZM546 843Q546 820 530 803T489 786Q467 786 450
803T432 843Q432 867 449 883T489 900Q514 900 530 884T546 843Z" />
<glyph unicode="&#xd7;" glyph-name="multiply" horiz-adv-x="542" d="M482 116L431 65L271 221L111 65L60 116L219 271L60 426L111 477L271 321L431 477L482 426L323 271L482 116Z" />
<glyph unicode="&#xd8;" glyph-name="Oslash" horiz-adv-x="810" d="M405 644Q288 644 210 563T131 358Q131 220 225 138L524 618Q470 644 405 644ZM405 72Q522 72 600 153T679 358Q679 494 586 577L287 98Q341 72 405 72ZM773 358Q773 200 667 92T405 -16Q316
-16 240 22L203 -37L140 2L177 61Q111 113 74 191T37 358Q37 516 143 624T405 732Q493 732 571 693L609 754L671 714L633 654Q700 601 736 524T773 358Z" />
<glyph unicode="&#xd9;" glyph-name="Ugrave" horiz-adv-x="642" d="M321 -16Q202 -16 129 62Q56 139 56 266V716H148V262Q148 174 194 123T321 72Q402 72 448 123T494 262V716H586V266Q586 136 514 60Q442 -16 321 -16ZM315 900L367 772H287L215 900H315Z" />
<glyph unicode="&#xda;" glyph-name="Uacute" horiz-adv-x="642" d="M321 -16Q202 -16 129 62Q56 139 56 266V716H148V262Q148 174 194 123T321 72Q402 72 448 123T494 262V716H586V266Q586 136 514 60Q442 -16 321 -16ZM427 900L355 772H275L327 900H427Z" />
<glyph unicode="&#xdb;" glyph-name="Ucircumflex" horiz-adv-x="642" d="M321 -16Q202 -16 129 62Q56 139 56 266V716H148V262Q148 174 194 123T321 72Q402 72 448 123T494 262V716H586V266Q586 136 514 60Q442 -16 321 -16ZM267 778H178V783L281 900H361L464
783V778H375L325 838H317L267 778Z" />
<glyph unicode="&#xdc;" glyph-name="Udieresis" horiz-adv-x="642" d="M321 -16Q202 -16 129 62Q56 139 56 266V716H148V262Q148 174 194 123T321 72Q402 72 448 123T494 262V716H586V266Q586 136 514 60Q442 -16 321 -16ZM294 843Q294 820 278 803T237 786Q215
786 198 803T180 843Q180 867 197 883T237 900Q262 900 278 884T294 843ZM462 843Q462 820 446 803T405 786Q383 786 366 803T348 843Q348 867 365 883T405 900Q430 900 446 884T462 843Z" />
<glyph unicode="&#xdd;" glyph-name="Yacute" horiz-adv-x="594" d="M345 333V0H253V333L12 716H120L297 425H301L474 716H582L345 333ZM403 900L331 772H251L303 900H403Z" />
<glyph unicode="&#xde;" glyph-name="Thorn" horiz-adv-x="564" d="M164 506V256H318Q373 256 409 293Q446 330 446 381Q446 431 409 468Q373 506 318 506H164ZM164 168V0H72V716H164V594H316Q409 594 474 532Q540 470 540 381Q540 290 474 229Q410 168 316 168H164Z" />
<glyph unicode="&#xdf;" glyph-name="germandbls" horiz-adv-x="562" d="M412 389V385Q530 334 530 211Q530 116 466 54T301 -8L248 -4V84L301 80Q358 80 397 118T436 211Q436 264 394 302T293 340H256V426H281Q338 426 371 456T404 538Q404 584 371 614T287 644Q230
644 198 610T166 516V0H72V516Q72 613 130 672T287 732Q378 732 438 677T498 538Q498 433 412 389Z" />
<glyph unicode="&#xe0;" glyph-name="agrave" horiz-adv-x="510" d="M123 150Q123 114 153 90T225 66Q283 66 328 109T374 210Q331 244 254 244Q198 244 161 217T123 150ZM242 506Q344 506 403 452T462 302V0H374V68H370Q313 -16 218 -16Q137 -16 83 32T28 152Q28
228 85 273T239 318Q321 318 374 288V309Q374 357 336 390T247 424Q170 424 125 359L44 410Q111 506 242 506ZM252 716L304 588H224L152 716H252Z" />
<glyph unicode="&#xe1;" glyph-name="aacute" horiz-adv-x="510" d="M123 150Q123 114 153 90T225 66Q283 66 328 109T374 210Q331 244 254 244Q198 244 161 217T123 150ZM242 506Q344 506 403 452T462 302V0H374V68H370Q313 -16 218 -16Q137 -16 83 32T28 152Q28
228 85 273T239 318Q321 318 374 288V309Q374 357 336 390T247 424Q170 424 125 359L44 410Q111 506 242 506ZM357 716L285 588H205L257 716H357Z" />
<glyph unicode="&#xe2;" glyph-name="acircumflex" horiz-adv-x="510" d="M123 150Q123 114 153 90T225 66Q283 66 328 109T374 210Q331 244 254 244Q198 244 161 217T123 150ZM242 506Q344 506 403 452T462 302V0H374V68H370Q313 -16 218 -16Q137 -16 83 32T28
152Q28 228 85 273T239 318Q321 318 374 288V309Q374 357 336 390T247 424Q170 424 125 359L44 410Q111 506 242 506ZM194 594H105V599L208 716H288L391 599V594H302L252 654H244L194 594Z" />
<glyph unicode="&#xe3;" glyph-name="atilde" horiz-adv-x="510" d="M123 150Q123 114 153 90T225 66Q283 66 328 109T374 210Q331 244 254 244Q198 244 161 217T123 150ZM242 506Q344 506 403 452T462 302V0H374V68H370Q313 -16 218 -16Q137 -16 83 32T28 152Q28
228 85 273T239 318Q321 318 374 288V309Q374 357 336 390T247 424Q170 424 125 359L44 410Q111 506 242 506ZM316 595Q292 595 250 617T200 640Q169 640 167 605H91Q91 658 123 690T202 723Q231 723 283 693Q313 678 318 678Q349 678 351 713H427Q427 660 395
628T316 595Z" />
<glyph unicode="&#xe4;" glyph-name="adieresis" horiz-adv-x="510" d="M123 150Q123 114 153 90T225 66Q283 66 328 109T374 210Q331 244 254 244Q198 244 161 217T123 150ZM242 506Q344 506 403 452T462 302V0H374V68H370Q313 -16 218 -16Q137 -16 83 32T28
152Q28 228 85 273T239 318Q321 318 374 288V309Q374 357 336 390T247 424Q170 424 125 359L44 410Q111 506 242 506ZM229 914Q229 891 213 874T172 857Q150 857 133 874T115 914Q115 938 132 954T172 971Q197 971 213 955T229 914ZM397 914Q397 891 381 874T340
857Q318 857 301 874T283 914Q283 938 300 954T340 971Q365 971 381 955T397 914Z" />
<glyph unicode="&#xe5;" glyph-name="aring" horiz-adv-x="510" d="M123 150Q123 114 153 90T225 66Q283 66 328 109T374 210Q331 244 254 244Q198 244 161 217T123 150ZM242 506Q344 506 403 452T462 302V0H374V68H370Q313 -16 218 -16Q137 -16 83 32T28 152Q28
228 85 273T239 318Q321 318 374 288V309Q374 357 336 390T247 424Q170 424 125 359L44 410Q111 506 242 506ZM153 924Q153 946 161 965T183 998T217 1020T257 1028Q278 1028 297 1020T330 998T353 964T361 924Q361 903 353 884T331 851T297 828T257 820Q236 820
217 828T184 850T161 884T153 924ZM213 924Q213 906 226 893T257 879Q275 879 288 892T301 924Q301 942 288 955T257 968Q239 968 226 955T213 924Z" />
<glyph unicode="&#xe6;" glyph-name="ae" horiz-adv-x="886" d="M477 304H760Q756 355 719 388T618 422Q566 422 527 390T477 304ZM626 -16Q561 -16 509 13T424 96Q356 -16 218 -16Q137 -16 83 32T28 152Q28 228 85 273T239 318Q327 318 378 288V309Q378 357 341
390T252 424Q171 424 134 355L50 396Q107 506 248 506Q309 506 357 480T433 406Q500 506 620 506Q729 506 793 436T858 238L857 228H470Q472 157 518 113T630 68Q718 68 768 156L850 116Q817 54 759 19T626 -16ZM123 150Q123 114 153 90T225 66Q284 66 331 109T378
210Q358 225 319 235Q290 244 254 244Q198 244 161 217T123 150Z" />
<glyph unicode="&#xe7;" glyph-name="ccedilla" horiz-adv-x="522" d="M384 -141Q384 -181 355 -209T283 -237Q252 -237 226 -219T189 -170L241 -147Q251 -181 283 -181Q301 -181 312 -170T324 -141Q324 -123 313 -111T283 -99Q263 -99 250 -115L203 -93L233 -12Q141
5 84 75Q28 146 28 245Q28 358 99 432Q171 506 280 506Q355 506 411 469T495 365L411 330Q372 422 274 422Q211 422 165 371Q120 320 120 245Q120 170 165 119Q211 68 274 68Q375 68 416 160L498 125Q472 61 417 24T287 -16L273 -48L293 -46Q331 -46 357 -73T384
-141Z" />
<glyph unicode="&#xe8;" glyph-name="egrave" horiz-adv-x="536" d="M276 -16Q168 -16 98 58T28 245Q28 357 96 431T270 506Q379 506 443 436T508 238L507 228H122Q124 156 170 112T280 68Q368 68 418 156L500 116Q467 54 409 19T276 -16ZM129 304H410Q406 355
369 388T268 422Q216 422 179 390T129 304ZM259 716L311 588H231L159 716H259Z" />
<glyph unicode="&#xe9;" glyph-name="eacute" horiz-adv-x="536" d="M276 -16Q168 -16 98 58T28 245Q28 357 96 431T270 506Q379 506 443 436T508 238L507 228H122Q124 156 170 112T280 68Q368 68 418 156L500 116Q467 54 409 19T276 -16ZM129 304H410Q406 355
369 388T268 422Q216 422 179 390T129 304ZM372 716L300 588H220L272 716H372Z" />
<glyph unicode="&#xea;" glyph-name="ecircumflex" horiz-adv-x="536" d="M276 -16Q168 -16 98 58T28 245Q28 357 96 431T270 506Q379 506 443 436T508 238L507 228H122Q124 156 170 112T280 68Q368 68 418 156L500 116Q467 54 409 19T276 -16ZM129 304H410Q406
355 369 388T268 422Q216 422 179 390T129 304ZM217 840H128V845L231 962H311L414 845V840H325L275 900H267L217 840Z" />
<glyph unicode="&#xeb;" glyph-name="edieresis" horiz-adv-x="536" d="M276 -16Q168 -16 98 58T28 245Q28 357 96 431T270 506Q379 506 443 436T508 238L507 228H122Q124 156 170 112T280 68Q368 68 418 156L500 116Q467 54 409 19T276 -16ZM129 304H410Q406
355 369 388T268 422Q216 422 179 390T129 304ZM239 914Q239 891 223 874T182 857Q160 857 143 874T125 914Q125 938 142 954T182 971Q207 971 223 955T239 914ZM407 914Q407 891 391 874T350 857Q328 857 311 874T293 914Q293 938 310 954T350 971Q375 971 391
955T407 914Z" />
<glyph unicode="&#xec;" glyph-name="igrave" horiz-adv-x="220" d="M156 490V0H64V490H156ZM356 716L408 588H328L256 716H356Z" />
<glyph unicode="&#xed;" glyph-name="iacute" horiz-adv-x="220" d="M156 490V0H64V490H156ZM476 716L404 588H324L376 716H476Z" />
<glyph unicode="&#xee;" glyph-name="icircumflex" horiz-adv-x="220" d="M156 490V0H64V490H156ZM312 594H223V599L326 716H406L509 599V594H420L370 654H362L312 594Z" />
<glyph unicode="&#xef;" glyph-name="idieresis" horiz-adv-x="220" d="M99 659Q99 636 83 619T42 602Q20 602 3 619T-15 659Q-15 683 2 699T42 716Q67 716 83 700T99 659ZM235 659Q235 636 219 619T178 602Q156 602 139 619T121 659Q121 683 138 699T178 716Q203
716 219 700T235 659ZM156 490V0H64V490H156Z" />
<glyph unicode="&#xf0;" glyph-name="eth" horiz-adv-x="571" d="M531 260Q531 137 463 60Q396 -16 285 -16Q184 -16 112 56Q40 129 40 232Q40 336 110 405Q180 474 278 474Q360 474 404 427L408 430Q373 509 313 559L184 502L156 569L242 607Q217 620 190 630T132
647L163 724Q262 697 334 647L435 692L463 626L396 596Q531 465 531 260ZM287 389Q221 389 178 344Q134 298 134 231Q134 163 177 117Q220 72 285 72Q349 72 393 117Q437 164 437 231Q437 298 393 344Q349 389 287 389Z" />
<glyph unicode="&#xf1;" glyph-name="ntilde" horiz-adv-x="542" d="M56 490H144V422H148Q169 458 212 482T303 506Q393 506 441 455T490 308V0H398V302Q395 422 277 422Q222 422 185 378T148 271V0H56V490ZM336 595Q312 595 270 617T220 640Q189 640 187 605H111Q111
658 143 690T222 723Q251 723 303 693Q333 678 338 678Q369 678 371 713H447Q447 660 415 628T336 595Z" />
<glyph unicode="&#xf2;" glyph-name="ograve" horiz-adv-x="560" d="M28 245Q28 358 99 432Q171 506 280 506Q389 506 460 432Q532 358 532 245Q532 131 460 58Q389 -16 280 -16Q171 -16 99 58Q28 132 28 245ZM120 245Q120 166 166 117Q212 68 280 68Q348 68 394
117Q440 166 440 245Q440 323 394 372Q347 422 280 422Q213 422 166 372Q120 323 120 245ZM263 716L315 588H235L163 716H263Z" />
<glyph unicode="&#xf3;" glyph-name="oacute" horiz-adv-x="560" d="M28 245Q28 358 99 432Q171 506 280 506Q389 506 460 432Q532 358 532 245Q532 131 460 58Q389 -16 280 -16Q171 -16 99 58Q28 132 28 245ZM120 245Q120 166 166 117Q212 68 280 68Q348 68 394
117Q440 166 440 245Q440 323 394 372Q347 422 280 422Q213 422 166 372Q120 323 120 245ZM388 716L316 588H236L288 716H388Z" />
<glyph unicode="&#xf4;" glyph-name="ocircumflex" horiz-adv-x="560" d="M28 245Q28 358 99 432Q171 506 280 506Q389 506 460 432Q532 358 532 245Q532 131 460 58Q389 -16 280 -16Q171 -16 99 58Q28 132 28 245ZM120 245Q120 166 166 117Q212 68 280 68Q348
68 394 117Q440 166 440 245Q440 323 394 372Q347 422 280 422Q213 422 166 372Q120 323 120 245ZM226 594H137V599L240 716H320L423 599V594H334L284 654H276L226 594Z" />
<glyph unicode="&#xf5;" glyph-name="otilde" horiz-adv-x="560" d="M28 245Q28 358 99 432Q171 506 280 506Q389 506 460 432Q532 358 532 245Q532 131 460 58Q389 -16 280 -16Q171 -16 99 58Q28 132 28 245ZM120 245Q120 166 166 117Q212 68 280 68Q348 68 394
117Q440 166 440 245Q440 323 394 372Q347 422 280 422Q213 422 166 372Q120 323 120 245ZM337 595Q313 595 271 617T221 640Q190 640 188 605H112Q112 658 144 690T223 723Q252 723 304 693Q334 678 339 678Q370 678 372 713H448Q448 660 416 628T337 595Z" />
<glyph unicode="&#xf6;" glyph-name="odieresis" horiz-adv-x="560" d="M28 245Q28 358 99 432Q171 506 280 506Q389 506 460 432Q532 358 532 245Q532 131 460 58Q389 -16 280 -16Q171 -16 99 58Q28 132 28 245ZM120 245Q120 166 166 117Q212 68 280 68Q348 68
394 117Q440 166 440 245Q440 323 394 372Q347 422 280 422Q213 422 166 372Q120 323 120 245ZM253 914Q253 891 237 874T196 857Q174 857 157 874T139 914Q139 938 156 954T196 971Q221 971 237 955T253 914ZM421 914Q421 891 405 874T364 857Q342 857 325 874T307
914Q307 938 324 954T364 971Q389 971 405 955T421 914Z" />
<glyph unicode="&#xf7;" glyph-name="divide" horiz-adv-x="550" d="M343 454Q343 426 324 406T275 386Q247 386 227 406T207 454Q207 483 227 502T275 522Q304 522 323 503T343 454ZM494 309V233H56V309H494ZM343 88Q343 60 324 40T275 20Q247 20 227 40T207
88Q207 117 227 136T275 156Q304 156 323 137T343 88Z" />
<glyph unicode="&#xf8;" glyph-name="oslash" horiz-adv-x="560" d="M280 422Q212 422 166 373T120 245Q120 168 164 120L344 408Q314 422 280 422ZM280 68Q348 68 394 117T440 245Q440 320 398 368L219 81Q249 68 280 68ZM532 245Q532 132 461 58T280 -16Q223
-16 173 6L148 -33L89 0L116 43Q28 118 28 245Q28 358 99 432T280 506Q340 506 390 482L416 524L474 490L446 446Q532 368 532 245Z" />
<glyph unicode="&#xf9;" glyph-name="ugrave" horiz-adv-x="542" d="M486 0H398V68H394Q373 32 330 8T239 -16Q149 -16 101 35T52 182V490H144V188Q147 68 265 68Q320 68 357 112T394 219V490H486V0ZM265 716L317 588H237L165 716H265Z" />
<glyph unicode="&#xfa;" glyph-name="uacute" horiz-adv-x="542" d="M486 0H398V68H394Q373 32 330 8T239 -16Q149 -16 101 35T52 182V490H144V188Q147 68 265 68Q320 68 357 112T394 219V490H486V0ZM375 716L303 588H223L275 716H375Z" />
<glyph unicode="&#xfb;" glyph-name="ucircumflex" horiz-adv-x="542" d="M486 0H398V68H394Q373 32 330 8T239 -16Q149 -16 101 35T52 182V490H144V188Q147 68 265 68Q320 68 357 112T394 219V490H486V0ZM217 834H128V839L231 956H311L414 839V834H325L275 894H267L217
834Z" />
<glyph unicode="&#xfc;" glyph-name="udieresis" horiz-adv-x="542" d="M486 0H398V68H394Q373 32 330 8T239 -16Q149 -16 101 35T52 182V490H144V188Q147 68 265 68Q320 68 357 112T394 219V490H486V0ZM246 659Q246 636 230 619T189 602Q167 602 150 619T132
659Q132 683 149 699T189 716Q214 716 230 700T246 659ZM414 659Q414 636 398 619T357 602Q335 602 318 619T300 659Q300 683 317 699T357 716Q382 716 398 700T414 659Z" />
<glyph unicode="&#xfd;" glyph-name="yacute" horiz-adv-x="498" d="M362 716L290 588H210L262 716H362ZM494 490L187 -216H92L206 31L4 490H104L250 138H252L394 490H494Z" />
<glyph unicode="&#xfe;" glyph-name="thorn" horiz-adv-x="576" d="M300 68Q366 68 411 118Q456 167 456 245Q456 322 411 372Q366 422 300 422Q233 422 188 372Q144 322 144 245Q144 167 188 117Q233 68 300 68ZM315 -16Q261 -16 217 7T148 68H144L148 0V-216H56V716H148V490L144
422H148Q172 460 216 483T315 506Q412 506 479 430Q548 353 548 245Q548 136 479 60Q412 -16 315 -16Z" />
<glyph unicode="&#xff;" glyph-name="ydieresis" horiz-adv-x="498" d="M494 490L187 -216H92L206 31L4 490H104L250 138H252L394 490H494ZM224 659Q224 636 208 619T167 602Q145 602 128 619T110 659Q110 683 127 699T167 716Q192 716 208 700T224 659ZM392 659Q392
636 376 619T335 602Q313 602 296 619T278 659Q278 683 295 699T335 716Q360 716 376 700T392 659Z" />
<glyph unicode="&#x2013;" glyph-name="endash" horiz-adv-x="592" d="M536 272H56V348H536V272Z" />
<glyph unicode="&#x2014;" glyph-name="emdash" horiz-adv-x="892" d="M836 272H56V348H836V272Z" />
<glyph unicode="&#x2018;" glyph-name="quoteleft" horiz-adv-x="232" d="M141 732L184 704L134 628Q155 624 169 607T184 566Q184 538 165 518T116 498Q87 499 68 519T48 568Q48 582 53 597T69 627L141 732Z" />
<glyph unicode="&#x2019;" glyph-name="quoteright" horiz-adv-x="232" d="M91 498L48 526L98 602Q77 606 63 623T48 664Q48 693 68 712T116 732Q145 732 164 713T184 664Q184 636 163 603L91 498Z" />
<glyph unicode="&#x201a;" glyph-name="quotesinglbase" horiz-adv-x="232" d="M91 -104L48 -76L98 0Q77 4 63 21T48 62Q48 91 68 110T116 130Q145 130 164 111T184 62Q184 34 163 1L91 -104Z" />
<glyph unicode="&#x201c;" glyph-name="quotedblleft" horiz-adv-x="408" d="M141 732L184 704L134 628Q155 624 169 607T184 566Q184 538 165 518T116 498Q87 499 68 519T48 568Q48 582 53 597T69 627L141 732ZM317 732L360 704L310 628Q331 624 345 607T360
566Q360 538 341 518T292 498Q263 499 244 519T224 568Q224 582 229 597T245 627L317 732Z" />
<glyph unicode="&#x201d;" glyph-name="quotedblright" horiz-adv-x="408" d="M267 498L224 526L274 602Q253 606 239 623T224 664Q224 693 244 712T292 732Q321 732 340 713T360 664Q360 636 339 603L267 498ZM91 498L48 526L98 602Q77 606 63 623T48 664Q48
693 68 712T116 732Q145 732 164 713T184 664Q184 636 163 603L91 498Z" />
<glyph unicode="&#x201e;" glyph-name="quotedblbase" horiz-adv-x="408" d="M267 -104L224 -76L274 0Q253 4 239 21T224 62Q224 91 244 110T292 130Q321 130 340 111T360 62Q360 34 339 1L267 -104ZM91 -104L48 -76L98 0Q77 4 63 21T48 62Q48 91 68 110T116 130Q145
130 164 111T184 62Q184 34 163 1L91 -104Z" />
<glyph unicode="&#x2022;" glyph-name="bullet" horiz-adv-x="400" d="M320 324Q320 275 285 240T200 204Q151 204 116 239T80 324Q80 374 115 409T200 444Q250 444 285 409T320 324Z" />
<glyph unicode="&#x2039;" glyph-name="guilsinglleft" horiz-adv-x="356" d="M296 440L136 271L296 102L242 52L40 271L242 490L296 440Z" />
<glyph unicode="&#x203a;" glyph-name="guilsinglright" horiz-adv-x="356" d="M114 52L60 102L220 271L60 440L114 490L316 271L114 52Z" />
</font>
</defs>
</svg>
