<?xml version="1.0" standalone="no"?>
<!DOCTYPE svg PUBLIC "-//W3C//DTD SVG 1.1//EN" "http://www.w3.org/Graphics/SVG/1.1/DTD/svg11.dtd">
<svg xmlns="http://www.w3.org/2000/svg">
  <defs>
    <font id="ProductSans" horiz-adv-x="582">
      <font-face font-family="Product Sans" units-per-em="1000" panose-1="2 11 4 3 3 5 2 4 2 3" ascent="960" descent="-253" alphabetic="0" />
      <glyph unicode=" " glyph-name="space" horiz-adv-x="220" />
      <glyph unicode="!" glyph-name="exclam" horiz-adv-x="232" d="M152,222H80L70,490V716h92V490L152,222ZM184,62q0-28-19.5-48T116-6Q88-6 68,14T48,62q0,29 20,48.5T116,130q29,0 48.5-19.5T184,62Z" />
      <glyph unicode="&quot;" glyph-name="quotedbl" horiz-adv-x="320" d="M128,716V490H44V716h84Zm148,0V490H192V716h84Z" />
      <glyph unicode="#" glyph-name="numbersign" horiz-adv-x="632" d="M238,279H374l20,135H258L238,279ZM412,0H332l30,203H226L196,0H116l30,203H23l13,76H158l20,135H53l12,76H189l29,194h80L269,490H405l29,194h80L485,490H608l-12-76H474L454,279H579l-12-76H442L412,0Z" />
      <glyph unicode="$" glyph-name="dollar" horiz-adv-x="533" d="M141,517q0-60 92-105V609q-42-7-67-32t-25-60ZM401,180q0,62-92,104V77q92,21 92,103ZM309-13v-87H233v86Q157-4 100,45T24,169l82,33q12-48 46.5-82.5T233,75V315Q133,355 91,403.5T49,517q0,71 51,122.5T233,699v85h76V696q62-10 107.5-47T478,562l-82-35q-18,62-87,79V381q102-43 143-89t41-110q0-79-49.5-130.5T309-13Z" />
      <glyph unicode="%" glyph-name="percent" horiz-adv-x="814" d="M374,529q0-70-51-121q-50-50-120-50q-69,0-121,50Q32,460 32,529q0,70 50,120q51,51 121,51t120-51q51-50 51-120ZM657,654L213-8L156,29L601,692l56-38ZM300,529q0,45-27.5,74.5T203,633q-41,0-69-30q-28-29-28-74t28-74q28-30 69-30q42,0 69.5,29.5T300,529ZM782,155q0-70-51-121Q681-16 611-16q-69,0-121,50q-50,52-50,121q0,70 50,120q51,51 121,51t120-51q51-50 51-120Zm-74,0q0,45-27.5,74.5T611,259q-41,0-69-30q-28-29-28-74t28-74q28-30 69-30q42,0 69.5,29.5T708,155Z" />
      <glyph unicode="&amp;" glyph-name="ampersand" horiz-adv-x="618" d="M514,124l67-88L512-16L463,49Q390-16 297-16Q188-16 112,57T36,237q0,63 33.5,119.5T160,448q-52,67-52,119q0,68 51,116.5T281,732q57,0 99-32.5T441,611l-79-42q-28,75-81,75q-35,0-57.5-21T201,567q0-34 23-64L461,193l64,107l72-44L514,124ZM120,237q0-72 51-120.5T297,68q71,0 115,48L211,381q-42-23-66.5-62T120,237Z" />
      <glyph unicode="&apos;" glyph-name="quotesingle" horiz-adv-x="172" d="M128,716V490H44V716h84Z" />
      <glyph unicode="(" glyph-name="parenleft" horiz-adv-x="330" d="M310,732q-69-82-112-194q-42-110-42-216q0-107 42-216Q241-6 310-88l-68-48Q159-39 111,80Q64,203 64,322q0,120 47,241q47,119 131,217l68-48Z" />
      <glyph unicode=")" glyph-name="parenright" horiz-adv-x="330" d="M88,780q42-48 74.5-102T218,563q48-120 48-241T218,80Q172-38 88-136L20-88Q89-6 132,106q42,109 42,216q0,106-42,216Q89,650 20,732l68,48Z" />
      <glyph unicode="*" glyph-name="asterisk" horiz-adv-x="436" d="M359,413l-62-45L221,472h-6L139,368L77,413l77,104l-2,7L40,562l24,73l111-40l5,3V716h76V598l5-3l111,40l24-73L284,524l-2-7l77-104Z" />
      <glyph unicode="+" glyph-name="plus" horiz-adv-x="550" d="M494,309V233H313V52H237V233H56v76H237V490h76V309H494Z" />
      <glyph unicode="," glyph-name="comma" horiz-adv-x="232" d="M87-112L44-84L98,0Q77,4 62.5,21T48,62q0,29 20,48.5T116,130q29,0 48.5-19.5T184,62q0-27-20-59L87-112Z" />
      <glyph unicode="-" glyph-name="hyphen" horiz-adv-x="432" d="M376,272H56v76H376V272Z" />
      <glyph unicode="." glyph-name="period" horiz-adv-x="232" d="M184,62q0-28-19.5-48T116-6Q88-6 68,14T48,62q0,29 20,48.5T116,130q29,0 48.5-19.5T184,62Z" />
      <glyph unicode="/" glyph-name="slash" horiz-adv-x="437" d="M410,716L113,0H27L324,716h86Z" />
      <glyph unicode="0" glyph-name="zero" horiz-adv-x="638" d="M44,342q0,156 77,257T319,700T517,598q77-101 77-256q0-154-77-257Q440-16 319-16T121,85Q44,188 44,342Zm456,0q0,118-50,194q-49,76-131,76T188,536q-50-76-50-194t50-195q49-75 131-75t131,76q50,77 50,194Z" />
      <glyph unicode="1" glyph-name="one" horiz-adv-x="384" d="M300,684V0H208V570L75,512L40,590l201,94h59Z" />
      <glyph unicode="2" glyph-name="two" horiz-adv-x="520" d="M476,88V0H40V92L217,271q89,91 123,136.5T374,503q0,45-35,77t-90,32q-47,0-81-28t-44-68L40,550q20,63 77,106.5T251,700q93,0 155-57t62-140q0-99-109-214L159,88H476Z" />
      <glyph unicode="3" glyph-name="three" horiz-adv-x="531" d="M491,194q0-90-67-150Q358-16 260-16q-77,0-139,46Q58,78 36,155l84,35q16-57 52.5-87.5T260,72q56,0 97,35q40,36 40,87t-42,86q-41,35-99,35H197v86h52q55,0 90,30.5T374,511q0,45-33,73t-87,28q-87,0-119-89L50,559q23,63 77,102t127,39q91,0 153-54q61-52 61-135q0-99-92-147v-4q54-23 84.5-67T491,194Z" />
      <glyph unicode="4" glyph-name="four" horiz-adv-x="589" d="M457,144V0H365V144H40v70L357,684H457V230h88V144H457ZM144,230H365V549h-4L144,230Z" />
      <glyph unicode="5" glyph-name="five" horiz-adv-x="555" d="M507,214q0-98-68-164T271-16q-80,0-145,50T40,169l82,33q15-60 54.5-95T269,72q64,0 104.5,39.5T414,213q0,63-40.5,103T270,356q-73,0-115-59L62,337l44,347H465V596H183L158,400l4-1q51,41 124,41q92,0 156.5-65T507,214Z" />
      <glyph unicode="6" glyph-name="six" horiz-adv-x="549" d="M295,434q83,0 148-66q66-65 66-155q0-92-70-161Q368-16 275-16q-99,0-167,68T40,213q0,83 67,189L306,700l74-51L211,415l2-2q31,21 82,21ZM133,212q0-59 41-100q41-40 101-40t100,40q41,41 41,100q0,58-42,99q-41,41-99,41q-57,0-100-41q-42-41-42-99Z" />
      <glyph unicode="7" glyph-name="seven" horiz-adv-x="523" d="M483,590L151-16L69,26L386,596H40l2,88H483V590Z" />
      <glyph unicode="8" glyph-name="eight" horiz-adv-x="544" d="M504,189q0-88-67-146Q369-16 272-16T107,43Q40,101 40,189q0,54 29,98.5T152,358v4q-40,26-64.5,64T63,506q0,83 59,139q58,55 150,55t150-55q59-56 59-139q0-42-24.5-80T392,362v-4q54-26 83-70.5T504,189ZM157,508q0-48 32-77.5T272,401t83,29.5T387,508t-32,76t-83,28t-83-28t-32-76ZM134,194q0-27 10.5-49t29-38.5T217,81t55-9t55,9t43.5,25.5t29,38.5T410,194q0,52-40,86q-40,35-98,35t-99-35q-39-35-39-86Z" />
      <glyph unicode="9" glyph-name="nine" horiz-adv-x="549" d="M254,250q-82,0-149,65Q40,382 40,471q0,93 70,160q70,69 164,69q99,0 167-68t68-161q0-83-67-189L243-16L169,35L338,269l-2,2q-32-21-82-21ZM416,472q0,58-42,99q-41,41-100,41T174,571t-41-99t41-99q43-41 100-41t100,41q42,40 42,99Z" />
      <glyph unicode=":" glyph-name="colon" horiz-adv-x="232" d="M184,428q0-28-19.5-48T116,360q-28,0-48,20T48,428q0,29 20,48.5T116,496q29,0 48.5-19.5T184,428Zm0-366q0-28-19.5-48T116-6Q88-6 68,14T48,62q0,29 20,48.5T116,130q29,0 48.5-19.5T184,62Z" />
      <glyph unicode=";" glyph-name="semicolon" horiz-adv-x="232" d="M184,428q0-28-19.5-48T116,360q-28,0-48,20T48,428q0,29 20,48.5T116,496q29,0 48.5-19.5T184,428ZM87-93L44-65L98,19Q77,23 62.5,40T48,81q0,29 20,48.5T116,149q29,0 48.5-19.5T184,81q0-27-20-59L87-93Z" />
      <glyph unicode="&lt;" glyph-name="less" horiz-adv-x="506" d="M446,136V52L56,237v68L446,490V406L152,273v-4L446,136Z" />
      <glyph unicode="=" glyph-name="equal" horiz-adv-x="562" d="M506,376H56v76H506V376Zm0-190H56v76H506V186Z" />
      <glyph unicode="&gt;" glyph-name="greater" horiz-adv-x="506" d="M450,305V237L60,52v84L354,269v4L60,406v84L450,305Z" />
      <glyph unicode="?" glyph-name="question" horiz-adv-x="493" d="M286,222H192v47q0,41 16.5,73t63,75t63,68T351,542q0,47-30,74.5T240,644q-87,0-118-96L36,584q24,66 78,107t126,41q90,0 147.5-53.5T445,542q0-42-21-80.5T345,370T286,265V222ZM307,62q0-28-19.5-48T239-6q-28,0-48,20T171,62q0,29 20,48.5T239,130q29,0 48.5-19.5T307,62Z" />
      <glyph unicode="@" glyph-name="at" horiz-adv-x="868" d="M824,304q0-96-40-152T674,96q-75,0-112,73Q513,96 422,96q-84,0-139,58T228,300q0,87 55,145q56,59 135,59q77,0 128-59h4v45h72V241q0-80 59-80q71,0 71,143q0,130-92,222T436,618T212,526T120,304q0-131 92-223q91-91 224-91q72,0 127,28l28-68Q519-82 436-82Q329-82 238-31Q149,20 96,110q-26,46-39,95T44,305q0,50 12.5,98.5T95,497t62.5,81t81,60.5t94.5,38T436,690q106,0 195-51q90-51 141-141q52-89 52-194Zm-516-4q0-28 9-51.5T342.5,208T381,181.5t48-9.5t48,9.5t38.5,26t25.5,40t9,52.5q0,28-9,52t-25.5,40.5t-38.5,26T429,428t-48-9.5T342.5,392T317,351.5T308,300Z" />
      <glyph unicode="A" glyph-name="A" horiz-adv-x="668" d="M332,603L215,280H453L336,603h-4ZM114,0H12L282,716H386L656,0H554L485,194H184L114,0Z" />
      <glyph unicode="B" glyph-name="B" horiz-adv-x="594" d="M72,0V716H331q85,0 146-56q61-55 61-139q0-106-97-149v-4q55-18 88-62.5T562,204q0-88-64-146Q436,0 345,0H72Zm92,628V409H331q49,0 82,33q33,34 33,77q0,42-32,76q-32,33-79,33H164Zm0-305V88H349q50,0 85,35q34,35 34,83q0,47-35,82t-88,35H164Z" />
      <glyph unicode="C" glyph-name="C" horiz-adv-x="729" d="M409-16Q250-16 143,91Q37,198 37,358T143,624Q249,732 409,732q162,0 263-117l-66-64q-77,93-197,93q-119,0-199-80q-79-79-79-206t79-206q80-80 199-80q125,0 217,105l67-65Q642,51 568,17.5T409-16Z" />
      <glyph unicode="D" glyph-name="D" horiz-adv-x="691" d="M72,0V716H291q164,0 263.5-99T654,358q0-161-99.5-259.5T291,0H72Zm92,628V88H291q125,0 197,71.5T560,358q0,126-72,198T291,628H164Z" />
      <glyph unicode="E" glyph-name="E" horiz-adv-x="542" d="M490,716V628H164V401H458V315H164V88H490V0H72V716H490Z" />
      <glyph unicode="F" glyph-name="F" horiz-adv-x="522" d="M164,307V0H72V716H490V628H164V393H458V307H164Z" />
      <glyph unicode="G" glyph-name="G" horiz-adv-x="801" d="M761,329q0-150-89-239Q572-16 409-16Q253-16 145,92T37,358T145,624T409,732q79,0 149-28t115-79l-66-66q-33,40-85.5,62.5T409,644q-117,0-198-81q-80-82-80-205t80-205q81-81 198-81q107,0 178,60t82,165H409v86H756q5-28 5-54Z" />
      <glyph unicode="H" glyph-name="H" horiz-adv-x="686" d="M164,0H72V716h92V409H522V716h92V0H522V323H164V0Z" />
      <glyph unicode="I" glyph-name="I" horiz-adv-x="236" d="M164,0H72V716h92V0Z" />
      <glyph unicode="J" glyph-name="J" horiz-adv-x="524" d="M247-16q-81,0-140,44T24,150l87,36Q145,72 247,72q56,0 90.5,39.5T372,214V716h92V222q0-111-58.5-174.5T247-16Z" />
      <glyph unicode="K" glyph-name="K" horiz-adv-x="622" d="M483,716H602v-4L336,405L620,4V0H507L274,334L164,207V0H72V716h92V347h4L483,716Z" />
      <glyph unicode="L" glyph-name="L" horiz-adv-x="498" d="M474,0H72V716h92V88H474V0Z" />
      <glyph unicode="M" glyph-name="M" horiz-adv-x="830" d="M164,0H72V716h92L413,280h4L666,716h92V0H666V425l4,120h-4L442,152H388L164,545h-4l4-120V0Z" />
      <glyph unicode="N" glyph-name="N" horiz-adv-x="696" d="M164,0H72V716H184L532,159h4l-4,138V716h92V0H528L164,584h-4l4-138V0Z" />
      <glyph unicode="O" glyph-name="O" horiz-adv-x="810" d="M773,358q0-159-106-266Q560-16 405-16Q249-16 143,92Q37,199 37,358T143,624Q249,732 405,732T667,623Q773,516 773,358Zm-642,0q0-124 78-205q79-81 196-81t195,81q79,80 79,205T600,563q-78,81-195,81T209,563q-78-81-78-205Z" />
      <glyph unicode="P" glyph-name="P" horiz-adv-x="564" d="M164,290V0H72V716H316q93,0 158-62q66-62 66-151q0-91-66-152q-64-61-158-61H164Zm0,338V378H318q55,0 91,37q37,37 37,88q0,50-37,87q-36,38-91,38H164Z" />
      <glyph unicode="Q" glyph-name="Q" horiz-adv-x="810" d="M698-1L626-48L577,25Q493-16 405-16Q249-16 143,92Q37,199 37,358T143,624Q249,732 405,732T667,623Q773,516 773,358q0-84-32.5-157T648,74L698-1ZM405,72q64,0 121,28L442,226l72,49l83-125q82,79 82,208q0,125-79,205q-78,81-195,81T209,563q-78-81-78-205t78-205q79-81 196-81Z" />
      <glyph unicode="R" glyph-name="R" horiz-adv-x="578" d="M164,628V376H312q56,0 95,36.5T446,503q0,50-36.5,87.5T318,628H164ZM164,0H72V716H316q93,0 158.5-61.5T540,503q0-74-48.5-131.5T369,298l-2-3L568,4V0H459L266,290H164V0Z" />
      <glyph unicode="S" glyph-name="S" horiz-adv-x="553" d="M514,191q0-94-69-151Q375-16 275-16q-89,0-157,52T24,178l88,36q9-32 25-58t37.5-44.5t47.5-29T277,72q63,0 103,32.5T420,191q0,45-33,77q-31,31-116,60q-86,31-107,42Q50,428 50,541q0,79 63,135q64,56 157,56q82,0 142-42q60-41 80-103l-86-36q-12,40-47.5,66.5T272,644q-54,0-91-30q-37-28-37-73q0-37 29-64q32-27 139-64q109-37 155.5-90.5T514,191Z" />
      <glyph unicode="T" glyph-name="T" horiz-adv-x="540" d="M316,628V0H224V628H24v88H516V628H316Z" />
      <glyph unicode="U" glyph-name="U" horiz-adv-x="642" d="M321-16Q202-16 129,62Q56,139 56,266V716h92V262q0-88 46-139T321,72t127,51t46,139V716h92V266q0-130-72-206T321-16Z" />
      <glyph unicode="V" glyph-name="V" horiz-adv-x="632" d="M360,0H264L12,716H114L310,135h4L518,716H620L360,0Z" />
      <glyph unicode="W" glyph-name="W" horiz-adv-x="922" d="M810,716h96L715,0H621L467,472h-4L309,0H215L16,716h96L263,153h4L422,620h86L663,153h4L810,716Z" />
      <glyph unicode="X" glyph-name="X" horiz-adv-x="632" d="M124,0H16L256,370L30,716H140L314,442h4L492,716H602L376,370L616,0H508L318,293h-4L124,0Z" />
      <glyph unicode="Y" glyph-name="Y" horiz-adv-x="594" d="M345,333V0H253V333L12,716H120L297,425h4L474,716H582L345,333Z" />
      <glyph unicode="Z" glyph-name="Z" horiz-adv-x="564" d="M524,0H32V96L413,628H48v88H520V620L139,88H524V0Z" />
      <glyph unicode="[" glyph-name="bracketleft" horiz-adv-x="308" d="M276-124H72V792H276V716H156V-48H276v-76Z" />
      <glyph unicode="\" glyph-name="backslash" horiz-adv-x="437" d="M113,716L410,0H324L27,716h86Z" />
      <glyph unicode="]" glyph-name="bracketright" horiz-adv-x="308" d="M236-124H32v76H152V716H32v76H236V-124Z" />
      <glyph unicode="^" glyph-name="asciicircum" horiz-adv-x="470" d="M271,716L458,410H362L237,628h-4L108,410H12L199,716h72Z" />
      <glyph unicode="_" glyph-name="underscore" horiz-adv-x="480" d="M480-216H0v76H480v-76Z" />
      <glyph unicode="`" glyph-name="grave" horiz-adv-x="400" d="M196,716l52-128H168L96,716H196Z" />
      <glyph unicode="a" glyph-name="a" horiz-adv-x="510" d="M123,150q0-36 30.5-60T225,66q58,0 103.5,43T374,210q-43,34-120,34q-56,0-93.5-27T123,150ZM242,506q102,0 161-54.5T462,302V0H374V68h-4Q313-16 218-16Q137-16 82.5,32T28,152q0,76 57.5,121T239,318q82,0 135-30v21q0,48-38,81.5T247,424q-77,0-122-65L44,410q67,96 198,96Z" />
      <glyph unicode="b" glyph-name="b" horiz-adv-x="576" d="M315-16q-54,0-98.5,23T148,68h-4V0H56V716h92V490l-4-68h4q24,38 68.5,61T315,506q97,0 164-76q69-77 69-185q0-109-69-185Q412-16 315-16ZM300,68q66,0 111,50q45,49 45,127q0,77-45,127T300,422q-67,0-112-50q-44-50-44-127q0-78 44-128q45-49 112-49Z" />
      <glyph unicode="c" glyph-name="c" horiz-adv-x="522" d="M280-16Q171-16 99,58Q28,134 28,245q0,113 71,187q72,74 181,74q75,0 131-37.5T495,365l-84-35q-39,92-137,92q-63,0-109-51q-45-51-45-126t45-126q46-51 109-51q101,0 142,92l82-35Q471,59 413.5,21.5T280-16Z" />
      <glyph unicode="d" glyph-name="d" horiz-adv-x="576" d="M276,68q68,0 111,49q45,49 45,128q0,77-45,127q-44,50-111,50q-66,0-111-50T120,245q0-78 45-127q45-50 111-50ZM261-16Q165-16 96,60Q28,137 28,245T96,430q69,76 165,76q54,0 98.5-23T428,422h4l-4,68V716h92V0H432V68h-4Q404,30 359.5,7T261-16Z" />
      <glyph unicode="e" glyph-name="e" horiz-adv-x="536" d="M276-16Q168-16 98,58T28,245q0,112 68,186.5T270,506q109,0 173.5-70.5T508,238l-1-10H122q2-72 48-116T280,68q88,0 138,88l82-40q-33-62-91.5-97T276-16ZM129,304H410q-4,51-41.5,84.5T268,422q-52,0-89.5-32T129,304Z" />
      <glyph unicode="f" glyph-name="f" horiz-adv-x="368" d="M282,724q50,0 82-17l-25-81q-24,12-54,12q-34,0-55.5-23.5T208,552V490H336V406H208V0H116V406H24v84h92v71q0,73 46.5,118T282,724Z" />
      <glyph unicode="g" glyph-name="g" horiz-adv-x="576" d="M276,68q68,0 111,49q45,49 45,128q0,77-45,127q-44,50-111,50q-66,0-111-50T120,245q0-78 45-127q45-50 111-50Zm-3-300q-41,0-77,10.5T130.5-192T80-147T48-89l87,36q15-43 52-69t86-26q75,0 117,45T432,21V68h-4Q402,29 357.5,6.5T261-16Q165-16 96,59Q28,136 28,245T96,430q69,76 165,76q52,0 96.5-22.5T428,422h4v68h88V21q0-118-67-185q-68-68-180-68Z" />
      <glyph unicode="h" glyph-name="h" horiz-adv-x="542" d="M56,716h92V490l-4-68h4q21,36 64.5,60T303,506q90,0 138.5-51.5T490,308V0H398V290q0,132-117,132q-56,0-94.5-46.5T148,267V0H56V716Z" />
      <glyph unicode="i" glyph-name="i" horiz-adv-x="220" d="M175,659q0-27-19-46t-46-19T64,613T45,659t19,46t46,19t46-19t19-46ZM156,490V0H64V490h92Z" />
      <glyph unicode="j" glyph-name="j" horiz-adv-x="220" d="M175,659q0-27-19-46t-46-19T64,613T45,659t19,46t46,19t46-19t19-46ZM9-226q-30,0-54,10l24,80q16-6 27-6q56,0 58,69V490h92V-59Q156-226 9-226Z" />
      <glyph unicode="k" glyph-name="k" horiz-adv-x="483" d="M487,0H376L223,231l-75-74V0H56V716h92V275L360,490H478v-4L287,296L487,4V0Z" />
      <glyph unicode="l" glyph-name="l" horiz-adv-x="204" d="M148,716V0H56V716h92Z" />
      <glyph unicode="m" glyph-name="m" horiz-adv-x="852" d="M148,0H56V490h88V422h4q21,36 64.5,60T299,506q54,0 95-25t60-69q61,94 169,94q85,0 131-52t46-148V0H708V292q0,69-25,99.5T599,422q-53,0-89-45T474,271V0H382V292q0,69-25,99.5T273,422q-53,0-89-45T148,271V0Z" />
      <glyph unicode="n" glyph-name="n" horiz-adv-x="542" d="M56,490h88V422h4q21,36 64.5,60T303,506q90,0 138.5-51.5T490,308V0H398V302q-3,120-121,120q-55,0-92-44.5T148,271V0H56V490Z" />
      <glyph unicode="o" glyph-name="o" horiz-adv-x="560" d="M28,245q0,113 71,187q72,74 181,74t180-74q72-74 72-187q0-114-72-187Q389-16 280-16T99,58Q28,132 28,245Zm92,0q0-79 46-128T280,68t114,49t46,128q0,78-46,127q-47,50-114,50T166,372q-46-49-46-127Z" />
      <glyph unicode="p" glyph-name="p" horiz-adv-x="572" d="M296,68q66,0 111,50q45,49 45,127q0,77-45,127T296,422q-67,0-112-50q-44-50-44-127q0-78 44-128q45-49 112-49Zm15-84q-54,0-98.5,23T144,68h-4l4-68V-216H52V490h88V422h4q24,38 68.5,61T311,506q97,0 164-76q69-77 69-185q0-109-69-185Q408-16 311-16Z" />
      <glyph unicode="q" glyph-name="q" horiz-adv-x="572" d="M520-216H428V0l4,68h-4Q404,30 359.5,7T261-16Q165-16 96,60Q28,137 28,245T96,430q69,76 165,76q54,0 98.5-23T428,422h4v68h88V-216ZM276,68q68,0 111,49q45,49 45,128q0,77-45,127q-44,50-111,50q-66,0-111-50T120,245q0-78 45-127q45-50 111-50Z" />
      <glyph unicode="r" glyph-name="r" horiz-adv-x="363" d="M148,0H56V490h88V410h4q14,39 57.5,66.5T291,504q40,0 68-12l-28-89q-17,7-54,7q-52,0-90.5-42T148,270V0Z" />
      <glyph unicode="s" glyph-name="s" horiz-adv-x="455" d="M431,136q0-64-56-108T234-16q-74,0-130,38.5T24,124l82,35q18-44 52.5-68.5T234,66q44,0 73.5,19T337,130q0,47-72,69l-84,21Q38,256 38,358q0,67 54.5,107.5T232,506q65,0 117.5-31T423,392l-82-34q-14,31-45.5,48.5T225,424q-36,0-64.5-18T132,362q0-42 79-60l74-19q146-36 146-147Z" />
      <glyph unicode="t" glyph-name="t" horiz-adv-x="354" d="M250-8q-60,0-99.5,37T110,132V406H24v84h86V640h92V490H322V406H202V162q0-49 19-66.5T264,78q11,0 21.5,2.5T305,87L334,5Q298-8 250-8Z" />
      <glyph unicode="u" glyph-name="u" horiz-adv-x="542" d="M486,0H398V68h-4Q373,32 329.5,8T239-16q-90,0-138.5,51.5T52,182V490h92V188Q147,68 265,68q55,0 92,44.5T394,219V490h92V0Z" />
      <glyph unicode="v" glyph-name="v" horiz-adv-x="498" d="M294,0H202L4,490H104L248,110h2L396,490h98L294,0Z" />
      <glyph unicode="w" glyph-name="w" horiz-adv-x="754" d="M750,490L592,0H498L376,376L255,0H162L4,490h96L209,120h1L331,490h95L547,120h1L656,490h94Z" />
      <glyph unicode="x" glyph-name="x" horiz-adv-x="472" d="M289,249L464,0H356L235,181L116,0H8L181,249L12,490H116L237,317L352,490H460L289,249Z" />
      <glyph unicode="y" glyph-name="y" horiz-adv-x="498" d="M494,490L187-216H92L206,31L4,490H104L250,138h2L394,490H494Z" />
      <glyph unicode="z" glyph-name="z" horiz-adv-x="460" d="M428,0H32V80L311,406H40v84H424V410L145,84H428V0Z" />
      <glyph unicode="{" glyph-name="braceleft" horiz-adv-x="318" d="M286-124H264q-76,0-121,44.5T98,41V203q0,93-74,93v76q74,0 74,93V627q0,76 45,120.5T264,792h22V716H271q-89,0-89-101V449q-1-89-69-113v-4q67-22 69-110V53q0-101 89-101h15v-76Z" />
      <glyph unicode="|" glyph-name="bar" horiz-adv-x="228" d="M156-120H72V792h84V-120Z" />
      <glyph unicode="}" glyph-name="braceright" horiz-adv-x="318" d="M32-124v76H47q89,0 89,101V222q2,88 69,110v4q-68,24-69,113V615q0,101-89,101H32v76H54q76,0 121-44.5T220,627V465q0-93 74-93V296q-74,0-74-93V41q0-76-45-120.5T54-124H32Z" />
      <glyph unicode="~" glyph-name="asciitilde" horiz-adv-x="530" d="M377,234q-31,0-116.5,32.5T155,299q-21,0-35-15t-16-36H32q0,58 35.5,96T153,382q35,0 117-32.5T375,317q21,0 35,15t16,36h72q0-58-35.5-96T377,234Z" />
      <glyph unicode="&#xa0;" glyph-name="uni00A0" horiz-adv-x="220" />
      <glyph unicode="&#xa1;" glyph-name="exclamdown" horiz-adv-x="232" d="M162,10V-216H70V10L80,278h72L162,10Zm22,428q0-28-19.5-48T116,370q-28,0-48,20T48,438q0,29 20,48.5T116,506q29,0 48.5-19.5T184,438Z" />
      <glyph unicode="&#xa2;" glyph-name="cent" horiz-adv-x="522" d="M240,515q-27-8-49-24t-37.5-38.5t-24.5-51T120,342q0-32 9-60t24.5-50.5t37.5-39T240,169V515ZM498,222Q447,102 316,85V0H240V86Q145,99 87,170Q28,241 28,342T86,513q59,71 154,85v86h76V599q128-17 179-137l-84-35q-30,70-95,87V170q70,16 100,87l82-35Z" />
      <glyph unicode="&#xa3;" glyph-name="sterling" horiz-adv-x="519" d="M32,0V80q98,45 98,149v10l-1,7H32v77h68Q32,425 32,502q0,83 58.5,140.5T238,700q72,0 124.5-39T436,558l-84-35q-28,89-114,89q-50,0-82-32t-32-78q0-48 36-109t40-70H335V246H220q0-96-59-155l3-3H342q62,0 85,57l76-32Q458,2 345,0H32Z" />
      <glyph unicode="&#xa4;" glyph-name="currency" horiz-adv-x="598" d="M113,91L60,145l60,58Q83,261 83,325q0,70 37,122L60,506l53,54l59-57q56,41 127,41t127-41l59,57l53-54l-59-58q36-54 36-123q0-68-36-122l59-58L485,91l-59,57q-60-42-127-42q-33,0-65.5,10.5T172,148L113,91Zm54,234q0-58 38-99q39-40 94-40q56,0 93,40q39,40 39,99q0,57-39,98q-38,41-93,41t-94-41q-38-41-38-98Z" />
      <glyph unicode="&#xa5;" glyph-name="yen" horiz-adv-x="572" d="M501,242V166H334V0H242V166H71v76H242v84H71v76H193L12,684H117L286,402h4L455,684H560L382,402H501V326H334V242H501Z" />
      <glyph unicode="&#xa6;" glyph-name="brokenbar" horiz-adv-x="228" d="M156,756V376H72V756h84Zm0-464V-120H72V292h84Z" />
      <glyph unicode="&#xa7;" glyph-name="section" horiz-adv-x="535" d="M157,279q0-53 75-86l126-47q19,14 31,39.5T401,235q0,49-35,80T240,374l-4,1q-34-10-56.5-38T157,279ZM495-41q0-85-65-138T272-232q-82,0-146,52T40-39L126-4q17-65 55.5-102.5T272-144q54,0 91.5,29T401-43q0,47-35,78T242.5,93t-134,71.5T63,277q0,40 22.5,77T148,414Q63,465 63,557q0,71 58,123t148,52q71,0 128-43t76-102l-85-35q-11,37-44,64.5T271,644q-48,0-81-26t-33-61q0-63 119.5-101t169-89T495,239q0-90-65-138q65-53 65-142Z" />
      <glyph unicode="&#xa8;" glyph-name="dieresis" horiz-adv-x="400" d="M173,659q0-23-16.5-40T116,602q-22,0-39.5,17.5T59,659q0,24 17,40.5T116,716q25,0 41-16t16-41Zm168,0q0-23-16.5-40T284,602q-22,0-39.5,17.5T227,659q0,24 17,40.5T284,716q25,0 41-16t16-41Z" />
      <glyph unicode="&#xa9;" glyph-name="copyright" horiz-adv-x="532" d="M496,502q0-95-68-163q-67-67-162-67q-96,0-163,67T36,502q0,95 67,162q68,68 163,68q94,0 162-68t68-162ZM84,502q0-74 54-128t128-54q75,0 128,53q54,54 54,129q0,76-53,129T266,684q-75,0-129-54Q84,577 84,502ZM270,383q-51,0-85,34t-34,85q0,50 34,84q35,35 85,35q48,0 87-39l-32-29q-23,24-55,24q-30,0-51.5-22T197,502q0-15 6-29t16-24t23-16t28-6q38,0 60,31l34-27q-36-48-94-48Z" />
      <glyph unicode="&#xaa;" glyph-name="ordfeminine" horiz-adv-x="478" d="M132,415q0-30 26-48.5T222,348q52,0 92,35.5T354,469q-14,12-48,23q-30,7-55,7q-57,0-88-22t-31-62Zm76-143q-71,0-119.5,41.5T40,419q0,67 53.5,107T232,566q75,0 122-28v15q0,45-31.5,73T244,654q-73,0-105-55L61,637q19,43 66.5,69T240,732q88,0 143-50.5T438,547V286H354v62h-4q-21-35-59-55.5T208,272Z" />
      <glyph unicode="&#xab;" glyph-name="guillemotleft" horiz-adv-x="556" d="M296,440L136,271L296,102L242,52L40,271L242,490l54-50Zm200,0L336,271L496,102L442,52L240,271L442,490l54-50Z" />
      <glyph unicode="&#xac;" glyph-name="logicalnot" horiz-adv-x="562" d="M482,385V105H410V309H48v76H482Z" />
      <glyph unicode="&#xad;" glyph-name="uni00AD" horiz-adv-x="432" d="M376,272H56v76H376V272Z" />
      <glyph unicode="&#xae;" glyph-name="registered" horiz-adv-x="532" d="M496,502q0-95-68-163q-67-67-162-67q-96,0-163,67T36,502q0,95 67,162q68,68 163,68q94,0 162-68t68-162ZM84,502q0-74 54-128t128-54q75,0 128,53q54,54 54,129q0,76-53,129T266,684q-75,0-129-54Q84,577 84,502Zm151,13h46q13,0 22,8t9,20q0,28-37,28H235V515Zm79-126l-55,84H235V389H189V615h96q30,0 51.5-21T358,543q0-23-14-41.5T308,477l-2-2l60-84v-2H314Z" />
      <glyph unicode="&#xaf;" glyph-name="macron" horiz-adv-x="400" d="M340,695V623H60v72H340Z" />
      <glyph unicode="&#xb0;" glyph-name="degree" horiz-adv-x="325" d="M293,571q0-54-39-91q-38-38-91-38T70,480q-38,38-38,91t38,91q40,38 93,38q54,0 92-38t38-91ZM163,506q25,0 43.5,19.5T225,571q1,28-19,46.5T161,636t-43-19q-18-17-18-43q0-13 4.5-25.5t13-22t20-15.5t25.5-5Z" />
      <glyph unicode="&#xb1;" glyph-name="plusminus" horiz-adv-x="550" d="M494,372V296H313V139H237V296H56v76H237V529h76V372H494Zm0-296V0H56V76H494Z" />
      <glyph unicode="&#xb2;" glyph-name="twosuperior" horiz-adv-x="304" d="M276,414V350H26v60L169,554q33,35 33,62q0,19-15,31.5T150,660q-49,0-61-58L24,629q9,43 44,69t81,26q52,0 88.5-30.5T274,616q0-44-51-98L118,414H276Z" />
      <glyph unicode="&#xb3;" glyph-name="threesuperior" horiz-adv-x="323" d="M158,342q-51,0-86.5,26T24,442l65,24q13-60 69-60q25,0 43,15.5T219,460q0,50-71,50H118v60h29q60,0 60,47q0,19-14.5,31T157,660q-42,0-58-43L37,642q28,82 120,82q54,0 88-29t34-77q0-47-45-75q57-33 57-84q0-26-10-47t-28-37t-42.5-24.5T158,342Z" />
      <glyph unicode="&#xb4;" glyph-name="acute" horiz-adv-x="400" d="M304,716L232,588H152l52,128H304Z" />
      <glyph unicode="&#xb5;" glyph-name="mu" horiz-adv-x="542" d="M486,490V0H398V68h-4Q344-16 243-16q-53,0-99,40h-4l4-56V-216H52V490h92V207Q144,68 265,68q55,0 92,45t37,107V490h92Z" />
      <glyph unicode="&#xb6;" glyph-name="paragraph" horiz-adv-x="624" d="M544-216H460V628H376V-216H292V296H248q-96,0-160,59T24,506T88,657t160,59H544V-216Z" />
      <glyph unicode="&#xb7;" glyph-name="periodcentered" horiz-adv-x="176" d="M156,324q0-28-19.5-48T88,256q-28,0-48,20T20,324q0,29 20,48.5T88,392q29,0 48.5-19.5T156,324Z" />
      <glyph unicode="&#xb8;" glyph-name="cedilla" horiz-adv-x="400" d="M266-141q0-40-29-68t-72-28q-31,0-57,18.5T71-170l52,23q11-34 42-34q18,0 29.5,11.5T206-141q0,18-11.5,30T165-99q-19,0-33-16L85-93L120,0h56L155-48l20,2q38,0 64.5-27T266-141Z" />
      <glyph unicode="&#xb9;" glyph-name="onesuperior" horiz-adv-x="242" d="M182,716V350H112V635L48,609L24,663l112,53h46Z" />
      <glyph unicode="&#xba;" glyph-name="ordmasculine" horiz-adv-x="516" d="M480,502q0-99-63-165q-63-65-159-65T99,337Q36,403 36,502T99,666q63,66 159,66t159-66q63-65 63-164Zm-356,0q0-64 39-107q40-43 95-43t94,43q40,43 40,107q0,63-40,106q-39,44-94,44t-95-43q-39-44-39-107Z" />
      <glyph unicode="&#xbb;" glyph-name="guillemotright" horiz-adv-x="556" d="M114,52L60,102L220,271L60,440l54,50L316,271L114,52Zm200,0l-54,50L420,271L260,440l54,50L516,271L314,52Z" />
      <glyph unicode="&#xbc;" glyph-name="onequarter" horiz-adv-x="736" d="M632,72V0H562V72H391v48L565,366h67V132h48V72H632ZM558,263L464,132h98V263h-4Zm64,423L157-8L100,29L566,724l56-38ZM206,716V350H136V635L72,609L48,663l112,53h46Z" />
      <glyph unicode="&#xbd;" glyph-name="onehalf" horiz-adv-x="776" d="M720,64V0H470V60L613,204q33,35 33,62q0,19-15,31.5T594,310q-49,0-61-58l-65,27q9,43 44,69t81,26q52,0 88.5-30.5T718,266q0-44-51-98L562,64H720ZM614,686L149-8L92,29L558,724l56-38ZM206,716V350H136V635L72,609L48,663l112,53h46Z" />
      <glyph unicode="&#xbe;" glyph-name="threequarters" horiz-adv-x="829" d="M723,72V0H653V72H482v48L656,366h67V132h48V72H723ZM649,263L555,132h98V263h-4Zm52,423L236-8L179,29L645,724l56-38ZM182,342q-51,0-86.5,26T48,442l65,24q13-60 69-60q25,0 43,15.5T243,460q0,50-71,50H142v60h29q60,0 60,47q0,19-14.5,31T181,660q-42,0-58-43L61,642q28,82 120,82q54,0 88-29t34-77q0-47-45-75q57-33 57-84q0-26-10-47t-28-37t-42.5-24.5T182,342Z" />
      <glyph unicode="&#xbf;" glyph-name="questiondown" horiz-adv-x="482" d="M196,278h94V231q0-41-16.5-73t-63-75t-63-68T131-42q0-47 30-74.5T242-144q87,0 118,96l86-36q-24-66-78-107T242-232q-90,0-147.5,53.5T37-42Q37,0 58,38.5T137,130t59,105v43ZM175,438q0,29 20,48.5T243,506q29,0 48.5-19.5T311,438q0-28-19.5-48T243,370q-28,0-48,20t-20,48Z" />
      <glyph unicode="&#xc0;" glyph-name="Agrave" horiz-adv-x="668" d="M332,603L215,280H453L336,603h-4ZM114,0H12L282,716H386L656,0H554L485,194H184L114,0ZM320,900l52-128H292L220,900H320Z" />
      <glyph unicode="&#xc1;" glyph-name="Aacute" horiz-adv-x="668" d="M332,603L215,280H453L336,603h-4ZM114,0H12L282,716H386L656,0H554L485,194H184L114,0ZM448,900L376,772H296l52,128H448Z" />
      <glyph unicode="&#xc2;" glyph-name="Acircumflex" horiz-adv-x="668" d="M332,603L215,280H453L336,603h-4ZM114,0H12L282,716H386L656,0H554L485,194H184L114,0ZM280,778H191v5L294,900h80L477,783v-5H388l-50,60h-8l-50-60Z" />
      <glyph unicode="&#xc3;" glyph-name="Atilde" horiz-adv-x="668" d="M332,603L215,280H453L336,603h-4ZM114,0H12L282,716H386L656,0H554L485,194H184L114,0ZM394,778q-24,0-66.5,22.5T278,823q-31,0-33-35H169q0,53 32.5,85.5T280,906q29,0 81-30q30-15 35-15q31,0 33,35h76q0-53-32.5-85.5T394,778Z" />
      <glyph unicode="&#xc4;" glyph-name="Adieresis" horiz-adv-x="668" d="M332,603L215,280H453L336,603h-4ZM114,0H12L282,716H386L656,0H554L485,194H184L114,0ZM307,843q0-23-16.5-40T250,786q-22,0-39.5,17.5T193,843q0,24 17,40.5T250,900q25,0 41-16t16-41Zm168,0q0-23-16.5-40T418,786q-22,0-39.5,17.5T361,843q0,24 17,40.5T418,900q25,0 41-16t16-41Z" />
      <glyph unicode="&#xc5;" glyph-name="Aring" horiz-adv-x="668" d="M294,756q0-16 12-28t28-12q17,0 28.5,12T374,756q0,17-11.5,28.5T334,796q-16,0-28-11.5T294,756Zm38-153L215,280H453L336,603h-4ZM485,194H184L114,0H12L267,676q-37,33-37,80q0,22 8,41t22.5,33T294,852t40,8t40-8t33.5-22.5T430,796t8-40q0-48-37-79L656,0H554L485,194Z" />
      <glyph unicode="&#xc6;" glyph-name="AE" horiz-adv-x="960" d="M490,628h-4L280,280H490V628ZM908,0H490V194H229L114,0H4L436,716H908V628H582V401H876V315H582V88H908V0Z" />
      <glyph unicode="&#xc7;" glyph-name="Ccedilla" horiz-adv-x="729" d="M515-141q0-40-29-68t-72-28q-31,0-57,18.5T320-170l52,23q10-34 42-34q18,0 29.5,11.5T455-141q0,18-11.5,30T414-99q-20,0-33-16L334-93l30,80Q220,4 129,107Q37,211 37,358q0,160 106,266Q249,732 409,732q162,0 263-117l-66-64q-77,93-197,93q-119,0-199-80q-79-79-79-206t79-206q80-80 199-80q125,0 217,105l67-65Q644,54 572,20T418-16L404-48l20,2q38,0 64.5-27T515-141Z" />
      <glyph unicode="&#xc8;" glyph-name="Egrave" horiz-adv-x="542" d="M490,716V628H164V401H458V315H164V88H490V0H72V716H490ZM277,900l52-128H249L177,900H277Z" />
      <glyph unicode="&#xc9;" glyph-name="Eacute" horiz-adv-x="542" d="M490,716V628H164V401H458V315H164V88H490V0H72V716H490ZM387,900L315,772H235l52,128H387Z" />
      <glyph unicode="&#xca;" glyph-name="Ecircumflex" horiz-adv-x="542" d="M490,716V628H164V401H458V315H164V88H490V0H72V716H490ZM227,778H138v5L241,900h80L424,783v-5H335l-50,60h-8l-50-60Z" />
      <glyph unicode="&#xcb;" glyph-name="Edieresis" horiz-adv-x="542" d="M490,716V628H164V401H458V315H164V88H490V0H72V716H490ZM250,843q0-23-16.5-40T193,786q-22,0-39.5,17.5T136,843q0,24 17,40.5T193,900q25,0 41-16t16-41Zm168,0q0-23-16.5-40T361,786q-22,0-39.5,17.5T304,843q0,24 17,40.5T361,900q25,0 41-16t16-41Z" />
      <glyph unicode="&#xcc;" glyph-name="Igrave" horiz-adv-x="236" d="M164,0H72V716h92V0ZM106,900l52-128H78L6,900H106Z" />
      <glyph unicode="&#xcd;" glyph-name="Iacute" horiz-adv-x="236" d="M164,0H72V716h92V0Zm66,900L158,772H78l52,128H230Z" />
      <glyph unicode="&#xce;" glyph-name="Icircumflex" horiz-adv-x="236" d="M164,0H72V716h92V0ZM64,778H-25v5L78,900h80L261,783v-5H172l-50,60h-8L64,778Z" />
      <glyph unicode="&#xcf;" glyph-name="Idieresis" horiz-adv-x="236" d="M243,844q0-23-16.5-40T186,787q-22,0-39.5,17.5T129,844q0,24 17,40.5T186,901q25,0 41-16t16-41Zm-136,0q0-23-16.5-40T50,787q-22,0-39.5,17.5T-7,844q0,24 17,40.5T50,901q25,0 41-16t16-41ZM164,0H72V716h92V0Z" />
      <glyph unicode="&#xd0;" glyph-name="Eth" horiz-adv-x="751" d="M714,358q0-161-99.5-259.5T351,0H132V319H56v76h76V716H351q164,0 263.5-99T714,358ZM224,319V88H351q125,0 197,71.5T620,358q0,126-72,198T351,628H224V395H424V319H224Z" />
      <glyph unicode="&#xd1;" glyph-name="Ntilde" horiz-adv-x="696" d="M164,0H72V716H184L532,159h4l-4,138V716h92V0H528L164,584h-4l4-138V0ZM413,778q-24,0-66.5,22.5T297,823q-31,0-33-35H188q0,53 32.5,85.5T299,906q29,0 81-30q30-15 35-15q31,0 33,35h76q0-53-32.5-85.5T413,778Z" />
      <glyph unicode="&#xd2;" glyph-name="Ograve" horiz-adv-x="810" d="M773,358q0-159-106-266Q560-16 405-16Q249-16 143,92Q37,199 37,358T143,624Q249,732 405,732T667,623Q773,516 773,358Zm-642,0q0-124 78-205q79-81 196-81t195,81q79,80 79,205T600,563q-78,81-195,81T209,563q-78-81-78-205ZM393,900l52-128H365L293,900H393Z" />
      <glyph unicode="&#xd3;" glyph-name="Oacute" horiz-adv-x="810" d="M773,358q0-159-106-266Q560-16 405-16Q249-16 143,92Q37,199 37,358T143,624Q249,732 405,732T667,623Q773,516 773,358Zm-642,0q0-124 78-205q79-81 196-81t195,81q79,80 79,205T600,563q-78,81-195,81T209,563q-78-81-78-205ZM517,900L445,772H365l52,128H517Z" />
      <glyph unicode="&#xd4;" glyph-name="Ocircumflex" horiz-adv-x="810" d="M773,358q0-159-106-266Q560-16 405-16Q249-16 143,92Q37,199 37,358T143,624Q249,732 405,732T667,623Q773,516 773,358Zm-642,0q0-124 78-205q79-81 196-81t195,81q79,80 79,205T600,563q-78,81-195,81T209,563q-78-81-78-205ZM351,779H262v5L365,901h80L548,784v-5H459l-50,60h-8l-50-60Z" />
      <glyph unicode="&#xd5;" glyph-name="Otilde" horiz-adv-x="810" d="M773,358q0-159-106-266Q560-16 405-16Q249-16 143,92Q37,199 37,358T143,624Q249,732 405,732T667,623Q773,516 773,358Zm-642,0q0-124 78-205q79-81 196-81t195,81q79,80 79,205T600,563q-78,81-195,81T209,563q-78-81-78-205ZM462,778q-24,0-66.5,22.5T346,823q-31,0-33-35H237q0,53 32.5,85.5T348,906q29,0 81-30q30-15 35-15q31,0 33,35h76q0-53-32.5-85.5T462,778Z" />
      <glyph unicode="&#xd6;" glyph-name="Odieresis" horiz-adv-x="810" d="M773,358q0-159-106-266Q560-16 405-16Q249-16 143,92Q37,199 37,358T143,624Q249,732 405,732T667,623Q773,516 773,358Zm-642,0q0-124 78-205q79-81 196-81t195,81q79,80 79,205T600,563q-78,81-195,81T209,563q-78-81-78-205ZM378,843q0-23-16.5-40T321,786q-22,0-39.5,17.5T264,843q0,24 17,40.5T321,900q25,0 41-16t16-41Zm168,0q0-23-16.5-40T489,786q-22,0-39.5,17.5T432,843q0,24 17,40.5T489,900q25,0 41-16t16-41Z" />
      <glyph unicode="&#xd7;" glyph-name="multiply" horiz-adv-x="542" d="M482,116L431,65L271,221L111,65L60,116L219,271L60,426l51,51L271,321L431,477l51-51L323,271L482,116Z" />
      <glyph unicode="&#xd8;" glyph-name="Oslash" horiz-adv-x="810" d="M405,644q-117,0-195.5-81T131,358q0-138 94-220L524,618q-54,26-119,26Zm0-572q117,0 195.5,81T679,358q0,136-93,219L287,98q54-26 118-26ZM773,358q0-158-106-266T405-16q-89,0-165,38L203-37L140,2l37,59Q111,113 74,191T37,358q0,158 106,266T405,732q88,0 166-39l38,61l62-40l-38-60q67-53 103.5-130.5T773,358Z" />
      <glyph unicode="&#xd9;" glyph-name="Ugrave" horiz-adv-x="642" d="M321-16Q202-16 129,62Q56,139 56,266V716h92V262q0-88 46-139T321,72t127,51t46,139V716h92V266q0-130-72-206T321-16Zm-6,916l52-128H287L215,900H315Z" />
      <glyph unicode="&#xda;" glyph-name="Uacute" horiz-adv-x="642" d="M321-16Q202-16 129,62Q56,139 56,266V716h92V262q0-88 46-139T321,72t127,51t46,139V716h92V266q0-130-72-206T321-16ZM427,900L355,772H275l52,128H427Z" />
      <glyph unicode="&#xdb;" glyph-name="Ucircumflex" horiz-adv-x="642" d="M321-16Q202-16 129,62Q56,139 56,266V716h92V262q0-88 46-139T321,72t127,51t46,139V716h92V266q0-130-72-206T321-16ZM267,778H178v5L281,900h80L464,783v-5H375l-50,60h-8l-50-60Z" />
      <glyph unicode="&#xdc;" glyph-name="Udieresis" horiz-adv-x="642" d="M321-16Q202-16 129,62Q56,139 56,266V716h92V262q0-88 46-139T321,72t127,51t46,139V716h92V266q0-130-72-206T321-16ZM294,843q0-23-16.5-40T237,786q-22,0-39.5,17.5T180,843q0,24 17,40.5T237,900q25,0 41-16t16-41Zm168,0q0-23-16.5-40T405,786q-22,0-39.5,17.5T348,843q0,24 17,40.5T405,900q25,0 41-16t16-41Z" />
      <glyph unicode="&#xdd;" glyph-name="Yacute" horiz-adv-x="594" d="M345,333V0H253V333L12,716H120L297,425h4L474,716H582L345,333Zm58,567L331,772H251l52,128H403Z" />
      <glyph unicode="&#xde;" glyph-name="Thorn" horiz-adv-x="564" d="M164,506V256H318q55,0 91,37q37,37 37,88q0,50-37,87q-36,38-91,38H164Zm0-338V0H72V716h92V594H316q93,0 158-62q66-62 66-151q0-91-66-152q-64-61-158-61H164Z" />
      <glyph unicode="&#xdf;" glyph-name="germandbls" horiz-adv-x="562" d="M412,389v-4q118-51 118-174q0-95-64.5-157T301-8L248-4V84l53-4q57,0 96,38t39,93q0,53-42.5,91T293,340H256v86h25q57,0 90,30t33,82q0,46-33.5,76T287,644q-57,0-89-34.5T166,516V0H72V516q0,97 58.5,156.5T287,732q91,0 151-55t60-139q0-105-86-149Z" />
      <glyph unicode="&#xe0;" glyph-name="agrave" horiz-adv-x="510" d="M123,150q0-36 30.5-60T225,66q58,0 103.5,43T374,210q-43,34-120,34q-56,0-93.5-27T123,150ZM242,506q102,0 161-54.5T462,302V0H374V68h-4Q313-16 218-16Q137-16 82.5,32T28,152q0,76 57.5,121T239,318q82,0 135-30v21q0,48-38,81.5T247,424q-77,0-122-65L44,410q67,96 198,96Zm10,210l52-128H224L152,716H252Z" />
      <glyph unicode="&#xe1;" glyph-name="aacute" horiz-adv-x="510" d="M123,150q0-36 30.5-60T225,66q58,0 103.5,43T374,210q-43,34-120,34q-56,0-93.5-27T123,150ZM242,506q102,0 161-54.5T462,302V0H374V68h-4Q313-16 218-16Q137-16 82.5,32T28,152q0,76 57.5,121T239,318q82,0 135-30v21q0,48-38,81.5T247,424q-77,0-122-65L44,410q67,96 198,96ZM357,716L285,588H205l52,128H357Z" />
      <glyph unicode="&#xe2;" glyph-name="acircumflex" horiz-adv-x="510" d="M123,150q0-36 30.5-60T225,66q58,0 103.5,43T374,210q-43,34-120,34q-56,0-93.5-27T123,150ZM242,506q102,0 161-54.5T462,302V0H374V68h-4Q313-16 218-16Q137-16 82.5,32T28,152q0,76 57.5,121T239,318q82,0 135-30v21q0,48-38,81.5T247,424q-77,0-122-65L44,410q67,96 198,96Zm-48,88H105v5L208,716h80L391,599v-5H302l-50,60h-8l-50-60Z" />
      <glyph unicode="&#xe3;" glyph-name="atilde" horiz-adv-x="510" d="M123,150q0-36 30.5-60T225,66q58,0 103.5,43T374,210q-43,34-120,34q-56,0-93.5-27T123,150ZM242,506q102,0 161-54.5T462,302V0H374V68h-4Q313-16 218-16Q137-16 82.5,32T28,152q0,76 57.5,121T239,318q82,0 135-30v21q0,48-38,81.5T247,424q-77,0-122-65L44,410q67,96 198,96Zm74,89q-24,0-66.5,22.5T200,640q-31,0-33-35H91q0,53 32.5,85.5T202,723q29,0 81-30q30-15 35-15q31,0 33,35h76q0-53-32.5-85.5T316,595Z" />
      <glyph unicode="&#xe4;" glyph-name="adieresis" horiz-adv-x="510" d="M123,150q0-36 30.5-60T225,66q58,0 103.5,43T374,210q-43,34-120,34q-56,0-93.5-27T123,150ZM242,506q102,0 161-54.5T462,302V0H374V68h-4Q313-16 218-16Q137-16 82.5,32T28,152q0,76 57.5,121T239,318q82,0 135-30v21q0,48-38,81.5T247,424q-77,0-122-65L44,410q67,96 198,96ZM229,658q0-23-16.5-40T172,601q-22,0-39.5,17.5T115,658q0,24 17,40.5T172,715q25,0 41-16t16-41Zm168,0q0-23-16.5-40T340,601q-22,0-39.5,17.5T283,658q0,24 17,40.5T340,715q25,0 41-16t16-41Z" />
      <glyph unicode="&#xe5;" glyph-name="aring" horiz-adv-x="510" d="M123,150q0-36 30.5-60T225,66q58,0 103.5,43T374,210q-43,34-120,34q-56,0-93.5-27T123,150ZM242,506q102,0 161-54.5T462,302V0H374V68h-4Q313-16 218-16Q137-16 82.5,32T28,152q0,76 57.5,121T239,318q82,0 135-30v21q0,48-38,81.5T247,424q-77,0-122-65L44,410q67,96 198,96ZM153,668q0,22 8,41t22.5,33T217,764t40,8t40-8t33.5-22.5T353,708t8-40t-8-40t-22.5-33.5T297,572t-40-8t-40,8t-33.5,22.5T161,628t-8,40Zm60,0q0-18 13-31.5T257,623t31,13.5T301,668t-13,31t-31,13t-31-13t-13-31Z" />
      <glyph unicode="&#xe6;" glyph-name="ae" horiz-adv-x="886" d="M477,304H760q-4,51-41.5,84.5T618,422q-52,0-91-32.5T477,304ZM626-16q-65,0-117.5,29T424,96Q356-16 218-16Q137-16 82.5,32T28,152q0,76 57.5,121T239,318q88,0 139-30v21q0,48-37.5,81.5T252,424q-81,0-118-69L50,396q57,110 198,110q61,0 109.5-26T433,406q67,100 187,100q109,0 173.5-70.5T858,238l-1-10H470q2-71 48.5-115.5T630,68q88,0 138,88l82-40q-33-62-91.5-97T626-16ZM123,150q0-36 30.5-60T225,66q59,0 106,43.5T378,210q-20,15-59,25q-29,9-65,9q-56,0-93.5-27T123,150Z" />
      <glyph unicode="&#xe7;" glyph-name="ccedilla" horiz-adv-x="522" d="M384-141q0-40-29-68t-72-28q-31,0-57,18.5T189-170l52,23q10-34 42-34q18,0 29.5,11.5T324-141q0,18-11.5,30T283-99q-20,0-33-16L203-93l30,81Q141,5 84,75Q28,146 28,245q0,113 71,187q72,74 181,74q75,0 131-37.5T495,365l-84-35q-39,92-137,92q-63,0-109-51q-45-51-45-126t45-126q46-51 109-51q101,0 142,92l82-35Q472,61 417,23.5T287-16L273-48l20,2q38,0 64.5-27T384-141Z" />
      <glyph unicode="&#xe8;" glyph-name="egrave" horiz-adv-x="536" d="M276-16Q168-16 98,58T28,245q0,112 68,186.5T270,506q109,0 173.5-70.5T508,238l-1-10H122q2-72 48-116T280,68q88,0 138,88l82-40q-33-62-91.5-97T276-16ZM129,304H410q-4,51-41.5,84.5T268,422q-52,0-89.5-32T129,304ZM259,716l52-128H231L159,716H259Z" />
      <glyph unicode="&#xe9;" glyph-name="eacute" horiz-adv-x="536" d="M276-16Q168-16 98,58T28,245q0,112 68,186.5T270,506q109,0 173.5-70.5T508,238l-1-10H122q2-72 48-116T280,68q88,0 138,88l82-40q-33-62-91.5-97T276-16ZM129,304H410q-4,51-41.5,84.5T268,422q-52,0-89.5-32T129,304ZM372,716L300,588H220l52,128H372Z" />
      <glyph unicode="&#xea;" glyph-name="ecircumflex" horiz-adv-x="536" d="M276-16Q168-16 98,58T28,245q0,112 68,186.5T270,506q109,0 173.5-70.5T508,238l-1-10H122q2-72 48-116T280,68q88,0 138,88l82-40q-33-62-91.5-97T276-16ZM129,304H410q-4,51-41.5,84.5T268,422q-52,0-89.5-32T129,304Zm88,280H128v5L231,706h80L414,589v-5H325l-50,60h-8l-50-60Z" />
      <glyph unicode="&#xeb;" glyph-name="edieresis" horiz-adv-x="536" d="M276-16Q168-16 98,58T28,245q0,112 68,186.5T270,506q109,0 173.5-70.5T508,238l-1-10H122q2-72 48-116T280,68q88,0 138,88l82-40q-33-62-91.5-97T276-16ZM129,304H410q-4,51-41.5,84.5T268,422q-52,0-89.5-32T129,304ZM239,658q0-23-16.5-40T182,601q-22,0-39.5,17.5T125,658q0,24 17,40.5T182,715q25,0 41-16t16-41Zm168,0q0-23-16.5-40T350,601q-22,0-39.5,17.5T293,658q0,24 17,40.5T350,715q25,0 41-16t16-41Z" />
      <glyph unicode="&#xec;" glyph-name="igrave" horiz-adv-x="220" d="M156,490V0H64V490h92ZM100,716l52-128H72L0,716H100Z" />
      <glyph unicode="&#xed;" glyph-name="iacute" horiz-adv-x="220" d="M156,490V0H64V490h92Zm64,226L148,588H68l52,128H220Z" />
      <glyph unicode="&#xee;" glyph-name="icircumflex" horiz-adv-x="220" d="M156,490V0H64V490h92ZM56,594H-33v5L70,716h80L253,599v-5H164l-50,60h-8L56,594Z" />
      <glyph unicode="&#xef;" glyph-name="idieresis" horiz-adv-x="220" d="M99,659q0-23-16.5-40T42,602q-22,0-39.5,17.5T-15,659q0,24 17,40.5T42,716q25,0 41-16t16-41Zm136,0q0-23-16.5-40T178,602q-22,0-39.5,17.5T121,659q0,24 17,40.5T178,716q25,0 41-16t16-41ZM156,490V0H64V490h92Z" />
      <glyph unicode="&#xf0;" glyph-name="eth" horiz-adv-x="571" d="M531,260q0-123-68-200Q396-16 285-16Q184-16 112,56Q40,129 40,232q0,104 70,173t168,69q82,0 126-47l4,3q-35,79-95,129L184,502l-28,67l86,38q-25,13-52.5,23T132,647l31,77q99-27 171-77l101,45l28-66l-67-30Q531,465 531,260ZM287,389q-66,0-109-45q-44-46-44-113q0-68 43-114q43-45 108-45q64,0 108,45q44,47 44,114T393,344q-44,45-106,45Z" />
      <glyph unicode="&#xf1;" glyph-name="ntilde" horiz-adv-x="542" d="M56,490h88V422h4q21,36 64.5,60T303,506q90,0 138.5-51.5T490,308V0H398V302q-3,120-121,120q-55,0-92-44.5T148,271V0H56V490ZM336,595q-24,0-66.5,22.5T220,640q-31,0-33-35H111q0,53 32.5,85.5T222,723q29,0 81-30q30-15 35-15q31,0 33,35h76q0-53-32.5-85.5T336,595Z" />
      <glyph unicode="&#xf2;" glyph-name="ograve" horiz-adv-x="560" d="M28,245q0,113 71,187q72,74 181,74t180-74q72-74 72-187q0-114-72-187Q389-16 280-16T99,58Q28,132 28,245Zm92,0q0-79 46-128T280,68t114,49t46,128q0,78-46,127q-47,50-114,50T166,372q-46-49-46-127ZM263,716l52-128H235L163,716H263Z" />
      <glyph unicode="&#xf3;" glyph-name="oacute" horiz-adv-x="560" d="M28,245q0,113 71,187q72,74 181,74t180-74q72-74 72-187q0-114-72-187Q389-16 280-16T99,58Q28,132 28,245Zm92,0q0-79 46-128T280,68t114,49t46,128q0,78-46,127q-47,50-114,50T166,372q-46-49-46-127ZM388,716L316,588H236l52,128H388Z" />
      <glyph unicode="&#xf4;" glyph-name="ocircumflex" horiz-adv-x="560" d="M28,245q0,113 71,187q72,74 181,74t180-74q72-74 72-187q0-114-72-187Q389-16 280-16T99,58Q28,132 28,245Zm92,0q0-79 46-128T280,68t114,49t46,128q0,78-46,127q-47,50-114,50T166,372q-46-49-46-127ZM226,594H137v5L240,716h80L423,599v-5H334l-50,60h-8l-50-60Z" />
      <glyph unicode="&#xf5;" glyph-name="otilde" horiz-adv-x="560" d="M28,245q0,113 71,187q72,74 181,74t180-74q72-74 72-187q0-114-72-187Q389-16 280-16T99,58Q28,132 28,245Zm92,0q0-79 46-128T280,68t114,49t46,128q0,78-46,127q-47,50-114,50T166,372q-46-49-46-127ZM337,595q-24,0-66.5,22.5T221,640q-31,0-33-35H112q0,53 32.5,85.5T223,723q29,0 81-30q30-15 35-15q31,0 33,35h76q0-53-32.5-85.5T337,595Z" />
      <glyph unicode="&#xf6;" glyph-name="odieresis" horiz-adv-x="560" d="M28,245q0,113 71,187q72,74 181,74t180-74q72-74 72-187q0-114-72-187Q389-16 280-16T99,58Q28,132 28,245Zm92,0q0-79 46-128T280,68t114,49t46,128q0,78-46,127q-47,50-114,50T166,372q-46-49-46-127ZM253,658q0-23-16.5-40T196,601q-22,0-39.5,17.5T139,658q0,24 17,40.5T196,715q25,0 41-16t16-41Zm168,0q0-23-16.5-40T364,601q-22,0-39.5,17.5T307,658q0,24 17,40.5T364,715q25,0 41-16t16-41Z" />
      <glyph unicode="&#xf7;" glyph-name="divide" horiz-adv-x="550" d="M343,454q0-28-19.5-48T275,386q-28,0-48,20t-20,48q0,29 20,48.5T275,522q29,0 48.5-19.5T343,454ZM494,309V233H56v76H494ZM343,88q0-28-19.5-48T275,20q-28,0-48,20T207,88q0,29 20,48.5T275,156q29,0 48.5-19.5T343,88Z" />
      <glyph unicode="&#xf8;" glyph-name="oslash" horiz-adv-x="560" d="M280,422q-68,0-114-49.5T120,245q0-77 44-125L344,408q-30,14-64,14Zm0-354q68,0 114,49.5T440,245q0,75-42,123L219,81q30-13 61-13ZM532,245q0-113-71.5-187T280-16Q223-16 173,6L148-33L89,0l27,43Q28,118 28,245q0,113 71.5,187T280,506q60,0 110-24l26,42l58-34l-28-44q86-78 86-201Z" />
      <glyph unicode="&#xf9;" glyph-name="ugrave" horiz-adv-x="542" d="M486,0H398V68h-4Q373,32 329.5,8T239-16q-90,0-138.5,51.5T52,182V490h92V188Q147,68 265,68q55,0 92,44.5T394,219V490h92V0ZM265,716l52-128H237L165,716H265Z" />
      <glyph unicode="&#xfa;" glyph-name="uacute" horiz-adv-x="542" d="M486,0H398V68h-4Q373,32 329.5,8T239-16q-90,0-138.5,51.5T52,182V490h92V188Q147,68 265,68q55,0 92,44.5T394,219V490h92V0ZM375,716L303,588H223l52,128H375Z" />
      <glyph unicode="&#xfb;" glyph-name="ucircumflex" horiz-adv-x="542" d="M486,0H398V68h-4Q373,32 329.5,8T239-16q-90,0-138.5,51.5T52,182V490h92V188Q147,68 265,68q55,0 92,44.5T394,219V490h92V0ZM217,578H128v5L231,700h80L414,583v-5H325l-50,60h-8l-50-60Z" />
      <glyph unicode="&#xfc;" glyph-name="udieresis" horiz-adv-x="542" d="M486,0H398V68h-4Q373,32 329.5,8T239-16q-90,0-138.5,51.5T52,182V490h92V188Q147,68 265,68q55,0 92,44.5T394,219V490h92V0ZM246,659q0-23-16.5-40T189,602q-22,0-39.5,17.5T132,659q0,24 17,40.5T189,716q25,0 41-16t16-41Zm168,0q0-23-16.5-40T357,602q-22,0-39.5,17.5T300,659q0,24 17,40.5T357,716q25,0 41-16t16-41Z" />
      <glyph unicode="&#xfd;" glyph-name="yacute" horiz-adv-x="498" d="M362,716L290,588H210l52,128H362ZM494,490L187-216H92L206,31L4,490H104L250,138h2L394,490H494Z" />
      <glyph unicode="&#xfe;" glyph-name="thorn" horiz-adv-x="576" d="M300,68q66,0 111,50q45,49 45,127q0,77-45,127T300,422q-67,0-112-50q-44-50-44-127q0-78 44-128q45-49 112-49Zm15-84q-54,0-98.5,23T148,68h-4l4-68V-216H56V716h92V490l-4-68h4q24,38 68.5,61T315,506q97,0 164-76q69-77 69-185q0-109-69-185Q412-16 315-16Z" />
      <glyph unicode="&#xff;" glyph-name="ydieresis" horiz-adv-x="498" d="M494,490L187-216H92L206,31L4,490H104L250,138h2L394,490H494ZM224,659q0-23-16.5-40T167,602q-22,0-39.5,17.5T110,659q0,24 17,40.5T167,716q25,0 41-16t16-41Zm168,0q0-23-16.5-40T335,602q-22,0-39.5,17.5T278,659q0,24 17,40.5T335,716q25,0 41-16t16-41Z" />
      <glyph unicode="&#x2013;" glyph-name="endash" horiz-adv-x="592" d="M536,272H56v76H536V272Z" />
      <glyph unicode="&#x2014;" glyph-name="emdash" horiz-adv-x="892" d="M836,272H56v76H836V272Z" />
      <glyph unicode="&#x2018;" glyph-name="quoteleft" horiz-adv-x="232" d="M141,732l43-28l-50-76q21-4 35.5-21T184,566q0-28-19.5-48T116,498q-29,1-48.5,21T48,568q0,14 5,29t16,30l72,105Z" />
      <glyph unicode="&#x2019;" glyph-name="quoteright" horiz-adv-x="232" d="M91,498L48,526l50,76q-21,4-35.5,21T48,664q0,29 20,48.5T116,732q29,0 48.5-19.5T184,664q0-28-21-61L91,498Z" />
      <glyph unicode="&#x201a;" glyph-name="quotesinglbase" horiz-adv-x="232" d="M91-104L48-76L98,0Q77,4 62.5,21T48,62q0,29 20,48.5T116,130q29,0 48.5-19.5T184,62q0-28-21-61L91-104Z" />
      <glyph unicode="&#x201c;" glyph-name="quotedblleft" horiz-adv-x="408" d="M141,732l43-28l-50-76q21-4 35.5-21T184,566q0-28-19.5-48T116,498q-29,1-48.5,21T48,568q0,14 5,29t16,30l72,105Zm176,0l43-28l-50-76q21-4 35.5-21T360,566q0-28-19.5-48T292,498q-29,1-48.5,21T224,568q0,14 5,29t16,30l72,105Z" />
      <glyph unicode="&#x201d;" glyph-name="quotedblright" horiz-adv-x="408" d="M267,498l-43,28l50,76q-21,4-35.5,21T224,664q0,29 20,48.5T292,732q29,0 48.5-19.5T360,664q0-28-21-61L267,498ZM91,498L48,526l50,76q-21,4-35.5,21T48,664q0,29 20,48.5T116,732q29,0 48.5-19.5T184,664q0-28-21-61L91,498Z" />
      <glyph unicode="&#x201e;" glyph-name="quotedblbase" horiz-adv-x="408" d="M267-104L224-76L274,0q-21,4-35.5,21T224,62q0,29 20,48.5T292,130q29,0 48.5-19.5T360,62q0-28-21-61L267-104ZM91-104L48-76L98,0Q77,4 62.5,21T48,62q0,29 20,48.5T116,130q29,0 48.5-19.5T184,62q0-28-21-61L91-104Z" />
      <glyph unicode="&#x2022;" glyph-name="bullet" horiz-adv-x="400" d="M320,324q0-49-35-84.5T200,204q-49,0-84.5,35.5T80,324q0,50 35.5,85T200,444q50,0 85-35t35-85Z" />
      <glyph unicode="&#x2039;" glyph-name="guilsinglleft" horiz-adv-x="356" d="M296,440L136,271L296,102L242,52L40,271L242,490l54-50Z" />
      <glyph unicode="&#x203a;" glyph-name="guilsinglright" horiz-adv-x="356" d="M114,52L60,102L220,271L60,440l54,50L316,271L114,52Z" />
    </font>
</defs>
</svg>
