<?xml version="1.0" standalone="no"?>
<!DOCTYPE svg PUBLIC "-//W3C//DTD SVG 1.1//EN" "http://www.w3.org/Graphics/SVG/1.1/DTD/svg11.dtd">
<svg xmlns="http://www.w3.org/2000/svg">
  <defs>
    <font id="Raleway" horiz-adv-x="566">
      <font-face font-family="Raleway Thin" units-per-em="1000" panose-1="0 0 0 0 0 0 0 0 0 0" ascent="940" descent="-234" alphabetic="0" />
      <glyph unicode=" " glyph-name="space" horiz-adv-x="261" />
      <glyph unicode="!" glyph-name="exclam" horiz-adv-x="228" d="M104,200V717h20V200H104ZM104,0V84h20V0H104Z" />
      <glyph unicode="&quot;" glyph-name="quotedbl" horiz-adv-x="216" d="M73,570V710H93V570H73Zm50,0V710h20V570H123Z" />
      <glyph unicode="#" glyph-name="numbersign" horiz-adv-x="650" d="M612,481H494L436,241H572V221H431L378,0H357l54,221H171L118,0H97l54,221H38v20H156l58,240H78v20H219l51,209h21L239,501H479l51,209h21L499,501H612V481ZM416,241l58,240H234L176,241H416Z" />
      <glyph unicode="$" glyph-name="dollar" horiz-adv-x="613" d="M300,1l20-1V-93H300V1Zm0,4V706l20,2V4L300,5Zm0,810h20V704l-20-2V815ZM516,616q-21,23-42.5,38.5t-45,24.5t-50,13T320,696q-121,0-175.5-46.5T90,526q0-51 23-80.5t72.5-47T314,365t137-36.5t89.5-56T572,174q0-43-17-76.5t-49.5-56T426.5,7T322-5Q265-5 216.5,7T126,43.5T46,105l15,13q27-28 56-48t61.5-33T247,18t76-6q106,0 167.5,40T552,171q0,53-25,85.5t-77.5,53T315,346q-78,15-133,33.5t-83.5,52T70,524q0,62 30.5,104.5T187,693t131,22q45,0 82.5-8.5t69-27T529,630l-13-14Z" />
      <glyph unicode="%" glyph-name="percent" horiz-adv-x="670" d="M186,444q-38,0-69.5,18.5t-50,50T48,582t18.5,69.5t50,50T186,720t69.5-18.5t50-50T324,582t-18.5-69.5t-50-50T186,444Zm0,20q33,0 60,16.5T288.5,524T304,582q0,33-16.5,60T244,684.5T186,700q-33,0-59.5-16.5T84,640T68,582q0-33 16-59.5T127,480t59-16ZM485-10q-38,0-69.5,18.5t-50,50T347,128t18.5,69.5t50,50T485,266t69.5-18.5t50-50T623,128T604.5,58.5t-50-50T485-10Zm0,20q33,0 60,16.5T587.5,70T603,128q0,33-16.5,59.5T543,230t-58,16q-33,0-59.5-16.5T383,186t-16-58q0-33 16-59.5T426,26t59-16ZM48,11L327,361L606,711l16-12L341,347L64-1L48,11Z" />
      <glyph unicode="&amp;" glyph-name="ampersand" horiz-adv-x="635" d="M598,0L229,386q-44,46-70,79t-37.5,59T110,574q0,38 22,71t60,53.5T277,719q44,0 77.5-17.5T407,655t19-64q0-42-26.5-77T331,447.5T243,384q-44-30-83-62T97,253T73,168q0-55 31-90t77-52.5T273,8q62,0 111.5,27.5t84.5,74T523,214t19,119h20q0-63-20-124T483.5,98.5t-92-79T270-10q-54,0-104,20.5t-81.5,61T53,170q0,51 24.5,90T143,332t90,66q53,36 92,66t60,60t21,65q0,47-37,78.5T276,699q-41,0-74-17t-52.5-45.5T130,573q0-18 8.5-39.5t32-53.5T240,400L625,0H598Z" />
      <glyph unicode="&apos;" glyph-name="quotesingle" horiz-adv-x="166" d="M73,569V710H93V569H73Z" />
      <glyph unicode="(" glyph-name="parenleft" horiz-adv-x="234" d="M50,345q0,102 39,196t94,185l16-12q-24-35-47-80.5T110,538T80,437.5T69,342q0-76 34-171.5T199-14L183-26Q140,37 110.5,99.5t-45,124T50,345Z" />
      <glyph unicode=")" glyph-name="parenright" horiz-adv-x="233" d="M184,345q0-60-15.5-121.5t-45-124T51-26L35-14q62,89 96,184.5T165,342q0,45-11,95.5T124,538T82,633.5T35,714l16,12q55-91 94-185t39-196Z" />
      <glyph unicode="*" glyph-name="asterisk" horiz-adv-x="302" d="M94,564l41,57L68,643l6,19l67-22v70h20V640l67,22l6-19l-67-22l42-57l-17-12l-41,57l-41-57L94,564Z" />
      <glyph unicode="+" glyph-name="plus" horiz-adv-x="412" d="M356,365V345H216V195H196V345H56v20H196V515h20V365H356Z" />
      <glyph unicode="," glyph-name="comma" horiz-adv-x="260" d="M116-81l10,71h-9V64h26V-10L130-81H116Z" />
      <glyph unicode="-" glyph-name="hyphen" horiz-adv-x="421" d="M69,261v20H352V261H69Z" />
      <glyph unicode="." glyph-name="period" horiz-adv-x="158" d="M69,0V64H89V0H69Z" />
      <glyph unicode="/" glyph-name="slash" horiz-adv-x="536" d="M508,710L52,0H27L482,710h26Z" />
      <glyph unicode="0" glyph-name="zero" horiz-adv-x="608" d="M549,293q0-88-31.5-156.5T430.5,29T304-10T177.5,29t-87,107.5T59,293T90.5,449.5t87,108T304,597t126.5-39.5t87-108T549,293Zm-20,0q0,84-28.5,148t-79,100T304,577q-66,0-117-36T107.5,441T79,293t28.5-147.5T187,46T304,10q67,0 117.5,36t79,99.5T529,293Z" />
      <glyph unicode="1" glyph-name="one" horiz-adv-x="375" d="M357,20V0H68V20H210V538q-8-12-27-26.5t-43.5-28T90,461t-45-9v24q27,0 55.5,14t53,32t40,33T210,571h20V20H357Z" />
      <glyph unicode="2" glyph-name="two" horiz-adv-x="486" d="M47,0q0,18 4.5,51.5t20.5,73T123,201t95,62q28,12 60.5,25T340,320t47.5,46.5T406,433q0,31-17.5,60T335,541.5T244,561q-37,0-67-11.5t-52-27T90,493T73,474L57,486q0,0 12.5,14.5t37,33.5t59,33T244,581q60,0 100.5-22t61-56T426,433q0-45-20.5-76T354,305.5t-65.5-35T225,244q-52-22-83.5-54.5T93.5,123t-22-61.5T66,20H437V0H47Z" />
      <glyph unicode="3" glyph-name="three" horiz-adv-x="521" d="M308,236q48-6 83.5-32t55-66T466,48q0-58-27-102t-75-68.5T254-147q-74,0-130.5,35T46-19l19,7q17-52 69-83.5T256-127q86,0 138,48.5T446,51T394,179.5T251,227H229v20h23q88,0 135,38t47,105q0,50-23.5,87t-64,58T254,556q-63,0-111-31T75,443l-18,7q14,38 42.5,66.5t68.5,44T254,576q57,0 102-23.5T427.5,488T454,395q0-42-18-76t-50.5-55.5T308,236Z" />
      <glyph unicode="4" glyph-name="four" horiz-adv-x="518" d="M384-127V72H19V89L390,571h14V92h88V72H404V-127H384ZM47,92H384V534L47,92Z" />
      <glyph unicode="5" glyph-name="five" horiz-adv-x="537" d="M263-149q-75,0-135,40.5T39-3H61q27-56 81-91t121-35q60,0 108.5,27T449-27.5T478,82q0,60-28,106t-75.5,72T268,286q-56,0-107.5-25.5T76,188H52l78,383H467V551H147L82,226q36,39 85,59.5T268,306q63,0 115.5-28.5t83.5-79T498,82q0-69-32.5-121t-86-81T263-149Z" />
      <glyph unicode="6" glyph-name="six" horiz-adv-x="595" d="M552,232q0,67-32.5,122T432,442T310,475q-53,0-100-21t-81.5-58.5T78,308q0,123 29,209.5t81,132T309,695q65,0 116-37t70-97l19,7q-22,68-77.5,107.5T308,715q-74,0-131-47.5T88,521T56,266q0-85 33-147t90-95.5T306-10q69,0 124.5,32.5T519,110t33,122ZM308,10q-61,0-112.5,30.5t-82.5,81T82,232q0,61 30.5,111.5t82,81T307,455t112-30.5T501,343t31-112q0-60-30.5-110.5T420.5,40T308,10Z" />
      <glyph unicode="7" glyph-name="seven" horiz-adv-x="535" d="M477,563H50v20H510L146-127H123L477,563Z" />
      <glyph unicode="8" glyph-name="eight" horiz-adv-x="581" d="M528,188q0-59-33.5-103T406,17T287-7Q216-7 163,21T81.5,94T53,190q0,50 24,89t62,65t78,37q-37,13-68.5,35.5T98,470T79,541q0,41 18,72.5t49,53T214.5,699T291,710t76.5-11t68-32.5t48.5-53T502,541q0-40-19.5-71t-51-53.5T363,381q47-13 84-40.5t59-66T528,188Zm-20,3q0,43-20,76.5T436,324t-70.5,35T289,371q-52,0-101.5-22.5t-82-63.5T73,189q0-43 20-76t52-56t71-35t76-12q52,0 101.5,22t82,63T508,191ZM99,539q0-47 29.5-80.5t74-50.5T290,391q44,0 88.5,17.5t74,51.5T482,541q0,48-28,81t-72,50.5T289,690q-48,0-91.5-18t-71-51.5T99,539Z" />
      <glyph unicode="9" glyph-name="nine" horiz-adv-x="579" d="M37,329q0-67 32.5-122T157,119T279,86q53,0 100,21t82,59t50,87q0-123-29-209.5t-81-132T280-134q-64,0-115.5,37T94,0L75-7q22-67 77.5-107T281-154q74,0 131,47.5t89,147T533,295q0,86-33,147.5t-89.5,95T283,571q-68,0-124-32.5T70,451T37,329ZM281,551q62,0 113-30.5T476,440t31-111q0-60-30.5-111T395,136.5T282,106q-61,0-112,30.5T88,218T57,330T87.5,441T169,521t112,30Z" />
      <glyph unicode=":" glyph-name="colon" horiz-adv-x="158" d="M69,453v64H89V453H69ZM69,0V64H89V0H69Z" />
      <glyph unicode=";" glyph-name="semicolon" horiz-adv-x="168" d="M73,453v64H93V453H73ZM70-81L80-10H71V64H97V-10L84-81H70Z" />
      <glyph unicode="&lt;" glyph-name="less" horiz-adv-x="502" d="M34,268L451,517V495L63,259L451,22V0L34,250v18Z" />
      <glyph unicode="=" glyph-name="equal" horiz-adv-x="435" d="M71,231v20H364V231H71Zm0,70v20H364V301H71Z" />
      <glyph unicode="&gt;" glyph-name="greater" horiz-adv-x="502" d="M468,250L51,0V22L439,259L51,495v22L468,268V250Z" />
      <glyph unicode="?" glyph-name="question" horiz-adv-x="468" d="M178,179q0,64 11.5,100t31,55.5T264,366t49.5,24T361,419.5t35.5,45T410,535q0,57-24,93t-62,53.5T244,699q-40,0-77.5-14.5T99.5,644T53,582l-18,8q19,42 52,70.5T161,704t82,15q36,0 69.5-12t60-35.5t42-58.5T430,532q0-45-14.5-74.5t-38-48.5t-51-33T272,347q-21-11-38-27.5t-26.5-49T198,179H178ZM178,0V84h20V0H178Z" />
      <glyph unicode="@" glyph-name="at" horiz-adv-x="830" d="M413,603q74,0 138.5-29.5t113.5-82T741.5,370T769,222q0-17-2.5-46.5t-10-62.5t-23-62.5t-41-48T629-16q-31,0-46.5,13.5T562,33.5T554,84q-25-29-70-50.5T387,12q-66,0-106,36t-40,92q0,48 27.5,75t69,38.5T422,265q45,0 82-8.5T558,242q0,55-11.5,97t-40,66T426,429q-37,0-74.5-12.5T282,381l-12,16q35,23 74,37.5T427,449q49,0 79-17t45-46t20.5-65t5.5-73V95q0-29 4-49.5t15.5-31T630,4q35,0 58,22t36,56t19,72t6,69q0,75-26,140T650.5,477.5T543,555T413,583q-67,0-128.5-26t-110-73.5T98,371.5T70,230q0-74 26.5-138.5T170.5-22T280-98.5T412-126q39,0 77.5,9.5T564-88l10-18q-39-20-80-30t-82-10q-74,0-139.5,29T157-37T78.5,82.5T50,230q0,82 30,150t81,118t116.5,77.5T413,603ZM484,55q33,16 48.5,35.5t20,41.5t4.5,42v47q-11,0-47.5,12T417,245q-38,0-74-9.5t-59-32T261,140q0-35 18-59t46.5-36.5T387,32q26,0 52,7t45,16Z" />
      <glyph unicode="A" glyph-name="A" horiz-adv-x="674" d="M328,710h18L655,0H633L522,254H151L40,0H18L328,710ZM513,274L337,681L159,274H513Z" />
      <glyph unicode="B" glyph-name="B" horiz-adv-x="655" d="M605,184q0-49-24-91T517,25.5T428,0H99V710H413q50,0 86.5-26.5t56-68T575,529q0-54-27.5-99T473,364q61-18 96.5-68.5T605,184Zm-20,0q0,43-19.5,80T512,324.5T435,348H119V20H428q44,0 79.5,24T564,105.5T585,184ZM119,690V368H407q44,0 77,24t52,61t19,76q0,43-18,79.5t-50,59T413,690H119Z" />
      <glyph unicode="C" glyph-name="C" horiz-adv-x="697" d="M48,360q0,64 22.5,126.5t65.5,114T241,683t142,31q95,0 161-43.5T642,559l-19-6q-27,52-67,83t-85.5,44.5T379,694q-74,0-132-29t-98-78T88.5,478.5T68,357q0-68 24-129.5T159,118T259,42T382,14q47,0 96,16t92,49t70,85l19-5q-24-53-70-90T487.5,13T378-6Q306-6 245.5,25.5t-105,84T72,227.5T48,360Z" />
      <glyph unicode="D" glyph-name="D" horiz-adv-x="711" d="M99,0V710H327q112,0 185.5-47.5T623,534.5T660,356q0-108-40.5-188T504,44T327,0H99ZM640,356q0,97-36.5,172.5T497.5,647T327,690H119V20H327q103,0 172.5,44t105,120.5T640,356Z" />
      <glyph unicode="E" glyph-name="E" horiz-adv-x="617" d="M565,20V0H99V710H556V690H119V373H502V353H119V20H565Z" />
      <glyph unicode="F" glyph-name="F" horiz-adv-x="602" d="M99,0V710H556V690H119V374H492V354H119V0H99Z" />
      <glyph unicode="G" glyph-name="G" horiz-adv-x="720" d="M383-5Q309-5 247.5,26t-106,83t-69,116T48,355q0,69 23.5,133.5t67,115.5T241,685t130,30q110,0 173.5-43.5T642,560l-19-6q-40,75-104.5,108T371,695q-70,0-126-29t-95.5-78T89,478.5T68,355q0-67 24.5-128T160,118T260,42.5T383,15q74,0 140,35.5T651,164V136Q537-5 383-5ZM639,318H472v20H659V0H639V318Z" />
      <glyph unicode="H" glyph-name="H" horiz-adv-x="731" d="M632,710V0H612V353H119V0H99V710h20V373H612V710h20Z" />
      <glyph unicode="I" glyph-name="I" horiz-adv-x="218" d="M99,0V710h20V0H99Z" />
      <glyph unicode="J" glyph-name="J" horiz-adv-x="473" d="M30,49Q59,30 94.5,19.5T173,9q64,0 102,23t57,67.5T357,207t6,142V710h20V349q0-81-7-147T348,88T285,14.5T173-11Q127-11 89,0T19,33L30,49Z" />
      <glyph unicode="K" glyph-name="K" horiz-adv-x="621" d="M99,0V710h20V249L571,710h29L297,400L614,0H588L282,386L119,221V0H99Z" />
      <glyph unicode="L" glyph-name="L" horiz-adv-x="579" d="M99,0V710h20V20H565V0H99Z" />
      <glyph unicode="M" glyph-name="M" horiz-adv-x="884" d="M765,0V666L450,140H434L119,666V0H99V710h16L442,164L769,710h16V0H765Z" />
      <glyph unicode="N" glyph-name="N" horiz-adv-x="776" d="M119,671V0H99V710h15L657,29V710h20V0H654L119,671Z" />
      <glyph unicode="O" glyph-name="O" horiz-adv-x="757" d="M379-5Q306-5 245,25.5T140,107T72,222.5T48,355q0,71 25,135.5t70,115t105.5,80T379,715q74,0 134.5-31t104-83T685,485t24-130q0-72-25-136.5t-70-115T509,24T379-5ZM68,355q0-66 23-127t65-109t99-76T379,15q69,0 126,29t98,78t63.5,109.5T689,355q0,66-23.5,127T600,591t-98.5,76T379,695q-69,0-126.5-29T154,588T90.5,478.5T68,355Z" />
      <glyph unicode="P" glyph-name="P" horiz-adv-x="619" d="M99,0V710H388q44,0 80.5-18.5t63-49.5T573,573t15-78q0-55-24.5-104.5T496,310T395,279H119V0H99Zm20,299H395q54,0 93,29t59.5,74T568,495q0,51-24,95.5t-65,72T388,690H119V299Z" />
      <glyph unicode="Q" glyph-name="Q" horiz-adv-x="757" d="M379-5Q306-5 245,25.5T140,107T72,222.5T48,355q0,71 25,135.5t70,115t105.5,80T379,715q74,0 134.5-31t104-83T685,485t24-130q0-72-25-136.5t-70-115T509,24T379-5Zm0,20q69,0 126,29t98,78t63.5,109.5T689,355q0,66-23.5,127T600,591t-98.5,76T379,695q-69,0-126.5-29T154,588T90.5,478.5T68,355q0-66 23-127t65-109t99-76T379,15ZM499,186h25L672,0H647L499,186Z" />
      <glyph unicode="R" glyph-name="R" horiz-adv-x="642" d="M99,0V710H388q44,0 80.5-18.5t63-49.5T573,573t15-78q0-55-23-102.5T501.5,314T407,279L587,0H563L383,279H119V0H99Zm20,299H395q54,0 92.5,28.5T547,401t21,94q0,51-24,95.5t-65,72T388,690H119V299Z" />
      <glyph unicode="S" glyph-name="S" horiz-adv-x="602" d="M509,616q-21,23-42.5,38.5t-45,24.5t-50,13T313,696q-121,0-175.5-46.5T83,526q0-51 23-80.5t72.5-47T307,365t137-36.5t89.5-56T565,174q0-43-17-76.5t-49.5-56T419.5,7T315-5Q258-5 209.5,7T119,43.5T39,105l15,13q27-28 56-48t61.5-33T240,18t76-6q106,0 167.5,40T545,171q0,53-25,85.5t-77.5,53T308,346q-78,15-133,33.5t-83.5,52T63,524q0,62 30.5,104.5T180,693t131,22q45,0 82.5-8.5t69-27T522,630l-13-14Z" />
      <glyph unicode="T" glyph-name="T" horiz-adv-x="600" d="M582,690H310V0H290V690H18v20H582V690Z" />
      <glyph unicode="U" glyph-name="U" horiz-adv-x="756" d="M379-5Q295-5 238.5,25.5T149,108T102,224T88,355V710h20V355q0-64 13-125t43.5-109.5t82.5-77T378,15q80,0 133,29.5T594,123t42.5,109.5T649,355V710h20V355q0-70-15-135T605.5,104.5t-89-80T379-5Z" />
      <glyph unicode="V" glyph-name="V" horiz-adv-x="678" d="M40,710L339,25L637,710h22L350,0H328L19,710H40Z" />
      <glyph unicode="W" glyph-name="W" horiz-adv-x="1038" d="M381,704h22L518,438L634,704h22L529,414L699,25L997,710h22L710,0H688L519,389L350,0H328L19,710H41L339,25L508,414L381,704Z" />
      <glyph unicode="X" glyph-name="X" horiz-adv-x="621" d="M37,710L311,366L585,710h25L323,350L602,0H577L311,334L45,0H19L298,350L11,710H37Z" />
      <glyph unicode="Y" glyph-name="Y" horiz-adv-x="641" d="M46,710L320,298L595,710h23L330,275V0H310V277L23,710H46Z" />
      <glyph unicode="Z" glyph-name="Z" horiz-adv-x="624" d="M28,20L570,690H33v20H595V690L53,20H591V0H28V20Z" />
      <glyph unicode="[" glyph-name="bracketleft" horiz-adv-x="228" d="M97-40V740h70V720H117V-20h50V-40H97Z" />
      <glyph unicode="\" glyph-name="backslash" horiz-adv-x="514" d="M53,710L488,0H463L27,710H53Z" />
      <glyph unicode="]" glyph-name="bracketright" horiz-adv-x="228" d="M61-40v20h50V720H61v20h70V-40H61Z" />
      <glyph unicode="^" glyph-name="asciicircum" horiz-adv-x="505" d="M46,303L244,710h18L459,303H436L253,681L67,303H46Z" />
      <glyph unicode="_" glyph-name="underscore" horiz-adv-x="531" d="M69-20V0H462V-20H69Z" />
      <glyph unicode="`" glyph-name="grave" horiz-adv-x="198" d="M50,730H83l65-73l-16-12L50,730Z" />
      <glyph unicode="a" glyph-name="a" horiz-adv-x="524" d="M39,149q0,44 27.5,77T142,278t111,19q44,0 90.5-7.5T427,268v59q0,81-46.5,130.5T257,507q-37,0-80.5-16.5T89,443L77,459q50,34 95,51t85,17q87,0 138.5-54T447,327V40q0-10 4.5-15T463,20V0q-6,0-9,0.5T449,2q-10,4-16,14.5T427,40V88q-36-46-94-72T207-10q-47,0-85,21T61.5,68.5T39,149Zm373-47q8,11 11.5,21.5T427,143V246q-40,16-83.5,23.5T253,277q-87,0-140.5-35T59,149q0-39 19.5-70.5t53.5-50T207,10q67,0 122.5,25T412,102Z" />
      <glyph unicode="b" glyph-name="b" horiz-adv-x="603" d="M307-10q-61,0-116.5,34.5T104,108V0H84V730h20V398q40,56 92,92.5T316,527q57,0 101.5-23.5t76-63t47.5-87T557,258q0-53-19-101T485,71.5T405.5,12T307-10Zm0,20q50,0 92,21t73,57t48,80t17,90q0,64-28,121t-77.5,92.5T316,507q-49,0-90-21.5T154.5,430T104,356V167q2-32 22-60.5t51-50t65.5-34T307,10Z" />
      <glyph unicode="c" glyph-name="c" horiz-adv-x="538" d="M297-10q-51,0-96.5,21.5T120,70.5T65.5,157T46,262q0,75 33,135t90,95t127,35q65,0 117-30.5T491,411l-20-7q-25,48-73,75.5T293,507q-63,0-114.5-32.5t-82-88T66,262q0-68 31-125.5t83-92T294,10q41,0 80,15.5T441.5,66T478,119l20-6q-11-35-42-63T383.5,6T297-10Z" />
      <glyph unicode="d" glyph-name="d" horiz-adv-x="604" d="M46,258q0,72 31.5,133t86,98.5T287,527q71,0 126-38.5T499,398V730h20V40q0-9 4.5-14.5T535,20V0q-9,0-13,2q-11,5-17,15.5T499,40v68q-33-52-88.5-85T296-10q-54,0-100,23T116.5,74.5t-52,86T46,258Zm453-89V356q-15,42-49,76t-77.5,54.5T287,507q-51,0-91.5-21T126,429T81.5,349T66,258q0-49 17.5-93.5T133,85t73.5-55T296,10q30,0 64.5,12.5t65.5,35t51,51T499,169Z" />
      <glyph unicode="e" glyph-name="e" horiz-adv-x="576" d="M296-10q-51,0-96.5,21.5t-80,59t-54,87T46,263q0,73 33,133t88.5,95.5T291,527q69,0 125.5-36T507,394.5T541,259q0-3 0-5.5t0-5.5H66q5-67 37-121t83-85.5T297,10T409,40.5T483,119l19-5q-14-35-45.5-63.5T383,6T296-10ZM66,268H520q-4,70-35,123.5T404,476T292,507q-61,0-111-31t-80.5-85T66,268Z" />
      <glyph unicode="f" glyph-name="f" horiz-adv-x="299" d="M103,0V499H28v20h75v21q0,63 16.5,108t47,68.5T240,740q29,0 55.5-9.5T335,706l-16-12q-12,12-33.5,19.5T241,721q-57,0-87.5-46.5T123,540V519H278V499H123V0H103Z" />
      <glyph unicode="g" glyph-name="g" horiz-adv-x="603" d="M296-10q-54,0-100,23T116.5,74.5t-52,86T46,258q0,52 17.5,100.5T113,445t76.5,60T287,527q71,0 123-38t89-91V519h20V-22q0-68-32.5-113t-85-66.5T290-223q-92,0-144,34.5T65-99l19,6q32-58 87.5-84T290-203q57,0 104.5,20.5t76,61T499-22V108q-33-52-88.5-85T296-10Zm0,20q37,0 72,14t64,37.5T479,113t20,56V356q-16,44-49.5,78T374,487.5T287,507q-52,0-93.5-22T124,426.5T81,346T66,258q0-49 17.5-93.5T133,85t73.5-55T296,10Z" />
      <glyph unicode="h" glyph-name="h" horiz-adv-x="565" d="M487,0H467V289q0,108-36.5,163T323,507q-48,0-93.5-23.5t-78.5-64T104,328V0H84V730h20V385q32,65 91.5,103.5T322,527q41,0 71.5-15T445,466.5T476.5,392T487,289V0Z" />
      <glyph unicode="i" glyph-name="i" horiz-adv-x="188" d="M84,0V519h20V0H84Zm0,653v77h20V653H84Z" />
      <glyph unicode="j" glyph-name="j" horiz-adv-x="196" d="M-21-170q-29,0-54.5,7.5T-121-136l16,12q18-16 40-21t43-5q28,0 54,15T75-94T92-36V519h20V-36q0-39-20.5-69t-51-47.5T-21-170ZM92,653v77h20V653H92Z" />
      <glyph unicode="k" glyph-name="k" horiz-adv-x="508" d="M466,0L245,297L104,169V0H84V730h20V196L458,517h27L260,311L490,0H466Z" />
      <glyph unicode="l" glyph-name="l" horiz-adv-x="238" d="M90,730h20V77q0-29 18-46t48-17q11,0 26.5,2.5T231,23l7-16q-13-4-34-8T169-5q-35,0-57,22.5T90,77V730Z" />
      <glyph unicode="m" glyph-name="m" horiz-adv-x="908" d="M830,0H810V289q0,111-34,164.5T671,507q-74,0-128.5-50.5T467,327V0H447V289q0,113-33.5,165.5T309,507q-73,0-127.5-49.5T104,328V0H84V519h20V385q34,68 87,105t114,37q65,0 108-41t50-110q39,76 90.5,113.5T671,527q41,0 70.5-14.5t49.5-44T820.5,394T830,289V0Z" />
      <glyph unicode="n" glyph-name="n" horiz-adv-x="565" d="M487,0H467V289q0,113-31.5,165.5T334,507q-50,0-97.5-23.5t-82.5-64T104,328V0H84V519h20V385q22,42 58,74t80.5,50T333,527q40,0 69-14.5T450,469t28-74t9-106V0Z" />
      <glyph unicode="o" glyph-name="o" horiz-adv-x="586" d="M293-10q-51,0-96,21T118,69.5t-53,86T46,258q0,55 19.5,103.5t53.5,86T198,506t95,21t95-21t79-58.5t53.5-86T540,258q0-54-19-102.5t-53.5-86T388.5,11T293-10ZM66,256q0-67 30.5-123t82-89.5T292,10T406,44t83,91t31,124T489,382.5T406.5,473T293,507q-61,0-113-34.5T97,381T66,256Z" />
      <glyph unicode="p" glyph-name="p" horiz-adv-x="603" d="M316-10q-69,0-123.5,38.5T104,119V-213H84V519h20V409q33,52 88.5,85T307,527q55,0 100.5-23t79-61.5t52-86.5T557,258q0-71-30-132T443,27.5T316-10Zm0,20q51,0 91.5,21T477,88t44.5,80T537,258q0,49-17.5,93.5T470,431t-73.5,55.5T307,507q-30,0-64.5-13T177,458.5t-51-51T104,348V161q19-42 51-76t73.5-54.5T316,10Z" />
      <glyph unicode="q" glyph-name="q" horiz-adv-x="603" d="M287-10q-55,0-99.5,22.5t-76,61T63,159.5T46,258q0,53 19.5,101.5t53.5,86T198.5,505T296,527q62,0 117-34t86-84V519h20V-213H499V119Q410-10 287-10Zm0,20q50,0 90.5,21.5t71,55.5T499,161V348q-3,31-22.5,59.5t-49,51t-64,35.5T296,507q-51,0-93-21.5t-72.5-57T83,348.5T66,258q0-65 28.5-122T173,44.5T287,10Z" />
      <glyph unicode="r" glyph-name="r" horiz-adv-x="323" d="M306,499q-73-3-127-48.5T104,328V0H84V519h20V385q27,55 72.5,90.5T273,517q10,1 18.5,1.5T306,519V499Z" />
      <glyph unicode="s" glyph-name="s" horiz-adv-x="471" d="M235-10q-59,0-109,20.5T37,74L52,87q40-39 84-58t99-19q77,0 125,33.5T408,136q0,38-21,59.5t-61.5,35T227,257q-53,13-88.5,25.5T85.5,317T68,380q0,52 25.5,84t67,47.5T251,527q63,0 107.5-21.5T420,452l-18-8q-19,31-62,47t-93,16q-43,0-79-13t-58-40T88,383q0-34 15-53t46-30t79-23q62-14 107-29t69-39.5T428,139q0-68-53-108.5T235-10Z" />
      <glyph unicode="t" glyph-name="t" horiz-adv-x="295" d="M286,24q0,0-12.5-7.5T240,2T191-5Q167-5 146.5,5t-33,28T101,75V499H26v20h75V700h20V519H246V499H121V75q2-29 23-44.5T191,15q35,0 59,12t25,13l11-16Z" />
      <glyph unicode="u" glyph-name="u" horiz-adv-x="576" d="M78,228V519H98V228q0-110 36.5-164T245,10q50,0 96,23t80.5,63.5T471,189V519h20V40q0-9 4.5-14.5T507,20V0q-6,0-9,0.5T493,2q-10,4-16,14.5T471,40v92Q437,67 376,28.5T245-10q-82,0-124.5,60T78,228Z" />
      <glyph unicode="v" glyph-name="v" horiz-adv-x="520" d="M251,0L25,519H47L260,29L473,519h22L269,0H251Z" />
      <glyph unicode="w" glyph-name="w" horiz-adv-x="794" d="M747,519h22L542,0H524L397,291L270,0H252L25,519H47L261,29L386,316L299,518h21l77-176l77,176h21L408,316L533,29L747,519Z" />
      <glyph unicode="x" glyph-name="x" horiz-adv-x="482" d="M46,519L233,285l8-12l8,12L436,519h26L254,258L460,0H434L249,232l-8,12l-8-12L48,0H22L228,258L20,519H46Z" />
      <glyph unicode="y" glyph-name="y" horiz-adv-x="536" d="M128-203q17,0 29.5,1.5T175-193q4,5 11,19.5T210.5-119T262,0L21,519H43L272,25L489,519h22L202-186q-4-9-9-15.5T182.5-212T169-218q-9-2-19.5-3.5T128-223v20Z" />
      <glyph unicode="z" glyph-name="z" horiz-adv-x="488" d="M33,20L429,499H38v20H454V499L59,20H450V0H33V20Z" />
      <glyph unicode="{" glyph-name="braceleft" horiz-adv-x="229" d="M118,720V416q0-5-2.5-23.5T97,360q16-13 18.5-32t2.5-24V-11h55V-31H121q-8,0-15.5,7T98-1V304q0,15-6,30T68,351v20q14,0 20.5,9.5t8,20.5T98,416V710q0,20 9.5,25t13.5,5h52V720H118Z" />
      <glyph unicode="|" glyph-name="bar" horiz-adv-x="210" d="M95-130V775h20V-130H95Z" />
      <glyph unicode="}" glyph-name="braceright" horiz-adv-x="229" d="M56,720v20h52q4,0 13.5-5t9.5-25V416q0-4 1.5-15t8-20.5T161,371V351q-18-2-24-17t-6-30V-1q0-16-7.5-23T108-31H56v20h55V304q0,5 2.5,24T132,360q-16,14-18.5,32.5T111,416V720H56Z" />
      <glyph unicode="~" glyph-name="asciitilde" horiz-adv-x="462" d="M70,251q0,2 4.5,14t15,28T116,320.5T154,332q27,0 51-15t48-30.5T303,271q24,0 39.5,12.5t23,26T373,325l20-1q0,0-4.5-11t-15-25.5T346,262t-43-11q-31,0-57,15.5T197.5,297T154,312q-20,0-34.5-15t-22-30T90,251H70Z" />
      <glyph unicode="&#xa0;" glyph-name="uni00A0" horiz-adv-x="261" />
      <glyph unicode="&#xa1;" glyph-name="exclamdown" horiz-adv-x="228" d="M124,517V0H104V517h20Zm0,200V633H104v84h20Z" />
      <glyph unicode="&#xa2;" glyph-name="cent" horiz-adv-x="541" d="M276-120V-9q-51,4-93,28T110.5,81T63,164.5T46,258q0,68 29,128t81,99t120,42V645h20V527q78-2 123.5-34T490,411l-19-7q-28,52-73.5,76.5T296,507V10q33,0 72,13.5t70.5,38T478,119l20-6q-13-40-47-67.5T375.5,4T296-10V-120H276ZM66,258q0-61 27.5-115.5t75.5-90T276,11V507q-50-3-89-25.5T121,423T80,344T66,258Z" />
      <glyph unicode="&#xa3;" glyph-name="sterling" horiz-adv-x="467" d="M48,366H354V346H48v20ZM56,10q54,58 83.5,96.5t41,69.5T192,241q0,51-17,90t-39.5,73.5T96,473.5T79,550q0,45 22,82.5t59.5,60T242,715q50,0 93.5-28.5T404,610l-17-12q-24,45-63.5,71T240,695q-38,0-69.5-19.5T120,624t-19-72q0-39 17-73t39-69t39-75.5T213,242q0-35-11-68.5T165,103T95,18q17,3 35,5t36,2q31,0 55-5t46-10t47-5q21,0 44.5,5T413,26l6-19Q391-4 365-9.5T313-15q-29,0-52.5,5t-47,10T160,5q-22,0-47.5-3.5T66-7L56,10Z" />
      <glyph unicode="&#xa4;" glyph-name="currency" horiz-adv-x="533" d="M146,467q23,23 54,35.5T265,515q36,0 67.5-13.5T387,465l70,69l15-14l-71-70q19-24 30-53.5T442,335t-11.5-62T399,219l73-71l-15-14l-72,71q-24-22-54.5-35T265,157q-34,0-64,12t-53,33L79,134L64,148l70,69Q90,267 90,335q0,33 11.5,63T132,452L64,520l15,14l67-67ZM111,334q0-44 21-80t56-57.5T265,175q43,0 78,22t56.5,59T421,336q0,45-21.5,81T343,474.5T265,496q-41,0-76.5-21.5T132,416t-21-82Z" />
      <glyph unicode="&#xa5;" glyph-name="yen" horiz-adv-x="651" d="M379,341h93V321H366l-31-46V251H472V231H335V0H315V231H179v20H315v26l-29,44H179v20h94L28,710H51L325,298L600,710h23L379,341Z" />
      <glyph unicode="&#xa6;" glyph-name="brokenbar" horiz-adv-x="214" d="M117,285V-130H97V285h20Zm0,490V360H97V775h20Z" />
      <glyph unicode="&#xa7;" glyph-name="section" horiz-adv-x="481" d="M385,181q29-16 41.5-42.5T439,74q0-39-17-69.5t-44.5-51t-60-31T253-88t-59,6.5T144-64T102-38T66-6L81,7q41-37 82-56t90-19q40,0 78,17T394-2t25,76q0,49-24,73.5t-61,33T259,190q-49,2-91.5,17.5T99,256T73,341q0,26 9,52t23,42q-27,17-43,49.5T46,557q0,51 28.5,86t71,53.5T230,715q33,0 58.5-5t45-14.5T368,672t27-32l-18-8q-13,26-38,39.5T285,690t-55,5q-39,0-77-16.5T90.5,631T66,557q0-72 46.5-101.5T232,426q35,0 69-8t61.5-25.5T406,347t16-67q0-28-10-55t-27-44ZM93,341q0-48 19.5-74.5T164,228t69-16.5t72-8T365,190q17,14 27,39t10,51q0,49-27,76t-66,38.5T232,406q-29,0-57,4.5T124,425q-14-13-22.5-36.5T93,341Z" />
      <glyph unicode="&#xa8;" glyph-name="dieresis" horiz-adv-x="236" d="M50,653v77H70V653H50Zm116,0v77h20V653H166Z" />
      <glyph unicode="&#xa9;" glyph-name="copyright" horiz-adv-x="824" d="M412-7Q334-7 268.5,20T154,96T78,211T51,355q0,77 27,143t76,114.5T268.5,688T412,715t143.5-27T670,612.5T746,498t27-143q0-78-27-144T670,96T555.5,20T412-7Zm1,20q72,0 133.5,24.5T654,107t72,107.5T752,352q0,74-25.5,137t-71,109T548,669.5T413,695T277.5,669.5T169,598T97.5,490T72,354q0-73 25.5-135T169,110.5t108-72T413,13Zm6,114q-38,0-76.5,15t-71,44.5t-52,72T200,355q0,40 12.5,80.5t38,74.5T316,565t95,21q56,0 103.5-24.5T581,487l-19-7q-15,37-42.5,55t-57,24.5T411,566q-49,0-85.5-19T266,497t-34.5-68.5T220,355q0-50 18-88.5t47.5-65T349,161t66-14q29,0 61,11t58,31.5T572,238l19-5q-5-17-28-42.5T503,146t-84-19Z" />
      <glyph unicode="&#xaa;" glyph-name="ordfeminine" horiz-adv-x="425" d="M170,351q-49,0-83.5,31T52,458t42,73.5T201,560q64,0 115-19v35q0,49-30,78.5T205,684q-26,0-55.5-10.5T89,643L76,663q70,46 131,46q65,0 102.5-36T347,573V402q0-7 3.5-11.5T361,386V357q-5,0-9.5,0t-8.5,1q-10,2-16.5,10T320,387l-1,29q-25-31-64.5-48T170,351Zm6,26q41,0 76,14.5T305,430q11,14 11,27v61q-25,11-53.5,15T205,537q-55,0-89-21T82,459q0-34 27-58t67-24Z" />
      <glyph unicode="&#xab;" glyph-name="guillemotleft" horiz-adv-x="518" d="M42,268L279,437V415L61,259L279,102V80L42,250v18Zm170,0L449,437V415L231,259L449,102V80L212,250v18Z" />
      <glyph unicode="&#xac;" glyph-name="logicalnot" horiz-adv-x="561" d="M490,338V140H470V318H87v20H490Z" />
      <glyph unicode="&#xad;" glyph-name="uni00AD" horiz-adv-x="541" d="M69,261v20H472V261H69Z" />
      <glyph unicode="&#xae;" glyph-name="registered" horiz-adv-x="824" d="M412-7Q334-7 268.5,20T154,96T78,211T51,355q0,77 27,143t76,114.5T268.5,688T412,715t143.5-27T670,612.5T746,498t27-143q0-78-27-144T670,96T555.5,20T412-7Zm0,20q96,0 173,42.5T707,175t45,180q0,73-25.5,135t-71,108T548,669.5T412,695q-73,0-135-25.5T169,598T97.5,490T72,355T97.5,219.5t71-109t108-72T412,13ZM267,583H455q38,0 67.5-20.5t46-52.5T585,443q0-36-15-67t-41.5-50.5T467,303L584,121H560L444,303H288V121H267V583ZM460,323q52,0 78.5,36T565,443q0,49-30.5,84T455,562H288V323H460Z" />
      <glyph unicode="&#xaf;" glyph-name="macron" horiz-adv-x="380" d="M50,686v20H330V686H50Z" />
      <glyph unicode="&#xb0;" glyph-name="degree" horiz-adv-x="252" d="M57,655q0,29 20.5,49T126,724q29,0 49-20t20-49q0-28-20-48.5T126,586q-28,0-48.5,20.5T57,655Zm34,35q-14-14-14-35q0-22 14-34q15-15 35-15t35,15q6,6 10,15t4,19q0,11-4,19.5T161,690q-7,7-16,10.5T126,704q-21,0-35-14Z" />
      <glyph unicode="&#xb1;" glyph-name="plusminus" horiz-adv-x="470" d="M85,85v20H385V85H85ZM385,365V345H245V195H225V345H85v20H225V515h20V365H385Z" />
      <glyph unicode="&#xb2;" glyph-name="uni00B2" horiz-adv-x="369" d="M40,423q0,50 15,83t42.5,54.5T163,596q30,11 62.5,22.5t55,31T303,703q0,35-27.5,62T190,792q-36,0-62-10.5T85.5,757T60,732L45,744q2,3 18,19.5t48.5,32T192,811q68,0 100-33t32-76q0-30-14.5-50T272,619.5t-48-21T178,583q-52-18-76-43.5T71.5,488T65,442H325V423H40Z" />
      <glyph unicode="&#xb3;" glyph-name="uni00B3" horiz-adv-x="380" d="M190,418q-62,0-104,27T41,514l16,7q2-22 19.5-41.5t47.5-31T190,437q54,0 90.5,24T317,522q0,40-41,63.5T168,609H146v18h22q65,0 100.5,20T304,704q0,39-34.5,64T182,793q-42,0-74-17T63,733L48,745q10,20 30,35t47,23t57,8q41,0 73.5-14t51-38T325,705q0-34-22.5-55.5T236,618q46-7 73.5-34T337,520q0-29-19.5-52.5t-53-36.5T190,418Z" />
      <glyph unicode="&#xb4;" glyph-name="acute" horiz-adv-x="198" d="M66,645L50,657l64,73h34L66,645Z" />
      <glyph unicode="&#xb5;" glyph-name="uni00B5" horiz-adv-x="602" d="M91,519h20V228q0-110 36.5-164T258,10q50,0 96,23t80.5,63.5T484,189V519h20V40q0-9 4.5-14.5T520,20V0q-6,0-9,0.5T506,2q-10,4-16,14.5T484,40v92q-22-43-57.5-75T348,7.5T258-10q-36,0-64.5,11.5t-49,35T111,94V-212H91V519Z" />
      <glyph unicode="&#xb6;" glyph-name="paragraph" horiz-adv-x="565" d="M32,479q0,107 74.5,169T314,710H515V690H445V-80H425V248H334V-80H314V248q-87,2-150.5,29.5T66,356T32,479Zm20,0q0-73 36-118.5T184,293t130-25V690q-127,0-194.5-55.5T52,479ZM425,690H334V268h91V690Z" />
      <glyph unicode="&#xb7;" glyph-name="periodcentered" horiz-adv-x="158" d="M69,250v83H89V250H69Z" />
      <glyph unicode="&#xb8;" glyph-name="cedilla" horiz-adv-x="252" d="M150-164q-25,0-54.5,6T40-139l11,17q24-10 46-17t50-7q39,0 59.5,14T227-90q0,29-19.5,49.5T150,0l20,8q36-20 56.5-42.5T247-90q0-39-27.5-56.5T150-164Z" />
      <glyph unicode="&#xb9;" glyph-name="uni00B9" horiz-adv-x="252" d="M230,441V422H49v19h83V785q-7-8-24-19.5T71.5,746T35,738v19q22,0 44,13t37,26.5T132,811h20V441h78Z" />
      <glyph unicode="&#xba;" glyph-name="ordmasculine" horiz-adv-x="450" d="M224,351q-49,0-89,24.5T72,441T49,529q0,49 23.5,90t63,65.5T224,709q50,0 90-24.5T377.5,619T401,529q0-47-23.5-88T314,375.5T224,351ZM71,528q0-43 21-79t55.5-57.5T224,370q43,0 78,22t56,58.5T379,530q0,44-21,80t-56,57.5T224,689q-41,0-76-21.5t-56-58T71,528Z" />
      <glyph unicode="&#xbb;" glyph-name="guillemotright" horiz-adv-x="518" d="M476,250L239,80v22L457,259L239,415v22L476,268V250Zm-170,0L69,80v22L287,259L69,415v22L306,268V250Z" />
      <glyph unicode="&#xbc;" glyph-name="onequarter" horiz-adv-x="724" d="M230,361V342H49v19h83V705q-7-8-24-19.5T71.5,666T35,658v19q22,0 44,13t37,26.5T132,731h20V361h78ZM25,11L304,361L583,711l16-12L318,347L41-1L25,11ZM617,0V110H384v17L623,383h14V129h55V110H637V0H617ZM412,129H617V348L412,129Z" />
      <glyph unicode="&#xbd;" glyph-name="onehalf" horiz-adv-x="741" d="M412,0q0,50 15,83t42.5,54.5T535,173q30,11 62.5,22.5t55,31T675,280q0,35-27.5,62T562,369q-36,0-62-10.5T457.5,334T432,309l-15,12q2,3 18,19.5t48.5,32T564,388q68,0 100-33t32-76q0-30-14.5-50T644,196.5t-48-21T550,160q-52-18-76-43.5T443.5,65T437,19H697V0H412ZM230,361V342H49v19h83V705q-7-8-24-19.5T71.5,666T35,658v19q22,0 44,13t37,26.5T132,731h20V361h78ZM25,11L304,361L583,711l16-12L318,347L41-1L25,11Z" />
      <glyph unicode="&#xbe;" glyph-name="threequarters" horiz-adv-x="852" d="M190,338q-62,0-104,27T41,434l16,7q2-22 19.5-41.5t47.5-31T190,357q54,0 90.5,24T317,442q0,40-41,63.5T168,529H146v18h22q65,0 100.5,20T304,624q0,39-34.5,64T182,713q-42,0-74-17T63,653L48,665q10,20 30,35t47,23t57,8q41,0 73.5-14t51-38T325,625q0-34-22.5-55.5T236,538q46-7 73.5-34T337,440q0-29-19.5-52.5t-53-36.5T190,338ZM153,11L432,361L711,711l16-12L446,347L169-1L153,11ZM745,0V110H512v17L751,383h14V129h55V110H765V0H745ZM540,129H745V348L540,129Z" />
      <glyph unicode="&#xbf;" glyph-name="questiondown" horiz-adv-x="461" d="M286,327q0-64-11.5-100T244,172t-44-32q-24-12-49.5-24T103,86.5t-35.5-45T54-29q0-57 24-93t62-53.5T220-193q40,0 77.5,14.5t67,40.5T411-76l18-8q-18-41-51.5-70t-74-44T221-213q-36,0-69.5,12t-60,35.5T49.5-107T34-26q0,45 14.5,74.5T86.5,97t51,33T192,159q22,12 38.5,28t26,48.5T266,327h20Zm0,179V422H266v84h20Z" />
      <glyph unicode="&#xc0;" glyph-name="Agrave" horiz-adv-x="674" d="M328,710h18L655,0H633L522,254H151L40,0H18L328,710ZM513,274L337,681L159,274H513ZM269,918h33l65-73l-16-12l-82,85Z" />
      <glyph unicode="&#xc1;" glyph-name="Aacute" horiz-adv-x="674" d="M328,710h18L655,0H633L522,254H151L40,0H18L328,710ZM513,274L337,681L159,274H513ZM343,833l-16,12l64,73h34l-82-85Z" />
      <glyph unicode="&#xc2;" glyph-name="Acircumflex" horiz-adv-x="674" d="M328,710h18L655,0H633L522,254H151L40,0H18L328,710ZM513,274L337,681L159,274H513ZM236,844l93,74h16l93-74l-16-12l-85,63l-85-63l-16,12Z" />
      <glyph unicode="&#xc3;" glyph-name="Atilde" horiz-adv-x="674" d="M328,710h18L655,0H633L522,254H151L40,0H18L328,710ZM513,274L337,681L159,274H513ZM394,851q-29,0-49.5,9.5t-37.5,19T269,889t-32-10.5T222,856t-4-15H198q0,2 2.5,12.5t9.5,23t21.5,22T271,908q26,0 44.5-9.5t37-19T396,870q28,0 40,11t15.5,23t3.5,14h20q0-3-2.5-14T462,881t-24.5-21T394,851Z" />
      <glyph unicode="&#xc4;" glyph-name="Adieresis" horiz-adv-x="674" d="M328,710h18L655,0H633L522,254H151L40,0H18L328,710ZM513,274L337,681L159,274H513ZM269,841v77h20V841H269Zm116,0v77h20V841H385Z" />
      <glyph unicode="&#xc5;" glyph-name="Aring" horiz-adv-x="674" d="M328,710h18L655,0H633L522,254H151L40,0H18L328,710ZM513,274L337,681L159,274H513ZM262,869q0,32 22,53.5T337,944q32,0 53.5-21.5T412,869q0-31-21.5-53T337,794q-31,0-53,22t-22,53Zm75,54q-22,0-38-14.5T283,869q0-22 16-38t38-16q20,0 37,15t17,39q0,25-16,39.5T337,923Z" />
      <glyph unicode="&#xc6;" glyph-name="AE" horiz-adv-x="962" d="M439,710H901V690H464V373H847V353H464V20H910V0H444V254H163L-4,0H-29L439,710Zm5-436V678L175,274H444Z" />
      <glyph unicode="&#xc7;" glyph-name="Ccedilla" horiz-adv-x="697" d="M48,360q0,64 22.5,126.5t65.5,114T241,683t142,31q95,0 161-43.5T642,559l-19-6q-27,52-67,83t-85.5,44.5T379,694q-74,0-132-29t-98-78T88.5,478.5T68,357q0-68 24-129.5T159,118T259,42T382,14q47,0 96,16t92,49t70,85l19-5q-24-53-70-90T487.5,13T378-6Q306-6 245.5,25.5t-105,84T72,227.5T48,360ZM370-164q-25,0-54.5,6T260-139l11,17q24-10 46-17t50-7q39,0 59.5,14T447-90q0,29-19.5,49.5T370,0l20,8q36-20 56.5-42.5T467-90q0-39-27.5-56.5T370-164Z" />
      <glyph unicode="&#xc8;" glyph-name="Egrave" horiz-adv-x="617" d="M565,20V0H99V710H556V690H119V373H502V353H119V20H565ZM276,918h33l65-73l-16-12l-82,85Z" />
      <glyph unicode="&#xc9;" glyph-name="Eacute" horiz-adv-x="617" d="M565,20V0H99V710H556V690H119V373H502V353H119V20H565ZM350,833l-16,12l64,73h34l-82-85Z" />
      <glyph unicode="&#xca;" glyph-name="Ecircumflex" horiz-adv-x="617" d="M565,20V0H99V710H556V690H119V373H502V353H119V20H565ZM243,844l93,74h16l93-74l-16-12l-85,63l-85-63l-16,12Z" />
      <glyph unicode="&#xcb;" glyph-name="Edieresis" horiz-adv-x="617" d="M565,20V0H99V710H556V690H119V373H502V353H119V20H565ZM276,841v77h20V841H276Zm116,0v77h20V841H392Z" />
      <glyph unicode="&#xcc;" glyph-name="Igrave" horiz-adv-x="218" d="M99,0V710h20V0H99ZM41,918H74l65-73l-16-12L41,918Z" />
      <glyph unicode="&#xcd;" glyph-name="Iacute" horiz-adv-x="218" d="M99,0V710h20V0H99Zm16,833L99,845l64,73h34l-82-85Z" />
      <glyph unicode="&#xce;" glyph-name="Icircumflex" horiz-adv-x="218" d="M99,0V710h20V0H99ZM8,844l93,74h16l93-74l-16-12l-85,63L24,832L8,844Z" />
      <glyph unicode="&#xcf;" glyph-name="Idieresis" horiz-adv-x="218" d="M99,0V710h20V0H99ZM41,841v77H61V841H41Zm116,0v77h20V841H157Z" />
      <glyph unicode="&#xd0;" glyph-name="Eth" horiz-adv-x="718" d="M35,347v20H318V347H35ZM106,0V710H334q112,0 185.5-47.5T630,534.5T667,356q0-108-40.5-188T511,44T334,0H106ZM647,356q0,97-36.5,172.5T504.5,647T334,690H126V20H334q103,0 172.5,44t105,120.5T647,356Z" />
      <glyph unicode="&#xd1;" glyph-name="Ntilde" horiz-adv-x="776" d="M119,671V0H99V710h15L657,29V710h20V0H654L119,671ZM450,851q-29,0-49.5,9.5t-37.5,19T325,889t-32-10.5T278,856t-4-15H254q0,2 2.5,12.5t9.5,23t21.5,22T327,908q26,0 44.5-9.5t37-19T452,870q28,0 40,11t15.5,23t3.5,14h20q0-3-2.5-14T518,881t-24.5-21T450,851Z" />
      <glyph unicode="&#xd2;" glyph-name="Ograve" horiz-adv-x="757" d="M379-5Q306-5 245,25.5T140,107T72,222.5T48,355q0,71 25,135.5t70,115t105.5,80T379,715q74,0 134.5-31t104-83T685,485t24-130q0-72-25-136.5t-70-115T509,24T379-5ZM68,355q0-66 23-127t65-109t99-76T379,15q69,0 126,29t98,78t63.5,109.5T689,355q0,66-23.5,127T600,591t-98.5,76T379,695q-69,0-126.5-29T154,588T90.5,478.5T68,355ZM311,918h33l65-73l-16-12l-82,85Z" />
      <glyph unicode="&#xd3;" glyph-name="Oacute" horiz-adv-x="757" d="M379-5Q306-5 245,25.5T140,107T72,222.5T48,355q0,71 25,135.5t70,115t105.5,80T379,715q74,0 134.5-31t104-83T685,485t24-130q0-72-25-136.5t-70-115T509,24T379-5ZM68,355q0-66 23-127t65-109t99-76T379,15q69,0 126,29t98,78t63.5,109.5T689,355q0,66-23.5,127T600,591t-98.5,76T379,695q-69,0-126.5-29T154,588T90.5,478.5T68,355ZM385,833l-16,12l64,73h34l-82-85Z" />
      <glyph unicode="&#xd4;" glyph-name="Ocircumflex" horiz-adv-x="757" d="M379-5Q306-5 245,25.5T140,107T72,222.5T48,355q0,71 25,135.5t70,115t105.5,80T379,715q74,0 134.5-31t104-83T685,485t24-130q0-72-25-136.5t-70-115T509,24T379-5ZM68,355q0-66 23-127t65-109t99-76T379,15q69,0 126,29t98,78t63.5,109.5T689,355q0,66-23.5,127T600,591t-98.5,76T379,695q-69,0-126.5-29T154,588T90.5,478.5T68,355ZM278,844l93,74h16l93-74l-16-12l-85,63l-85-63l-16,12Z" />
      <glyph unicode="&#xd5;" glyph-name="Otilde" horiz-adv-x="757" d="M379-5Q306-5 245,25.5T140,107T72,222.5T48,355q0,71 25,135.5t70,115t105.5,80T379,715q74,0 134.5-31t104-83T685,485t24-130q0-72-25-136.5t-70-115T509,24T379-5ZM68,355q0-66 23-127t65-109t99-76T379,15q69,0 126,29t98,78t63.5,109.5T689,355q0,66-23.5,127T600,591t-98.5,76T379,695q-69,0-126.5-29T154,588T90.5,478.5T68,355ZM436,851q-29,0-49.5,9.5t-37.5,19T311,889t-32-10.5T264,856t-4-15H240q0,2 2.5,12.5t9.5,23t21.5,22T313,908q26,0 44.5-9.5t37-19T438,870q28,0 40,11t15.5,23t3.5,14h20q0-3-2.5-14T504,881t-24.5-21T436,851Z" />
      <glyph unicode="&#xd6;" glyph-name="Odieresis" horiz-adv-x="757" d="M379-5Q306-5 245,25.5T140,107T72,222.5T48,355q0,71 25,135.5t70,115t105.5,80T379,715q74,0 134.5-31t104-83T685,485t24-130q0-72-25-136.5t-70-115T509,24T379-5ZM68,355q0-66 23-127t65-109t99-76T379,15q69,0 126,29t98,78t63.5,109.5T689,355q0,66-23.5,127T600,591t-98.5,76T379,695q-69,0-126.5-29T154,588T90.5,478.5T68,355ZM311,841v77h20V841H311Zm116,0v77h20V841H427Z" />
      <glyph unicode="&#xd7;" glyph-name="multiply" horiz-adv-x="440" d="M370,135l-15-14L220,256L85,121L71,136L205,270L70,406l15,14L220,285L356,421l14-15L234,270L370,135Z" />
      <glyph unicode="&#xd8;" glyph-name="Oslash" horiz-adv-x="757" d="M379-5Q306-5 245,25.5T140,107T72,222.5T48,355q0,71 25,135.5t70,115t105.5,80T379,715q74,0 134.5-31t104-83T685,485t24-130q0-72-25-136.5t-70-115T509,24T379-5ZM68,355q0-66 23-127t65-109t99-76T379,15q69,0 126,29t98,78t63.5,109.5T689,355q0,66-23.5,127T600,591t-98.5,76T379,695q-69,0-126.5-29T154,588T90.5,478.5T68,355ZM619,710L163,0H138L593,710h26Z" />
      <glyph unicode="&#xd9;" glyph-name="Ugrave" horiz-adv-x="756" d="M379-5Q295-5 238.5,25.5T149,108T102,224T88,355V710h20V355q0-64 13-125t43.5-109.5t82.5-77T378,15q80,0 133,29.5T594,123t42.5,109.5T649,355V710h20V355q0-70-15-135T605.5,104.5t-89-80T379-5ZM311,918h33l65-73l-16-12l-82,85Z" />
      <glyph unicode="&#xda;" glyph-name="Uacute" horiz-adv-x="756" d="M379-5Q295-5 238.5,25.5T149,108T102,224T88,355V710h20V355q0-64 13-125t43.5-109.5t82.5-77T378,15q80,0 133,29.5T594,123t42.5,109.5T649,355V710h20V355q0-70-15-135T605.5,104.5t-89-80T379-5Zm6,838l-16,12l64,73h34l-82-85Z" />
      <glyph unicode="&#xdb;" glyph-name="Ucircumflex" horiz-adv-x="756" d="M379-5Q295-5 238.5,25.5T149,108T102,224T88,355V710h20V355q0-64 13-125t43.5-109.5t82.5-77T378,15q80,0 133,29.5T594,123t42.5,109.5T649,355V710h20V355q0-70-15-135T605.5,104.5t-89-80T379-5ZM278,844l93,74h16l93-74l-16-12l-85,63l-85-63l-16,12Z" />
      <glyph unicode="&#xdc;" glyph-name="Udieresis" horiz-adv-x="756" d="M379-5Q295-5 238.5,25.5T149,108T102,224T88,355V710h20V355q0-64 13-125t43.5-109.5t82.5-77T378,15q80,0 133,29.5T594,123t42.5,109.5T649,355V710h20V355q0-70-15-135T605.5,104.5t-89-80T379-5ZM311,841v77h20V841H311Zm116,0v77h20V841H427Z" />
      <glyph unicode="&#xdd;" glyph-name="Yacute" horiz-adv-x="641" d="M46,710L320,298L595,710h23L330,275V0H310V277L23,710H46ZM326,833l-16,12l64,73h34l-82-85Z" />
      <glyph unicode="&#xde;" glyph-name="Thorn" horiz-adv-x="599" d="M368,560q44,0 80.5-18.5t63-49.5T553,423t15-78q0-55-24.5-104.5T476,160T375,129H119V0H99V710h20V560H368Zm7-411q54,0 93,29t59.5,74T548,345q0,51-24,95.5t-65,72T368,540H119V149H375Z" />
      <glyph unicode="&#xdf;" glyph-name="germandbls" horiz-adv-x="546" d="M230,13q120,2 185,51.5T480,202q0,57-26,100t-72,67T275,393H258v20h16q44,0 79,18.5t55,50T428,552q0,41-21.5,73T349,675.5T267,694q-49,0-86-23t-57-64.5T104,509V0H84V509q0,62 23.5,108t65,71.5T268,714q51,0 92-20.5t64.5-56T448,557q0-36-16-68.5t-43-55T328,404q83-17 127.5-69.5T500,203q0-48-17.5-86t-52-64.5T346,11T230-6V13Z" />
      <glyph unicode="&#xe0;" glyph-name="agrave" horiz-adv-x="524" d="M39,149q0,44 27.5,77T142,278t111,19q44,0 90.5-7.5T427,268v59q0,81-46.5,130.5T257,507q-37,0-80.5-16.5T89,443L77,459q50,34 95,51t85,17q87,0 138.5-54T447,327V40q0-10 4.5-15T463,20V0q-6,0-9,0.5T449,2q-10,4-16,14.5T427,40V88q-36-46-94-72T207-10q-47,0-85,21T61.5,68.5T39,149Zm373-47q8,11 11.5,21.5T427,143V246q-40,16-83.5,23.5T253,277q-87,0-140.5-35T59,149q0-39 19.5-70.5t53.5-50T207,10q67,0 122.5,25T412,102ZM189,730h33l65-73l-16-12l-82,85Z" />
      <glyph unicode="&#xe1;" glyph-name="aacute" horiz-adv-x="524" d="M39,149q0,44 27.5,77T142,278t111,19q44,0 90.5-7.5T427,268v59q0,81-46.5,130.5T257,507q-37,0-80.5-16.5T89,443L77,459q50,34 95,51t85,17q87,0 138.5-54T447,327V40q0-10 4.5-15T463,20V0q-6,0-9,0.5T449,2q-10,4-16,14.5T427,40V88q-36-46-94-72T207-10q-47,0-85,21T61.5,68.5T39,149Zm373-47q8,11 11.5,21.5T427,143V246q-40,16-83.5,23.5T253,277q-87,0-140.5-35T59,149q0-39 19.5-70.5t53.5-50T207,10q67,0 122.5,25T412,102ZM263,645l-16,12l64,73h34l-82-85Z" />
      <glyph unicode="&#xe2;" glyph-name="acircumflex" horiz-adv-x="524" d="M39,149q0,44 27.5,77T142,278t111,19q44,0 90.5-7.5T427,268v59q0,81-46.5,130.5T257,507q-37,0-80.5-16.5T89,443L77,459q50,34 95,51t85,17q87,0 138.5-54T447,327V40q0-10 4.5-15T463,20V0q-6,0-9,0.5T449,2q-10,4-16,14.5T427,40V88q-36-46-94-72T207-10q-47,0-85,21T61.5,68.5T39,149Zm373-47q8,11 11.5,21.5T427,143V246q-40,16-83.5,23.5T253,277q-87,0-140.5-35T59,149q0-39 19.5-70.5t53.5-50T207,10q67,0 122.5,25T412,102ZM156,656l93,74h16l93-74l-16-12l-85,63l-85-63l-16,12Z" />
      <glyph unicode="&#xe3;" glyph-name="atilde" horiz-adv-x="524" d="M39,149q0,44 27.5,77T142,278t111,19q44,0 90.5-7.5T427,268v59q0,81-46.5,130.5T257,507q-37,0-80.5-16.5T89,443L77,459q50,34 95,51t85,17q87,0 138.5-54T447,327V40q0-10 4.5-15T463,20V0q-6,0-9,0.5T449,2q-10,4-16,14.5T427,40V88q-36-46-94-72T207-10q-47,0-85,21T61.5,68.5T39,149Zm373-47q8,11 11.5,21.5T427,143V246q-40,16-83.5,23.5T253,277q-87,0-140.5-35T59,149q0-39 19.5-70.5t53.5-50T207,10q67,0 122.5,25T412,102ZM314,663q-29,0-49.5,9.5t-37.5,19T189,701t-32-10.5T142,668t-4-15H118q0,2 2.5,12.5t9.5,23t21.5,22T191,720q26,0 44.5-9.5t37-19T316,682q28,0 40,11t15.5,23t3.5,14h20q0-3-2.5-14T382,693t-24.5-21T314,663Z" />
      <glyph unicode="&#xe4;" glyph-name="adieresis" horiz-adv-x="524" d="M39,149q0,44 27.5,77T142,278t111,19q44,0 90.5-7.5T427,268v59q0,81-46.5,130.5T257,507q-37,0-80.5-16.5T89,443L77,459q50,34 95,51t85,17q87,0 138.5-54T447,327V40q0-10 4.5-15T463,20V0q-6,0-9,0.5T449,2q-10,4-16,14.5T427,40V88q-36-46-94-72T207-10q-47,0-85,21T61.5,68.5T39,149Zm373-47q8,11 11.5,21.5T427,143V246q-40,16-83.5,23.5T253,277q-87,0-140.5-35T59,149q0-39 19.5-70.5t53.5-50T207,10q67,0 122.5,25T412,102ZM189,653v77h20V653H189Zm116,0v77h20V653H305Z" />
      <glyph unicode="&#xe5;" glyph-name="aring" horiz-adv-x="524" d="M39,149q0,44 27.5,77T142,278t111,19q44,0 90.5-7.5T427,268v59q0,81-46.5,130.5T257,507q-37,0-80.5-16.5T89,443L77,459q50,34 95,51t85,17q87,0 138.5-54T447,327V40q0-10 4.5-15T463,20V0q-6,0-9,0.5T449,2q-10,4-16,14.5T427,40V88q-36-46-94-72T207-10q-47,0-85,21T61.5,68.5T39,149Zm373-47q8,11 11.5,21.5T427,143V246q-40,16-83.5,23.5T253,277q-87,0-140.5-35T59,149q0-39 19.5-70.5t53.5-50T207,10q67,0 122.5,25T412,102ZM182,681q0,32 22,53.5T257,756q32,0 53.5-21.5T332,681q0-31-21.5-53T257,606q-31,0-53,22t-22,53Zm75,54q-22,0-38-14.5T203,681q0-22 16-38t38-16q20,0 37,15t17,39q0,25-16,39.5T257,735Z" />
      <glyph unicode="&#xe6;" glyph-name="ae" horiz-adv-x="928" d="M207-10q-47,0-85,21T61.5,68.5T39,149t27.5,77T142,278t111,19q36,0 74-5.5T398,277q2,26 7.5,51T421,376q-13,60-56.5,95.5T257,507q-37,0-80.5-16.5T89,443L77,459q100,68 180,68q67,0 113-32.5T435,403q32,56 87,90t121,34q69,0 125.5-36T859,394.5T893,259q0-3 0-5.5t0-5.5H418q5-67 37-121t83-85.5T649,10T761,40.5T835,119l19-5q-14-35-45.5-63.5T735,6T648-10q-64,0-118.5,33T441,111q-21-43-60-69.5t-85-39T207-10Zm0,20q67,0 122.5,25T412,102q12,18 15,35q-13,27-20.5,57T398,256q-34,11-70.5,16T253,277q-87,0-140.5-35T59,149q0-39 19.5-70.5t53.5-50T207,10ZM872,268q-4,70-35,123.5T756,476T644,507q-61,0-111-31t-80.5-85T418,268H872Z" />
      <glyph unicode="&#xe7;" glyph-name="ccedilla" horiz-adv-x="538" d="M297-10q-51,0-96.5,21.5T120,70.5T65.5,157T46,262q0,75 33,135t90,95t127,35q65,0 117-30.5T491,411l-20-7q-25,48-73,75.5T293,507q-63,0-114.5-32.5t-82-88T66,262q0-68 31-125.5t83-92T294,10q41,0 80,15.5T441.5,66T478,119l20-6q-11-35-42-63T383.5,6T297-10ZM287-164q-25,0-54.5,6T177-139l11,17q24-10 46-17t50-7q39,0 59.5,14T364-90q0,29-19.5,49.5T287,0l20,8q36-20 56.5-42.5T384-90q0-39-27.5-56.5T287-164Z" />
      <glyph unicode="&#xe8;" glyph-name="egrave" horiz-adv-x="576" d="M296-10q-51,0-96.5,21.5t-80,59t-54,87T46,263q0,73 33,133t88.5,95.5T291,527q69,0 125.5-36T507,394.5T541,259q0-3 0-5.5t0-5.5H66q5-67 37-121t83-85.5T297,10T409,40.5T483,119l19-5q-14-35-45.5-63.5T383,6T296-10ZM66,268H520q-4,70-35,123.5T404,476T292,507q-61,0-111-31t-80.5-85T66,268ZM224,730h33l65-73l-16-12l-82,85Z" />
      <glyph unicode="&#xe9;" glyph-name="eacute" horiz-adv-x="576" d="M296-10q-51,0-96.5,21.5t-80,59t-54,87T46,263q0,73 33,133t88.5,95.5T291,527q69,0 125.5-36T507,394.5T541,259q0-3 0-5.5t0-5.5H66q5-67 37-121t83-85.5T297,10T409,40.5T483,119l19-5q-14-35-45.5-63.5T383,6T296-10ZM66,268H520q-4,70-35,123.5T404,476T292,507q-61,0-111-31t-80.5-85T66,268ZM298,645l-16,12l64,73h34l-82-85Z" />
      <glyph unicode="&#xea;" glyph-name="ecircumflex" horiz-adv-x="576" d="M296-10q-51,0-96.5,21.5t-80,59t-54,87T46,263q0,73 33,133t88.5,95.5T291,527q69,0 125.5-36T507,394.5T541,259q0-3 0-5.5t0-5.5H66q5-67 37-121t83-85.5T297,10T409,40.5T483,119l19-5q-14-35-45.5-63.5T383,6T296-10ZM66,268H520q-4,70-35,123.5T404,476T292,507q-61,0-111-31t-80.5-85T66,268ZM191,656l93,74h16l93-74l-16-12l-85,63l-85-63l-16,12Z" />
      <glyph unicode="&#xeb;" glyph-name="edieresis" horiz-adv-x="576" d="M296-10q-51,0-96.5,21.5t-80,59t-54,87T46,263q0,73 33,133t88.5,95.5T291,527q69,0 125.5-36T507,394.5T541,259q0-3 0-5.5t0-5.5H66q5-67 37-121t83-85.5T297,10T409,40.5T483,119l19-5q-14-35-45.5-63.5T383,6T296-10ZM66,268H520q-4,70-35,123.5T404,476T292,507q-61,0-111-31t-80.5-85T66,268ZM224,653v77h20V653H224Zm116,0v77h20V653H340Z" />
      <glyph unicode="&#xec;" glyph-name="igrave" horiz-adv-x="188" d="M84,0V519h20V0H84ZM26,730H59l65-73l-16-12L26,730Z" />
      <glyph unicode="&#xed;" glyph-name="iacute" horiz-adv-x="188" d="M84,0V519h20V0H84Zm16,645L84,657l64,73h34l-82-85Z" />
      <glyph unicode="&#xee;" glyph-name="icircumflex" horiz-adv-x="188" d="M84,0V519h20V0H84ZM-7,656l93,74h16l93-74l-16-12L94,707L9,644L-7,656Z" />
      <glyph unicode="&#xef;" glyph-name="idieresis" horiz-adv-x="188" d="M84,0V519h20V0H84ZM26,653v77H46V653H26Zm116,0v77h20V653H142Z" />
      <glyph unicode="&#xf0;" glyph-name="eth" horiz-adv-x="593" d="M542,246q0-52-19-98T469.5,66.5t-79-56T295-10q-68,0-124.5,33T81,111.5T48,232q0,50 19.5,93.5T121,403t79,53t95,19q78,0 139.5-40.5T522,330q-5,48-20,97t-47,99.5T366,628T220,730h29q98-58 156-116.5T493,495t39.5-122T542,246ZM68,230q0-60 30.5-110t82-80T294,10T408,42.5T491,129t31,118q0,57-31,104t-82.5,75.5T295,455q-61,0-113-31T99,342T68,230ZM471,699l-96-63l-7-5L240,547l-10,14l125,82l6,4l100,66l10-14Z" />
      <glyph unicode="&#xf1;" glyph-name="ntilde" horiz-adv-x="565" d="M487,0H467V289q0,113-31.5,165.5T334,507q-50,0-97.5-23.5t-82.5-64T104,328V0H84V519h20V385q22,42 58,74t80.5,50T333,527q40,0 69-14.5T450,469t28-74t9-106V0ZM337,663q-29,0-49.5,9.5t-37.5,19T212,701t-32-10.5T165,668t-4-15H141q0,2 2.5,12.5t9.5,23t21.5,22T214,720q26,0 44.5-9.5t37-19T339,682q28,0 40,11t15.5,23t3.5,14h20q0-3-2.5-14T405,693t-24.5-21T337,663Z" />
      <glyph unicode="&#xf2;" glyph-name="ograve" horiz-adv-x="586" d="M293-10q-51,0-96,21T118,69.5t-53,86T46,258q0,55 19.5,103.5t53.5,86T198,506t95,21t95-21t79-58.5t53.5-86T540,258q0-54-19-102.5t-53.5-86T388.5,11T293-10ZM66,256q0-67 30.5-123t82-89.5T292,10T406,44t83,91t31,124T489,382.5T406.5,473T293,507q-61,0-113-34.5T97,381T66,256ZM225,730h33l65-73l-16-12l-82,85Z" />
      <glyph unicode="&#xf3;" glyph-name="oacute" horiz-adv-x="586" d="M293-10q-51,0-96,21T118,69.5t-53,86T46,258q0,55 19.5,103.5t53.5,86T198,506t95,21t95-21t79-58.5t53.5-86T540,258q0-54-19-102.5t-53.5-86T388.5,11T293-10ZM66,256q0-67 30.5-123t82-89.5T292,10T406,44t83,91t31,124T489,382.5T406.5,473T293,507q-61,0-113-34.5T97,381T66,256ZM299,645l-16,12l64,73h34l-82-85Z" />
      <glyph unicode="&#xf4;" glyph-name="ocircumflex" horiz-adv-x="586" d="M293-10q-51,0-96,21T118,69.5t-53,86T46,258q0,55 19.5,103.5t53.5,86T198,506t95,21t95-21t79-58.5t53.5-86T540,258q0-54-19-102.5t-53.5-86T388.5,11T293-10ZM66,256q0-67 30.5-123t82-89.5T292,10T406,44t83,91t31,124T489,382.5T406.5,473T293,507q-61,0-113-34.5T97,381T66,256ZM192,656l93,74h16l93-74l-16-12l-85,63l-85-63l-16,12Z" />
      <glyph unicode="&#xf5;" glyph-name="otilde" horiz-adv-x="586" d="M293-10q-51,0-96,21T118,69.5t-53,86T46,258q0,55 19.5,103.5t53.5,86T198,506t95,21t95-21t79-58.5t53.5-86T540,258q0-54-19-102.5t-53.5-86T388.5,11T293-10ZM66,256q0-67 30.5-123t82-89.5T292,10T406,44t83,91t31,124T489,382.5T406.5,473T293,507q-61,0-113-34.5T97,381T66,256ZM350,663q-29,0-49.5,9.5t-37.5,19T225,701t-32-10.5T178,668t-4-15H154q0,2 2.5,12.5t9.5,23t21.5,22T227,720q26,0 44.5-9.5t37-19T352,682q28,0 40,11t15.5,23t3.5,14h20q0-3-2.5-14T418,693t-24.5-21T350,663Z" />
      <glyph unicode="&#xf6;" glyph-name="odieresis" horiz-adv-x="586" d="M293-10q-51,0-96,21T118,69.5t-53,86T46,258q0,55 19.5,103.5t53.5,86T198,506t95,21t95-21t79-58.5t53.5-86T540,258q0-54-19-102.5t-53.5-86T388.5,11T293-10ZM66,256q0-67 30.5-123t82-89.5T292,10T406,44t83,91t31,124T489,382.5T406.5,473T293,507q-61,0-113-34.5T97,381T66,256ZM225,653v77h20V653H225Zm116,0v77h20V653H341Z" />
      <glyph unicode="&#xf7;" glyph-name="divide" horiz-adv-x="546" d="M263,385v64h20V385H263Zm0-293v64h20V92H263ZM72,261v20H475V261H72Z" />
      <glyph unicode="&#xf8;" glyph-name="oslash" horiz-adv-x="586" d="M293-10q-51,0-96,21T118,69.5t-53,86T46,258q0,55 19.5,103.5t53.5,86T198,506t95,21t95-21t79-58.5t53.5-86T540,258q0-54-19-102.5t-53.5-86T388.5,11T293-10Zm-1,20q62,0 114,34t83,91t31,124T489,382.5T406.5,473T293,507q-61,0-113-34.5T97,381T66,256q0-67 30.5-123t82-89.5T292,10ZM123,0l31,51l17-13L148,0H123Zm48,38L154,51L416,479l18-13L171,38ZM434,466l-18,13l24,40h26l-32-53Z" />
      <glyph unicode="&#xf9;" glyph-name="ugrave" horiz-adv-x="576" d="M78,228V519H98V228q0-110 36.5-164T245,10q50,0 96,23t80.5,63.5T471,189V519h20V40q0-9 4.5-14.5T507,20V0q-6,0-9,0.5T493,2q-10,4-16,14.5T471,40v92Q437,67 376,28.5T245-10q-82,0-124.5,60T78,228ZM214,730h33l65-73l-16-12l-82,85Z" />
      <glyph unicode="&#xfa;" glyph-name="uacute" horiz-adv-x="576" d="M78,228V519H98V228q0-110 36.5-164T245,10q50,0 96,23t80.5,63.5T471,189V519h20V40q0-9 4.5-14.5T507,20V0q-6,0-9,0.5T493,2q-10,4-16,14.5T471,40v92Q437,67 376,28.5T245-10q-82,0-124.5,60T78,228ZM288,645l-16,12l64,73h34l-82-85Z" />
      <glyph unicode="&#xfb;" glyph-name="ucircumflex" horiz-adv-x="576" d="M78,228V519H98V228q0-110 36.5-164T245,10q50,0 96,23t80.5,63.5T471,189V519h20V40q0-9 4.5-14.5T507,20V0q-6,0-9,0.5T493,2q-10,4-16,14.5T471,40v92Q437,67 376,28.5T245-10q-82,0-124.5,60T78,228ZM181,656l93,74h16l93-74l-16-12l-85,63l-85-63l-16,12Z" />
      <glyph unicode="&#xfc;" glyph-name="udieresis" horiz-adv-x="576" d="M78,228V519H98V228q0-110 36.5-164T245,10q50,0 96,23t80.5,63.5T471,189V519h20V40q0-9 4.5-14.5T507,20V0q-6,0-9,0.5T493,2q-10,4-16,14.5T471,40v92Q437,67 376,28.5T245-10q-82,0-124.5,60T78,228ZM214,653v77h20V653H214Zm116,0v77h20V653H330Z" />
      <glyph unicode="&#xfd;" glyph-name="yacute" horiz-adv-x="536" d="M128-203q17,0 29.5,1.5T175-193q4,5 11,19.5T210.5-119T262,0L21,519H43L272,25L489,519h22L202-186q-4-9-9-15.5T182.5-212T169-218q-9-2-19.5-3.5T128-223v20ZM278,645l-16,12l64,73h34l-82-85Z" />
      <glyph unicode="&#xfe;" glyph-name="thorn" horiz-adv-x="603" d="M557,258q-1-53-20.5-101t-53-85.5T405,12T307-10q-61,0-116.5,34.5T104,108V-213H84V710h20V398q40,56 92,92.5T316,527q57,0 101.5-23.5t76-63t47.5-87T557,258Zm-20,0q0,64-28,121t-77.5,92.5T316,507q-49,0-90-21.5T154.5,430T104,356V169q0-32 20-60.5t51-51t66.5-35T307,10q50,0 92,21t73,57t48,80t17,90Z" />
      <glyph unicode="&#xff;" glyph-name="ydieresis" horiz-adv-x="536" d="M128-203q17,0 29.5,1.5T175-193q4,5 11,19.5T210.5-119T262,0L21,519H43L272,25L489,519h22L202-186q-4-9-9-15.5T182.5-212T169-218q-9-2-19.5-3.5T128-223v20Zm76,856v77h20V653H204Zm116,0v77h20V653H320Z" />
      <glyph unicode="&#x2013;" glyph-name="endash" horiz-adv-x="541" d="M69,261v20H472V261H69Z" />
      <glyph unicode="&#x2014;" glyph-name="emdash" horiz-adv-x="877" d="M69,261v20H808V261H69Z" />
      <glyph unicode="&#x2018;" glyph-name="quoteleft" horiz-adv-x="168" d="M97,730L87,644h9V570H70v74l13,86H97Z" />
      <glyph unicode="&#x2019;" glyph-name="quoteright" horiz-adv-x="165" d="M71,570l10,86H72v74H98V656L85,570H71Z" />
      <glyph unicode="&#x201a;" glyph-name="quotesinglbase" horiz-adv-x="260" d="M116-76L126,0h-9V74h26V0L130-76H116Z" />
      <glyph unicode="&#x201c;" glyph-name="quotedblleft" horiz-adv-x="248" d="M97,730L87,644h9V570H70v74l13,86H97Zm80,0l-10-86h9V570H150v74l13,86h14Z" />
      <glyph unicode="&#x201d;" glyph-name="quotedblright" horiz-adv-x="245" d="M71,570l10,86H72v74H98V656L85,570H71Zm80,0l10,86h-9v74h26V656l-13-86H151Z" />
      <glyph unicode="&#x201e;" glyph-name="quotedblbase" horiz-adv-x="330" d="M116-76L126,0h-9V74h26V0L130-76H116Zm70,0L196,0h-9V74h26V0L200-76H186Z" />
      <glyph unicode="&#x2022;" glyph-name="bullet" horiz-adv-x="340" d="M248,343q0-22-10.5-40t-28-28.5T170,264q-21,0-39,10.5T102,303T91,343q0,21 11,38.5T131,410t39,11q22,0 39.5-11t28-28.5T248,343Z" />
      <glyph unicode="&#x2039;" glyph-name="guilsinglleft" horiz-adv-x="348" d="M42,268L279,437V415L61,259L279,102V80L42,250v18Z" />
      <glyph unicode="&#x203a;" glyph-name="guilsinglright" horiz-adv-x="348" d="M306,250L69,80v22L287,259L69,415v22L306,268V250Z" />
    </font>
</defs>
</svg>
