<?xml version="1.0" standalone="no"?>
<!DOCTYPE svg PUBLIC "-//W3C//DTD SVG 1.1//EN" "http://www.w3.org/Graphics/SVG/1.1/DTD/svg11.dtd">
<svg xmlns="http://www.w3.org/2000/svg">
<defs >
<font id="Raleway" horiz-adv-x="566" ><font-face
    font-family="Raleway Thin"
    units-per-em="1000"
    panose-1="0 0 0 0 0 0 0 0 0 0"
    ascent="940"
    descent="-234"
    alphabetic="0" />
<glyph unicode=" " glyph-name="space" horiz-adv-x="261" />
<glyph unicode="!" glyph-name="exclam" horiz-adv-x="228" d="M104 200V717H124V200H104ZM104 0V84H124V0H104Z" />
<glyph unicode="&quot;" glyph-name="quotedbl" horiz-adv-x="216" d="M73 570V710H93V570H73ZM123 570V710H143V570H123Z" />
<glyph unicode="#" glyph-name="numbersign" horiz-adv-x="650" d="M612 481H494L436 241H572V221H431L378 0H357L411 221H171L118 0H97L151 221H38V241H156L214 481H78V501H219L270 710H291L239 501H479L530 710H551L499 501H612V481ZM416 241L474 481H234L176 241H416Z" />
<glyph unicode="$" glyph-name="dollar" horiz-adv-x="613" d="M300 1L320 0V-93H300V1ZM300 5V706L320 708V4L300 5ZM300 815H320V704L300 702V815ZM516 616Q495 639 474 654T429 679T379 692T320 696Q199 696 145 650T90 526Q90 475 113 446T185 399T314 365Q393
349 451 329T540 273T572 174Q572 131 555 98T506 42T427 7T322 -5Q265 -5 217 7T126 43T46 105L61 118Q88 90 117 70T178 37T247 18T323 12Q429 12 490 52T552 171Q552 224 527 256T450 309T315 346Q237 361 182 379T99 431T70 524Q70 586 100 628T187 693T318
715Q363 715 400 707T469 680T529 630L516 616Z" />
<glyph unicode="%" glyph-name="percent" horiz-adv-x="670" d="M186 444Q148 444 117 462T67 512T48 582Q48 620 66 651T116 701T186 720Q224 720 255 702T305 652T324 582Q324 544 306 513T256 463T186 444ZM186 464Q219 464 246 480T288 524T304 582Q304 615
288 642T244 684T186 700Q153 700 127 684T84 640T68 582Q68 549 84 523T127 480T186 464ZM485 -10Q447 -10 416 8T366 58T347 128Q347 166 365 197T415 247T485 266Q523 266 554 248T604 198T623 128Q623 90 605 59T555 9T485 -10ZM485 10Q518 10 545 26T587 70T603
128Q603 161 587 187T543 230T485 246Q452 246 426 230T383 186T367 128Q367 95 383 69T426 26T485 10ZM48 11L327 361L606 711L622 699L341 347L64 -1L48 11Z" />
<glyph unicode="&amp;" glyph-name="ampersand" horiz-adv-x="635" d="M598 0L229 386Q185 432 159 465T122 524T110 574Q110 612 132 645T192 698T277 719Q321 719 354 702T407 655T426 591Q426 549 400 514T331 448T243 384Q199 354 160 322T97 253T73 168Q73
113 104 78T181 26T273 8Q335 8 384 35T469 109T523 214T542 333H562Q562 270 542 209T484 99T392 20T270 -10Q216 -10 166 10T85 71T53 170Q53 221 77 260T143 332T233 398Q286 434 325 464T385 524T406 589Q406 636 369 667T276 699Q235 699 202 682T150 637T130
573Q130 555 138 534T170 480T240 400L625 0H598Z" />
<glyph unicode="&apos;" glyph-name="quotesingle" horiz-adv-x="166" d="M73 569V710H93V569H73Z" />
<glyph unicode="(" glyph-name="parenleft" horiz-adv-x="234" d="M50 345Q50 447 89 541T183 726L199 714Q175 679 152 634T110 538T80 438T69 342Q69 266 103 171T199 -14L183 -26Q140 37 111 99T66 223T50 345Z" />
<glyph unicode=")" glyph-name="parenright" horiz-adv-x="233" d="M184 345Q184 285 169 224T124 100T51 -26L35 -14Q97 75 131 170T165 342Q165 387 154 437T124 538T82 633T35 714L51 726Q106 635 145 541T184 345Z" />
<glyph unicode="*" glyph-name="asterisk" horiz-adv-x="302" d="M94 564L135 621L68 643L74 662L141 640V710H161V640L228 662L234 643L167 621L209 564L192 552L151 609L110 552L94 564Z" />
<glyph unicode="+" glyph-name="plus" horiz-adv-x="412" d="M356 365V345H216V195H196V345H56V365H196V515H216V365H356Z" />
<glyph unicode="," glyph-name="comma" horiz-adv-x="260" d="M116 -81L126 -10H117V64H143V-10L130 -81H116Z" />
<glyph unicode="-" glyph-name="hyphen" horiz-adv-x="421" d="M69 261V281H352V261H69Z" />
<glyph unicode="." glyph-name="period" horiz-adv-x="158" d="M69 0V64H89V0H69Z" />
<glyph unicode="/" glyph-name="slash" horiz-adv-x="536" d="M508 710L52 0H27L482 710H508Z" />
<glyph unicode="0" glyph-name="zero" horiz-adv-x="608" d="M549 293Q549 205 518 137T431 29T304 -10Q233 -10 178 29T91 136T59 293Q59 381 90 449T177 557T304 597Q375 597 430 558T517 450T549 293ZM529 293Q529 377 501 441T422 541T304 577Q238 577 187
541T108 441T79 293Q79 209 107 146T187 46T304 10Q371 10 421 46T500 145T529 293Z" />
<glyph unicode="1" glyph-name="one" horiz-adv-x="375" d="M357 20V0H68V20H210V538Q202 526 183 512T140 484T90 461T45 452V476Q72 476 100 490T153 522T193 555T210 571H230V20H357Z" />
<glyph unicode="2" glyph-name="two" horiz-adv-x="486" d="M47 0Q47 18 51 51T72 124T123 201T218 263Q246 275 278 288T340 320T387 366T406 433Q406 464 389 493T335 541T244 561Q207 561 177 550T125 523T90 493T73 474L57 486Q57 486 69 500T106 534T165
567T244 581Q304 581 344 559T405 503T426 433Q426 388 406 357T354 306T289 271T225 244Q173 222 142 190T94 123T72 62T66 20H437V0H47Z" />
<glyph unicode="3" glyph-name="three" horiz-adv-x="521" d="M308 236Q356 230 391 204T446 138T466 48Q466 -10 439 -54T364 -122T254 -147Q180 -147 124 -112T46 -19L65 -12Q82 -64 134 -95T256 -127Q342 -127 394 -79T446 51Q446 132 394 179T251 227H229V247H252Q340
247 387 285T434 390Q434 440 411 477T347 535T254 556Q191 556 143 525T75 443L57 450Q71 488 99 516T168 560T254 576Q311 576 356 553T427 488T454 395Q454 353 436 319T386 264T308 236Z" />
<glyph unicode="4" glyph-name="four" horiz-adv-x="518" d="M384 -127V72H19V89L390 571H404V92H492V72H404V-127H384ZM47 92H384V534L47 92Z" />
<glyph unicode="5" glyph-name="five" horiz-adv-x="537" d="M263 -149Q188 -149 128 -109T39 -3H61Q88 -59 142 -94T263 -129Q323 -129 371 -102T449 -28T478 82Q478 142 450 188T375 260T268 286Q212 286 161 261T76 188H52L130 571H467V551H147L82 226Q118
265 167 285T268 306Q331 306 383 278T467 199T498 82Q498 13 466 -39T380 -120T263 -149Z" />
<glyph unicode="6" glyph-name="six" horiz-adv-x="595" d="M552 232Q552 299 520 354T432 442T310 475Q257 475 210 454T129 396T78 308Q78 431 107 517T188 649T309 695Q374 695 425 658T495 561L514 568Q492 636 437 675T308 715Q234 715 177 668T88 521T56
266Q56 181 89 119T179 24T306 -10Q375 -10 430 22T519 110T552 232ZM308 10Q247 10 196 40T113 121T82 232Q82 293 112 343T194 424T307 455Q368 455 419 425T501 343T532 231Q532 171 502 121T421 40T308 10Z" />
<glyph unicode="7" glyph-name="seven" horiz-adv-x="535" d="M477 563H50V583H510L146 -127H123L477 563Z" />
<glyph unicode="8" glyph-name="eight" horiz-adv-x="581" d="M528 188Q528 129 495 85T406 17T287 -7Q216 -7 163 21T82 94T53 190Q53 240 77 279T139 344T217 381Q180 394 149 416T98 470T79 541Q79 582 97 613T146 666T214 699T291 710Q330 710 367 699T435
667T484 614T502 541Q502 501 483 470T432 417T363 381Q410 368 447 341T506 275T528 188ZM508 191Q508 234 488 267T436 324T366 359T289 371Q237 371 188 349T106 285T73 189Q73 146 93 113T145 57T216 22T292 10Q344 10 393 32T475 95T508 191ZM99 539Q99 492
128 459T202 408T290 391Q334 391 378 408T452 460T482 541Q482 589 454 622T382 672T289 690Q241 690 198 672T127 621T99 539Z" />
<glyph unicode="9" glyph-name="nine" horiz-adv-x="579" d="M37 329Q37 262 69 207T157 119T279 86Q332 86 379 107T461 166T511 253Q511 130 482 44T401 -88T280 -134Q216 -134 165 -97T94 0L75 -7Q97 -74 152 -114T281 -154Q355 -154 412 -107T501 40T533 295Q533
381 500 442T411 537T283 571Q215 571 159 539T70 451T37 329ZM281 551Q343 551 394 521T476 440T507 329Q507 269 477 218T395 137T282 106Q221 106 170 136T88 218T57 330Q57 391 87 441T169 521T281 551Z" />
<glyph unicode=":" glyph-name="colon" horiz-adv-x="158" d="M69 453V517H89V453H69ZM69 0V64H89V0H69Z" />
<glyph unicode=";" glyph-name="semicolon" horiz-adv-x="168" d="M73 453V517H93V453H73ZM70 -81L80 -10H71V64H97V-10L84 -81H70Z" />
<glyph unicode="&lt;" glyph-name="less" horiz-adv-x="502" d="M34 268L451 517V495L63 259L451 22V0L34 250V268Z" />
<glyph unicode="=" glyph-name="equal" horiz-adv-x="435" d="M71 231V251H364V231H71ZM71 301V321H364V301H71Z" />
<glyph unicode="&gt;" glyph-name="greater" horiz-adv-x="502" d="M468 250L51 0V22L439 259L51 495V517L468 268V250Z" />
<glyph unicode="?" glyph-name="question" horiz-adv-x="468" d="M178 179Q178 243 189 279T220 334T264 366Q288 378 313 390T361 419T396 464T410 535Q410 592 386 628T324 681T244 699Q204 699 167 685T100 644T53 582L35 590Q54 632 87 660T161 704T243 719Q279
719 312 707T372 672T414 613T430 532Q430 487 416 458T378 409T327 376T272 347Q251 336 234 320T208 271T198 179H178ZM178 0V84H198V0H178Z" />
<glyph unicode="@" glyph-name="at" horiz-adv-x="830" d="M413 603Q487 603 551 574T665 492T741 370T769 222Q769 205 767 176T757 113T734 51T693 3T629 -16Q598 -16 583 -3T562 33T554 84Q529 55 484 34T387 12Q321 12 281 48T241 140Q241 188 268 215T337
253T422 265Q467 265 504 257T558 242Q558 297 547 339T507 405T426 429Q389 429 352 417T282 381L270 397Q305 420 344 434T427 449Q476 449 506 432T551 386T571 321T577 248V95Q577 66 581 46T596 15T630 4Q665 4 688 26T724 82T743 154T749 223Q749 298 723
363T651 477T543 555T413 583Q346 583 285 557T175 484T98 372T70 230Q70 156 96 92T170 -22T280 -98T412 -126Q451 -126 489 -117T564 -88L574 -106Q535 -126 494 -136T412 -146Q338 -146 273 -117T157 -37T79 82T50 230Q50 312 80 380T161 498T277 575T413 603ZM484
55Q517 71 532 90T552 132T557 174V221Q546 221 510 233T417 245Q379 245 343 236T284 204T261 140Q261 105 279 81T325 45T387 32Q413 32 439 39T484 55Z" />
<glyph unicode="A" glyph-name="A" horiz-adv-x="674" d="M328 710H346L655 0H633L522 254H151L40 0H18L328 710ZM513 274L337 681L159 274H513Z" />
<glyph unicode="B" glyph-name="B" horiz-adv-x="655" d="M605 184Q605 135 581 93T517 26T428 0H99V710H413Q463 710 499 684T555 616T575 529Q575 475 548 430T473 364Q534 346 569 296T605 184ZM585 184Q585 227 566 264T512 324T435 348H119V20H428Q472 20
507 44T564 105T585 184ZM119 690V368H407Q451 368 484 392T536 453T555 529Q555 572 537 608T487 667T413 690H119Z" />
<glyph unicode="C" glyph-name="C" horiz-adv-x="697" d="M48 360Q48 424 70 486T136 600T241 683T383 714Q478 714 544 671T642 559L623 553Q596 605 556 636T471 680T379 694Q305 694 247 665T149 587T89 479T68 357Q68 289 92 228T159 118T259 42T382 14Q429
14 478 30T570 79T640 164L659 159Q635 106 589 69T488 13T378 -6Q306 -6 246 25T141 109T72 227T48 360Z" />
<glyph unicode="D" glyph-name="D" horiz-adv-x="711" d="M99 0V710H327Q439 710 512 663T623 535T660 356Q660 248 620 168T504 44T327 0H99ZM640 356Q640 453 604 528T498 647T327 690H119V20H327Q430 20 499 64T604 184T640 356Z" />
<glyph unicode="E" glyph-name="E" horiz-adv-x="617" d="M565 20V0H99V710H556V690H119V373H502V353H119V20H565Z" />
<glyph unicode="F" glyph-name="F" horiz-adv-x="602" d="M99 0V710H556V690H119V374H492V354H119V0H99Z" />
<glyph unicode="G" glyph-name="G" horiz-adv-x="720" d="M383 -5Q309 -5 248 26T142 109T73 225T48 355Q48 424 71 488T138 604T241 685T371 715Q481 715 544 672T642 560L623 554Q583 629 519 662T371 695Q301 695 245 666T150 588T89 479T68 355Q68 288 92
227T160 118T260 43T383 15Q457 15 523 50T651 164V136Q537 -5 383 -5ZM639 318H472V338H659V0H639V318Z" />
<glyph unicode="H" glyph-name="H" horiz-adv-x="731" d="M632 710V0H612V353H119V0H99V710H119V373H612V710H632Z" />
<glyph unicode="I" glyph-name="I" horiz-adv-x="218" d="M99 0V710H119V0H99Z" />
<glyph unicode="J" glyph-name="J" horiz-adv-x="473" d="M30 49Q59 30 94 20T173 9Q237 9 275 32T332 99T357 207T363 349V710H383V349Q383 268 376 202T348 88T285 15T173 -11Q127 -11 89 0T19 33L30 49Z" />
<glyph unicode="K" glyph-name="K" horiz-adv-x="621" d="M99 0V710H119V249L571 710H600L297 400L614 0H588L282 386L119 221V0H99Z" />
<glyph unicode="L" glyph-name="L" horiz-adv-x="579" d="M99 0V710H119V20H565V0H99Z" />
<glyph unicode="M" glyph-name="M" horiz-adv-x="884" d="M765 0V666L450 140H434L119 666V0H99V710H115L442 164L769 710H785V0H765Z" />
<glyph unicode="N" glyph-name="N" horiz-adv-x="776" d="M119 671V0H99V710H114L657 29V710H677V0H654L119 671Z" />
<glyph unicode="O" glyph-name="O" horiz-adv-x="757" d="M379 -5Q306 -5 245 25T140 107T72 222T48 355Q48 426 73 490T143 605T248 685T379 715Q453 715 513 684T617 601T685 485T709 355Q709 283 684 219T614 104T509 24T379 -5ZM68 355Q68 289 91 228T156
119T255 43T379 15Q448 15 505 44T603 122T666 231T689 355Q689 421 666 482T600 591T502 667T379 695Q310 695 253 666T154 588T91 479T68 355Z" />
<glyph unicode="P" glyph-name="P" horiz-adv-x="619" d="M99 0V710H388Q432 710 468 692T531 642T573 573T588 495Q588 440 564 391T496 310T395 279H119V0H99ZM119 299H395Q449 299 488 328T547 402T568 495Q568 546 544 590T479 662T388 690H119V299Z" />
<glyph unicode="Q" glyph-name="Q" horiz-adv-x="757" d="M379 -5Q306 -5 245 25T140 107T72 222T48 355Q48 426 73 490T143 605T248 685T379 715Q453 715 513 684T617 601T685 485T709 355Q709 283 684 219T614 104T509 24T379 -5ZM379 15Q448 15 505 44T603
122T666 231T689 355Q689 421 666 482T600 591T502 667T379 695Q310 695 253 666T154 588T91 479T68 355Q68 289 91 228T156 119T255 43T379 15ZM499 186H524L672 0H647L499 186Z" />
<glyph unicode="R" glyph-name="R" horiz-adv-x="642" d="M99 0V710H388Q432 710 468 692T531 642T573 573T588 495Q588 440 565 393T502 314T407 279L587 0H563L383 279H119V0H99ZM119 299H395Q449 299 487 327T547 401T568 495Q568 546 544 590T479 662T388
690H119V299Z" />
<glyph unicode="S" glyph-name="S" horiz-adv-x="602" d="M509 616Q488 639 467 654T422 679T372 692T313 696Q192 696 138 650T83 526Q83 475 106 446T178 399T307 365Q386 349 444 329T533 273T565 174Q565 131 548 98T499 42T420 7T315 -5Q258 -5 210 7T119
43T39 105L54 118Q81 90 110 70T171 37T240 18T316 12Q422 12 483 52T545 171Q545 224 520 256T443 309T308 346Q230 361 175 379T92 431T63 524Q63 586 93 628T180 693T311 715Q356 715 393 707T462 680T522 630L509 616Z" />
<glyph unicode="T" glyph-name="T" horiz-adv-x="600" d="M582 690H310V0H290V690H18V710H582V690Z" />
<glyph unicode="U" glyph-name="U" horiz-adv-x="756" d="M379 -5Q295 -5 239 25T149 108T102 224T88 355V710H108V355Q108 291 121 230T164 121T247 44T378 15Q458 15 511 44T594 123T636 232T649 355V710H669V355Q669 285 654 220T606 105T517 25T379 -5Z" />
<glyph unicode="V" glyph-name="V" horiz-adv-x="678" d="M40 710L339 25L637 710H659L350 0H328L19 710H40Z" />
<glyph unicode="W" glyph-name="W" horiz-adv-x="1038" d="M381 704H403L518 438L634 704H656L529 414L699 25L997 710H1019L710 0H688L519 389L350 0H328L19 710H41L339 25L508 414L381 704Z" />
<glyph unicode="X" glyph-name="X" horiz-adv-x="621" d="M37 710L311 366L585 710H610L323 350L602 0H577L311 334L45 0H19L298 350L11 710H37Z" />
<glyph unicode="Y" glyph-name="Y" horiz-adv-x="641" d="M46 710L320 298L595 710H618L330 275V0H310V277L23 710H46Z" />
<glyph unicode="Z" glyph-name="Z" horiz-adv-x="624" d="M28 20L570 690H33V710H595V690L53 20H591V0H28V20Z" />
<glyph unicode="[" glyph-name="bracketleft" horiz-adv-x="228" d="M97 -40V740H167V720H117V-20H167V-40H97Z" />
<glyph unicode="\" glyph-name="backslash" horiz-adv-x="514" d="M53 710L488 0H463L27 710H53Z" />
<glyph unicode="]" glyph-name="bracketright" horiz-adv-x="228" d="M61 -40V-20H111V720H61V740H131V-40H61Z" />
<glyph unicode="^" glyph-name="asciicircum" horiz-adv-x="505" d="M46 303L244 710H262L459 303H436L253 681L67 303H46Z" />
<glyph unicode="_" glyph-name="underscore" horiz-adv-x="531" d="M69 -20V0H462V-20H69Z" />
<glyph unicode="`" glyph-name="grave" horiz-adv-x="198" d="M50 730H83L148 657L132 645L50 730Z" />
<glyph unicode="a" glyph-name="a" horiz-adv-x="524" d="M39 149Q39 193 66 226T142 278T253 297Q297 297 343 290T427 268V327Q427 408 381 457T257 507Q220 507 177 491T89 443L77 459Q127 493 172 510T257 527Q344 527 395 473T447 327V40Q447 30 451 25T463
20V0Q457 0 454 0T449 2Q439 6 433 16T427 40V88Q391 42 333 16T207 -10Q160 -10 122 11T62 68T39 149ZM412 102Q420 113 423 123T427 143V246Q387 262 344 269T253 277Q166 277 113 242T59 149Q59 110 78 79T132 29T207 10Q274 10 329 35T412 102Z" />
<glyph unicode="b" glyph-name="b" horiz-adv-x="603" d="M307 -10Q246 -10 191 24T104 108V0H84V730H104V398Q144 454 196 490T316 527Q373 527 417 504T493 441T541 354T557 258Q557 205 538 157T485 72T406 12T307 -10ZM307 10Q357 10 399 31T472 88T520 168T537
258Q537 322 509 379T432 471T316 507Q267 507 226 486T155 430T104 356V167Q106 135 126 107T177 57T242 23T307 10Z" />
<glyph unicode="c" glyph-name="c" horiz-adv-x="538" d="M297 -10Q246 -10 201 11T120 70T66 157T46 262Q46 337 79 397T169 492T296 527Q361 527 413 497T491 411L471 404Q446 452 398 479T293 507Q230 507 179 475T97 387T66 262Q66 194 97 137T180 45T294
10Q335 10 374 25T441 66T478 119L498 113Q487 78 456 50T384 6T297 -10Z" />
<glyph unicode="d" glyph-name="d" horiz-adv-x="604" d="M46 258Q46 330 77 391T163 489T287 527Q358 527 413 489T499 398V730H519V40Q519 31 523 26T535 20V0Q526 0 522 2Q511 7 505 17T499 40V108Q466 56 411 23T296 -10Q242 -10 196 13T117 74T65 160T46
258ZM499 169V356Q484 398 450 432T373 486T287 507Q236 507 196 486T126 429T82 349T66 258Q66 209 83 165T133 85T206 30T296 10Q326 10 360 22T426 57T477 108T499 169Z" />
<glyph unicode="e" glyph-name="e" horiz-adv-x="576" d="M296 -10Q245 -10 200 11T120 70T66 157T46 263Q46 336 79 396T167 491T291 527Q360 527 416 491T507 395T541 259Q541 256 541 254T541 248H66Q71 181 103 127T186 42T297 10Q357 10 409 40T483 119L502
114Q488 79 457 51T383 6T296 -10ZM66 268H520Q516 338 485 391T404 476T292 507Q231 507 181 476T101 391T66 268Z" />
<glyph unicode="f" glyph-name="f" horiz-adv-x="299" d="M103 0V499H28V519H103V540Q103 603 119 648T166 716T240 740Q269 740 295 731T335 706L319 694Q307 706 286 713T241 721Q184 721 154 675T123 540V519H278V499H123V0H103Z" />
<glyph unicode="g" glyph-name="g" horiz-adv-x="603" d="M296 -10Q242 -10 196 13T117 74T65 160T46 258Q46 310 63 358T113 445T189 505T287 527Q358 527 410 489T499 398V519H519V-22Q519 -90 487 -135T402 -201T290 -223Q198 -223 146 -189T65 -99L84 -93Q116
-151 171 -177T290 -203Q347 -203 394 -183T470 -122T499 -22V108Q466 56 411 23T296 -10ZM296 10Q333 10 368 24T432 61T479 113T499 169V356Q483 400 450 434T374 487T287 507Q235 507 194 485T124 427T81 346T66 258Q66 209 83 165T133 85T206 30T296 10Z" />
<glyph unicode="h" glyph-name="h" horiz-adv-x="565" d="M487 0H467V289Q467 397 431 452T323 507Q275 507 230 484T151 420T104 328V0H84V730H104V385Q136 450 195 488T322 527Q363 527 393 512T445 467T476 392T487 289V0Z" />
<glyph unicode="i" glyph-name="i" horiz-adv-x="188" d="M84 0V519H104V0H84ZM84 653V730H104V653H84Z" />
<glyph unicode="j" glyph-name="j" horiz-adv-x="196" d="M-21 -170Q-50 -170 -75 -163T-121 -136L-105 -124Q-87 -140 -65 -145T-22 -150Q6 -150 32 -135T75 -94T92 -36V519H112V-36Q112 -75 92 -105T41 -152T-21 -170ZM92 653V730H112V653H92Z" />
<glyph unicode="k" glyph-name="k" horiz-adv-x="508" d="M466 0L245 297L104 169V0H84V730H104V196L458 517H485L260 311L490 0H466Z" />
<glyph unicode="l" glyph-name="l" horiz-adv-x="238" d="M90 730H110V77Q110 48 128 31T176 14Q187 14 202 16T231 23L238 7Q225 3 204 -1T169 -5Q134 -5 112 17T90 77V730Z" />
<glyph unicode="m" glyph-name="m" horiz-adv-x="908" d="M830 0H810V289Q810 400 776 453T671 507Q597 507 543 457T467 327V0H447V289Q447 402 414 454T309 507Q236 507 182 458T104 328V0H84V519H104V385Q138 453 191 490T305 527Q370 527 413 486T463 376Q502
452 553 489T671 527Q712 527 741 513T791 469T820 394T830 289V0Z" />
<glyph unicode="n" glyph-name="n" horiz-adv-x="565" d="M487 0H467V289Q467 402 436 454T334 507Q284 507 237 484T154 420T104 328V0H84V519H104V385Q126 427 162 459T242 509T333 527Q373 527 402 513T450 469T478 395T487 289V0Z" />
<glyph unicode="o" glyph-name="o" horiz-adv-x="586" d="M293 -10Q242 -10 197 11T118 69T65 155T46 258Q46 313 65 361T119 447T198 506T293 527Q343 527 388 506T467 448T520 362T540 258Q540 204 521 156T468 70T389 11T293 -10ZM66 256Q66 189 96 133T178
44T292 10Q354 10 406 44T489 135T520 259Q520 326 489 382T407 473T293 507Q232 507 180 473T97 381T66 256Z" />
<glyph unicode="p" glyph-name="p" horiz-adv-x="603" d="M316 -10Q247 -10 193 28T104 119V-213H84V519H104V409Q137 461 192 494T307 527Q362 527 407 504T486 443T538 356T557 258Q557 187 527 126T443 28T316 -10ZM316 10Q367 10 407 31T477 88T521 168T537
258Q537 307 520 351T470 431T397 486T307 507Q277 507 243 494T177 459T126 408T104 348V161Q123 119 155 85T228 31T316 10Z" />
<glyph unicode="q" glyph-name="q" horiz-adv-x="603" d="M287 -10Q232 -10 188 12T112 73T63 159T46 258Q46 311 65 359T119 445T198 505T296 527Q358 527 413 493T499 409V519H519V-213H499V119Q410 -10 287 -10ZM287 10Q337 10 377 31T448 87T499 161V348Q496
379 477 407T428 458T364 494T296 507Q245 507 203 486T131 429T83 349T66 258Q66 193 94 136T173 45T287 10Z" />
<glyph unicode="r" glyph-name="r" horiz-adv-x="323" d="M306 499Q233 496 179 451T104 328V0H84V519H104V385Q131 440 176 475T273 517Q283 518 291 518T306 519V499Z" />
<glyph unicode="s" glyph-name="s" horiz-adv-x="471" d="M235 -10Q176 -10 126 10T37 74L52 87Q92 48 136 29T235 10Q312 10 360 43T408 136Q408 174 387 195T326 230T227 257Q174 270 139 282T86 317T68 380Q68 432 93 464T160 511T251 527Q314 527 358 506T420
452L402 444Q383 475 340 491T247 507Q204 507 168 494T110 454T88 383Q88 349 103 330T149 300T228 277Q290 263 335 248T404 209T428 139Q428 71 375 31T235 -10Z" />
<glyph unicode="t" glyph-name="t" horiz-adv-x="295" d="M286 24Q286 24 274 17T240 2T191 -5Q167 -5 147 5T114 33T101 75V499H26V519H101V700H121V519H246V499H121V75Q123 46 144 31T191 15Q226 15 250 27T275 40L286 24Z" />
<glyph unicode="u" glyph-name="u" horiz-adv-x="576" d="M78 228V519H98V228Q98 118 134 64T245 10Q295 10 341 33T421 96T471 189V519H491V40Q491 31 495 26T507 20V0Q501 0 498 0T493 2Q483 6 477 16T471 40V132Q437 67 376 29T245 -10Q163 -10 121 50T78 228Z" />
<glyph unicode="v" glyph-name="v" horiz-adv-x="520" d="M251 0L25 519H47L260 29L473 519H495L269 0H251Z" />
<glyph unicode="w" glyph-name="w" horiz-adv-x="794" d="M747 519H769L542 0H524L397 291L270 0H252L25 519H47L261 29L386 316L299 518H320L397 342L474 518H495L408 316L533 29L747 519Z" />
<glyph unicode="x" glyph-name="x" horiz-adv-x="482" d="M46 519L233 285L241 273L249 285L436 519H462L254 258L460 0H434L249 232L241 244L233 232L48 0H22L228 258L20 519H46Z" />
<glyph unicode="y" glyph-name="y" horiz-adv-x="536" d="M128 -203Q145 -203 157 -202T175 -193Q179 -188 186 -174T210 -119T262 0L21 519H43L272 25L489 519H511L202 -186Q198 -195 193 -201T183 -212T169 -218Q160 -220 150 -221T128 -223V-203Z" />
<glyph unicode="z" glyph-name="z" horiz-adv-x="488" d="M33 20L429 499H38V519H454V499L59 20H450V0H33V20Z" />
<glyph unicode="{" glyph-name="braceleft" horiz-adv-x="229" d="M118 720V416Q118 411 116 393T97 360Q113 347 115 328T118 304V-11H173V-31H121Q113 -31 106 -24T98 -1V304Q98 319 92 334T68 351V371Q82 371 88 380T96 401T98 416V710Q98 730 107 735T121
740H173V720H118Z" />
<glyph unicode="|" glyph-name="bar" horiz-adv-x="210" d="M95 -130V775H115V-130H95Z" />
<glyph unicode="}" glyph-name="braceright" horiz-adv-x="229" d="M56 720V740H108Q112 740 121 735T131 710V416Q131 412 132 401T140 381T161 371V351Q143 349 137 334T131 304V-1Q131 -17 124 -24T108 -31H56V-11H111V304Q111 309 113 328T132 360Q116 374
114 392T111 416V720H56Z" />
<glyph unicode="~" glyph-name="asciitilde" horiz-adv-x="462" d="M70 251Q70 253 74 265T89 293T116 320T154 332Q181 332 205 317T253 287T303 271Q327 271 342 283T365 309T373 325L393 324Q393 324 389 313T374 288T346 262T303 251Q272 251 246 266T198
297T154 312Q134 312 120 297T98 267T90 251H70Z" />
<glyph unicode="&#xa0;" glyph-name="uni00A0" horiz-adv-x="261" />
<glyph unicode="&#xa1;" glyph-name="exclamdown" horiz-adv-x="228" d="M124 517V0H104V517H124ZM124 717V633H104V717H124Z" />
<glyph unicode="&#xa2;" glyph-name="cent" horiz-adv-x="541" d="M276 -120V-9Q225 -5 183 19T111 81T63 164T46 258Q46 326 75 386T156 485T276 527V645H296V527Q374 525 419 493T490 411L471 404Q443 456 398 480T296 507V10Q329 10 368 23T438 61T478 119L498
113Q485 73 451 46T376 4T296 -10V-120H276ZM66 258Q66 197 93 143T169 53T276 11V507Q226 504 187 482T121 423T80 344T66 258Z" />
<glyph unicode="&#xa3;" glyph-name="sterling" horiz-adv-x="467" d="M48 366H354V346H48V366ZM56 10Q110 68 139 106T180 176T192 241Q192 292 175 331T136 404T96 473T79 550Q79 595 101 632T160 692T242 715Q292 715 335 687T404 610L387 598Q363 643 324
669T240 695Q202 695 171 676T120 624T101 552Q101 513 118 479T157 410T196 335T213 242Q213 207 202 174T165 103T95 18Q112 21 130 23T166 25Q197 25 221 20T267 10T314 5Q335 5 358 10T413 26L419 7Q391 -4 365 -9T313 -15Q284 -15 261 -10T214 0T160 5Q138
5 113 2T66 -7L56 10Z" />
<glyph unicode="&#xa4;" glyph-name="currency" horiz-adv-x="533" d="M146 467Q169 490 200 502T265 515Q301 515 332 502T387 465L457 534L472 520L401 450Q420 426 431 397T442 335Q442 303 431 273T399 219L472 148L457 134L385 205Q361 183 331 170T265 157Q231
157 201 169T148 202L79 134L64 148L134 217Q90 267 90 335Q90 368 101 398T132 452L64 520L79 534L146 467ZM111 334Q111 290 132 254T188 197T265 175Q308 175 343 197T399 256T421 336Q421 381 400 417T343 474T265 496Q224 496 189 475T132 416T111 334Z" />
<glyph unicode="&#xa5;" glyph-name="yen" horiz-adv-x="651" d="M379 341H472V321H366L335 275V251H472V231H335V0H315V231H179V251H315V277L286 321H179V341H273L28 710H51L325 298L600 710H623L379 341Z" />
<glyph unicode="&#xa6;" glyph-name="brokenbar" horiz-adv-x="214" d="M117 285V-130H97V285H117ZM117 775V360H97V775H117Z" />
<glyph unicode="&#xa7;" glyph-name="section" horiz-adv-x="481" d="M385 181Q414 165 426 139T439 74Q439 35 422 5T378 -46T318 -77T253 -88Q221 -88 194 -82T144 -64T102 -38T66 -6L81 7Q122 -30 163 -49T253 -68Q293 -68 331 -51T394 -2T419 74Q419 123 395
147T334 180T259 190Q210 192 168 207T99 256T73 341Q73 367 82 393T105 435Q78 452 62 484T46 557Q46 608 74 643T145 696T230 715Q263 715 288 710T333 696T368 672T395 640L377 632Q364 658 339 671T285 690T230 695Q191 695 153 679T91 631T66 557Q66 485 112
456T232 426Q267 426 301 418T362 393T406 347T422 280Q422 252 412 225T385 181ZM93 341Q93 293 112 267T164 228T233 212T305 204T365 190Q382 204 392 229T402 280Q402 329 375 356T309 394T232 406Q203 406 175 410T124 425Q110 412 102 389T93 341Z" />
<glyph unicode="&#xa8;" glyph-name="dieresis" horiz-adv-x="236" d="M50 653V730H70V653H50ZM166 653V730H186V653H166Z" />
<glyph unicode="&#xa9;" glyph-name="copyright" horiz-adv-x="824" d="M412 -7Q334 -7 269 20T154 96T78 211T51 355Q51 432 78 498T154 612T268 688T412 715Q490 715 555 688T670 613T746 498T773 355Q773 277 746 211T670 96T556 20T412 -7ZM413 13Q485 13
546 37T654 107T726 214T752 352Q752 426 727 489T656 598T548 669T413 695Q340 695 278 670T169 598T98 490T72 354Q72 281 97 219T169 111T277 39T413 13ZM419 127Q381 127 343 142T272 186T220 258T200 355Q200 395 212 435T250 510T316 565T411 586Q467 586
514 562T581 487L562 480Q547 517 520 535T463 559T411 566Q362 566 326 547T266 497T232 429T220 355Q220 305 238 267T285 202T349 161T415 147Q444 147 476 158T534 189T572 238L591 233Q586 216 563 191T503 146T419 127Z" />
<glyph unicode="&#xaa;" glyph-name="ordfeminine" horiz-adv-x="425" d="M170 351Q121 351 87 382T52 458Q52 503 94 531T201 560Q265 560 316 541V576Q316 625 286 654T205 684Q179 684 150 674T89 643L76 663Q146 709 207 709Q272 709 309 673T347 573V402Q347
395 350 391T361 386V357Q356 357 352 357T343 358Q333 360 327 368T320 387L319 416Q294 385 255 368T170 351ZM176 377Q217 377 252 391T305 430Q316 444 316 457V518Q291 529 263 533T205 537Q150 537 116 516T82 459Q82 425 109 401T176 377Z" />
<glyph unicode="&#xab;" glyph-name="guillemotleft" horiz-adv-x="518" d="M42 268L279 437V415L61 259L279 102V80L42 250V268ZM212 268L449 437V415L231 259L449 102V80L212 250V268Z" />
<glyph unicode="&#xac;" glyph-name="logicalnot" horiz-adv-x="561" d="M490 338V140H470V318H87V338H490Z" />
<glyph unicode="&#xad;" glyph-name="uni00AD" horiz-adv-x="541" d="M69 261V281H472V261H69Z" />
<glyph unicode="&#xae;" glyph-name="registered" horiz-adv-x="824" d="M412 -7Q334 -7 269 20T154 96T78 211T51 355Q51 432 78 498T154 612T268 688T412 715Q490 715 555 688T670 613T746 498T773 355Q773 277 746 211T670 96T556 20T412 -7ZM412 13Q508 13
585 55T707 175T752 355Q752 428 727 490T656 598T548 669T412 695Q339 695 277 670T169 598T98 490T72 355Q72 282 97 220T168 111T276 39T412 13ZM267 583H455Q493 583 522 563T568 510T585 443Q585 407 570 376T529 326T467 303L584 121H560L444 303H288V121H267V583ZM460
323Q512 323 538 359T565 443Q565 492 535 527T455 562H288V323H460Z" />
<glyph unicode="&#xaf;" glyph-name="overscore" horiz-adv-x="380" d="M50 686V706H330V686H50Z" />
<glyph unicode="&#xb0;" glyph-name="degree" horiz-adv-x="252" d="M57 655Q57 684 77 704T126 724Q155 724 175 704T195 655Q195 627 175 607T126 586Q98 586 78 606T57 655ZM91 690Q77 676 77 655Q77 633 91 621Q106 606 126 606Q146 606 161 621Q167 627 171
636T175 655Q175 666 171 674T161 690Q154 697 145 700T126 704Q105 704 91 690Z" />
<glyph unicode="&#xb1;" glyph-name="plusminus" horiz-adv-x="470" d="M85 85V105H385V85H85ZM385 365V345H245V195H225V345H85V365H225V515H245V365H385Z" />
<glyph unicode="&#xb2;" glyph-name="uni00B2" horiz-adv-x="369" d="M40 423Q40 473 55 506T97 560T163 596Q193 607 225 618T280 649T303 703Q303 738 276 765T190 792Q154 792 128 782T86 757T60 732L45 744Q47 747 63 763T111 795T192 811Q260 811 292 778T324
702Q324 672 310 652T272 620T224 599T178 583Q126 565 102 540T72 488T65 442H325V423H40Z" />
<glyph unicode="&#xb3;" glyph-name="uni00B3" horiz-adv-x="380" d="M190 418Q128 418 86 445T41 514L57 521Q59 499 76 480T124 449T190 437Q244 437 280 461T317 522Q317 562 276 585T168 609H146V627H168Q233 627 268 647T304 704Q304 743 270 768T182 793Q140
793 108 776T63 733L48 745Q58 765 78 780T125 803T182 811Q223 811 255 797T306 759T325 705Q325 671 303 650T236 618Q282 611 309 584T337 520Q337 491 318 468T265 431T190 418Z" />
<glyph unicode="&#xb4;" glyph-name="acute" horiz-adv-x="198" d="M66 645L50 657L114 730H148L66 645Z" />
<glyph unicode="&#xb5;" glyph-name="uni00B5" horiz-adv-x="602" d="M91 519H111V228Q111 118 147 64T258 10Q308 10 354 33T434 96T484 189V519H504V40Q504 31 508 26T520 20V0Q514 0 511 0T506 2Q496 6 490 16T484 40V132Q462 89 427 57T348 8T258 -10Q222
-10 194 1T145 36T111 94V-212H91V519Z" />
<glyph unicode="&#xb6;" glyph-name="paragraph" horiz-adv-x="565" d="M32 479Q32 586 106 648T314 710H515V690H445V-80H425V248H334V-80H314V248Q227 250 164 277T66 356T32 479ZM52 479Q52 406 88 361T184 293T314 268V690Q187 690 120 635T52 479ZM425 690H334V268H425V690Z"
/>
<glyph unicode="&#xb7;" glyph-name="middot" horiz-adv-x="158" d="M69 250V333H89V250H69Z" />
<glyph unicode="&#xb8;" glyph-name="cedilla" horiz-adv-x="252" d="M150 -164Q125 -164 96 -158T40 -139L51 -122Q75 -132 97 -139T147 -146Q186 -146 206 -132T227 -90Q227 -61 208 -41T150 0L170 8Q206 -12 226 -34T247 -90Q247 -129 220 -146T150 -164Z" />
<glyph unicode="&#xb9;" glyph-name="uni00B9" horiz-adv-x="252" d="M230 441V422H49V441H132V785Q125 777 108 766T72 746T35 738V757Q57 757 79 770T116 796T132 811H152V441H230Z" />
<glyph unicode="&#xba;" glyph-name="ordmasculine" horiz-adv-x="450" d="M224 351Q175 351 135 375T72 441T49 529Q49 578 72 619T135 684T224 709Q274 709 314 685T377 619T401 529Q401 482 378 441T314 376T224 351ZM71 528Q71 485 92 449T147 392T224 370Q267
370 302 392T358 450T379 530Q379 574 358 610T302 667T224 689Q183 689 148 668T92 610T71 528Z" />
<glyph unicode="&#xbb;" glyph-name="guillemotright" horiz-adv-x="518" d="M476 250L239 80V102L457 259L239 415V437L476 268V250ZM306 250L69 80V102L287 259L69 415V437L306 268V250Z" />
<glyph unicode="&#xbc;" glyph-name="onequarter" horiz-adv-x="724" d="M230 361V342H49V361H132V705Q125 697 108 686T72 666T35 658V677Q57 677 79 690T116 716T132 731H152V361H230ZM25 11L304 361L583 711L599 699L318 347L41 -1L25 11ZM617 0V110H384V127L623
383H637V129H692V110H637V0H617ZM412 129H617V348L412 129Z" />
<glyph unicode="&#xbd;" glyph-name="onehalf" horiz-adv-x="741" d="M412 0Q412 50 427 83T469 137T535 173Q565 184 597 195T652 226T675 280Q675 315 648 342T562 369Q526 369 500 359T458 334T432 309L417 321Q419 324 435 340T483 372T564 388Q632 388 664
355T696 279Q696 249 682 229T644 197T596 176T550 160Q498 142 474 117T444 65T437 19H697V0H412ZM230 361V342H49V361H132V705Q125 697 108 686T72 666T35 658V677Q57 677 79 690T116 716T132 731H152V361H230ZM25 11L304 361L583 711L599 699L318 347L41 -1L25
11Z" />
<glyph unicode="&#xbe;" glyph-name="threequarters" horiz-adv-x="852" d="M190 338Q128 338 86 365T41 434L57 441Q59 419 76 400T124 369T190 357Q244 357 280 381T317 442Q317 482 276 505T168 529H146V547H168Q233 547 268 567T304 624Q304 663 270 688T182
713Q140 713 108 696T63 653L48 665Q58 685 78 700T125 723T182 731Q223 731 255 717T306 679T325 625Q325 591 303 570T236 538Q282 531 309 504T337 440Q337 411 318 388T265 351T190 338ZM153 11L432 361L711 711L727 699L446 347L169 -1L153 11ZM745 0V110H512V127L751
383H765V129H820V110H765V0H745ZM540 129H745V348L540 129Z" />
<glyph unicode="&#xbf;" glyph-name="questiondown" horiz-adv-x="461" d="M286 327Q286 263 275 227T244 172T200 140Q176 128 151 116T103 87T68 42T54 -29Q54 -86 78 -122T140 -175T220 -193Q260 -193 297 -179T364 -138T411 -76L429 -84Q411 -125 378 -154T304
-198T221 -213Q185 -213 152 -201T92 -166T50 -107T34 -26Q34 19 48 48T86 97T137 130T192 159Q214 171 230 187T256 235T266 327H286ZM286 506V422H266V506H286Z" />
<glyph unicode="&#xc0;" glyph-name="Agrave" horiz-adv-x="674" d="M328 710H346L655 0H633L522 254H151L40 0H18L328 710ZM513 274L337 681L159 274H513ZM269 918H302L367 845L351 833L269 918Z" />
<glyph unicode="&#xc1;" glyph-name="Aacute" horiz-adv-x="674" d="M328 710H346L655 0H633L522 254H151L40 0H18L328 710ZM513 274L337 681L159 274H513ZM343 833L327 845L391 918H425L343 833Z" />
<glyph unicode="&#xc2;" glyph-name="Acircumflex" horiz-adv-x="674" d="M328 710H346L655 0H633L522 254H151L40 0H18L328 710ZM513 274L337 681L159 274H513ZM236 844L329 918H345L438 844L422 832L337 895L252 832L236 844Z" />
<glyph unicode="&#xc3;" glyph-name="Atilde" horiz-adv-x="674" d="M328 710H346L655 0H633L522 254H151L40 0H18L328 710ZM513 274L337 681L159 274H513ZM394 851Q365 851 345 860T307 879T269 889Q248 889 237 879T222 856T218 841H198Q198 843 200 853T210
876T231 898T271 908Q297 908 315 899T352 880T396 870Q424 870 436 881T451 904T455 918H475Q475 915 473 904T462 881T438 860T394 851Z" />
<glyph unicode="&#xc4;" glyph-name="Adieresis" horiz-adv-x="674" d="M328 710H346L655 0H633L522 254H151L40 0H18L328 710ZM513 274L337 681L159 274H513ZM269 841V918H289V841H269ZM385 841V918H405V841H385Z" />
<glyph unicode="&#xc5;" glyph-name="Aring" horiz-adv-x="674" d="M328 710H346L655 0H633L522 254H151L40 0H18L328 710ZM513 274L337 681L159 274H513ZM262 869Q262 901 284 922T337 944Q369 944 390 923T412 869Q412 838 391 816T337 794Q306 794 284 816T262
869ZM337 923Q315 923 299 909T283 869Q283 847 299 831T337 815Q357 815 374 830T391 869Q391 894 375 908T337 923Z" />
<glyph unicode="&#xc6;" glyph-name="AE" horiz-adv-x="962" d="M439 710H901V690H464V373H847V353H464V20H910V0H444V254H163L-4 0H-29L439 710ZM444 274V678L175 274H444Z" />
<glyph unicode="&#xc7;" glyph-name="Ccedilla" horiz-adv-x="697" d="M48 360Q48 424 70 486T136 600T241 683T383 714Q478 714 544 671T642 559L623 553Q596 605 556 636T471 680T379 694Q305 694 247 665T149 587T89 479T68 357Q68 289 92 228T159 118T259
42T382 14Q429 14 478 30T570 79T640 164L659 159Q635 106 589 69T488 13T378 -6Q306 -6 246 25T141 109T72 227T48 360ZM370 -164Q345 -164 316 -158T260 -139L271 -122Q295 -132 317 -139T367 -146Q406 -146 426 -132T447 -90Q447 -61 428 -41T370 0L390 8Q426
-12 446 -34T467 -90Q467 -129 440 -146T370 -164Z" />
<glyph unicode="&#xc8;" glyph-name="Egrave" horiz-adv-x="617" d="M565 20V0H99V710H556V690H119V373H502V353H119V20H565ZM276 918H309L374 845L358 833L276 918Z" />
<glyph unicode="&#xc9;" glyph-name="Eacute" horiz-adv-x="617" d="M565 20V0H99V710H556V690H119V373H502V353H119V20H565ZM350 833L334 845L398 918H432L350 833Z" />
<glyph unicode="&#xca;" glyph-name="Ecircumflex" horiz-adv-x="617" d="M565 20V0H99V710H556V690H119V373H502V353H119V20H565ZM243 844L336 918H352L445 844L429 832L344 895L259 832L243 844Z" />
<glyph unicode="&#xcb;" glyph-name="Edieresis" horiz-adv-x="617" d="M565 20V0H99V710H556V690H119V373H502V353H119V20H565ZM276 841V918H296V841H276ZM392 841V918H412V841H392Z" />
<glyph unicode="&#xcc;" glyph-name="Igrave" horiz-adv-x="218" d="M99 0V710H119V0H99ZM41 918H74L139 845L123 833L41 918Z" />
<glyph unicode="&#xcd;" glyph-name="Iacute" horiz-adv-x="218" d="M99 0V710H119V0H99ZM115 833L99 845L163 918H197L115 833Z" />
<glyph unicode="&#xce;" glyph-name="Icircumflex" horiz-adv-x="218" d="M99 0V710H119V0H99ZM8 844L101 918H117L210 844L194 832L109 895L24 832L8 844Z" />
<glyph unicode="&#xcf;" glyph-name="Idieresis" horiz-adv-x="218" d="M99 0V710H119V0H99ZM41 841V918H61V841H41ZM157 841V918H177V841H157Z" />
<glyph unicode="&#xd0;" glyph-name="Eth" horiz-adv-x="718" d="M35 347V367H318V347H35ZM106 0V710H334Q446 710 519 663T630 535T667 356Q667 248 627 168T511 44T334 0H106ZM647 356Q647 453 611 528T505 647T334 690H126V20H334Q437 20 506 64T611 184T647 356Z" />
<glyph unicode="&#xd1;" glyph-name="Ntilde" horiz-adv-x="776" d="M119 671V0H99V710H114L657 29V710H677V0H654L119 671ZM450 851Q421 851 401 860T363 879T325 889Q304 889 293 879T278 856T274 841H254Q254 843 256 853T266 876T287 898T327 908Q353 908
371 899T408 880T452 870Q480 870 492 881T507 904T511 918H531Q531 915 529 904T518 881T494 860T450 851Z" />
<glyph unicode="&#xd2;" glyph-name="Ograve" horiz-adv-x="757" d="M379 -5Q306 -5 245 25T140 107T72 222T48 355Q48 426 73 490T143 605T248 685T379 715Q453 715 513 684T617 601T685 485T709 355Q709 283 684 219T614 104T509 24T379 -5ZM68 355Q68 289 91
228T156 119T255 43T379 15Q448 15 505 44T603 122T666 231T689 355Q689 421 666 482T600 591T502 667T379 695Q310 695 253 666T154 588T91 479T68 355ZM311 918H344L409 845L393 833L311 918Z" />
<glyph unicode="&#xd3;" glyph-name="Oacute" horiz-adv-x="757" d="M379 -5Q306 -5 245 25T140 107T72 222T48 355Q48 426 73 490T143 605T248 685T379 715Q453 715 513 684T617 601T685 485T709 355Q709 283 684 219T614 104T509 24T379 -5ZM68 355Q68 289 91
228T156 119T255 43T379 15Q448 15 505 44T603 122T666 231T689 355Q689 421 666 482T600 591T502 667T379 695Q310 695 253 666T154 588T91 479T68 355ZM385 833L369 845L433 918H467L385 833Z" />
<glyph unicode="&#xd4;" glyph-name="Ocircumflex" horiz-adv-x="757" d="M379 -5Q306 -5 245 25T140 107T72 222T48 355Q48 426 73 490T143 605T248 685T379 715Q453 715 513 684T617 601T685 485T709 355Q709 283 684 219T614 104T509 24T379 -5ZM68 355Q68
289 91 228T156 119T255 43T379 15Q448 15 505 44T603 122T666 231T689 355Q689 421 666 482T600 591T502 667T379 695Q310 695 253 666T154 588T91 479T68 355ZM278 844L371 918H387L480 844L464 832L379 895L294 832L278 844Z" />
<glyph unicode="&#xd5;" glyph-name="Otilde" horiz-adv-x="757" d="M379 -5Q306 -5 245 25T140 107T72 222T48 355Q48 426 73 490T143 605T248 685T379 715Q453 715 513 684T617 601T685 485T709 355Q709 283 684 219T614 104T509 24T379 -5ZM68 355Q68 289 91
228T156 119T255 43T379 15Q448 15 505 44T603 122T666 231T689 355Q689 421 666 482T600 591T502 667T379 695Q310 695 253 666T154 588T91 479T68 355ZM436 851Q407 851 387 860T349 879T311 889Q290 889 279 879T264 856T260 841H240Q240 843 242 853T252 876T273
898T313 908Q339 908 357 899T394 880T438 870Q466 870 478 881T493 904T497 918H517Q517 915 515 904T504 881T480 860T436 851Z" />
<glyph unicode="&#xd6;" glyph-name="Odieresis" horiz-adv-x="757" d="M379 -5Q306 -5 245 25T140 107T72 222T48 355Q48 426 73 490T143 605T248 685T379 715Q453 715 513 684T617 601T685 485T709 355Q709 283 684 219T614 104T509 24T379 -5ZM68 355Q68 289
91 228T156 119T255 43T379 15Q448 15 505 44T603 122T666 231T689 355Q689 421 666 482T600 591T502 667T379 695Q310 695 253 666T154 588T91 479T68 355ZM311 841V918H331V841H311ZM427 841V918H447V841H427Z" />
<glyph unicode="&#xd7;" glyph-name="multiply" horiz-adv-x="440" d="M370 135L355 121L220 256L85 121L71 136L205 270L70 406L85 420L220 285L356 421L370 406L234 270L370 135Z" />
<glyph unicode="&#xd8;" glyph-name="Oslash" horiz-adv-x="757" d="M379 -5Q306 -5 245 25T140 107T72 222T48 355Q48 426 73 490T143 605T248 685T379 715Q453 715 513 684T617 601T685 485T709 355Q709 283 684 219T614 104T509 24T379 -5ZM68 355Q68 289 91
228T156 119T255 43T379 15Q448 15 505 44T603 122T666 231T689 355Q689 421 666 482T600 591T502 667T379 695Q310 695 253 666T154 588T91 479T68 355ZM619 710L163 0H138L593 710H619Z" />
<glyph unicode="&#xd9;" glyph-name="Ugrave" horiz-adv-x="756" d="M379 -5Q295 -5 239 25T149 108T102 224T88 355V710H108V355Q108 291 121 230T164 121T247 44T378 15Q458 15 511 44T594 123T636 232T649 355V710H669V355Q669 285 654 220T606 105T517 25T379
-5ZM311 918H344L409 845L393 833L311 918Z" />
<glyph unicode="&#xda;" glyph-name="Uacute" horiz-adv-x="756" d="M379 -5Q295 -5 239 25T149 108T102 224T88 355V710H108V355Q108 291 121 230T164 121T247 44T378 15Q458 15 511 44T594 123T636 232T649 355V710H669V355Q669 285 654 220T606 105T517 25T379
-5ZM385 833L369 845L433 918H467L385 833Z" />
<glyph unicode="&#xdb;" glyph-name="Ucircumflex" horiz-adv-x="756" d="M379 -5Q295 -5 239 25T149 108T102 224T88 355V710H108V355Q108 291 121 230T164 121T247 44T378 15Q458 15 511 44T594 123T636 232T649 355V710H669V355Q669 285 654 220T606 105T517
25T379 -5ZM278 844L371 918H387L480 844L464 832L379 895L294 832L278 844Z" />
<glyph unicode="&#xdc;" glyph-name="Udieresis" horiz-adv-x="756" d="M379 -5Q295 -5 239 25T149 108T102 224T88 355V710H108V355Q108 291 121 230T164 121T247 44T378 15Q458 15 511 44T594 123T636 232T649 355V710H669V355Q669 285 654 220T606 105T517
25T379 -5ZM311 841V918H331V841H311ZM427 841V918H447V841H427Z" />
<glyph unicode="&#xdd;" glyph-name="Yacute" horiz-adv-x="641" d="M46 710L320 298L595 710H618L330 275V0H310V277L23 710H46ZM326 833L310 845L374 918H408L326 833Z" />
<glyph unicode="&#xde;" glyph-name="Thorn" horiz-adv-x="599" d="M368 560Q412 560 448 542T511 492T553 423T568 345Q568 290 544 241T476 160T375 129H119V0H99V710H119V560H368ZM375 149Q429 149 468 178T527 252T548 345Q548 396 524 440T459 512T368 540H119V149H375Z"
/>
<glyph unicode="&#xdf;" glyph-name="germandbls" horiz-adv-x="546" d="M230 13Q350 15 415 64T480 202Q480 259 454 302T382 369T275 393H258V413H274Q318 413 353 431T408 481T428 552Q428 593 407 625T349 675T267 694Q218 694 181 671T124 607T104 509V0H84V509Q84
571 107 617T172 688T268 714Q319 714 360 694T424 638T448 557Q448 521 432 489T389 434T328 404Q411 387 455 335T500 203Q500 155 483 117T431 53T346 11T230 -6V13Z" />
<glyph unicode="&#xe0;" glyph-name="agrave" horiz-adv-x="524" d="M39 149Q39 193 66 226T142 278T253 297Q297 297 343 290T427 268V327Q427 408 381 457T257 507Q220 507 177 491T89 443L77 459Q127 493 172 510T257 527Q344 527 395 473T447 327V40Q447 30
451 25T463 20V0Q457 0 454 0T449 2Q439 6 433 16T427 40V88Q391 42 333 16T207 -10Q160 -10 122 11T62 68T39 149ZM412 102Q420 113 423 123T427 143V246Q387 262 344 269T253 277Q166 277 113 242T59 149Q59 110 78 79T132 29T207 10Q274 10 329 35T412 102ZM189
730H222L287 657L271 645L189 730Z" />
<glyph unicode="&#xe1;" glyph-name="aacute" horiz-adv-x="524" d="M39 149Q39 193 66 226T142 278T253 297Q297 297 343 290T427 268V327Q427 408 381 457T257 507Q220 507 177 491T89 443L77 459Q127 493 172 510T257 527Q344 527 395 473T447 327V40Q447 30
451 25T463 20V0Q457 0 454 0T449 2Q439 6 433 16T427 40V88Q391 42 333 16T207 -10Q160 -10 122 11T62 68T39 149ZM412 102Q420 113 423 123T427 143V246Q387 262 344 269T253 277Q166 277 113 242T59 149Q59 110 78 79T132 29T207 10Q274 10 329 35T412 102ZM263
645L247 657L311 730H345L263 645Z" />
<glyph unicode="&#xe2;" glyph-name="acircumflex" horiz-adv-x="524" d="M39 149Q39 193 66 226T142 278T253 297Q297 297 343 290T427 268V327Q427 408 381 457T257 507Q220 507 177 491T89 443L77 459Q127 493 172 510T257 527Q344 527 395 473T447 327V40Q447
30 451 25T463 20V0Q457 0 454 0T449 2Q439 6 433 16T427 40V88Q391 42 333 16T207 -10Q160 -10 122 11T62 68T39 149ZM412 102Q420 113 423 123T427 143V246Q387 262 344 269T253 277Q166 277 113 242T59 149Q59 110 78 79T132 29T207 10Q274 10 329 35T412 102ZM156
656L249 730H265L358 656L342 644L257 707L172 644L156 656Z" />
<glyph unicode="&#xe3;" glyph-name="atilde" horiz-adv-x="524" d="M39 149Q39 193 66 226T142 278T253 297Q297 297 343 290T427 268V327Q427 408 381 457T257 507Q220 507 177 491T89 443L77 459Q127 493 172 510T257 527Q344 527 395 473T447 327V40Q447 30
451 25T463 20V0Q457 0 454 0T449 2Q439 6 433 16T427 40V88Q391 42 333 16T207 -10Q160 -10 122 11T62 68T39 149ZM412 102Q420 113 423 123T427 143V246Q387 262 344 269T253 277Q166 277 113 242T59 149Q59 110 78 79T132 29T207 10Q274 10 329 35T412 102ZM314
663Q285 663 265 672T227 691T189 701Q168 701 157 691T142 668T138 653H118Q118 655 120 665T130 688T151 710T191 720Q217 720 235 711T272 692T316 682Q344 682 356 693T371 716T375 730H395Q395 727 393 716T382 693T358 672T314 663Z" />
<glyph unicode="&#xe4;" glyph-name="adieresis" horiz-adv-x="524" d="M39 149Q39 193 66 226T142 278T253 297Q297 297 343 290T427 268V327Q427 408 381 457T257 507Q220 507 177 491T89 443L77 459Q127 493 172 510T257 527Q344 527 395 473T447 327V40Q447
30 451 25T463 20V0Q457 0 454 0T449 2Q439 6 433 16T427 40V88Q391 42 333 16T207 -10Q160 -10 122 11T62 68T39 149ZM412 102Q420 113 423 123T427 143V246Q387 262 344 269T253 277Q166 277 113 242T59 149Q59 110 78 79T132 29T207 10Q274 10 329 35T412 102ZM189
653V730H209V653H189ZM305 653V730H325V653H305Z" />
<glyph unicode="&#xe5;" glyph-name="aring" horiz-adv-x="524" d="M39 149Q39 193 66 226T142 278T253 297Q297 297 343 290T427 268V327Q427 408 381 457T257 507Q220 507 177 491T89 443L77 459Q127 493 172 510T257 527Q344 527 395 473T447 327V40Q447 30
451 25T463 20V0Q457 0 454 0T449 2Q439 6 433 16T427 40V88Q391 42 333 16T207 -10Q160 -10 122 11T62 68T39 149ZM412 102Q420 113 423 123T427 143V246Q387 262 344 269T253 277Q166 277 113 242T59 149Q59 110 78 79T132 29T207 10Q274 10 329 35T412 102ZM182
681Q182 713 204 734T257 756Q289 756 310 735T332 681Q332 650 311 628T257 606Q226 606 204 628T182 681ZM257 735Q235 735 219 721T203 681Q203 659 219 643T257 627Q277 627 294 642T311 681Q311 706 295 720T257 735Z" />
<glyph unicode="&#xe6;" glyph-name="ae" horiz-adv-x="928" d="M207 -10Q160 -10 122 11T62 68T39 149Q39 193 66 226T142 278T253 297Q289 297 327 292T398 277Q400 303 405 328T421 376Q408 436 365 471T257 507Q220 507 177 491T89 443L77 459Q177 527 257
527Q324 527 370 495T435 403Q467 459 522 493T643 527Q712 527 768 491T859 395T893 259Q893 256 893 254T893 248H418Q423 181 455 127T538 42T649 10Q709 10 761 40T835 119L854 114Q840 79 809 51T735 6T648 -10Q584 -10 530 23T441 111Q420 68 381 42T296
3T207 -10ZM207 10Q274 10 329 35T412 102Q424 120 427 137Q414 164 407 194T398 256Q364 267 328 272T253 277Q166 277 113 242T59 149Q59 110 78 79T132 29T207 10ZM872 268Q868 338 837 391T756 476T644 507Q583 507 533 476T453 391T418 268H872Z" />
<glyph unicode="&#xe7;" glyph-name="ccedilla" horiz-adv-x="538" d="M297 -10Q246 -10 201 11T120 70T66 157T46 262Q46 337 79 397T169 492T296 527Q361 527 413 497T491 411L471 404Q446 452 398 479T293 507Q230 507 179 475T97 387T66 262Q66 194 97 137T180
45T294 10Q335 10 374 25T441 66T478 119L498 113Q487 78 456 50T384 6T297 -10ZM287 -164Q262 -164 233 -158T177 -139L188 -122Q212 -132 234 -139T284 -146Q323 -146 343 -132T364 -90Q364 -61 345 -41T287 0L307 8Q343 -12 363 -34T384 -90Q384 -129 357 -146T287
-164Z" />
<glyph unicode="&#xe8;" glyph-name="egrave" horiz-adv-x="576" d="M296 -10Q245 -10 200 11T120 70T66 157T46 263Q46 336 79 396T167 491T291 527Q360 527 416 491T507 395T541 259Q541 256 541 254T541 248H66Q71 181 103 127T186 42T297 10Q357 10 409 40T483
119L502 114Q488 79 457 51T383 6T296 -10ZM66 268H520Q516 338 485 391T404 476T292 507Q231 507 181 476T101 391T66 268ZM224 730H257L322 657L306 645L224 730Z" />
<glyph unicode="&#xe9;" glyph-name="eacute" horiz-adv-x="576" d="M296 -10Q245 -10 200 11T120 70T66 157T46 263Q46 336 79 396T167 491T291 527Q360 527 416 491T507 395T541 259Q541 256 541 254T541 248H66Q71 181 103 127T186 42T297 10Q357 10 409 40T483
119L502 114Q488 79 457 51T383 6T296 -10ZM66 268H520Q516 338 485 391T404 476T292 507Q231 507 181 476T101 391T66 268ZM298 645L282 657L346 730H380L298 645Z" />
<glyph unicode="&#xea;" glyph-name="ecircumflex" horiz-adv-x="576" d="M296 -10Q245 -10 200 11T120 70T66 157T46 263Q46 336 79 396T167 491T291 527Q360 527 416 491T507 395T541 259Q541 256 541 254T541 248H66Q71 181 103 127T186 42T297 10Q357 10 409
40T483 119L502 114Q488 79 457 51T383 6T296 -10ZM66 268H520Q516 338 485 391T404 476T292 507Q231 507 181 476T101 391T66 268ZM191 656L284 730H300L393 656L377 644L292 707L207 644L191 656Z" />
<glyph unicode="&#xeb;" glyph-name="edieresis" horiz-adv-x="576" d="M296 -10Q245 -10 200 11T120 70T66 157T46 263Q46 336 79 396T167 491T291 527Q360 527 416 491T507 395T541 259Q541 256 541 254T541 248H66Q71 181 103 127T186 42T297 10Q357 10 409
40T483 119L502 114Q488 79 457 51T383 6T296 -10ZM66 268H520Q516 338 485 391T404 476T292 507Q231 507 181 476T101 391T66 268ZM224 653V730H244V653H224ZM340 653V730H360V653H340Z" />
<glyph unicode="&#xec;" glyph-name="igrave" horiz-adv-x="188" d="M84 0V519H104V0H84ZM282 730H315L380 657L364 645L282 730Z" />
<glyph unicode="&#xed;" glyph-name="iacute" horiz-adv-x="188" d="M84 0V519H104V0H84ZM100 645L84 657L148 730H182L100 645Z" />
<glyph unicode="&#xee;" glyph-name="icircumflex" horiz-adv-x="188" d="M84 0V519H104V0H84ZM249 656L342 730H358L451 656L435 644L350 707L265 644L249 656Z" />
<glyph unicode="&#xef;" glyph-name="idieresis" horiz-adv-x="188" d="M84 0V519H104V0H84ZM282 653V730H302V653H282ZM398 653V730H418V653H398Z" />
<glyph unicode="&#xf0;" glyph-name="eth" horiz-adv-x="593" d="M542 246Q542 194 523 148T470 67T391 11T295 -10Q227 -10 171 23T81 111T48 232Q48 282 67 325T121 403T200 456T295 475Q373 475 434 435T522 330Q517 378 502 427T455 526T366 628T220 730H249Q347
672 405 614T493 495T532 373T542 246ZM68 230Q68 170 98 120T180 40T294 10Q356 10 408 42T491 129T522 247Q522 304 491 351T409 426T295 455Q234 455 182 424T99 342T68 230ZM471 699L375 636L368 631L240 547L230 561L355 643L361 647L461 713L471 699Z" />
<glyph unicode="&#xf1;" glyph-name="ntilde" horiz-adv-x="565" d="M487 0H467V289Q467 402 436 454T334 507Q284 507 237 484T154 420T104 328V0H84V519H104V385Q126 427 162 459T242 509T333 527Q373 527 402 513T450 469T478 395T487 289V0ZM337 663Q308 663
288 672T250 691T212 701Q191 701 180 691T165 668T161 653H141Q141 655 143 665T153 688T174 710T214 720Q240 720 258 711T295 692T339 682Q367 682 379 693T394 716T398 730H418Q418 727 416 716T405 693T381 672T337 663Z" />
<glyph unicode="&#xf2;" glyph-name="ograve" horiz-adv-x="586" d="M293 -10Q242 -10 197 11T118 69T65 155T46 258Q46 313 65 361T119 447T198 506T293 527Q343 527 388 506T467 448T520 362T540 258Q540 204 521 156T468 70T389 11T293 -10ZM66 256Q66 189
96 133T178 44T292 10Q354 10 406 44T489 135T520 259Q520 326 489 382T407 473T293 507Q232 507 180 473T97 381T66 256ZM225 730H258L323 657L307 645L225 730Z" />
<glyph unicode="&#xf3;" glyph-name="oacute" horiz-adv-x="586" d="M293 -10Q242 -10 197 11T118 69T65 155T46 258Q46 313 65 361T119 447T198 506T293 527Q343 527 388 506T467 448T520 362T540 258Q540 204 521 156T468 70T389 11T293 -10ZM66 256Q66 189
96 133T178 44T292 10Q354 10 406 44T489 135T520 259Q520 326 489 382T407 473T293 507Q232 507 180 473T97 381T66 256ZM299 645L283 657L347 730H381L299 645Z" />
<glyph unicode="&#xf4;" glyph-name="ocircumflex" horiz-adv-x="586" d="M293 -10Q242 -10 197 11T118 69T65 155T46 258Q46 313 65 361T119 447T198 506T293 527Q343 527 388 506T467 448T520 362T540 258Q540 204 521 156T468 70T389 11T293 -10ZM66 256Q66
189 96 133T178 44T292 10Q354 10 406 44T489 135T520 259Q520 326 489 382T407 473T293 507Q232 507 180 473T97 381T66 256ZM192 656L285 730H301L394 656L378 644L293 707L208 644L192 656Z" />
<glyph unicode="&#xf5;" glyph-name="otilde" horiz-adv-x="586" d="M293 -10Q242 -10 197 11T118 69T65 155T46 258Q46 313 65 361T119 447T198 506T293 527Q343 527 388 506T467 448T520 362T540 258Q540 204 521 156T468 70T389 11T293 -10ZM66 256Q66 189
96 133T178 44T292 10Q354 10 406 44T489 135T520 259Q520 326 489 382T407 473T293 507Q232 507 180 473T97 381T66 256ZM350 663Q321 663 301 672T263 691T225 701Q204 701 193 691T178 668T174 653H154Q154 655 156 665T166 688T187 710T227 720Q253 720 271
711T308 692T352 682Q380 682 392 693T407 716T411 730H431Q431 727 429 716T418 693T394 672T350 663Z" />
<glyph unicode="&#xf6;" glyph-name="odieresis" horiz-adv-x="586" d="M293 -10Q242 -10 197 11T118 69T65 155T46 258Q46 313 65 361T119 447T198 506T293 527Q343 527 388 506T467 448T520 362T540 258Q540 204 521 156T468 70T389 11T293 -10ZM66 256Q66 189
96 133T178 44T292 10Q354 10 406 44T489 135T520 259Q520 326 489 382T407 473T293 507Q232 507 180 473T97 381T66 256ZM225 653V730H245V653H225ZM341 653V730H361V653H341Z" />
<glyph unicode="&#xf7;" glyph-name="divide" horiz-adv-x="546" d="M263 385V449H283V385H263ZM263 92V156H283V92H263ZM72 261V281H475V261H72Z" />
<glyph unicode="&#xf8;" glyph-name="oslash" horiz-adv-x="586" d="M293 -10Q242 -10 197 11T118 69T65 155T46 258Q46 313 65 361T119 447T198 506T293 527Q343 527 388 506T467 448T520 362T540 258Q540 204 521 156T468 70T389 11T293 -10ZM292 10Q354 10
406 44T489 135T520 259Q520 326 489 382T407 473T293 507Q232 507 180 473T97 381T66 256Q66 189 96 133T178 44T292 10ZM123 0L154 51L171 38L148 0H123ZM171 38L154 51L416 479L434 466L171 38ZM434 466L416 479L440 519H466L434 466Z" />
<glyph unicode="&#xf9;" glyph-name="ugrave" horiz-adv-x="576" d="M78 228V519H98V228Q98 118 134 64T245 10Q295 10 341 33T421 96T471 189V519H491V40Q491 31 495 26T507 20V0Q501 0 498 0T493 2Q483 6 477 16T471 40V132Q437 67 376 29T245 -10Q163 -10 121
50T78 228ZM214 730H247L312 657L296 645L214 730Z" />
<glyph unicode="&#xfa;" glyph-name="uacute" horiz-adv-x="576" d="M78 228V519H98V228Q98 118 134 64T245 10Q295 10 341 33T421 96T471 189V519H491V40Q491 31 495 26T507 20V0Q501 0 498 0T493 2Q483 6 477 16T471 40V132Q437 67 376 29T245 -10Q163 -10 121
50T78 228ZM288 645L272 657L336 730H370L288 645Z" />
<glyph unicode="&#xfb;" glyph-name="ucircumflex" horiz-adv-x="576" d="M78 228V519H98V228Q98 118 134 64T245 10Q295 10 341 33T421 96T471 189V519H491V40Q491 31 495 26T507 20V0Q501 0 498 0T493 2Q483 6 477 16T471 40V132Q437 67 376 29T245 -10Q163
-10 121 50T78 228ZM181 656L274 730H290L383 656L367 644L282 707L197 644L181 656Z" />
<glyph unicode="&#xfc;" glyph-name="udieresis" horiz-adv-x="576" d="M78 228V519H98V228Q98 118 134 64T245 10Q295 10 341 33T421 96T471 189V519H491V40Q491 31 495 26T507 20V0Q501 0 498 0T493 2Q483 6 477 16T471 40V132Q437 67 376 29T245 -10Q163 -10
121 50T78 228ZM214 653V730H234V653H214ZM330 653V730H350V653H330Z" />
<glyph unicode="&#xfd;" glyph-name="yacute" horiz-adv-x="536" d="M128 -203Q145 -203 157 -202T175 -193Q179 -188 186 -174T210 -119T262 0L21 519H43L272 25L489 519H511L202 -186Q198 -195 193 -201T183 -212T169 -218Q160 -220 150 -221T128 -223V-203ZM278
645L262 657L326 730H360L278 645Z" />
<glyph unicode="&#xfe;" glyph-name="thorn" horiz-adv-x="603" d="M557 258Q556 205 537 157T484 72T405 12T307 -10Q246 -10 191 24T104 108V-213H84V710H104V398Q144 454 196 490T316 527Q373 527 417 504T493 441T541 354T557 258ZM537 258Q537 322 509 379T432
471T316 507Q267 507 226 486T155 430T104 356V169Q104 137 124 109T175 58T241 23T307 10Q357 10 399 31T472 88T520 168T537 258Z" />
<glyph unicode="&#xff;" glyph-name="ydieresis" horiz-adv-x="536" d="M128 -203Q145 -203 157 -202T175 -193Q179 -188 186 -174T210 -119T262 0L21 519H43L272 25L489 519H511L202 -186Q198 -195 193 -201T183 -212T169 -218Q160 -220 150 -221T128 -223V-203ZM204
653V730H224V653H204ZM320 653V730H340V653H320Z" />
<glyph unicode="&#x2013;" glyph-name="endash" horiz-adv-x="541" d="M69 261V281H472V261H69Z" />
<glyph unicode="&#x2014;" glyph-name="emdash" horiz-adv-x="877" d="M69 261V281H808V261H69Z" />
<glyph unicode="&#x2018;" glyph-name="quoteleft" horiz-adv-x="168" d="M97 730L87 644H96V570H70V644L83 730H97Z" />
<glyph unicode="&#x2019;" glyph-name="quoteright" horiz-adv-x="165" d="M71 570L81 656H72V730H98V656L85 570H71Z" />
<glyph unicode="&#x201a;" glyph-name="quotesinglbase" horiz-adv-x="260" d="M116 -76L126 0H117V74H143V0L130 -76H116Z" />
<glyph unicode="&#x201c;" glyph-name="quotedblleft" horiz-adv-x="248" d="M97 730L87 644H96V570H70V644L83 730H97ZM177 730L167 644H176V570H150V644L163 730H177Z" />
<glyph unicode="&#x201d;" glyph-name="quotedblright" horiz-adv-x="245" d="M71 570L81 656H72V730H98V656L85 570H71ZM151 570L161 656H152V730H178V656L165 570H151Z" />
<glyph unicode="&#x201e;" glyph-name="quotedblbase" horiz-adv-x="330" d="M116 -76L126 0H117V74H143V0L130 -76H116ZM186 -76L196 0H187V74H213V0L200 -76H186Z" />
<glyph unicode="&#x2022;" glyph-name="bullet" horiz-adv-x="340" d="M248 343Q248 321 238 303T210 275T170 264Q149 264 131 274T102 303T91 343Q91 364 102 381T131 410T170 421Q192 421 209 410T237 382T248 343Z" />
<glyph unicode="&#x2039;" glyph-name="guilsinglleft" horiz-adv-x="348" d="M42 268L279 437V415L61 259L279 102V80L42 250V268Z" />
<glyph unicode="&#x203a;" glyph-name="guilsinglright" horiz-adv-x="348" d="M306 250L69 80V102L287 259L69 415V437L306 268V250Z" />
</font>
</defs>
</svg>
