<?xml version="1.0" standalone="no"?>
<!DOCTYPE svg PUBLIC "-//W3C//DTD SVG 1.1//EN" "http://www.w3.org/Graphics/SVG/1.1/DTD/svg11.dtd">
<svg xmlns="http://www.w3.org/2000/svg">
<defs >
<font id="Roboto" horiz-adv-x="1120" ><font-face
    font-family="Roboto"
    units-per-em="2048"
    panose-1="2 0 0 0 0 0 0 0 0 0"
    ascent="1900"
    descent="-500"
    alphabetic="0" />
<glyph unicode=" " horiz-adv-x="508" />
<glyph unicode="!" horiz-adv-x="528" d="M361 1456L348 411H181L167 1456H361ZM161 93Q161 138 188 169T270 200Q323 200 351 169T380 93Q380 50 352 19T270 -12Q216 -12 189 19T161 93Z" />
<glyph unicode="&quot;" horiz-adv-x="656" d="M278 1536V1400L248 1043H137V1391V1536H278ZM548 1536V1400L518 1043H407V1398V1536H548Z" />
<glyph unicode="#" horiz-adv-x="1261" d="M279 0L562 1456H706L422 0H279ZM686 0L970 1456H1113L829 0H686ZM1235 901H195V1040H1235V901ZM1160 410H119V548H1160V410Z" />
<glyph unicode="$" horiz-adv-x="1151" d="M674 1692V1387H524V1692H674ZM656 59V-208H507V59H656ZM856 375Q856 435 829 483T740 571T574 645Q448 684 357 740T216 879T166 1080Q166 1203 219 1292T369 1429T597 1477Q699 1477 779 1447T914 1356T999 1209T1029
1008H845Q845 1075 829 1131T781 1228T703 1292T597 1315Q513 1315 459 1286T378 1205T352 1083Q352 1019 378 971T466 885T639 809Q768 768 858 713T995 577T1042 377Q1042 248 984 160T821 25T575 -21Q490 -21 407 2T257 77T150 216T110 429H296Q296 344 320
289T386 201T476 155T575 141Q665 141 727 169T823 251T856 375Z" />
<glyph unicode="%" horiz-adv-x="1500" d="M105 1099V1176Q105 1259 141 1327T244 1436T403 1477Q497 1477 563 1436T666 1327T702 1176V1099Q702 1018 667 950T565 841T405 800Q312 800 245 841T141 950T105 1099ZM244 1176V1099Q244 1053 261 1012T315 946T405
920Q459 920 494 945T546 1012T563 1099V1176Q563 1223 546 1264T493 1331T403 1357Q350 1357 315 1332T262 1265T244 1176ZM814 279V357Q814 439 850 507T953 616T1112 657Q1206 657 1272 616T1375 507T1411 357V279Q1411 197 1376 129T1274 20T1114 -21Q1021
-21 954 20T851 129T814 279ZM953 357V279Q953 233 970 192T1024 125T1114 99Q1168 99 1203 124T1256 191T1273 279V357Q1273 404 1256 445T1203 511T1112 537Q1059 537 1024 512T971 445T953 357ZM1158 1249L447 111L343 177L1054 1315L1158 1249Z" />
<glyph unicode="&amp;" horiz-adv-x="1274" d="M410 808L628 963Q691 1006 725 1049T760 1169Q760 1228 714 1276T584 1325Q526 1325 486 1298T426 1227T406 1129Q406 1084 428 1036T489 936T578 826L1267 0H1045L480 676Q405 764 346 837T254 980T220 1123Q220
1237 265 1315T393 1435T585 1476Q692 1476 769 1434T889 1322T931 1169Q931 1099 906 1044T837 942T733 852L444 637Q372 584 339 536T297 451T287 392Q287 321 318 262T412 168T572 132Q656 132 735 170T878 280T978 451T1016 672H1182Q1182 573 1163 485T1105
322T1004 184Q995 175 990 163T976 142Q901 61 792 21T572 -20Q427 -20 322 33T159 179T102 392Q102 484 141 554T250 685T410 808Z" />
<glyph unicode="&apos;" horiz-adv-x="358" d="M254 1536V1426L233 1058H104L105 1409V1536H254Z" />
<glyph unicode="(" horiz-adv-x="701" d="M134 582V592Q134 810 183 986T308 1296T468 1516T623 1643L662 1521Q603 1476 543 1397T432 1203T350 936T319 594V580Q319 390 350 238T431 -31T542 -228T662 -358L623 -470Q552 -431 468 -344T308 -124T183 186T134 582Z" />
<glyph unicode=")" horiz-adv-x="713" d="M567 592V582Q567 363 518 186T393 -123T233 -343T78 -470L39 -358Q98 -313 158 -233T269 -35T351 236T382 580V594Q382 784 349 937T264 1208T152 1405T39 1530L78 1643Q149 1604 233 1517T393 1296T518 987T567 592Z" />
<glyph unicode="*" horiz-adv-x="882" d="M129 708L330 984L28 1074L75 1224L377 1113L368 1457H520L510 1107L808 1218L854 1065L547 974L744 703L620 610L435 898L254 617L129 708Z" />
<glyph unicode="+" horiz-adv-x="1162" d="M1076 781V607H78V781H1076ZM670 1206V146H485V1206H670Z" />
<glyph unicode="," horiz-adv-x="403" d="M309 220V71Q309 -20 263 -121T134 -291L29 -218Q61 -174 83 -129T116 -35T128 68V220H309Z" />
<glyph unicode="-" horiz-adv-x="566" d="M526 695V543H38V695H526Z" />
<glyph unicode="." horiz-adv-x="540" d="M144 98Q144 145 173 177T259 210Q315 210 344 178T374 98Q374 52 345 20T259 -12Q203 -12 174 20T144 98Z" />
<glyph unicode="/" horiz-adv-x="845" d="M785 1456L178 -125H19L627 1456H785Z" />
<glyph unicode="0" horiz-adv-x="1151" d="M1035 844V622Q1035 443 1003 320T911 122T767 14T576 -20Q492 -20 421 1T294 68T197 190T136 372T115 622V844Q115 1023 147 1144T240 1338T384 1444T574 1476Q659 1476 730 1456T858 1391T953 1273T1014 1093T1035
844ZM849 592V875Q849 973 838 1047T804 1175T749 1261T672 1309T574 1325Q508 1325 457 1301T372 1223T319 1084T301 875V592Q301 494 312 419T347 290T403 200T479 149T576 132Q644 132 695 158T780 239T832 382T849 592Z" />
<glyph unicode="1" horiz-adv-x="1151" d="M729 1464V0H544V1233L171 1097V1264L700 1464H729Z" />
<glyph unicode="2" horiz-adv-x="1151" d="M1075 152V0H122V133L599 664Q687 762 735 830T803 953T823 1065Q823 1137 794 1195T707 1289T569 1324Q472 1324 408 1287T311 1182T279 1028H94Q94 1151 148 1253T308 1415T569 1476Q707 1476 805 1428T955 1292T1008
1087Q1008 1023 987 958T928 827T841 699T735 575L345 152H1075Z" />
<glyph unicode="3" horiz-adv-x="1151" d="M391 819H523Q620 819 683 851T778 940T810 1068Q810 1152 782 1209T698 1295T556 1324Q478 1324 419 1294T326 1207T292 1075H107Q107 1186 163 1277T320 1422T556 1476Q688 1476 787 1430T941 1292T996 1064Q996 1009
971 947T892 830T753 742T549 707H391V819ZM391 667V778H549Q688 778 779 745T922 657T996 537T1018 406Q1018 304 984 225T887 91T740 8T557 -20Q462 -20 379 7T231 85T131 212T95 385H280Q280 309 313 252T409 164T557 132Q642 132 703 161T798 251T832 402Q832
493 794 551T687 638T523 667H391Z" />
<glyph unicode="4" horiz-adv-x="1151" d="M1105 490V338H53V447L705 1456H856L694 1164L263 490H1105ZM902 1456V0H717V1456H902Z" />
<glyph unicode="5" horiz-adv-x="1151" d="M355 693L207 731L280 1456H1027V1285H437L393 889Q433 912 494 932T636 952Q737 952 817 918T953 819T1040 665T1070 464Q1070 359 1042 271T956 118T813 16T609 -20Q521 -20 443 4T303 79T203 205T154 383H330Q342
301 378 245T472 161T609 132Q675 132 726 155T812 221T865 325T884 462Q884 531 865 590T809 693T717 761T593 786Q500 786 453 761T355 693Z" />
<glyph unicode="6" horiz-adv-x="1151" d="M831 1458H847V1301H831Q684 1301 585 1254T428 1127T345 948T319 747V533Q319 436 342 362T405 236T495 159T601 133Q665 133 715 157T799 226T852 332T870 466Q870 531 854 591T805 699T723 774T605 802Q528 802 462
765T353 667T304 535L206 536Q220 648 258 727T354 857T483 931T635 955Q744 955 823 914T953 805T1028 651T1053 475Q1053 372 1024 282T938 124T796 18T601 -20Q483 -20 395 28T249 158T162 338T133 539V626Q133 780 164 928T271 1196T484 1387T831 1458Z" />
<glyph unicode="7" horiz-adv-x="1151" d="M1062 1456V1352L459 0H264L866 1304H78V1456H1062Z" />
<glyph unicode="8" horiz-adv-x="1151" d="M1039 394Q1039 261 978 169T812 28T576 -20Q445 -20 340 28T174 168T113 394Q113 481 146 553T241 680T387 763T574 793Q708 793 813 742T978 600T1039 394ZM853 398Q853 479 818 541T720 639T574 674Q489 674 428 639T332
542T298 398Q298 314 331 255T427 164T576 132Q662 132 724 163T819 254T853 398ZM1005 1077Q1005 971 949 886T796 752T576 703Q451 703 354 752T201 886T146 1077Q146 1204 201 1293T354 1429T575 1476Q700 1476 797 1429T949 1293T1005 1077ZM820 1074Q820 1147
789 1203T703 1291T575 1324Q502 1324 448 1294T363 1207T332 1074Q332 999 362 943T448 856T576 825Q649 825 703 856T789 943T820 1074Z" />
<glyph unicode="9" horiz-adv-x="1151" d="M305 155H324Q484 155 584 200T738 321T812 492T832 689V912Q832 1011 810 1088T748 1217T658 1296T552 1323Q488 1323 438 1298T353 1226T300 1118T282 983Q282 918 298 857T347 747T429 670T546 641Q608 641 662 665T759
732T827 829T857 942H945Q945 859 913 779T822 632T686 527T516 487Q408 487 329 529T200 641T125 797T100 973Q100 1077 129 1168T215 1328T356 1437T552 1476Q677 1476 765 1426T908 1292T990 1103T1016 887V820Q1016 707 1002 591T947 368T829 179T629 47T324
-2H305V155Z" />
<glyph unicode=":" horiz-adv-x="496" d="M389 98Q389 145 418 177T504 210Q560 210 589 178T619 98Q619 52 590 20T504 -12Q448 -12 419 20T389 98ZM134 981Q134 1028 163 1060T249 1093Q305 1093 334 1061T364 981Q364 935 335 903T249 871Q193 871 164 903T134 981Z" />
<glyph unicode=";" horiz-adv-x="433" d="M110 981Q110 1028 139 1060T225 1093Q281 1093 310 1061T340 981Q340 935 311 903T225 871Q169 871 140 903T110 981ZM321 220V71Q321 -20 275 -121T146 -291L41 -218Q73 -174 95 -129T128 -35T140 68V220H321Z" />
<glyph unicode="&lt;" horiz-adv-x="1041" d="M199 672L890 392V196L72 575V690L199 672ZM890 902L200 618L72 604V720L890 1098V902Z" />
<glyph unicode="=" horiz-adv-x="1124" d="M986 975V814H152V975H986ZM986 560V399H152V560H986Z" />
<glyph unicode="&gt;" horiz-adv-x="1071" d="M846 632L135 909V1100L989 722V605L846 632ZM135 388L848 671L989 692V576L135 197V388Z" />
<glyph unicode="?" horiz-adv-x="968" d="M543 410H357Q358 506 374 567T429 680T530 796Q576 843 614 884T677 974T701 1091Q701 1160 677 1210T605 1287T487 1314Q429 1314 377 1293T293 1229T260 1115H75Q77 1228 131 1309T279 1433T487 1476Q614 1476 703
1430T840 1299T887 1096Q887 1006 851 931T757 789T636 663Q581 612 562 548T543 410ZM349 93Q349 138 377 169T458 200Q512 200 540 169T568 93Q568 50 540 19T458 -12Q405 -12 377 19T349 93Z" />
<glyph unicode="@" horiz-adv-x="1839" d="M1736 503Q1732 411 1708 319T1636 149T1512 26T1327 -21Q1258 -21 1207 3T1123 74T1078 185T1073 330L1124 884H1271L1220 330Q1214 257 1223 211T1253 141T1298 107T1348 98Q1408 98 1455 129T1534 216T1585 345T1607
503Q1614 652 1594 777T1525 999T1398 1163T1212 1265T965 1300Q839 1300 733 1262T542 1151T397 978T302 751T261 478Q254 328 277 203T351 -21T482 -188T665 -292T897 -328Q985 -328 1075 -307T1227 -250L1265 -364Q1195 -409 1091 -431T893 -453Q741 -453 616
-412T394 -291T233 -98T139 161T116 478Q123 642 165 787T282 1050T458 1253T689 1385T969 1431Q1123 1431 1248 1389T1467 1268T1624 1075T1714 817T1736 503ZM709 418Q702 348 709 293T736 200T788 143T865 123Q894 123 926 137T989 183T1047 264T1092 384L1158
312Q1135 230 1099 168T1017 64T922 1T819 -21Q746 -21 691 10T602 100T555 238T550 418Q559 523 587 612T656 771T750 890T862 964T983 990Q1091 990 1153 959T1271 884L1186 785Q1157 813 1110 837T999 861Q944 861 896 833T810 749T745 611T709 418Z" />
<glyph unicode="A" horiz-adv-x="1336" d="M708 1327L226 0H29L584 1456H711L708 1327ZM1112 0L629 1327L626 1456H753L1310 0H1112ZM1087 539V381H269V539H1087Z" />
<glyph unicode="B" horiz-adv-x="1276" d="M688 681H319L317 836H652Q735 836 797 864T893 944T928 1070Q928 1150 898 1200T805 1274T646 1298H362V0H169V1456H646Q758 1456 846 1434T995 1364T1089 1243T1121 1068Q1121 978 1075 906T948 787T757 728L688 681ZM679
0H243L352 157H679Q771 157 835 189T934 279T968 418Q968 499 939 558T848 649T688 681H413L415 836H791L832 780Q937 771 1010 721T1121 592T1160 420Q1160 284 1101 191T933 49T679 0Z" />
<glyph unicode="C" horiz-adv-x="1333" d="M1048 463H1240Q1225 325 1161 216T980 44T688 -20Q560 -20 456 28T276 164T161 377T120 655V800Q120 953 160 1077T277 1291T462 1428T705 1476Q870 1476 984 1414T1161 1243T1240 989H1048Q1034 1091 996 1164T888
1278T705 1318Q608 1318 535 1281T412 1176T337 1013T312 802V655Q312 548 334 454T403 289T520 178T688 137Q811 137 884 176T994 288T1048 463Z" />
<glyph unicode="D" horiz-adv-x="1344" d="M563 0H259L261 157H563Q719 157 823 222T979 406T1032 684V773Q1032 898 1002 995T914 1160T773 1263T581 1298H253V1456H581Q724 1456 842 1409T1045 1272T1177 1056T1223 771V684Q1223 526 1177 400T1045 184T837
48T563 0ZM362 1456V0H169V1456H362Z" />
<glyph unicode="E" horiz-adv-x="1164" d="M1094 157V0H323V157H1094ZM362 1456V0H169V1456H362ZM992 830V673H323V830H992ZM1084 1456V1298H323V1456H1084Z" />
<glyph unicode="F" horiz-adv-x="1132" d="M362 1456V0H169V1456H362ZM972 801V643H320V801H972ZM1071 1456V1298H320V1456H1071Z" />
<glyph unicode="G" horiz-adv-x="1395" d="M1245 725V192Q1218 152 1159 103T997 17T730 -20Q597 -20 486 26T293 162T167 380T122 672V785Q122 948 160 1076T274 1293T458 1429T708 1476Q875 1476 987 1419T1163 1260T1245 1030H1052Q1039 1109 1001 1174T891
1278T708 1318Q607 1318 533 1281T411 1175T340 1008T316 787V672Q316 546 345 447T430 279T561 173T731 137Q834 137 898 154T998 196T1053 243V569H716V725H1245Z" />
<glyph unicode="H" horiz-adv-x="1461" d="M1120 830V673H332V830H1120ZM362 1456V0H169V1456H362ZM1288 1456V0H1096V1456H1288Z" />
<glyph unicode="I" horiz-adv-x="557" d="M376 1456V0H183V1456H376Z" />
<glyph unicode="J" horiz-adv-x="1130" d="M780 425V1456H972V425Q972 281 913 182T751 32T513 -20Q379 -20 275 26T112 166T53 403H246Q246 311 280 252T374 165T513 137Q589 137 649 169T745 266T780 425Z" />
<glyph unicode="K" horiz-adv-x="1285" d="M362 1456V0H169V1456H362ZM1241 1456L636 777L296 424L264 630L520 912L1009 1456H1241ZM1055 0L516 710L631 863L1285 0H1055Z" />
<glyph unicode="L" horiz-adv-x="1103" d="M1052 157V0H324V157H1052ZM362 1456V0H169V1456H362Z" />
<glyph unicode="M" horiz-adv-x="1788" d="M230 1456H417L894 269L1370 1456H1558L966 0H820L230 1456ZM169 1456H334L361 568V0H169V1456ZM1453 1456H1618V0H1426V568L1453 1456Z" />
<glyph unicode="N" horiz-adv-x="1461" d="M1289 1456V0H1095L362 1123V0H169V1456H362L1098 330V1456H1289Z" />
<glyph unicode="O" horiz-adv-x="1409" d="M1290 774V682Q1290 518 1249 388T1131 167T947 28T706 -20Q577 -20 470 28T284 167T162 388T119 682V774Q119 938 161 1067T282 1288T467 1428T704 1476Q837 1476 944 1428T1129 1289T1248 1068T1290 774ZM1099 682V776Q1099
906 1073 1006T995 1174T871 1277T704 1312Q614 1312 542 1277T418 1174T338 1006T310 776V682Q310 551 338 451T418 282T543 178T706 143Q800 143 873 178T996 281T1073 450T1099 682Z" />
<glyph unicode="P" horiz-adv-x="1292" d="M706 571H317V728H706Q819 728 889 764T991 864T1024 1010Q1024 1085 992 1151T889 1257T706 1298H362V0H169V1456H706Q871 1456 985 1399T1158 1242T1217 1012Q1217 872 1158 773T985 623T706 571Z" />
<glyph unicode="Q" horiz-adv-x="1409" d="M916 167L1286 -126L1156 -246L792 43L916 167ZM1281 774V682Q1281 518 1240 388T1122 167T938 28T697 -20Q568 -20 461 28T275 167T153 388T110 682V774Q110 938 152 1067T273 1288T458 1428T695 1476Q828 1476 936
1428T1121 1289T1239 1068T1281 774ZM1090 682V776Q1090 906 1064 1006T986 1174T862 1277T695 1312Q606 1312 534 1277T409 1174T329 1006T301 776V682Q301 551 329 451T409 282T535 178T697 143Q791 143 864 178T987 281T1064 450T1090 682Z" />
<glyph unicode="R" horiz-adv-x="1262" d="M169 1456H651Q815 1456 928 1406T1101 1259T1161 1019Q1161 919 1121 837T1005 697T824 611L770 590H317L315 747H657Q761 747 830 783T934 882T969 1019Q969 1103 936 1166T833 1263T651 1298H362V0H169V1456ZM1020
0L666 660L867 661L1226 12V0H1020Z" />
<glyph unicode="S" horiz-adv-x="1216" d="M945 368Q945 419 930 458T876 530T770 591T599 650Q491 682 404 721T255 812T160 929T127 1080Q127 1165 162 1237T262 1362T419 1446T622 1476Q786 1476 900 1414T1075 1251T1135 1036H943Q943 1118 908 1181T802 1281T622
1318Q519 1318 452 1287T353 1203T320 1082Q320 1036 339 999T400 929T506 870T661 818Q785 783 875 740T1023 644T1110 523T1139 370Q1139 281 1103 209T1000 86T840 8T631 -20Q530 -20 433 8T256 92T129 230T81 422H273Q273 347 302 294T381 205T496 154T631
137Q732 137 802 165T908 245T945 368Z" />
<glyph unicode="T" horiz-adv-x="1222" d="M707 1456V0H517V1456H707ZM1175 1456V1298H50V1456H1175Z" />
<glyph unicode="U" horiz-adv-x="1328" d="M1002 1456H1194V471Q1194 307 1121 198T928 35T666 -20Q518 -20 399 34T210 198T140 471V1456H331V471Q331 357 373 283T490 173T666 137Q767 137 842 173T960 283T1002 471V1456Z" />
<glyph unicode="V" horiz-adv-x="1304" d="M639 221L1068 1456H1277L738 0H589L639 221ZM238 1456L663 221L716 0H567L29 1456H238Z" />
<glyph unicode="W" horiz-adv-x="1817" d="M552 440L841 1456H981L900 1061L589 0H450L552 440ZM253 1456L483 460L552 0H414L61 1456H253ZM1355 461L1580 1456H1773L1421 0H1283L1355 461ZM1002 1456L1283 440L1385 0H1246L946 1061L864 1456H1002Z" />
<glyph unicode="X" horiz-adv-x="1284" d="M294 1456L644 898L994 1456H1219L759 735L1230 0H1003L644 569L285 0H58L529 735L69 1456H294Z" />
<glyph unicode="Y" horiz-adv-x="1230" d="M236 1456L614 725L993 1456H1212L710 544V0H517V544L15 1456H236Z" />
<glyph unicode="Z" horiz-adv-x="1227" d="M1146 157V0H160V157H1146ZM1114 1316L206 0H87V144L994 1456H1114V1316ZM1032 1456V1298H100V1456H1032Z" />
<glyph unicode="[" horiz-adv-x="543" d="M523 1664V1512H332V-160H523V-312H147V1664H523Z" />
<glyph unicode="\" horiz-adv-x="841" d="M649 -125L41 1456H217L825 -125H649Z" />
<glyph unicode="]" horiz-adv-x="543" d="M10 1512V1664H388V-312H10V-160H202V1512H10Z" />
<glyph unicode="^" horiz-adv-x="856" d="M439 1242L236 729H64L363 1456H475L439 1242ZM617 729L415 1242L378 1456H491L789 729H617Z" />
<glyph unicode="_" horiz-adv-x="924" d="M921 0V-152H4V0H921Z" />
<glyph unicode="`" horiz-adv-x="633" d="M281 1536L474 1242H315L57 1536H281Z" />
<glyph unicode="a" horiz-adv-x="1114" d="M779 185V742Q779 806 754 853T677 927T551 953Q481 953 429 929T347 866T317 782H132Q132 840 162 897T248 1000T384 1074T562 1102Q680 1102 770 1062T912 942T964 740V236Q964 182 973 121T1002 16V0H809Q795 32 787
85T779 185ZM811 656L813 526H626Q547 526 485 514T381 476T317 414T295 326Q295 275 318 233T387 167T502 142Q587 142 652 178T755 266T797 367L876 278Q869 236 838 185T756 88T634 11T475 -20Q365 -20 283 23T155 138T109 301Q109 388 143 454T241 565T395
633T596 656H811Z" />
<glyph unicode="b" horiz-adv-x="1150" d="M140 1536H326V210L310 0H140V1536ZM1057 550V529Q1057 411 1029 311T947 136T815 21T636 -20Q533 -20 456 15T325 118T241 280T197 494V586Q209 706 240 801T325 963T455 1066T634 1102Q736 1102 815 1063T947 950T1029
776T1057 550ZM871 529V550Q871 631 856 702T808 828T721 914T588 946Q518 946 467 922T379 858T321 766T287 659V418Q303 348 339 284T437 178T590 137Q665 137 718 167T805 252T855 377T871 529Z" />
<glyph unicode="c" horiz-adv-x="1072" d="M574 132Q640 132 696 159T788 233T829 342H1005Q1000 246 941 164T785 31T574 -20Q452 -20 362 23T212 141T123 313T93 520V562Q93 671 122 768T211 941T361 1059T574 1102Q701 1102 796 1051T945 911T1005 710H829Q824
777 792 831T704 917T574 950Q489 950 432 917T341 827T293 702T278 562V520Q278 449 292 380T339 255T430 166T574 132Z" />
<glyph unicode="d" horiz-adv-x="1155" d="M823 210V1536H1009V0H839L823 210ZM95 529V550Q95 674 125 775T212 950T347 1062T523 1102Q625 1102 701 1067T831 964T916 801T959 586V494Q948 375 917 280T832 118T701 16T521 -20Q426 -20 348 21T213 136T126 310T95
529ZM281 550V529Q281 448 297 377T349 252T438 168T567 137Q659 137 718 176T814 279T870 418V659Q858 714 836 765T778 857T691 922T569 946Q493 946 439 915T349 829T298 703T281 550Z" />
<glyph unicode="e" horiz-adv-x="1086" d="M590 -20Q477 -20 386 18T229 127T128 293T93 503V545Q93 677 132 780T238 956T390 1065T566 1102Q682 1102 766 1062T905 951T985 783T1011 572V489H203V640H826V654Q822 726 797 794T716 906T566 950Q503 950 450 924T359
845T300 718T279 545V503Q279 426 300 359T363 240T464 160T600 131Q698 131 766 171T885 278L997 189Q962 136 908 88T776 10T590 -20Z" />
<glyph unicode="f" horiz-adv-x="712" d="M417 0H232V1196Q232 1313 274 1393T397 1515T587 1557Q619 1557 651 1553T715 1541L705 1390Q684 1395 658 1397T605 1399Q546 1399 504 1376T439 1307T417 1196V0ZM647 1082V940H61V1082H647Z" />
<glyph unicode="g" horiz-adv-x="1150" d="M842 1082H1010V23Q1010 -120 952 -221T791 -374T552 -427Q496 -427 421 -410T273 -351T151 -239L248 -129Q316 -211 390 -243T538 -275Q626 -275 690 -242T789 -145T825 14V844L842 1082ZM97 529V550Q97 674 126 775T211
950T346 1062T524 1102Q626 1102 702 1067T832 964T917 801T960 586V494Q949 375 918 280T833 118T702 16T522 -20Q425 -20 347 21T212 136T127 310T97 529ZM282 550V529Q282 448 298 377T349 252T438 168T567 137Q659 137 719 176T814 279T870 418V659Q859 714
837 765T779 857T691 922T569 946Q493 946 439 915T350 829T299 703T282 550Z" />
<glyph unicode="h" horiz-adv-x="1128" d="M326 1536V0H141V1536H326ZM282 582L205 585Q206 696 238 790T328 955T466 1063T645 1102Q725 1102 789 1081T898 1012T968 891T992 709V0H806V711Q806 796 781 847T708 922T590 946Q521 946 465 917T368 837T305 721T282 582Z" />
<glyph unicode="i" horiz-adv-x="498" d="M342 1082V0H156V1082H342ZM142 1369Q142 1414 169 1445T251 1476Q304 1476 332 1445T361 1369Q361 1326 333 1296T251 1265Q197 1265 170 1295T142 1369Z" />
<glyph unicode="j" horiz-adv-x="490" d="M146 1082H332V-129Q332 -228 301 -297T207 -401T49 -437Q24 -437 -9 -432T-66 -420L-65 -271Q-46 -275 -22 -277T20 -280Q61 -280 89 -265T131 -217T146 -129V1082ZM127 1369Q127 1414 155 1445T236 1476Q290 1476 318
1445T346 1369Q346 1326 318 1296T236 1265Q183 1265 155 1295T127 1369Z" />
<glyph unicode="k" horiz-adv-x="1038" d="M327 1536V0H141V1536H327ZM988 1082L516 577L252 303L237 500L426 726L762 1082H988ZM819 0L433 516L529 681L1037 0H819Z" />
<glyph unicode="l" horiz-adv-x="498" d="M342 1536V0H156V1536H342Z" />
<glyph unicode="m" horiz-adv-x="1796" d="M325 867V0H139V1082H315L325 867ZM287 582L201 585Q202 696 230 790T313 955T450 1063T640 1102Q716 1102 780 1081T891 1013T964 895T990 721V0H805V712Q805 797 777 848T696 922T574 946Q492 946 437 917T349 837T302
721T287 582ZM988 684L864 646Q865 735 893 817T976 963T1111 1064T1294 1102Q1381 1102 1448 1079T1562 1009T1633 887T1657 711V0H1471V713Q1471 804 1443 854T1363 925T1240 946Q1179 946 1132 925T1053 868T1005 784T988 684Z" />
<glyph unicode="n" horiz-adv-x="1131" d="M326 851V0H141V1082H316L326 851ZM282 582L205 585Q206 696 238 790T328 955T466 1063T645 1102Q725 1102 789 1081T898 1012T968 891T992 709V0H806V711Q806 796 781 847T708 922T590 946Q521 946 465 917T368 837T305
721T282 582Z" />
<glyph unicode="o" horiz-adv-x="1168" d="M92 529V552Q92 669 126 769T224 944T379 1060T583 1102Q697 1102 788 1061T944 945T1043 770T1077 552V529Q1077 412 1043 312T945 138T790 22T585 -20Q471 -20 380 21T225 137T126 312T92 529ZM277 552V529Q277 448
296 377T353 250T450 164T585 132Q661 132 718 163T814 250T871 376T891 529V552Q891 632 872 703T814 830T718 918T583 950Q507 950 450 918T354 831T296 704T277 552Z" />
<glyph unicode="p" horiz-adv-x="1150" d="M326 874V-416H140V1082H310L326 874ZM1055 550V529Q1055 411 1027 311T946 136T814 21T635 -20Q532 -20 453 14T319 113T232 269T187 474V586Q199 706 232 801T319 963T452 1066T632 1102Q734 1102 813 1063T946 950T1027
776T1055 550ZM869 529V550Q869 631 852 702T800 828T709 914T578 946Q508 946 457 922T369 858T311 766T277 659V400Q297 330 333 269T429 170T580 132Q655 132 709 163T799 250T852 376T869 529Z" />
<glyph unicode="q" horiz-adv-x="1164" d="M822 -416V874L838 1082H1008V-416H822ZM95 529V550Q95 674 124 775T209 950T344 1062T526 1102Q628 1102 705 1067T837 964T924 801T968 586V494Q957 375 925 280T839 118T706 16T524 -20Q424 -20 345 21T210 136T125
310T95 529ZM281 550V529Q281 448 298 377T350 250T440 164T570 132Q662 132 723 172T822 277T879 418V659Q868 714 845 766T784 859T695 925T572 950Q496 950 441 918T351 831T298 703T281 550Z" />
<glyph unicode="r" horiz-adv-x="694" d="M326 912V0H141V1082H321L326 912ZM664 1088L663 916Q640 921 620 922T573 924Q509 924 460 904T377 848T324 763T298 654L246 624Q246 722 265 808T326 960T430 1064T582 1102Q602 1102 628 1098T664 1088Z" />
<glyph unicode="s" horiz-adv-x="1057" d="M771 287Q771 327 754 361T683 424T522 474Q432 493 360 519T237 582T159 669T132 786Q132 850 160 907T241 1008T368 1077T533 1102Q663 1102 755 1056T896 934T945 764H760Q760 809 734 851T657 922T533 950Q456 950
409 927T340 867T318 791Q318 761 328 738T366 695T442 658T567 624Q700 594 786 552T914 449T956 301Q956 230 927 171T842 70T710 4T538 -20Q395 -20 296 31T146 163T95 334H281Q285 258 325 214T423 151T538 132Q614 132 665 152T744 207T771 287Z" />
<glyph unicode="t" horiz-adv-x="670" d="M594 1082V940H9V1082H594ZM207 1345H392V268Q392 213 409 185T453 148T511 139Q534 139 559 143T598 151L599 0Q577 -7 542 -13T456 -20Q388 -20 331 7T241 97T207 269V1345Z" />
<glyph unicode="u" horiz-adv-x="1129" d="M803 250V1082H989V0H812L803 250ZM838 478L915 480Q915 372 893 281T820 122T689 18T492 -20Q413 -20 348 3T235 74T163 199T137 384V1082H322V382Q322 309 338 262T383 187T447 148T521 137Q639 137 708 182T807 305T838 478Z" />
<glyph unicode="v" horiz-adv-x="992" d="M470 167L766 1082H955L566 0H442L470 167ZM223 1082L528 162L549 0H425L33 1082H223Z" />
<glyph unicode="w" horiz-adv-x="1539" d="M415 192L693 1082H815L791 905L508 0H389L415 192ZM228 1082L465 182L482 0H357L43 1082H228ZM1081 189L1307 1082H1491L1177 0H1053L1081 189ZM842 1082L1114 207L1145 0H1027L736 907L712 1082H842Z" />
<glyph unicode="x" horiz-adv-x="1016" d="M266 1082L503 688L743 1082H960L606 548L971 0H757L507 406L257 0H42L406 548L53 1082H266Z" />
<glyph unicode="y" horiz-adv-x="969" d="M445 112L746 1082H944L510 -167Q495 -207 471 -253T408 -342T317 -410T189 -437Q167 -437 133 -431T85 -421L84 -271Q92 -272 109 -273T134 -275Q197 -275 241 -259T315 -204T368 -98L445 112ZM224 1082L505 242L553
47L420 -21L22 1082H224Z" />
<glyph unicode="z" horiz-adv-x="1016" d="M947 152V0H160V152H947ZM918 951L202 0H89V136L800 1082H918V951ZM836 1082V929H97V1082H836Z" />
<glyph unicode="{" horiz-adv-x="693" d="M632 1597L671 1483Q552 1446 507 1351T462 1132V925Q462 825 422 744T294 614T64 566V688Q177 688 226 752T276 925V1132Q276 1237 308 1328T418 1489T632 1597ZM671 -251L632 -366Q496 -327 419 -258T309 -98T276 99V305Q276
378 254 431T186 513T64 543V665Q206 665 293 617T421 488T462 305V99Q462 17 481 -53T546 -174T671 -251Z" />
<glyph unicode="|" horiz-adv-x="500" d="M325 1456V-270H176V1456H325Z" />
<glyph unicode="}" horiz-adv-x="693" d="M20 1483L59 1597Q196 1559 273 1490T383 1329T415 1132V925Q415 853 437 800T505 717T627 688V575Q486 575 398 620T270 745T229 925V1132Q229 1214 210 1284T146 1406T20 1483ZM59 -366L20 -251Q99 -226 144 -175T209
-53T229 99V305Q229 406 269 485T398 609T627 655V543Q515 543 465 479T415 305V99Q415 -6 383 -97T274 -258T59 -366Z" />
<glyph unicode="~" horiz-adv-x="1393" d="M1111 777L1263 778Q1263 701 1240 633T1173 514T1070 433T939 403Q852 403 786 438T641 541Q590 588 547 614T454 640Q403 640 367 616T312 546T292 438L131 436Q131 514 154 581T221 698T323 775T454 803Q542 803 610
766T752 664Q807 614 848 590T939 565Q991 565 1029 592T1089 667T1111 777Z" />
<glyph unicode="&#xa0;" horiz-adv-x="508" />
<glyph unicode="&#xa1;" horiz-adv-x="500" d="M157 -361L171 684H338L352 -361H157ZM358 996Q358 952 331 921T249 890Q196 890 168 921T139 996Q139 1040 167 1070T249 1101Q303 1101 330 1071T358 996Z" />
<glyph unicode="&#xa2;" horiz-adv-x="1121" d="M670 1318V1030H484V1318H670ZM670 42V-245H484V42H670ZM587 132Q653 132 709 159T801 233T842 342H1018Q1013 246 953 164T798 31T587 -20Q465 -20 374 23T224 141T135 313T105 520V562Q105 671 134 768T224 941T374
1059T587 1102Q714 1102 809 1051T958 911T1018 710H842Q837 777 805 831T717 917T587 950Q502 950 445 917T354 827T306 702T291 562V520Q291 449 305 380T352 255T443 166T587 132Z" />
<glyph unicode="&#xa3;" horiz-adv-x="1191" d="M1128 0H95V157H1128V0ZM763 623H91V780H763V623ZM435 1039L457 402Q458 308 430 227T346 104L172 157Q207 166 227 207T256 303T265 401L243 1039Q243 1177 301 1274T459 1424T687 1476Q818 1476 910 1427T1051
1291T1100 1087H908Q908 1171 875 1222T787 1296T671 1319Q605 1319 552 1287T467 1192T435 1039Z" />
<glyph unicode="&#xa4;" horiz-adv-x="1461" d="M312 608Q312 514 345 431T436 286T570 188T735 152Q823 152 899 187T1034 285T1124 431T1157 608Q1157 703 1125 785T1034 929T900 1027T735 1062Q647 1062 571 1027T436 930T345 785T312 608ZM140 608Q140 741
186 855T314 1054T504 1186T735 1234Q858 1234 966 1187T1156 1054T1284 855T1330 608Q1330 475 1284 361T1156 162T966 28T735 -20Q612 -20 504 28T315 161T187 361T140 608ZM1371 1128L1169 922L1037 1059L1239 1265L1371 1128ZM438 180L236 -26L105 110L307
315L438 180ZM1239 -27L1037 179L1169 315L1371 110L1239 -27ZM307 922L105 1128L236 1264L438 1058L307 922Z" />
<glyph unicode="&#xa5;" horiz-adv-x="1076" d="M955 737V612H120V737H955ZM955 446V322H120V446H955ZM480 666L847 1456H1060L627 604H504L480 666ZM232 1456L601 659L572 604H450L15 1456H232ZM630 774V0H438V774H630Z" />
<glyph unicode="&#xa6;" horiz-adv-x="492" d="M333 -270H148V522H333V-270ZM333 1456V698H148V1456H333Z" />
<glyph unicode="&#xa7;" horiz-adv-x="1256" d="M699 108V226Q782 226 840 252T929 324T960 428Q960 475 943 510T884 575T774 632T603 691Q494 721 409 755T264 837T173 951T142 1111Q142 1194 176 1261T275 1377T429 1451T631 1477Q784 1477 894 1427T1063 1281T1122
1046H937Q937 1123 902 1186T798 1287T631 1325Q526 1325 459 1296T360 1219T327 1113Q327 1063 342 1027T396 963T502 910T676 855Q788 824 875 789T1022 706T1113 591T1145 431Q1145 355 1114 295T1024 194T883 130T699 108ZM525 874V753Q442 753 388 727T308
656T282 553Q282 503 297 467T352 401T460 346T637 290Q748 259 834 224T979 143T1069 30T1100 -129Q1100 -216 1066 -284T967 -399T814 -470T613 -495Q517 -495 424 -473T256 -401T136 -268T91 -64L276 -62Q276 -141 306 -195T385 -282T494 -328T613 -343Q709
-343 776 -315T879 -239T915 -131Q915 -84 898 -50T841 13T733 69T564 126Q455 156 368 191T221 275T129 390T97 551Q97 625 127 684T213 786T348 851T525 874Z" />
<glyph unicode="&#xa8;" horiz-adv-x="857" d="M101 1371Q101 1416 129 1447T210 1478Q264 1478 292 1447T320 1371Q320 1328 292 1298T210 1267Q157 1267 129 1297T101 1371ZM532 1369Q532 1414 559 1445T641 1476Q694 1476 722 1445T751 1369Q751 1326 723 1296T641
1265Q587 1265 560 1295T532 1369Z" />
<glyph unicode="&#xa9;" horiz-adv-x="1609" d="M974 598H1120Q1120 441 1031 363T788 284Q682 284 605 333T485 469T442 671V786Q442 901 484 988T604 1124T788 1173Q941 1173 1031 1095T1121 860H975Q975 959 928 1002T788 1045Q722 1045 677 1012T609 921T586
787V671Q586 595 609 537T677 445T788 412Q880 412 927 455T974 598ZM207 729Q207 596 253 481T381 280T571 146T802 98Q925 98 1032 146T1221 280T1349 481T1395 729Q1395 863 1349 977T1222 1176T1033 1309T802 1357Q679 1357 571 1310T381 1177T253 977T207
729ZM92 729Q92 888 147 1024T300 1261T526 1419T802 1476Q949 1476 1077 1420T1303 1262T1456 1024T1511 729Q1511 570 1456 434T1304 196T1078 36T802 -21Q655 -21 527 36T300 195T147 434T92 729Z" />
<glyph unicode="&#xaa;" horiz-adv-x="916" d="M595 862V1202Q595 1245 582 1275T541 1320T471 1336Q402 1336 363 1310T323 1231L162 1244Q162 1312 200 1364T308 1447T471 1477Q557 1477 621 1446T722 1354T758 1201V887Q758 838 764 794T784 706H619Q595 781
595 862ZM635 1149L636 1038H487Q427 1038 388 1022T329 980T310 922Q310 879 340 854T435 829Q478 829 521 848T594 896T623 949L641 837Q626 805 595 771T514 715T396 692Q276 692 212 753T147 918Q147 992 184 1043T297 1122T486 1149H635Z" />
<glyph unicode="&#xab;" horiz-adv-x="961" d="M794 1202L533 800L357 801V814L652 1202H794ZM533 809L794 406H652L357 795V808L533 809ZM869 946L608 544L432 545V558L727 946H869ZM608 553L869 150H727L432 539V552L608 553Z" />
<glyph unicode="&#xac;" horiz-adv-x="1134" d="M958 801V639H127V801H958ZM958 726V376H773V726H958Z" />
<glyph unicode="&#xad;" horiz-adv-x="566" d="M526 695V543H38V695H526Z" />
<glyph unicode="&#xae;" horiz-adv-x="1610" d="M827 655H609L607 783H810Q852 784 888 798T947 838T970 904Q970 954 953 983T897 1025T789 1038H653V317H512V1165H789Q888 1165 960 1137T1071 1053T1110 910Q1110 856 1085 813T1012 739T895 689Q892 689 889
683T882 676Q865 666 861 662T852 656T827 655ZM817 655L837 745Q992 745 1048 680T1105 514V460Q1105 423 1109 390T1122 333V317H977Q967 343 966 391T964 461V513Q964 586 931 620T817 655ZM206 729Q206 596 252 481T380 280T570 146T801 98Q924 98 1031 146T1220
280T1348 481T1394 729Q1394 863 1348 977T1221 1176T1032 1309T801 1357Q678 1357 570 1310T380 1177T252 977T206 729ZM91 729Q91 888 146 1024T299 1261T525 1419T801 1476Q948 1476 1076 1420T1302 1262T1455 1024T1510 729Q1510 570 1455 434T1303 196T1077
36T801 -21Q654 -21 526 36T299 195T146 434T91 729Z" />
<glyph unicode="&#xaf;" horiz-adv-x="939" d="M814 1445V1303H143V1445H814Z" />
<glyph unicode="&#xb0;" horiz-adv-x="765" d="M131 1217Q131 1288 166 1347T259 1441T386 1477Q455 1477 512 1442T603 1347T637 1217Q637 1146 603 1088T512 995T386 960Q317 960 259 994T166 1087T131 1217ZM255 1217Q255 1162 293 1125T386 1088Q440 1088
476 1125T513 1217Q513 1273 477 1311T386 1349Q332 1349 294 1311T255 1217Z" />
<glyph unicode="&#xb1;" horiz-adv-x="1095" d="M1013 855V703H97V855H1013ZM650 1267V289H483V1267H650ZM971 152V1H136V152H971Z" />
<glyph unicode="&#xb2;" horiz-adv-x="751" d="M683 795V667H85V775L373 1046Q418 1088 444 1121T481 1180T493 1229Q493 1277 461 1308T370 1339Q295 1339 260 1301T224 1206H66Q66 1278 102 1337T205 1431T366 1467Q456 1467 520 1438T618 1357T652 1231Q652
1178 629 1132T562 1040T460 941L285 795H683Z" />
<glyph unicode="&#xb3;" horiz-adv-x="751" d="M266 1126H350Q399 1126 431 1140T479 1178T496 1235Q496 1279 464 1309T363 1339Q306 1339 269 1314T231 1246H74Q74 1314 112 1363T215 1440T360 1467Q447 1467 513 1442T616 1366T653 1243Q653 1190 621 1146T527
1075T377 1048H266V1126ZM266 1011V1089H377Q477 1089 541 1065T636 996T667 887Q667 814 627 762T518 683T361 656Q286 656 218 680T106 757T63 890H220Q220 845 260 815T366 784Q436 784 472 815T509 895Q509 937 490 962T435 999T350 1011H266Z" />
<glyph unicode="&#xb4;" horiz-adv-x="642" d="M123 1242L317 1536H540L272 1242H123Z" />
<glyph unicode="&#xb5;" horiz-adv-x="1161" d="M821 1082H1006V0H839L821 250V1082ZM854 503L923 505Q923 391 903 295T839 128T729 18T568 -21Q492 -21 433 -2T331 60T260 171L223 460H339Q339 357 356 292T403 192T474 144T560 131Q649 131 706 158T796 236T841
354T854 503ZM155 1082H339V-416H155V1082Z" />
<glyph unicode="&#xb6;" horiz-adv-x="1002" d="M833 0H647V520H560Q401 520 291 580T125 747T68 988Q68 1122 124 1228T291 1395T560 1456H833V0Z" />
<glyph unicode="&#xb7;" horiz-adv-x="535" d="M148 729Q148 776 177 808T262 841Q318 841 347 809T377 729Q377 683 348 652T262 620Q206 620 177 651T148 729Z" />
<glyph unicode="&#xb8;" horiz-adv-x="508" d="M152 0H285L273 -53Q331 -63 378 -101T426 -226Q426 -273 407 -311T349 -377T255 -420T123 -435L116 -328Q162 -328 199 -318T259 -286T282 -229Q282 -196 265 -177T213 -149T121 -135L152 0Z" />
<glyph unicode="&#xb9;" horiz-adv-x="751" d="M495 1456V667H339V1268L123 1211V1340L477 1456H495Z" />
<glyph unicode="&#xba;" horiz-adv-x="932" d="M123 1043V1124Q123 1227 165 1306T283 1431T465 1477Q571 1477 647 1432T765 1307T807 1124V1043Q807 940 766 861T648 736T467 691Q361 691 284 736T165 860T123 1043ZM286 1124V1043Q286 982 305 934T365 858T467
830Q527 830 566 858T625 934T645 1043V1124Q645 1184 625 1232T566 1308T465 1336Q405 1336 365 1308T306 1232T286 1124Z" />
<glyph unicode="&#xbb;" horiz-adv-x="960" d="M103 153L364 555L540 554V541L245 153H103ZM103 949H245L540 560V547L364 546L103 949ZM452 153L713 555L889 554V541L594 153H452ZM452 949H594L889 560V547L713 546L452 949Z" />
<glyph unicode="&#xbc;" horiz-adv-x="1500" d="M457 1453V664H301V1265L85 1208V1337L439 1453H457ZM1155 1257L444 119L340 185L1051 1323L1155 1257ZM1426 300V170H787L780 272L1158 789H1282L1145 560L938 300H1426ZM1318 789V0H1161V789H1318Z" />
<glyph unicode="&#xbd;" horiz-adv-x="1589" d="M1111 1257L400 119L296 185L1007 1323L1111 1257ZM452 1453V664H296V1265L80 1208V1337L434 1453H452ZM1481 128V0H883V108L1171 379Q1216 421 1242 454T1279 513T1291 562Q1291 610 1259 641T1168 672Q1093 672
1058 634T1022 539H864Q864 611 900 670T1003 764T1164 800Q1254 800 1318 771T1416 690T1450 564Q1450 511 1427 465T1360 373T1258 274L1083 128H1481Z" />
<glyph unicode="&#xbe;" horiz-adv-x="1593" d="M1282 1257L571 119L467 185L1178 1323L1282 1257ZM1518 300V170H879L872 272L1250 789H1374L1237 560L1030 300H1518ZM1410 789V0H1253V789H1410ZM315 1126H399Q448 1126 480 1140T528 1178T545 1235Q545 1279
513 1309T412 1339Q355 1339 318 1314T280 1246H123Q123 1314 161 1363T264 1440T409 1467Q496 1467 562 1442T665 1366T702 1243Q702 1190 670 1146T576 1075T426 1048H315V1126ZM315 1011V1089H426Q526 1089 590 1065T685 996T716 887Q716 814 676 762T567 683T410
656Q335 656 267 680T155 757T112 890H269Q269 845 309 815T415 784Q485 784 521 815T558 895Q558 937 539 962T484 999T399 1011H315Z" />
<glyph unicode="&#xbf;" horiz-adv-x="970" d="M403 680H589Q588 584 572 525T519 415T420 298Q378 253 340 211T278 119T254 0Q254 -73 280 -123T356 -198T478 -224Q537 -224 588 -202T671 -135T704 -20H889Q888 -133 834 -215T687 -342T478 -386Q348 -386 257
-341T117 -211T68 -6Q68 85 104 162T197 306T313 431Q349 466 368 504T395 587T403 680ZM597 997Q597 953 569 922T488 891Q434 891 406 922T378 997Q378 1041 406 1071T488 1102Q541 1102 569 1072T597 997Z" />
<glyph unicode="&#xc0;" horiz-adv-x="1336" d="M708 1327L226 0H29L584 1456H711L708 1327ZM1112 0L629 1327L626 1456H753L1310 0H1112ZM1087 539V381H269V539H1087ZM584 1847L777 1553H618L360 1847H584Z" />
<glyph unicode="&#xc1;" horiz-adv-x="1336" d="M708 1327L226 0H29L584 1456H711L708 1327ZM1112 0L629 1327L626 1456H753L1310 0H1112ZM1087 539V381H269V539H1087ZM570 1553L764 1847H987L719 1553H570Z" />
<glyph unicode="&#xc2;" horiz-adv-x="1336" d="M708 1327L226 0H29L584 1456H711L708 1327ZM1112 0L629 1327L626 1456H753L1310 0H1112ZM1087 539V381H269V539H1087ZM728 1847L976 1574V1564H822L672 1733L523 1564H371V1575L616 1847H728Z" />
<glyph unicode="&#xc3;" horiz-adv-x="1336" d="M708 1327L226 0H29L584 1456H711L708 1327ZM1112 0L629 1327L626 1456H753L1310 0H1112ZM1087 539V381H269V539H1087ZM902 1827L1027 1816Q1027 1743 998 1688T921 1603T811 1573Q760 1573 727 1587T668 1620T614
1653T543 1668Q501 1668 473 1636T444 1557L319 1563Q319 1636 347 1691T425 1778T534 1810Q577 1810 609 1796T671 1763T731 1730T802 1715Q844 1715 873 1747T902 1827Z" />
<glyph unicode="&#xc4;" horiz-adv-x="1336" d="M708 1327L226 0H29L584 1456H711L708 1327ZM1112 0L629 1327L626 1456H753L1310 0H1112ZM1087 539V381H269V539H1087ZM350 1682Q350 1727 378 1758T459 1789Q513 1789 541 1758T569 1682Q569 1639 541 1609T459
1578Q406 1578 378 1608T350 1682ZM781 1680Q781 1725 808 1756T890 1787Q943 1787 971 1756T1000 1680Q1000 1637 972 1607T890 1576Q836 1576 809 1606T781 1680Z" />
<glyph unicode="&#xc5;" horiz-adv-x="1336" d="M708 1327L226 0H29L584 1456H711L708 1327ZM1112 0L629 1327L626 1456H753L1310 0H1112ZM1087 539V381H269V539H1087ZM457 1731Q457 1789 485 1836T562 1911T672 1939Q763 1939 825 1878T887 1731Q887 1673 859
1627T782 1554T672 1527Q581 1527 519 1585T457 1731ZM556 1731Q556 1687 588 1652T672 1616Q723 1616 755 1650T788 1731Q788 1778 756 1813T672 1849Q621 1849 589 1814T556 1731Z" />
<glyph unicode="&#xc6;" horiz-adv-x="1914" d="M970 1307L212 0H-15L866 1456H985L970 1307ZM1115 528V353H372V528H1115ZM1880 152V0H1147V152H1880ZM1121 1456L1182 0H996L935 1456H1121ZM1737 834V682H1107V834H1737ZM1818 1456V1304H1086V1456H1818Z" />
<glyph unicode="&#xc7;" horiz-adv-x="1333" d="M1048 463H1240Q1225 325 1161 216T980 44T688 -20Q560 -20 456 28T276 164T161 377T120 655V800Q120 953 160 1077T277 1291T462 1428T705 1476Q870 1476 984 1414T1161 1243T1240 989H1048Q1034 1091 996 1164T888
1278T705 1318Q608 1318 535 1281T412 1176T337 1013T312 802V655Q312 548 334 454T403 289T520 178T688 137Q811 137 884 176T994 288T1048 463ZM619 -10H752L740 -63Q798 -73 845 -111T893 -236Q893 -283 874 -321T816 -387T722 -430T590 -445L583 -338Q629 -338
666 -328T726 -296T749 -239Q749 -206 732 -187T680 -159T588 -145L619 -10Z" />
<glyph unicode="&#xc8;" horiz-adv-x="1164" d="M1094 157V0H323V157H1094ZM362 1456V0H169V1456H362ZM992 830V673H323V830H992ZM1084 1456V1298H323V1456H1084ZM531 1858L724 1564H565L307 1858H531Z" />
<glyph unicode="&#xc9;" horiz-adv-x="1164" d="M1094 157V0H323V157H1094ZM362 1456V0H169V1456H362ZM992 830V673H323V830H992ZM1084 1456V1298H323V1456H1084ZM517 1564L711 1858H934L666 1564H517Z" />
<glyph unicode="&#xca;" horiz-adv-x="1164" d="M1094 157V0H323V157H1094ZM362 1456V0H169V1456H362ZM992 830V673H323V830H992ZM1084 1456V1298H323V1456H1084ZM675 1858L923 1585V1575H769L619 1744L470 1575H318V1586L563 1858H675Z" />
<glyph unicode="&#xcb;" horiz-adv-x="1164" d="M1094 157V0H323V157H1094ZM362 1456V0H169V1456H362ZM992 830V673H323V830H992ZM1084 1456V1298H323V1456H1084ZM297 1693Q297 1738 325 1769T406 1800Q460 1800 488 1769T516 1693Q516 1650 488 1620T406 1589Q353
1589 325 1619T297 1693ZM728 1691Q728 1736 755 1767T837 1798Q890 1798 918 1767T947 1691Q947 1648 919 1618T837 1587Q783 1587 756 1617T728 1691Z" />
<glyph unicode="&#xcc;" horiz-adv-x="557" d="M376 1456V0H183V1456H376ZM191 1858L384 1564H225L-33 1858H191Z" />
<glyph unicode="&#xcd;" horiz-adv-x="557" d="M376 1456V0H183V1456H376ZM177 1564L371 1858H594L326 1564H177Z" />
<glyph unicode="&#xce;" horiz-adv-x="557" d="M376 1456V0H183V1456H376ZM335 1858L583 1585V1575H429L279 1744L130 1575H-22V1586L223 1858H335Z" />
<glyph unicode="&#xcf;" horiz-adv-x="557" d="M376 1456V0H183V1456H376ZM-43 1693Q-43 1738 -15 1769T66 1800Q120 1800 148 1769T176 1693Q176 1650 148 1620T66 1589Q13 1589 -15 1619T-43 1693ZM388 1691Q388 1736 415 1767T497 1798Q550 1798 578 1767T607
1691Q607 1648 579 1618T497 1587Q443 1587 416 1617T388 1691Z" />
<glyph unicode="&#xd0;" horiz-adv-x="1374" d="M593 0H289L291 157H593Q749 157 853 222T1009 406T1062 684V773Q1062 898 1032 995T944 1160T803 1263T611 1298H283V1456H611Q754 1456 872 1409T1075 1272T1207 1056T1253 771V684Q1253 526 1207 400T1075 184T867
48T593 0ZM392 1456V0H199V1456H392ZM674 817V665H37V817H674Z" />
<glyph unicode="&#xd1;" horiz-adv-x="1461" d="M1289 1456V0H1095L362 1123V0H169V1456H362L1098 330V1456H1289ZM956 1827L1081 1816Q1081 1743 1052 1688T975 1603T865 1573Q814 1573 781 1587T722 1620T668 1653T597 1668Q555 1668 527 1636T498 1557L373
1563Q373 1636 401 1691T479 1778T588 1810Q631 1810 663 1796T725 1763T785 1730T856 1715Q898 1715 927 1747T956 1827Z" />
<glyph unicode="&#xd2;" horiz-adv-x="1409" d="M1290 774V682Q1290 518 1249 388T1131 167T947 28T706 -20Q577 -20 470 28T284 167T162 388T119 682V774Q119 938 161 1067T282 1288T467 1428T704 1476Q837 1476 944 1428T1129 1289T1248 1068T1290 774ZM1099
682V776Q1099 906 1073 1006T995 1174T871 1277T704 1312Q614 1312 542 1277T418 1174T338 1006T310 776V682Q310 551 338 451T418 282T543 178T706 143Q800 143 873 178T996 281T1073 450T1099 682ZM619 1849L812 1555H653L395 1849H619Z" />
<glyph unicode="&#xd3;" horiz-adv-x="1409" d="M1290 774V682Q1290 518 1249 388T1131 167T947 28T706 -20Q577 -20 470 28T284 167T162 388T119 682V774Q119 938 161 1067T282 1288T467 1428T704 1476Q837 1476 944 1428T1129 1289T1248 1068T1290 774ZM1099
682V776Q1099 906 1073 1006T995 1174T871 1277T704 1312Q614 1312 542 1277T418 1174T338 1006T310 776V682Q310 551 338 451T418 282T543 178T706 143Q800 143 873 178T996 281T1073 450T1099 682ZM605 1555L799 1849H1022L754 1555H605Z" />
<glyph unicode="&#xd4;" horiz-adv-x="1409" d="M1290 774V682Q1290 518 1249 388T1131 167T947 28T706 -20Q577 -20 470 28T284 167T162 388T119 682V774Q119 938 161 1067T282 1288T467 1428T704 1476Q837 1476 944 1428T1129 1289T1248 1068T1290 774ZM1099
682V776Q1099 906 1073 1006T995 1174T871 1277T704 1312Q614 1312 542 1277T418 1174T338 1006T310 776V682Q310 551 338 451T418 282T543 178T706 143Q800 143 873 178T996 281T1073 450T1099 682ZM763 1849L1011 1576V1566H857L707 1735L558 1566H406V1577L651
1849H763Z" />
<glyph unicode="&#xd5;" horiz-adv-x="1409" d="M1290 774V682Q1290 518 1249 388T1131 167T947 28T706 -20Q577 -20 470 28T284 167T162 388T119 682V774Q119 938 161 1067T282 1288T467 1428T704 1476Q837 1476 944 1428T1129 1289T1248 1068T1290 774ZM1099
682V776Q1099 906 1073 1006T995 1174T871 1277T704 1312Q614 1312 542 1277T418 1174T338 1006T310 776V682Q310 551 338 451T418 282T543 178T706 143Q800 143 873 178T996 281T1073 450T1099 682ZM937 1829L1062 1818Q1062 1745 1033 1690T956 1605T846 1575Q795
1575 762 1589T703 1622T649 1655T578 1670Q536 1670 508 1638T479 1559L354 1565Q354 1638 382 1693T460 1780T569 1812Q612 1812 644 1798T706 1765T766 1732T837 1717Q879 1717 908 1749T937 1829Z" />
<glyph unicode="&#xd6;" horiz-adv-x="1409" d="M1290 774V682Q1290 518 1249 388T1131 167T947 28T706 -20Q577 -20 470 28T284 167T162 388T119 682V774Q119 938 161 1067T282 1288T467 1428T704 1476Q837 1476 944 1428T1129 1289T1248 1068T1290 774ZM1099
682V776Q1099 906 1073 1006T995 1174T871 1277T704 1312Q614 1312 542 1277T418 1174T338 1006T310 776V682Q310 551 338 451T418 282T543 178T706 143Q800 143 873 178T996 281T1073 450T1099 682ZM385 1684Q385 1729 413 1760T494 1791Q548 1791 576 1760T604
1684Q604 1641 576 1611T494 1580Q441 1580 413 1610T385 1684ZM816 1682Q816 1727 843 1758T925 1789Q978 1789 1006 1758T1035 1682Q1035 1639 1007 1609T925 1578Q871 1578 844 1608T816 1682Z" />
<glyph unicode="&#xd7;" horiz-adv-x="1093" d="M208 206L89 329L868 1124L987 1000L208 206ZM871 206L92 1000L211 1124L990 329L871 206Z" />
<glyph unicode="&#xd8;" horiz-adv-x="1409" d="M1309 1516L307 -93H164L1169 1516H1309ZM1290 774V682Q1290 518 1249 388T1131 167T947 28T706 -20Q603 -20 513 11T351 101T226 246T147 441T119 682V774Q119 938 161 1067T282 1288T467 1428T704 1476Q810 1476
900 1445T1063 1355T1185 1210T1263 1015T1290 774ZM1099 682V776Q1099 880 1082 964T1032 1114T951 1223T841 1289T704 1312Q614 1312 542 1277T418 1174T338 1006T310 776V682Q310 577 328 492T380 342T463 232T573 166T706 143Q800 143 873 178T996 281T1073
450T1099 682Z" />
<glyph unicode="&#xd9;" horiz-adv-x="1328" d="M1002 1456H1194V471Q1194 307 1121 198T928 35T666 -20Q518 -20 399 34T210 198T140 471V1456H331V471Q331 357 373 283T490 173T666 137Q767 137 842 173T960 283T1002 471V1456ZM579 1847L772 1553H613L355 1847H579Z" />
<glyph unicode="&#xda;" horiz-adv-x="1328" d="M1002 1456H1194V471Q1194 307 1121 198T928 35T666 -20Q518 -20 399 34T210 198T140 471V1456H331V471Q331 357 373 283T490 173T666 137Q767 137 842 173T960 283T1002 471V1456ZM565 1553L759 1847H982L714 1553H565Z" />
<glyph unicode="&#xdb;" horiz-adv-x="1328" d="M1002 1456H1194V471Q1194 307 1121 198T928 35T666 -20Q518 -20 399 34T210 198T140 471V1456H331V471Q331 357 373 283T490 173T666 137Q767 137 842 173T960 283T1002 471V1456ZM723 1847L971 1574V1564H817L667
1733L518 1564H366V1575L611 1847H723Z" />
<glyph unicode="&#xdc;" horiz-adv-x="1328" d="M1002 1456H1194V471Q1194 307 1121 198T928 35T666 -20Q518 -20 399 34T210 198T140 471V1456H331V471Q331 357 373 283T490 173T666 137Q767 137 842 173T960 283T1002 471V1456ZM345 1682Q345 1727 373 1758T454
1789Q508 1789 536 1758T564 1682Q564 1639 536 1609T454 1578Q401 1578 373 1608T345 1682ZM776 1680Q776 1725 803 1756T885 1787Q938 1787 966 1756T995 1680Q995 1637 967 1607T885 1576Q831 1576 804 1606T776 1680Z" />
<glyph unicode="&#xdd;" horiz-adv-x="1230" d="M236 1456L614 725L993 1456H1212L710 544V0H517V544L15 1456H236ZM516 1552L710 1846H933L665 1552H516Z" />
<glyph unicode="&#xde;" horiz-adv-x="1210" d="M167 1456H352V0H167V1456ZM260 1163H630Q788 1163 896 1108T1061 957T1117 738Q1117 616 1061 520T897 369T630 314H311V465H630Q738 465 804 504T901 606T932 736Q932 806 902 869T805 972T630 1012H350L260 1163Z" />
<glyph unicode="&#xdf;" horiz-adv-x="1218" d="M324 1112V0H140V1112Q140 1222 168 1304T249 1442T373 1526T533 1554Q642 1554 726 1518T860 1408T909 1217Q909 1137 890 1084T845 990T801 910T781 820Q781 765 816 722T903 638T1007 553T1095 451T1130 317Q1130
203 1081 128T944 17T745 -20Q691 -20 631 -10T522 17T446 52L488 207Q523 185 589 158T726 131Q804 131 852 155T923 219T945 308Q945 365 910 408T823 492T719 578T631 682T596 822Q596 882 617 928T665 1014T713 1099T734 1201Q734 1268 709 1312T641 1380T543
1403Q474 1403 425 1372T350 1277T324 1112Z" />
<glyph unicode="&#xe0;" horiz-adv-x="1114" d="M779 185V742Q779 806 754 853T677 927T551 953Q481 953 429 929T347 866T317 782H132Q132 840 162 897T248 1000T384 1074T562 1102Q680 1102 770 1062T912 942T964 740V236Q964 182 973 121T1002 16V0H809Q795
32 787 85T779 185ZM811 656L813 526H626Q547 526 485 514T381 476T317 414T295 326Q295 275 318 233T387 167T502 142Q587 142 652 178T755 266T797 367L876 278Q869 236 838 185T756 88T634 11T475 -20Q365 -20 283 23T155 138T109 301Q109 388 143 454T241 565T395
633T596 656H811ZM494 1536L687 1242H528L270 1536H494Z" />
<glyph unicode="&#xe1;" horiz-adv-x="1114" d="M779 185V742Q779 806 754 853T677 927T551 953Q481 953 429 929T347 866T317 782H132Q132 840 162 897T248 1000T384 1074T562 1102Q680 1102 770 1062T912 942T964 740V236Q964 182 973 121T1002 16V0H809Q795
32 787 85T779 185ZM811 656L813 526H626Q547 526 485 514T381 476T317 414T295 326Q295 275 318 233T387 167T502 142Q587 142 652 178T755 266T797 367L876 278Q869 236 838 185T756 88T634 11T475 -20Q365 -20 283 23T155 138T109 301Q109 388 143 454T241 565T395
633T596 656H811ZM480 1242L674 1536H897L629 1242H480Z" />
<glyph unicode="&#xe2;" horiz-adv-x="1114" d="M779 185V742Q779 806 754 853T677 927T551 953Q481 953 429 929T347 866T317 782H132Q132 840 162 897T248 1000T384 1074T562 1102Q680 1102 770 1062T912 942T964 740V236Q964 182 973 121T1002 16V0H809Q795
32 787 85T779 185ZM811 656L813 526H626Q547 526 485 514T381 476T317 414T295 326Q295 275 318 233T387 167T502 142Q587 142 652 178T755 266T797 367L876 278Q869 236 838 185T756 88T634 11T475 -20Q365 -20 283 23T155 138T109 301Q109 388 143 454T241 565T395
633T596 656H811ZM638 1536L886 1263V1253H732L582 1422L433 1253H281V1264L526 1536H638Z" />
<glyph unicode="&#xe3;" horiz-adv-x="1114" d="M779 185V742Q779 806 754 853T677 927T551 953Q481 953 429 929T347 866T317 782H132Q132 840 162 897T248 1000T384 1074T562 1102Q680 1102 770 1062T912 942T964 740V236Q964 182 973 121T1002 16V0H809Q795
32 787 85T779 185ZM811 656L813 526H626Q547 526 485 514T381 476T317 414T295 326Q295 275 318 233T387 167T502 142Q587 142 652 178T755 266T797 367L876 278Q869 236 838 185T756 88T634 11T475 -20Q365 -20 283 23T155 138T109 301Q109 388 143 454T241 565T395
633T596 656H811ZM812 1516L937 1505Q937 1432 908 1377T831 1292T721 1262Q670 1262 637 1276T578 1309T524 1342T453 1357Q411 1357 383 1325T354 1246L229 1252Q229 1325 257 1380T335 1467T444 1499Q487 1499 519 1485T581 1452T641 1419T712 1404Q754 1404
783 1436T812 1516Z" />
<glyph unicode="&#xe4;" horiz-adv-x="1114" d="M779 185V742Q779 806 754 853T677 927T551 953Q481 953 429 929T347 866T317 782H132Q132 840 162 897T248 1000T384 1074T562 1102Q680 1102 770 1062T912 942T964 740V236Q964 182 973 121T1002 16V0H809Q795
32 787 85T779 185ZM811 656L813 526H626Q547 526 485 514T381 476T317 414T295 326Q295 275 318 233T387 167T502 142Q587 142 652 178T755 266T797 367L876 278Q869 236 838 185T756 88T634 11T475 -20Q365 -20 283 23T155 138T109 301Q109 388 143 454T241 565T395
633T596 656H811ZM260 1371Q260 1416 288 1447T369 1478Q423 1478 451 1447T479 1371Q479 1328 451 1298T369 1267Q316 1267 288 1297T260 1371ZM691 1369Q691 1414 718 1445T800 1476Q853 1476 881 1445T910 1369Q910 1326 882 1296T800 1265Q746 1265 719 1295T691
1369Z" />
<glyph unicode="&#xe5;" horiz-adv-x="1114" d="M779 185V742Q779 806 754 853T677 927T551 953Q481 953 429 929T347 866T317 782H132Q132 840 162 897T248 1000T384 1074T562 1102Q680 1102 770 1062T912 942T964 740V236Q964 182 973 121T1002 16V0H809Q795
32 787 85T779 185ZM811 656L813 526H626Q547 526 485 514T381 476T317 414T295 326Q295 275 318 233T387 167T502 142Q587 142 652 178T755 266T797 367L876 278Q869 236 838 185T756 88T634 11T475 -20Q365 -20 283 23T155 138T109 301Q109 388 143 454T241 565T395
633T596 656H811ZM367 1420Q367 1478 395 1525T472 1600T582 1628Q673 1628 735 1567T797 1420Q797 1362 769 1316T692 1243T582 1216Q491 1216 429 1274T367 1420ZM466 1420Q466 1376 498 1341T582 1305Q633 1305 665 1339T698 1420Q698 1467 666 1502T582 1538Q531
1538 499 1503T466 1420Z" />
<glyph unicode="&#xe6;" horiz-adv-x="1730" d="M749 183V720Q749 792 725 843T652 922T535 950Q461 950 406 924T321 855T291 760L107 778Q107 848 138 907T225 1010T360 1078T535 1102Q653 1102 741 1059T879 931T929 718V218L749 183ZM790 636V496H529Q442
496 383 469T294 397T264 300Q264 252 286 214T354 153T470 130Q524 130 580 150T684 203T761 272T792 339L888 195Q861 146 803 96T653 13T434 -21Q320 -21 241 19T120 132T79 304Q79 383 107 444T192 548T333 613T527 636H790ZM1263 -21Q1140 -21 1046 19T888
131T791 303T758 520V564Q758 683 792 781T889 952T1036 1063T1219 1102Q1327 1102 1409 1069T1548 972T1632 818T1661 616V498H857V640H1475V671Q1475 747 1450 810T1369 911T1219 950Q1150 950 1097 920T1008 837T952 714T933 564V520Q933 439 952 369T1011 245T1113
161T1263 131Q1382 131 1455 167T1578 238L1643 102Q1621 85 1573 56T1447 3T1263 -21Z" />
<glyph unicode="&#xe7;" horiz-adv-x="1072" d="M574 132Q640 132 696 159T788 233T829 342H1005Q1000 246 941 164T785 31T574 -20Q452 -20 362 23T212 141T123 313T93 520V562Q93 671 122 768T211 941T361 1059T574 1102Q701 1102 796 1051T945 911T1005 710H829Q824
777 792 831T704 917T574 950Q489 950 432 917T341 827T293 702T278 562V520Q278 449 292 380T339 255T430 166T574 132ZM472 -10H605L593 -63Q651 -73 698 -111T746 -236Q746 -283 727 -321T669 -387T575 -430T443 -445L436 -338Q482 -338 519 -328T579 -296T602
-239Q602 -206 585 -187T533 -159T441 -145L472 -10Z" />
<glyph unicode="&#xe8;" horiz-adv-x="1086" d="M590 -20Q477 -20 386 18T229 127T128 293T93 503V545Q93 677 132 780T238 956T390 1065T566 1102Q682 1102 766 1062T905 951T985 783T1011 572V489H203V640H826V654Q822 726 797 794T716 906T566 950Q503 950
450 924T359 845T300 718T279 545V503Q279 426 300 359T363 240T464 160T600 131Q698 131 766 171T885 278L997 189Q962 136 908 88T776 10T590 -20ZM477 1536L670 1242H511L253 1536H477Z" />
<glyph unicode="&#xe9;" horiz-adv-x="1086" d="M590 -20Q477 -20 386 18T229 127T128 293T93 503V545Q93 677 132 780T238 956T390 1065T566 1102Q682 1102 766 1062T905 951T985 783T1011 572V489H203V640H826V654Q822 726 797 794T716 906T566 950Q503 950
450 924T359 845T300 718T279 545V503Q279 426 300 359T363 240T464 160T600 131Q698 131 766 171T885 278L997 189Q962 136 908 88T776 10T590 -20ZM463 1242L657 1536H880L612 1242H463Z" />
<glyph unicode="&#xea;" horiz-adv-x="1086" d="M590 -20Q477 -20 386 18T229 127T128 293T93 503V545Q93 677 132 780T238 956T390 1065T566 1102Q682 1102 766 1062T905 951T985 783T1011 572V489H203V640H826V654Q822 726 797 794T716 906T566 950Q503 950
450 924T359 845T300 718T279 545V503Q279 426 300 359T363 240T464 160T600 131Q698 131 766 171T885 278L997 189Q962 136 908 88T776 10T590 -20ZM621 1536L869 1263V1253H715L565 1422L416 1253H264V1264L509 1536H621Z" />
<glyph unicode="&#xeb;" horiz-adv-x="1086" d="M590 -20Q477 -20 386 18T229 127T128 293T93 503V545Q93 677 132 780T238 956T390 1065T566 1102Q682 1102 766 1062T905 951T985 783T1011 572V489H203V640H826V654Q822 726 797 794T716 906T566 950Q503 950
450 924T359 845T300 718T279 545V503Q279 426 300 359T363 240T464 160T600 131Q698 131 766 171T885 278L997 189Q962 136 908 88T776 10T590 -20ZM243 1371Q243 1416 271 1447T352 1478Q406 1478 434 1447T462 1371Q462 1328 434 1298T352 1267Q299 1267 271
1297T243 1371ZM674 1369Q674 1414 701 1445T783 1476Q836 1476 864 1445T893 1369Q893 1326 865 1296T783 1265Q729 1265 702 1295T674 1369Z" />
<glyph unicode="&#xec;" horiz-adv-x="507" d="M341 1082V0H156V1082H341ZM420 1790L613 1496H454L196 1790H420Z" />
<glyph unicode="&#xed;" horiz-adv-x="507" d="M341 1082V0H156V1082H341ZM150 1496L344 1790H567L299 1496H150Z" />
<glyph unicode="&#xee;" horiz-adv-x="507" d="M341 1082V0H156V1082H341ZM308 1534L556 1261V1251H402L252 1420L103 1251H-49V1262L196 1534H308Z" />
<glyph unicode="&#xef;" horiz-adv-x="507" d="M341 1082V0H156V1082H341ZM-70 1369Q-70 1414 -42 1445T39 1476Q93 1476 121 1445T149 1369Q149 1326 121 1296T39 1265Q-14 1265 -42 1295T-70 1369ZM361 1367Q361 1412 388 1443T470 1474Q523 1474 551 1443T580
1367Q580 1324 552 1294T470 1263Q416 1263 389 1293T361 1367Z" />
<glyph unicode="&#xf0;" horiz-adv-x="1201" d="M255 1421L312 1581Q481 1543 620 1461T860 1258T1015 979T1070 633V535Q1070 412 1036 310T938 134T790 20T602 -20Q497 -20 410 17T259 122T161 277T126 468Q126 584 159 677T253 838T395 942T574 978Q687 978
777 925T921 788T974 613L905 614Q905 647 887 684T834 753T744 806T618 826Q545 826 488 801T392 730T333 617T312 468Q312 406 331 347T388 239T480 161T606 132Q671 132 722 162T809 247T865 375T884 535V635Q884 811 835 943T698 1170T497 1326T255 1421ZM988
1417L451 1051L378 1151L915 1516L988 1417Z" />
<glyph unicode="&#xf1;" horiz-adv-x="1131" d="M326 851V0H141V1082H316L326 851ZM282 582L205 585Q206 696 238 790T328 955T466 1063T645 1102Q725 1102 789 1081T898 1012T968 891T992 709V0H806V711Q806 796 781 847T708 922T590 946Q521 946 465 917T368
837T305 721T282 582ZM803 1516L928 1505Q928 1432 899 1377T822 1292T712 1262Q661 1262 628 1276T569 1309T515 1342T444 1357Q402 1357 374 1325T345 1246L220 1252Q220 1325 248 1380T326 1467T435 1499Q478 1499 510 1485T572 1452T632 1419T703 1404Q745
1404 774 1436T803 1516Z" />
<glyph unicode="&#xf2;" horiz-adv-x="1168" d="M92 529V552Q92 669 126 769T224 944T379 1060T583 1102Q697 1102 788 1061T944 945T1043 770T1077 552V529Q1077 412 1043 312T945 138T790 22T585 -20Q471 -20 380 21T225 137T126 312T92 529ZM277 552V529Q277
448 296 377T353 250T450 164T585 132Q661 132 718 163T814 250T871 376T891 529V552Q891 632 872 703T814 830T718 918T583 950Q507 950 450 918T354 831T296 704T277 552ZM487 1536L680 1242H521L263 1536H487Z" />
<glyph unicode="&#xf3;" horiz-adv-x="1168" d="M92 529V552Q92 669 126 769T224 944T379 1060T583 1102Q697 1102 788 1061T944 945T1043 770T1077 552V529Q1077 412 1043 312T945 138T790 22T585 -20Q471 -20 380 21T225 137T126 312T92 529ZM277 552V529Q277
448 296 377T353 250T450 164T585 132Q661 132 718 163T814 250T871 376T891 529V552Q891 632 872 703T814 830T718 918T583 950Q507 950 450 918T354 831T296 704T277 552ZM473 1242L667 1536H890L622 1242H473Z" />
<glyph unicode="&#xf4;" horiz-adv-x="1168" d="M92 529V552Q92 669 126 769T224 944T379 1060T583 1102Q697 1102 788 1061T944 945T1043 770T1077 552V529Q1077 412 1043 312T945 138T790 22T585 -20Q471 -20 380 21T225 137T126 312T92 529ZM277 552V529Q277
448 296 377T353 250T450 164T585 132Q661 132 718 163T814 250T871 376T891 529V552Q891 632 872 703T814 830T718 918T583 950Q507 950 450 918T354 831T296 704T277 552ZM631 1536L879 1263V1253H725L575 1422L426 1253H274V1264L519 1536H631Z" />
<glyph unicode="&#xf5;" horiz-adv-x="1168" d="M92 529V552Q92 669 126 769T224 944T379 1060T583 1102Q697 1102 788 1061T944 945T1043 770T1077 552V529Q1077 412 1043 312T945 138T790 22T585 -20Q471 -20 380 21T225 137T126 312T92 529ZM277 552V529Q277
448 296 377T353 250T450 164T585 132Q661 132 718 163T814 250T871 376T891 529V552Q891 632 872 703T814 830T718 918T583 950Q507 950 450 918T354 831T296 704T277 552ZM805 1516L930 1505Q930 1432 901 1377T824 1292T714 1262Q663 1262 630 1276T571 1309T517
1342T446 1357Q404 1357 376 1325T347 1246L222 1252Q222 1325 250 1380T328 1467T437 1499Q480 1499 512 1485T574 1452T634 1419T705 1404Q747 1404 776 1436T805 1516Z" />
<glyph unicode="&#xf6;" horiz-adv-x="1168" d="M92 529V552Q92 669 126 769T224 944T379 1060T583 1102Q697 1102 788 1061T944 945T1043 770T1077 552V529Q1077 412 1043 312T945 138T790 22T585 -20Q471 -20 380 21T225 137T126 312T92 529ZM277 552V529Q277
448 296 377T353 250T450 164T585 132Q661 132 718 163T814 250T871 376T891 529V552Q891 632 872 703T814 830T718 918T583 950Q507 950 450 918T354 831T296 704T277 552ZM253 1371Q253 1416 281 1447T362 1478Q416 1478 444 1447T472 1371Q472 1328 444 1298T362
1267Q309 1267 281 1297T253 1371ZM684 1369Q684 1414 711 1445T793 1476Q846 1476 874 1445T903 1369Q903 1326 875 1296T793 1265Q739 1265 712 1295T684 1369Z" />
<glyph unicode="&#xf7;" horiz-adv-x="1170" d="M1069 784V600H71V784H1069ZM462 1098Q462 1146 491 1178T576 1210Q632 1210 661 1178T691 1098Q691 1052 662 1021T576 989Q520 989 491 1020T462 1098ZM462 282Q462 329 491 361T576 394Q632 394 661 362T691
282Q691 236 662 204T576 172Q520 172 491 204T462 282Z" />
<glyph unicode="&#xf8;" horiz-adv-x="1161" d="M983 1209L320 -135H197L860 1209H983ZM92 529V552Q92 669 126 769T224 944T379 1060T583 1102Q697 1102 788 1061T944 945T1042 770T1076 552V529Q1076 412 1042 312T944 138T790 22T585 -20Q471 -20 380 21T225
137T126 312T92 529ZM277 552V529Q277 448 296 377T353 250T450 164T585 132Q661 132 718 163T814 250T871 376T891 529V552Q891 632 872 703T814 830T718 918T583 950Q507 950 450 918T354 831T296 704T277 552Z" />
<glyph unicode="&#xf9;" horiz-adv-x="1129" d="M803 250V1082H989V0H812L803 250ZM838 478L915 480Q915 372 893 281T820 122T689 18T492 -20Q413 -20 348 3T235 74T163 199T137 384V1082H322V382Q322 309 338 262T383 187T447 148T521 137Q639 137 708 182T807
305T838 478ZM479 1536L672 1242H513L255 1536H479Z" />
<glyph unicode="&#xfa;" horiz-adv-x="1129" d="M803 250V1082H989V0H812L803 250ZM838 478L915 480Q915 372 893 281T820 122T689 18T492 -20Q413 -20 348 3T235 74T163 199T137 384V1082H322V382Q322 309 338 262T383 187T447 148T521 137Q639 137 708 182T807
305T838 478ZM465 1242L659 1536H882L614 1242H465Z" />
<glyph unicode="&#xfb;" horiz-adv-x="1129" d="M803 250V1082H989V0H812L803 250ZM838 478L915 480Q915 372 893 281T820 122T689 18T492 -20Q413 -20 348 3T235 74T163 199T137 384V1082H322V382Q322 309 338 262T383 187T447 148T521 137Q639 137 708 182T807
305T838 478ZM623 1536L871 1263V1253H717L567 1422L418 1253H266V1264L511 1536H623Z" />
<glyph unicode="&#xfc;" horiz-adv-x="1129" d="M803 250V1082H989V0H812L803 250ZM838 478L915 480Q915 372 893 281T820 122T689 18T492 -20Q413 -20 348 3T235 74T163 199T137 384V1082H322V382Q322 309 338 262T383 187T447 148T521 137Q639 137 708 182T807
305T838 478ZM245 1371Q245 1416 273 1447T354 1478Q408 1478 436 1447T464 1371Q464 1328 436 1298T354 1267Q301 1267 273 1297T245 1371ZM676 1369Q676 1414 703 1445T785 1476Q838 1476 866 1445T895 1369Q895 1326 867 1296T785 1265Q731 1265 704 1295T676
1369Z" />
<glyph unicode="&#xfd;" horiz-adv-x="969" d="M445 112L746 1082H944L510 -167Q495 -207 471 -253T408 -342T317 -410T189 -437Q167 -437 133 -431T85 -421L84 -271Q92 -272 109 -273T134 -275Q197 -275 241 -259T315 -204T368 -98L445 112ZM224 1082L505 242L553
47L420 -21L22 1082H224ZM406 1242L600 1536H823L555 1242H406Z" />
<glyph unicode="&#xfe;" horiz-adv-x="1180" d="M335 1536V-416H149V1536H335ZM1064 550V529Q1064 411 1036 311T955 136T823 21T644 -20Q541 -20 462 14T328 113T241 269T196 474V586Q208 706 241 801T328 963T461 1066T641 1102Q743 1102 822 1063T955 950T1036
776T1064 550ZM878 529V550Q878 631 861 702T809 828T718 914T587 946Q517 946 466 922T378 858T320 766T286 659V400Q301 347 324 299T383 214T469 154T589 132Q664 132 718 163T808 250T861 376T878 529Z" />
<glyph unicode="&#xff;" horiz-adv-x="969" d="M445 112L746 1082H944L510 -167Q495 -207 471 -253T408 -342T317 -410T189 -437Q167 -437 133 -431T85 -421L84 -271Q92 -272 109 -273T134 -275Q197 -275 241 -259T315 -204T368 -98L445 112ZM224 1082L505 242L553
47L420 -21L22 1082H224ZM186 1371Q186 1416 214 1447T295 1478Q349 1478 377 1447T405 1371Q405 1328 377 1298T295 1267Q242 1267 214 1297T186 1371ZM617 1369Q617 1414 644 1445T726 1476Q779 1476 807 1445T836 1369Q836 1326 808 1296T726 1265Q672 1265
645 1295T617 1369Z" />
<glyph unicode="&#x2013;" horiz-adv-x="1344" d="M1164 803V651H162V803H1164Z" />
<glyph unicode="&#x2014;" horiz-adv-x="1599" d="M1480 803V651H144V803H1480Z" />
<glyph unicode="&#x2018;" horiz-adv-x="410" d="M97 1073V1194Q97 1255 117 1321T177 1449T271 1556L376 1483Q330 1417 305 1348T280 1197V1073H97Z" />
<glyph unicode="&#x2019;" horiz-adv-x="410" d="M328 1536V1408Q328 1348 308 1282T248 1154T154 1046L48 1119Q95 1185 119 1254T144 1405V1536H328Z" />
<glyph unicode="&#x201a;" horiz-adv-x="408" d="M316 182V79Q316 19 296 -47T236 -175T142 -283L36 -211Q83 -145 107 -75T131 76V182H316Z" />
<glyph unicode="&#x201c;" horiz-adv-x="724" d="M105 1073V1194Q105 1255 125 1321T185 1449T279 1556L384 1483Q338 1417 313 1348T288 1197V1073H105ZM420 1073V1194Q420 1255 440 1321T500 1449T594 1556L699 1483Q653 1417 628 1348T603 1197V1073H420Z" />
<glyph unicode="&#x201d;" horiz-adv-x="732" d="M340 1536V1408Q340 1348 320 1282T260 1154T166 1046L60 1119Q107 1185 131 1254T156 1405V1536H340ZM647 1536V1408Q647 1348 627 1282T567 1154T473 1046L367 1119Q414 1185 438 1254T463 1405V1536H647Z" />
<glyph unicode="&#x201e;" horiz-adv-x="706" d="M316 246V79Q316 15 296 -55T236 -189T142 -302L36 -229Q83 -158 107 -84T131 76V246H316ZM612 246V79Q612 15 592 -55T532 -189T438 -302L332 -229Q379 -158 403 -84T427 76V246H612Z" />
<glyph unicode="&#x2022;" horiz-adv-x="691" d="M139 732V773Q139 859 193 915T342 971Q437 971 492 915T547 773V732Q547 647 493 592T343 536Q249 536 194 591T139 732Z" />
<glyph unicode="&#x2039;" horiz-adv-x="615" d="M545 949L284 547L108 548V561L403 949H545ZM284 556L545 153H403L108 542V555L284 556Z" />
<glyph unicode="&#x203a;" horiz-adv-x="615" d="M90 153L351 555L527 554V541L232 153H90ZM90 949H232L527 560V547L351 546L90 949Z" />
</font>
</defs>
</svg>
