<?xml version="1.0" standalone="no"?>
<!DOCTYPE svg PUBLIC "-//W3C//DTD SVG 1.1//EN" "http://www.w3.org/Graphics/SVG/1.1/DTD/svg11.dtd">
<svg xmlns="http://www.w3.org/2000/svg">
  <defs>
    <font id="Roboto" horiz-adv-x="1096">
      <font-face font-family="Roboto" units-per-em="2048" panose-1="2 0 0 0 0 0 0 0 0 0" ascent="1900" descent="-500" alphabetic="0" />
      <glyph unicode=" " glyph-name="gid4" horiz-adv-x="508" />
      <glyph unicode="!" glyph-name="gid5" horiz-adv-x="528" d="M361,1456L348,411H181L167,1456H361ZM161,93q0,45 27.5,76T270,200q53,0 81.5-31T380,93q0-43-28.5-74T270-12q-54,0-81.5,31T161,93Z" />
      <glyph unicode="&quot;" glyph-name="gid6" horiz-adv-x="656" d="M278,1536V1400l-30-357H137v348v145H278Zm270,0V1400l-30-357H407v355v138H548Z" />
      <glyph unicode="#" glyph-name="gid7" horiz-adv-x="1261" d="M279,0L562,1456H706L422,0H279ZM686,0L970,1456h143L829,0H686Zm549,901H195v139H1235V901Zm-75-491H119V548H1160V410Z" />
      <glyph unicode="$" glyph-name="gid8" horiz-adv-x="1151" d="M674,1692V1387H524v305H674ZM656,59V-208H507V59H656ZM856,375q0,60-27,108t-89,88T574,645q-126,39-217.5,95t-141,139T166,1080q0,123 53,212t150,137t228,48q102,0 182-30.5T914.5,1356t85-147t29.5-201H845q0,67-16,123t-48,97.5t-78,64T597,1315q-84,0-138.5-29T378,1204.5T352,1083q0-64 26-112t88.5-86.5T639,809q129-41 219-96.5t137-136T1042,377q0-129-58-217.5T821,25T575-21Q490-21 407,2T257,77.5t-107,139T110,429H296q0-85 24.5-140.5t65.5-88t90.5-46T575,141q90,0 152.5,28.5T823,251t33,124Z" />
      <glyph unicode="%" glyph-name="gid9" horiz-adv-x="1500" d="M105,1099v77q0,83 36,151t103,109t159,41q94,0 160.5-41T666,1327t36-151v-77q0-81-35.5-149t-102-109T405,800T244.5,841T141,950t-36,149Zm139,77v-77q0-46 17.5-87T315,945.5T405,920t89,25.5t52,66.5t17,87v77q0,47-17.5,88.5t-53,67T403,1357q-53,0-88.5-25.5t-53-67T244,1176ZM814,279v78q0,82 36,150T953,616t159,41q94,0 160.5-41T1375,507t36-150V279q0-82-35.5-150t-102-109T1114-21T954,20T850.5,129T814,279Zm139,78V279q0-46 17.5-87.5t53.5-67T1114,99t89.5,25.5T1256,191t17,88v78q0,47-17.5,88t-53,66.5T1112,537q-53,0-88.5-25.5t-53-66.5T953,357Zm205,892L447,111L343,177l711,1138l104-66Z" />
      <glyph unicode="&amp;" glyph-name="gid10" horiz-adv-x="1274" d="M410,808L628,963q63,43 97.5,86.5T760,1169q0,59-46,107.5T584,1325q-58,0-98-27t-60-71.5T406,1129q0-45 22-93t61-100t89-110L1267,0H1045L480,676q-75,88-134,161.5T253.5,980T220,1123q0,114 45.5,192.5T393,1435t192,41q107,0 184.5-42.5t119.5-112T931,1169q0-70-25-125.5T836.5,942T733,852L444,637q-72-53-105-101t-42.5-85T287,392q0-71 31-130t94.5-94.5T572,132q84,0 163.5,38.5T878,280.5t100.5,171T1016,672h166q0-99-19-187t-58.5-163.5T1004,184q-9-9-14-21t-14-21Q901,61 791.5,20.5T572-20Q427-20 321.5,33T159,179T102,392q0,92 39.5,162t109,131T410,808Z" />
      <glyph unicode="&apos;" glyph-name="gid11" horiz-adv-x="358" d="M254,1536V1426l-21-368H104l1,351v127H254Z" />
      <glyph unicode="(" glyph-name="gid12" horiz-adv-x="701" d="M134,582v10q0,218 49,394.5T308,1296t160,220.5T623,1643l39-122q-59-45-119.5-124t-111-194T350,936T319,594V580q0-190 31-342.5T431.5-31t111-197.5T662-358L623-470q-71,39-155,126.5t-160,220T183,186T134,582Z" />
      <glyph unicode=")" glyph-name="gid13" horiz-adv-x="713" d="M567,592V582q0-219-49-396T393-123.5t-160-220T78-470L39-358q59,45 119,125.5t111,198t82,271T382,580v14q0,190-33,343.5T263.5,1208t-112,197.5T39,1530l39,113q71-39 155-126.5T393,1296T518,986.5T567,592Z" />
      <glyph unicode="*" glyph-name="gid14" horiz-adv-x="882" d="M129,708L330,984L28,1074l47,150l302-111l-9,344H520l-10-350l298,111l46-153L547,974L744,703L620,610L435,898L254,617L129,708Z" />
      <glyph unicode="+" glyph-name="gid15" horiz-adv-x="1162" d="M1076,781V607H78V781h998ZM670,1206V146H485V1206H670Z" />
      <glyph unicode="," glyph-name="gid16" horiz-adv-x="403" d="M309,220V71q0-91-46-192.5T134-291L29-218q32,44 54,89.5t33.5,94T128,68V220H309Z" />
      <glyph unicode="-" glyph-name="gid17" horiz-adv-x="566" d="M526,695V543H38V695H526Z" />
      <glyph unicode="." glyph-name="gid18" horiz-adv-x="540" d="M144,98q0,47 29.5,79.5T259,210t85.5-32.5T374,98q0-46-29.5-78T259-12T173.5,20T144,98Z" />
      <glyph unicode="/" glyph-name="gid19" horiz-adv-x="845" d="M785,1456L178-125H19L627,1456H785Z" />
      <glyph unicode="0" glyph-name="gid20" horiz-adv-x="1151" d="M1035,844V622q0-179-32-302T911,122T766.5,13.5T576-20Q492-20 421,1T293.5,68.5T197,190T136,372T115,622V844q0,179 32.5,300T240,1338.5T384.5,1444T574,1476q85,0 156.5-20.5t127.5-65t95.5-118T1014,1093t21-249ZM849,592V875q0,98-11.5,172.5T804,1175t-55.5,86t-77,48.5T574,1325q-66,0-117-24.5T371.5,1223T319,1084T301,875V592q0-98 11.5-173T347,289.5T403,200t76.5-51.5T576,132q68,0 119,26t85.5,81.5t51.5,143T849,592Z" />
      <glyph unicode="1" glyph-name="gid21" horiz-adv-x="1151" d="M729,1464V0H544V1233L171,1097v167l529,200h29Z" />
      <glyph unicode="2" glyph-name="gid22" horiz-adv-x="1151" d="M1075,152V0H122V133L599,664q88,98 136.5,166.5t68,123T823,1065q0,72-29.5,130.5T707,1289t-138,35q-97,0-161.5-37.5T311,1182t-32-154H94q0,123 54,225t160,162.5T569,1476q138,0 236-48.5t150.5-136T1008,1087q0-64-21.5-129.5T927.5,827t-87-128T735,575L345,152h730Z" />
      <glyph unicode="3" glyph-name="gid23" horiz-adv-x="1151" d="M391,819H523q97,0 160.5,32.5t95,89T810,1068q0,84-28,141t-84,86t-142,29q-78,0-137.5-30.5t-93-86.5T292,1075H107q0,111 56,202t157.5,145T556,1476q132,0 231-46.5t154-138T996,1064q0-55-25.5-117.5T891.5,830T753,741.5T549,707H391V819Zm0-152V778H549q139,0 230-33t143.5-88t74-120.5T1018,406q0-102-34.5-181t-97-134T740,8T557-20Q462-20 378.5,7T231,85.5t-100,127T95,385H280q0-76 33.5-133t96-88.5T557,132t146.5,29.5t95,89.5T832,402T794,551.5t-107.5,87T523,667H391Z" />
      <glyph unicode="4" glyph-name="gid24" horiz-adv-x="1151" d="M1105,490V338H53V447L705,1456H856L694,1164L263,490h842ZM902,1456V0H717V1456H902Z" />
      <glyph unicode="5" glyph-name="gid25" horiz-adv-x="1151" d="M355,693L207,731l73,725h747V1285H437L393,889q40,23 101.5,43T636,952q101,0 181-34.5T953.5,819T1040,665t30-201q0-105-28.5-193T956,117.5T812.5,16T609-20Q521-20 442.5,4.5t-140,75t-100,126T154,383H330q12-82 48-138t94.5-84.5T609,132q66,0 117,23t86,66t53.5,104T884,462q0,69-19,128T808.5,693T717,761.5T593,786q-93,0-140.5-25T355,693Z" />
      <glyph unicode="6" glyph-name="gid26" horiz-adv-x="1151" d="M831,1458h16V1301H831q-147,0-246-47.5t-157-127T344.5,948T319,747V533q0-97 23-171.5T405,236t90.5-77T601,133q64,0 114,24.5t84.5,69T852,332t18,134q0,65-16,125.5t-49,108t-82.5,75T605,802q-77,0-143.5-37.5t-109-98T304,535l-98,1q14,112 52.5,191.5t96,130t129,74T635,955q109,0 188-41T953,804.5t75.5-154T1053,475q0-103-29-193T937.5,124T796,18T601-20Q483-20 395,28.5T249,158T162,338T133,539v87q0,154 31,302t107.5,268T484,1387t347,71Z" />
      <glyph unicode="7" glyph-name="gid27" horiz-adv-x="1151" d="M1062,1456V1352L459,0H264L866,1304H78v152h984Z" />
      <glyph unicode="8" glyph-name="gid28" horiz-adv-x="1151" d="M1039,394q0-133-61.5-225.5T811.5,28T576-20T340,28T174,168.5T113,394q0,87 33.5,159.5t95,126.5t146,83.5T574,793q134,0 239-51.5T978.5,600T1039,394Zm-186,4q0,81-35,143.5T720,639T574,674q-85,0-146.5-35T332,541.5T298,398q0-84 33.5-143.5t96-91T576,132t148,31.5t95.5,91T853,398Zm152,679q0-106-56-191T796,752T576,703q-125,0-222.5,49T201,886t-55,191q0,127 55.5,216T354,1429t221,47q125,0 222-47t152.5-136t55.5-216Zm-185-3q0,73-31,129t-86,88.5T575,1324t-127.5-30.5t-85-86.5T332,1074q0-75 30.5-131T448,856t128-31t127.5,31T789,943t31,131Z" />
      <glyph unicode="9" glyph-name="gid29" horiz-adv-x="1151" d="M305,155h19q160,0 260,45T738,321t74,171.5T832,689V912q0,99-22.5,176t-62,129T658,1296t-106,27q-64,0-114.5-25.5t-85-71.5T300,1118T282,983q0-65 16-126t49-110t82.5-77.5T546,641q62,0 116.5,24.5t97,67t68,96.5T857,942h88q0-83-32.5-163.5T822,632T686,526.5T516,487q-108,0-187,42T199.5,641t-75,156.5T100,973q0,104 29,195t86,160.5T356.5,1437T552,1476q125,0 213-50t143.5-134T990,1103t26-216V820q0-113-14.5-229.5T946.5,368T829,178.5T628.5,46.5T324-2H305V155Z" />
      <glyph unicode=":" glyph-name="gid30" horiz-adv-x="496" d="M133,98q0,47 29.5,79.5T248,210t85.5-32.5T363,98q0-46-29.5-78T248-12T162.5,20T133,98Zm1,883q0,47 29.5,79.5T249,1093t85.5-32.5T364,981q0-46-29.5-78T249,871t-85.5,32T134,981Z" />
      <glyph unicode=";" glyph-name="gid31" horiz-adv-x="433" d="M110,981q0,47 29.5,79.5T225,1093t85.5-32.5T340,981q0-46-29.5-78T225,871t-85.5,32T110,981ZM321,220V71q0-91-46-192.5T146-291L41-218q32,44 54,89.5t33.5,94T140,68V220H321Z" />
      <glyph unicode="&lt;" glyph-name="gid32" horiz-adv-x="1041" d="M199,672L890,392V196L72,575V690l127-18ZM890,902L200,618L72,604V720l818,378V902Z" />
      <glyph unicode="=" glyph-name="gid33" horiz-adv-x="1124" d="M986,975V814H152V975H986Zm0-415V399H152V560H986Z" />
      <glyph unicode="&gt;" glyph-name="gid34" horiz-adv-x="1071" d="M846,632L135,909v191L989,722V605L846,632ZM135,388L848,671l141,21V576L135,197V388Z" />
      <glyph unicode="?" glyph-name="gid35" horiz-adv-x="968" d="M543,410H357q1,96 17.5,157.5T429,680T530,796q46,47 84.5,88.5t62.5,90T701,1091q0,69-24.5,119t-72,77T487,1314q-58,0-110-21t-84-64.5T260,1115H75q2,113 56.5,194T279,1433t208,43q127,0 216.5-46T840,1298.5T887,1096q0-90-36.5-165.5T757,789T636,663q-55-51-74-115T543,410ZM349,93q0,45 28,76t81,31q54,0 82-31t28-76q0-43-28-74T458-12q-53,0-81,31T349,93Z" />
      <glyph unicode="@" glyph-name="gid36" horiz-adv-x="1839" d="M1736,503q-4-92-28-184.5T1636,149T1511.5,25.5T1327-21q-69,0-120.5,24.5t-84,70.5t-45,111T1073,330l51,554h147l-51-554q-6-73 3.5-119t29.5-70.5t45.5-33.5t49.5-9q60,0 107,31.5t79.5,87t50.5,129T1607,503q7,149-13.5,274t-69,222T1398,1163t-186,102t-247,35q-126,0-232.5-38.5T541.5,1151t-145-173t-95-227.5T261,478q-7-150 16-275.5t74.5-224T482-188.5t183-104T897-328q88,0 178.5,21T1227-250l38-114q-70-45-174.5-67T893-453q-152,0-277.5,41.5t-222,121T233-97.5T139,161T116,478q7,164 49.5,309T282,1050t176.5,203.5t231,131.5T969,1431q154,0 279-42t219.5-121T1624,1075t90.5-258T1736,503ZM709,418q-7-70 0-125t27-93t52.5-57.5T865,123q29,0 61,14.5T989,183t58,81t45,120l66-72q-23-82-59.5-144T1017,64T921.5,0.5T819-21q-73,0-128,31.5T602,100T554.5,238.5T550,418q9,105 37,194t69.5,159t94,119T862,964.5T983,990q108,0 170-31.5T1271,884l-85-99q-29,28-76,52T999,861q-55,0-103-28t-86.5-84T745,610.5T709,418Z" />
      <glyph unicode="A" glyph-name="gid37" horiz-adv-x="1336" d="M708,1327L226,0H29L584,1456H711l-3-129ZM1112,0L629,1327l-3,129H753L1310,0H1112Zm-25,539V381H269V539h818Z" />
      <glyph unicode="B" glyph-name="gid38" horiz-adv-x="1276" d="M688,681H319l-2,155H652q83,0 145,28t96.5,80.5T928,1070q0,80-30.5,130.5t-93,74T646,1298H362V0H169V1456H646q112,0 200-22.5t149.5-70T1089,1243t32-175q0-90-46-162.5T947.5,787T757,728l-69-47ZM679,0H243L352,157H679q92,0 156.5,32T934,279.5T968,418q0,81-29,140t-91,91T688,681H413l2,155H791l41-56q105-9 178-59.5T1121.5,592T1160,420q0-136-59.5-229.5T933,48.5T679,0Z" />
      <glyph unicode="C" glyph-name="gid39" horiz-adv-x="1333" d="M1048,463h192q-15-138-79-247T980,43.5T688-20Q560-20 455.5,28T276,164.5t-115.5,213T120,655V800q0,153 40.5,277.5t117,213.5T462,1428t243,48q165,0 279-62t177.5-171.5T1240,989H1048q-14,102-52,175.5T888,1278t-183,40q-97,0-170.5-37t-123-105T337,1013T312,802V655q0-107 22.5-201T403,289T520,177.5T688,137q123,0 196,39T994.5,288T1048,463Z" />
      <glyph unicode="D" glyph-name="gid40" horiz-adv-x="1344" d="M563,0H259l2,157H563q156,0 260,65.5t156.5,184T1032,684v89q0,125-30,222.5t-88,165T772.5,1263T581,1298H253v158H581q143,0 261-47.5t203.5-137t131.5-216T1223,771V684q0-158-46-284.5T1044.5,184T836.5,47.5T563,0ZM362,1456V0H169V1456H362Z" />
      <glyph unicode="E" glyph-name="gid41" horiz-adv-x="1164" d="M1094,157V0H323V157h771ZM362,1456V0H169V1456H362ZM992,830V673H323V830H992Zm92,626V1298H323v158h761Z" />
      <glyph unicode="F" glyph-name="gid42" horiz-adv-x="1132" d="M362,1456V0H169V1456H362ZM972,801V643H320V801H972Zm99,655V1298H320v158h751Z" />
      <glyph unicode="G" glyph-name="gid43" horiz-adv-x="1395" d="M1245,725V192q-27-40-86-89.5t-162.5-86T730-20Q597-20 485.5,26.5t-193,136t-126,218T122,672V785q0,163 38.5,291T274,1293.5t184,136T708,1476q167,0 279.5-57.5t176-158.5t81.5-230H1052q-13,79-51.5,144T891,1278.5T708,1318q-101,0-175-37T411,1175t-71.5-167T316,787V672q0-126 29.5-225T430,278.5T561.5,173T731,137q103,0 167,17.5t100,42t55,46.5V569H716V725h529Z" />
      <glyph unicode="H" glyph-name="gid44" horiz-adv-x="1461" d="M1120,830V673H332V830h788ZM362,1456V0H169V1456H362Zm926,0V0H1096V1456h192Z" />
      <glyph unicode="I" glyph-name="gid45" horiz-adv-x="557" d="M376,1456V0H183V1456H376Z" />
      <glyph unicode="J" glyph-name="gid46" horiz-adv-x="1130" d="M780,425V1456H972V425q0-144-59-243T750.5,31.5T513-20T275,26T112,166T53,403H246q0-92 34-151t94.5-87T513,137q76,0 136.5,32.5t95.5,97T780,425Z" />
      <glyph unicode="K" glyph-name="gid47" horiz-adv-x="1285" d="M362,1456V0H169V1456H362Zm879,0L636,777L296,424L264,630L520,912l489,544h232ZM1055,0L516,710L631,863L1285,0H1055Z" />
      <glyph unicode="L" glyph-name="gid48" horiz-adv-x="1103" d="M1052,157V0H324V157h728ZM362,1456V0H169V1456H362Z" />
      <glyph unicode="M" glyph-name="gid49" horiz-adv-x="1788" d="M230,1456H417L894,269l476,1187h188L966,0H820L230,1456Zm-61,0H334l27-888V0H169V1456Zm1284,0h165V0H1426V568l27,888Z" />
      <glyph unicode="N" glyph-name="gid50" horiz-adv-x="1461" d="M1289,1456V0H1095L362,1123V0H169V1456H362L1098,330V1456h191Z" />
      <glyph unicode="O" glyph-name="gid51" horiz-adv-x="1409" d="M1290,774V682q0-164-41-294T1131,167T946.5,28T706-20Q577-20 469.5,28t-186,139T162,388T119,682v92q0,164 42.5,293.5t120.5,221T467.5,1428T704,1476q133,0 240.5-48t185-139.5t119-221T1290,774Zm-191-92v94q0,130-26.5,230T995,1174T870.5,1277T704,1312q-90,0-162.5-35t-124-103T338,1006T310,776V682q0-131 28-231.5t80.5-169T543.5,178T706,143q94,0 167,35T996.5,281.5t76.5,169T1099,682Z" />
      <glyph unicode="P" glyph-name="gid52" horiz-adv-x="1292" d="M706,571H317V728H706q113,0 183,36T991.5,864t32.5,146q0,75-32.5,141T889,1257.5T706,1298H362V0H169V1456H706q165,0 279-57t173-157.5t59-229.5q0-140-59-239T985,622.5T706,571Z" />
      <glyph unicode="Q" glyph-name="gid53" horiz-adv-x="1409" d="M916,167l370-293L1156-246L792,43L916,167Zm365,607V682q0-164-41-294T1122,167T937.5,28T697-20Q568-20 460.5,28t-186,139T153,388T110,682v92q0,164 42.5,293.5t120.5,221T458.5,1428T695,1476q133,0 241-48t185-139.5t118.5-221T1281,774Zm-191-92v94q0,130-26.5,230T986,1174T862,1277t-167,35q-89,0-161.5-35T409,1174t-80-168T301,776V682q0-131 28-231.5t80.5-169T535,178t162-35q94,0 167,35T987.5,281.5t76.5,169T1090,682Z" />
      <glyph unicode="R" glyph-name="gid54" horiz-adv-x="1262" d="M169,1456H651q164,0 277.5-50t173-147.5T1161,1019q0-100-40.5-182.5t-116-140T824,611l-54-21H317l-2,157H657q104,0 173,36.5T934,882t35,137q0,84-33,147t-103.5,97.5T651,1298H362V0H169V1456ZM1020,0L666,660l201,1L1226,12V0H1020Z" />
      <glyph unicode="S" glyph-name="gid55" horiz-adv-x="1216" d="M945,368q0,51-15.5,90.5t-54,71.5t-106,61T599,650q-108,32-195,71.5T255,812T160,929t-33,151t35,157t100.5,125.5T419,1446t203,30q164,0 278.5-62.5t174.5-163t60-214.5H943q0,82-35,145.5t-106,100T622,1318q-103,0-170-31t-99.5-84T320,1082q0-46 19.5-83.5t61-69.5t106-59T661,818q124-35 214-78t148.5-96.5t87-121T1139,370q0-89-36-161T1000,86T839.5,7.5T631-20Q530-20 432.5,8t-177,84t-127,138.5T81,422H273q0-75 29-128.5T381.5,205t115-51.5T631,137q101,0 171,28t106.5,80T945,368Z" />
      <glyph unicode="T" glyph-name="gid56" horiz-adv-x="1222" d="M707,1456V0H517V1456H707Zm468,0V1298H50v158H1175Z" />
      <glyph unicode="U" glyph-name="gid57" horiz-adv-x="1328" d="M1002,1456h192V471q0-164-73-273T927.5,34.5T666-20Q518-20 398.5,34.5T209.5,198T140,471v985H331V471q0-114 42-188T490.5,173T666,137q101,0 176.5,36T960,283t42,188v985Z" />
      <glyph unicode="V" glyph-name="gid58" horiz-adv-x="1304" d="M639,221l429,1235h209L738,0H589l50,221ZM238,1456L663,221L716,0H567L29,1456H238Z" />
      <glyph unicode="W" glyph-name="gid59" horiz-adv-x="1817" d="M552,440L841,1456H981l-81-395L589,0H450L552,440ZM253,1456L483,460L552,0H414L61,1456H253ZM1355,461l225,995h193L1421,0H1283l72,461Zm-353,995L1283,440L1385,0H1246L946,1061l-82,395h138Z" />
      <glyph unicode="X" glyph-name="gid60" horiz-adv-x="1284" d="M294,1456L644,898l350,558h225L759,735L1230,0H1003L644,569L285,0H58L529,735L69,1456H294Z" />
      <glyph unicode="Y" glyph-name="gid61" horiz-adv-x="1230" d="M236,1456L614,725l379,731h219L710,544V0H517V544L15,1456H236Z" />
      <glyph unicode="Z" glyph-name="gid62" horiz-adv-x="1227" d="M1146,157V0H160V157h986Zm-32,1159L206,0H87V144L994,1456h120V1316Zm-82,140V1298H100v158h932Z" />
      <glyph unicode="[" glyph-name="gid63" horiz-adv-x="543" d="M523,1664V1512H332V-160H523V-312H147V1664H523Z" />
      <glyph unicode="\" glyph-name="gid64" horiz-adv-x="841" d="M649-125L41,1456H217L825-125H649Z" />
      <glyph unicode="]" glyph-name="gid65" horiz-adv-x="543" d="M10,1512v152H388V-312H10v152H202V1512H10Z" />
      <glyph unicode="^" glyph-name="gid66" horiz-adv-x="856" d="M439,1242L236,729H64l299,727H475l-36-214ZM617,729L415,1242l-37,214H491L789,729H617Z" />
      <glyph unicode="_" glyph-name="gid67" horiz-adv-x="924" d="M921,0V-152H4V0H921Z" />
      <glyph unicode="`" glyph-name="gid68" horiz-adv-x="633" d="M281,1536l193-294H315L57,1536H281Z" />
      <glyph unicode="a" glyph-name="gid69" horiz-adv-x="1114" d="M779,185V742q0,64-25.5,111.5T677,927T551,953q-70,0-122.5-24t-82-63T317,782H132q0,58 30,115t86.5,103.5t136,74T562,1102q118,0 208.5-40t142-120.5T964,740V236q0-54 9.5-115T1002,16V0H809q-14,32-22,85.5T779,185Zm32,471l2-130H626q-79,0-141-12.5T381,476t-64-62.5T295,326q0-51 23-93t69.5-66.5T502,142q85,0 150,36t103.5,88T797,367l79-89q-7-42-38-93T755.5,87.5t-122-77T475-20Q365-20 282.5,23t-128,115.5T109,301q0,87 34,153.5t98,111T395,633t201,23H811Z" />
      <glyph unicode="b" glyph-name="gid70" horiz-adv-x="1150" d="M140,1536H326V210L310,0H140V1536Zm917-986V529q0-118-28-218.5T947,136T815,21T636-20Q533-20 455.5,15.5T325,118T240.5,280T197,494v92q12,120 43.5,215T325,963.5t130,103T634,1102t181-39.5T947.5,950T1029,775.5T1057,550ZM871,529v21q0,81-15,152.5t-48,126t-87,86T588,946q-70,0-121.5-24T379,857.5t-58.5-92T287,659V418q16-70 52.5-134.5t98-105.5T590,137q75,0 128.5,30.5t87,84.5T855,377t16,152Z" />
      <glyph unicode="c" glyph-name="gid71" horiz-adv-x="1072" d="M574,132q66,0 122,27t92,74.5T829,342h176q-5-96-64.5-178.5T785,30.5T574-20Q452-20 361.5,23t-150,118t-89,172.5T93,520v42q0,109 29.5,206.5t89,172.5t150,118T574,1102q127,0 222-51.5t149.5-140T1005,710H829q-5,67-37.5,121t-88,86.5T574,950q-85,0-142.5-33.5t-91-90t-48-125T278,562V520q0-71 14-140t47.5-125t91-89.5T574,132Z" />
      <glyph unicode="d" glyph-name="gid72" horiz-adv-x="1155" d="M823,210V1536h186V0H839L823,210ZM95,529v21q0,124 30.5,225.5t87,174.5t135,112.5T523,1102q102,0 178.5-35.5t130-103T916,801t43-215V494q-11-119-42.5-214t-85-162T701,15.5T521-20q-95,0-173.5,41t-135,115t-87,174.5T95,529Zm186,21V529q0-81 16.5-152T349,252t89-84.5T567,137q92,0 151.5,39T814,279t56,139V659q-12,55-34.5,106.5t-58,92t-87,64.5T569,946q-76,0-130.5-31.5t-89.5-86t-51.5-126T281,550Z" />
      <glyph unicode="e" glyph-name="gid73" horiz-adv-x="1086" d="M590-20Q477-20 385.5,18.5T228.5,127T128,293T93,503v42q0,132 39,235.5T238,956t152,109t176,37q116,0 200.5-40T905,950.5t80-168T1011,572V489H203V640H826v14q-4,72-29.5,140T716,906T566,950q-63,0-116-26.5T359,845T300,718T279,545V503q0-77 21.5-144.5t63-118.5t101-80T600,131q98,0 166,40T885,278l112-89q-35-53-89-101T775.5,10T590-20Z" />
      <glyph unicode="f" glyph-name="gid74" horiz-adv-x="712" d="M417,0H232V1196q0,117 42.5,197.5t122.5,122T587,1557q32,0 64.5-4t63.5-12l-10-151q-21,5-47.5,7t-52.5,2q-59,0-101.5-23.5T439,1307t-22-111V0ZM647,1082V940H61v142H647Z" />
      <glyph unicode="g" glyph-name="gid75" horiz-adv-x="1150" d="M842,1082h168V23q0-143-58-244T790.5-374.5T552-427q-56,0-131.5,17.5t-148,59T151-239l97,110q68-82 142.5-114T538-275q88,0 152,33t99.5,97.5T825,14V844l17,238ZM97,529v21q0,124 29.5,225.5t85,174.5T346,1062.5T524,1102q102,0 178.5-35.5t130-103T917,801t43-215V494q-11-119-42.5-214t-85-162T702,15.5T522-20q-97,0-175.5,41T212,136T126.5,310.5T97,529Zm185,21V529q0-81 16.5-152t51-125T438,167.5T567,137q92,0 152,39t95.5,103T870,418V659q-11,55-33.5,106.5t-58,92T691,922T569,946q-76,0-130.5-31.5t-89-86t-51-126T282,550Z" />
      <glyph unicode="h" glyph-name="gid76" horiz-adv-x="1128" d="M326,1536V0H141V1536H326ZM282,582l-77,3q1,111 33,205.5T328,955t138.5,108.5T645,1102q80,0 144-21.5T898.5,1012T968,890.5T992,709V0H806V711q0,85-25,136.5t-73,75T590,946q-69,0-125.5-29t-97-80t-63-116.5T282,582Z" />
      <glyph unicode="i" glyph-name="gid77" horiz-adv-x="498" d="M342,1082V0H156V1082H342ZM142,1369q0,45 27.5,76t81.5,31q53,0 81.5-31t28.5-76q0-43-28.5-73.5T251,1265q-54,0-81.5,30.5T142,1369Z" />
      <glyph unicode="j" glyph-name="gid78" horiz-adv-x="490" d="M146,1082H332V-129q0-99-31.5-168t-94-104.5T49-437q-25,0-58.5,5T-66-420l1,149q19-4 43-6.5T20-280q41,0 69,15t42.5,48T146-129V1082Zm-19,287q0,45 28,76t81,31q54,0 82-31t28-76q0-43-28-73.5T236,1265q-53,0-81,30.5T127,1369Z" />
      <glyph unicode="k" glyph-name="gid79" horiz-adv-x="1038" d="M327,1536V0H141V1536H327Zm661-454L516,577L252,303L237,500L426,726l336,356H988ZM819,0L433,516l96,165L1037,0H819Z" />
      <glyph unicode="l" glyph-name="gid80" horiz-adv-x="498" d="M342,1536V0H156V1536H342Z" />
      <glyph unicode="m" glyph-name="gid81" horiz-adv-x="1796" d="M325,867V0H139V1082H315l10-215ZM287,582l-86,3q1,111 29,205.5T313,955t137,108.5T640,1102q76,0 140-21.5T891,1013t73-118t26-174V0H805V712q0,85-28.5,136T696,922.5T574,946q-82,0-137-29t-88-80T301.5,720.5T287,582ZM988,684L864,646q1,89 29.5,171t83,146T1111,1064.5t183,37.5q87,0 154.5-23t114-70.5T1633,887t24-176V0H1471V713q0,91-28.5,141.5t-80,71T1240,946q-61,0-108-21t-79-57.5T1004.5,784T988,684Z" />
      <glyph unicode="n" glyph-name="gid82" horiz-adv-x="1131" d="M326,851V0H141V1082H316l10-231ZM282,582l-77,3q1,111 33,205.5T328,955t138.5,108.5T645,1102q80,0 144-21.5T898.5,1012T968,890.5T992,709V0H806V711q0,85-25,136.5t-73,75T590,946q-69,0-125.5-29t-97-80t-63-116.5T282,582Z" />
      <glyph unicode="o" glyph-name="gid83" horiz-adv-x="1168" d="M92,529v23q0,117 34,217.5t98,175t155,116T583,1102q114,0 205.5-41.5t156-116t98.5-175T1077,552V529q0-117-34-217T944.5,137.5t-155-116T585-20T380,21.5t-155.5,116T126,312T92,529Zm185,23V529q0-81 19-152.5T353.5,250T450,163.5T585,132q76,0 133.5,31.5T814,250t57.5,126.5T891,529v23q0,80-19.5,151.5t-58,127t-96,87.5T583,950q-76,0-133.5-32t-96-87.5T296,703.5T277,552Z" />
      <glyph unicode="p" glyph-name="gid84" horiz-adv-x="1150" d="M326,874V-416H140V1082H310l16-208Zm729-324V529q0-118-28-218.5T945.5,136T814,21T635-20Q532-20 453,14T319,113T231.5,269T187,474V586q12,120 45,215t87.5,162.5t132.5,103T632,1102t181-39.5T946,950t81.5-174.5T1055,550ZM869,529v21q0,81-17,152.5t-52.5,126t-90.5,86T578,946q-70,0-121.5-24T369,857.5t-58.5-92T277,659V400q20-70 56-131.5t96-99T580,132q75,0 129.5,31.5t90,86.5T852,376.5T869,529Z" />
      <glyph unicode="q" glyph-name="gid85" horiz-adv-x="1164" d="M822-416V874l16,208h170V-416H822ZM95,529v21q0,124 29,225.5T209,950t135.5,112.5T526,1102t179.5-35.5t132-103T924,801t44-215V494q-11-119-43-214T838.5,118T705.5,15.5T524-20Q424-20 344.5,21t-135,115t-85,174.5T95,529Zm186,21V529q0-81 17-152.5T350.5,250t90-86.5T570,132q92,0 153.5,40T822,277.5T879,418V659q-11,55-34.5,107T784,859.5t-89.5,66T572,950q-76,0-131-32t-90.5-87.5T298,703T281,550Z" />
      <glyph unicode="r" glyph-name="gid86" horiz-adv-x="694" d="M326,912V0H141V1082H321l5-170Zm338,176l-1-172q-23,5-43.5,6.5T573,924q-64,0-113-20t-83-56t-53.5-85.5T298,654l-52-30q0,98 19.5,184T326,960.5t104.5,104T582,1102q20,0 46-4.5t36-9.5Z" />
      <glyph unicode="s" glyph-name="gid87" horiz-adv-x="1057" d="M771,287q0,40-17.5,74.5t-71,63T522,474q-90,19-162.5,45t-123,63T159,669T132,786q0,64 28.5,121t81,101T368,1077t165,25q130,0 222-46T896,933.5T945,764H760q0,45-26.5,87.5t-77,70.5T533,950q-77,0-124.5-23.5t-69-59.5T318,791q0-30 10.5-53.5t37.5-43T442,658t125-34q133-30 219-72T914,449t42-148q0-71-29.5-130t-85-101.5t-132-66T538-20Q395-20 296,31T146,163T95,334H281q4-76 44-120.5t98-63T538,132q76,0 127.5,20T744,207t27,80Z" />
      <glyph unicode="t" glyph-name="gid88" horiz-adv-x="670" d="M594,1082V940H9v142H594ZM207,1345H392V268q0-55 17-83t44-37t58-9q23,0 48.5,4.5T598,151L599,0q-22-7-57.5-13.5T456-20Q388-20 331,7T240.5,97.5T207,269V1345Z" />
      <glyph unicode="u" glyph-name="gid89" horiz-adv-x="1129" d="M803,250v832H989V0H812l-9,250Zm35,228l77,2q0-108-22.5-199.5T820,122T689,17.5T492-20Q413-20 347.5,3T235,74T162.5,199T137,384v698H322V382q0-73 16.5-120.5t45-75t64-38.5T521,137q118,0 187,45.5t99.5,123T838,478Z" />
      <glyph unicode="v" glyph-name="gid90" horiz-adv-x="992" d="M470,167l296,915H955L566,0H442l28,167ZM223,1082L528,162L549,0H425L33,1082H223Z" />
      <glyph unicode="w" glyph-name="gid91" horiz-adv-x="1539" d="M415,192l278,890H815L791,905L508,0H389l26,192ZM228,1082L465,182L482,0H357L43,1082H228Zm853-893l226,893h184L1177,0H1053l28,189ZM842,1082l272-875L1145,0H1027L736,907l-24,175H842Z" />
      <glyph unicode="x" glyph-name="gid92" horiz-adv-x="1016" d="M266,1082L503,688l240,394H960L606,548L971,0H757L507,406L257,0H42L406,548L53,1082H266Z" />
      <glyph unicode="y" glyph-name="gid93" horiz-adv-x="969" d="M445,112l301,970H944L510-167q-15-40-39.5-86.5T408-342t-91.5-68.5T189-437q-22,0-56,6T85-421L84-271q8-1 25.5-2.5T134-275q63,0 107,16.5t74.5,55T368-98l77,210ZM224,1082L505,242L553,47L420-21L22,1082H224Z" />
      <glyph unicode="z" glyph-name="gid94" horiz-adv-x="1016" d="M947,152V0H160V152H947ZM918,951L202,0H89V136l711,946H918V951Zm-82,131V929H97v153H836Z" />
      <glyph unicode="{" glyph-name="gid95" horiz-adv-x="693" d="M632,1597l39-114q-119-37-164-132.5T462,1132V925q0-100-40.5-181.5T293.5,614T64,566V688q113,0 162.5,64T276,925v207q0,105 32.5,196.5t110,161T632,1597ZM671-251L632-366Q496-327 418.5-258T308.5-97.5T276,99V305q0,73-22,126t-68.5,82.5T64,543V665q142,0 229.5-48t128-129.5T462,305V99q0-82 19.5-152t65-121.5T671-251Z" />
      <glyph unicode="|" glyph-name="gid96" horiz-adv-x="500" d="M325,1456V-270H176V1456H325Z" />
      <glyph unicode="}" glyph-name="gid97" horiz-adv-x="693" d="M20,1483l39,114q137-38 214.5-107.5t109.5-161T415,1132V925q0-72 22-125.5T505.5,717T627,688V575q-141,0-229,45.5t-128.5,125T229,925v207q0,82-19,152.5t-64.5,122T20,1483ZM59-366L20-251q79,25 124.5,76.5T209.5-53T229,99V305q0,101 40.5,180T398,609.5T627,655V543q-112,0-162-64.5T415,305V99Q415-6 383-97.5T273.5-258T59-366Z" />
      <glyph unicode="~" glyph-name="gid98" horiz-adv-x="1393" d="M1111,777l152,1q0-77-23.5-145t-67-119.5t-103-81T939,403q-87,0-153.5,35T641,541q-51,47-94,73t-93,26q-51,0-87-24.5T311.5,546T292,438l-161-2q0,78 23.5,145T221,698t102.5,77.5T454,803q88,0 156.5-37T752,664q55-50 96.5-74.5T939,565q52,0 90.5,27t60,75T1111,777Z" />
      <glyph unicode="&#xa0;" glyph-name="gid241" horiz-adv-x="508" />
      <glyph unicode="&#xa1;" glyph-name="gid99" horiz-adv-x="500" d="M157-361L171,684H338L352-361H157ZM358,996q0-44-27.5-75T249,890q-53,0-81.5,31T139,996t28.5,74.5T249,1101q54,0 81.5-30.5T358,996Z" />
      <glyph unicode="&#xa2;" glyph-name="gid100" horiz-adv-x="1121" d="M670,1318V1030H484v288H670ZM670,42V-245H484V42H670Zm-83,90q66,0 122,27t92,74.5T842,342h176q-5-96-65-178.5T797.5,30.5T587-20Q465-20 374,23T223.5,141t-89,172.5T105,520v42q0,109 29.5,206.5T224,941t150.5,118T587,1102q127,0 222-51.5t149.5-140T1018,710H842q-5,67-37.5,121t-88,86.5T587,950q-85,0-142.5-33.5t-91-90t-48-125T291,562V520q0-71 14-140t47.5-125t91-89.5T587,132Z" />
      <glyph unicode="&#xa3;" glyph-name="gid101" horiz-adv-x="1191" d="M1128,0H95V157H1128V0ZM763,623H91V780H763V623ZM435,1039l22-637q1-94-27-175.5T346,104L172,157q35,9 55.5,50.5t29,95.5t8.5,98l-22,638q0,138 58,235.5T459.5,1424T687,1476q131,0 223-49t141-136.5t49-203.5H908q0,84-33.5,135T787,1296t-116,23q-66,0-119.5-32.5t-85-95T435,1039Z" />
      <glyph unicode="&#xa4;" glyph-name="gid102" horiz-adv-x="1461" d="M312,608q0-94 33-177t91-145.5t134.5-98T735,152t164.5,35.5t134.5,98T1124.5,431T1157,608q0,95-32.5,177T1034,929.5T899.5,1027T735,1062t-164.5-35T436,929.5T345,785T312,608Zm-172,0q0,133 46.5,247t128,199T504,1186.5T735,1234t231-47.5T1156,1054t128-199t46-247t-46-247T1156,161.5T966,28T735-20T504,28T314.5,161.5T186.5,361T140,608Zm1231,520L1169,922l-132,137l202,206l132-137ZM438,180L236-26L105,110L307,315L438,180ZM1239-27L1037,179l132,136l202-205L1239-27ZM307,922L105,1128l131,136l202-206L307,922Z" />
      <glyph unicode="&#xa5;" glyph-name="gid103" horiz-adv-x="1076" d="M955,737V612H120V737H955Zm0-291V322H120V446H955ZM480,666l367,790h213L627,604H504l-24,62ZM232,1456L601,659l-29-55H450L15,1456H232ZM630,774V0H438V774H630Z" />
      <glyph unicode="&#xa6;" glyph-name="gid104" horiz-adv-x="492" d="M333-270H148V522H333V-270Zm0,1726V698H148v758H333Z" />
      <glyph unicode="&#xa7;" glyph-name="gid105" horiz-adv-x="1256" d="M699,108V226q83,0 141,26t89,72t31,104q0,47-17.5,82.5t-58.5,65t-110,57T603,691q-109,30-194.5,64.5t-145,82T173,951.5T142,1111q0,83 34.5,150.5T275,1377t154,74t202,26q153,0 263-50t169-146t59-235H937q0,77-35.5,140.5T798,1287.5T631,1325q-105,0-172-29t-99.5-77T327,1113q0-50 15.5-86T396,963t106.5-53.5T676,855q112-31 199-66.5t147-83T1113.5,591T1145,431q0-76-31.5-136t-90-101.5T882.5,130T699,108ZM525,874V753q-83,0-137-26t-80-71T282,553q0-50 15.5-86.5T352,401t108.5-55T637,290q111-31 197-66t145-81.5T1069,30t31-159q0-87-34.5-155T967-399T813.5-470.5T613-495q-96,0-189,22T255.5-401t-120,133T91-64l185,2q0-79 30-133.5T385.5-282t109-46.5T613-343q96,0 163.5,28t103,76T915-131q0,47-17,81.5t-57,63T733,69T564,126q-109,30-196,65.5T221,275T129,390.5T97,551q0,74 30,133.5T213,786t135,65t177,23Z" />
      <glyph unicode="&#xa8;" glyph-name="gid106" horiz-adv-x="857" d="M101,1371q0,45 28,76t81,31q54,0 82-31t28-76q0-43-28-73.5T210,1267q-53,0-81,30.5T101,1371Zm431-2q0,45 27.5,76t81.5,31q53,0 81.5-31t28.5-76q0-43-28.5-73.5T641,1265q-54,0-81.5,30.5T532,1369Z" />
      <glyph unicode="&#xa9;" glyph-name="gid107" horiz-adv-x="1609" d="M974,598h146q0-157-89.5-235.5T788,284q-106,0-183.5,49t-120,136T442,671V786q0,115 42.5,202t120,136T788,1173q153,0 243-78t90-235H975q0,99-47.5,142T788,1045q-66,0-111-33t-68-91.5T586,787V671q0-76 23-134.5T677,445t111-33q92,0 139,43t47,143ZM207,729q0-133 46-248T381,280T571,146T802,98t230.5,48t189,134T1349,481t46,248q0,134-46,248t-127.5,199.5t-189,133T802,1357t-231-47.5t-190-133T253,977T207,729ZM92,729q0,159 55,295t153,237.5t226.5,158T802,1476t275.5-56.5t226-158T1456,1024t55-295t-55-295T1303.5,195.5T1077.5,36T802-21T526.5,36T300,195.5T147,434T92,729Z" />
      <glyph unicode="&#xaa;" glyph-name="gid108" horiz-adv-x="916" d="M595,862v340q0,43-13.5,73t-41,45.5T471,1336q-69,0-108.5-26.5T323,1231l-161,13q0,68 38.5,120.5t108,82.5T471,1477q86,0 150.5-31T722,1354t36-153V887q0-49 6-93t20-88H619q-24,75-24,156Zm40,287l1-111H487q-60,0-99.5-16T329,980t-19-58q0-43 30.5-68T435,829q43,0 86.5,19.5T594,896t29,53l18-112q-15-32-46.5-66t-81-56.5T396,692q-120,0-184.5,61.5T147,918q0,74 37.5,125.5t113,78.5T486,1149H635Z" />
      <glyph unicode="&#xab;" glyph-name="gid109" horiz-adv-x="961" d="M538,946L277,544l-176,1v13L396,946H538ZM277,553L538,150H396L101,539v13l176,1ZM869,946L608,544l-176,1v13L727,946H869ZM608,553L869,150H727L432,539v13l176,1Z" />
      <glyph unicode="&#xac;" glyph-name="gid110" horiz-adv-x="1134" d="M958,801V639H127V801H958Zm0-75V376H773V726H958Z" />
      <glyph unicode="&#xad;" glyph-name="gid242" horiz-adv-x="566" d="M526,695V543H38V695H526Z" />
      <glyph unicode="&#xae;" glyph-name="gid111" horiz-adv-x="1610" d="M827,655H609l-2,128H810q42,1 78.5,15t59,40.5T970,904q0,50-17,79t-56.5,42T789,1038H653V317H512v848H789q99,0 171-28t111-84.5T1110,910q0-54-25-97t-73-74T895,689q-3,0-6.5-6.5T882,676q-17-10-21.5-14.5t-9-5.5T827,655Zm-10,0l20,90q155,0 211.5-65.5T1105,514V460q0-37 4-70.5t13-56.5V317H977q-10,26-11.5,74T964,461v52q0,73-33.5,107.5T817,655ZM206,729q0-133 46-248T380,280T570,146T801,98t230.5,48t189,134T1348,481t46,248q0,134-46,248t-127.5,199.5t-189,133T801,1357t-231-47.5t-190-133T252,977T206,729ZM91,729q0,159 55,295t153,237.5t226.5,158T801,1476t275.5-56.5t226-158T1455,1024t55-295t-55-295T1302.5,195.5T1076.5,36T801-21T525.5,36T299,195.5T146,434T91,729Z" />
      <glyph unicode="&#xaf;" glyph-name="gid112" horiz-adv-x="939" d="M814,1445V1303H143v142H814Z" />
      <glyph unicode="&#xb0;" glyph-name="gid113" horiz-adv-x="765" d="M131,1217q0,71 35,130t93,94.5T386,1477t126-35.5t91-94.5t34-130t-34-129.5t-91-93T386,960T259,994.5t-93,93T131,1217Zm124,0q0-55 38.5-92t92.5-37t90.5,37t36.5,92q0,56-36.5,94T386,1349t-92.5-38T255,1217Z" />
      <glyph unicode="&#xb1;" glyph-name="gid114" horiz-adv-x="1095" d="M1013,855V703H97V855h916ZM650,1267V289H483v978H650ZM971,152V1H136V152H971Z" />
      <glyph unicode="&#xb2;" glyph-name="gid115" horiz-adv-x="751" d="M683,795V667H85V775l288,271q45,42 71,75t37.5,59.5T493,1229q0,48-32,79t-91,31q-75,0-110.5-38T224,1206H66q0,72 36,131t103,94.5T366,1467q90,0 154-29t98-81.5T652,1231q0-53-23.5-99T562,1040T460,941L285,795H683Z" />
      <glyph unicode="&#xb3;" glyph-name="gid116" horiz-adv-x="751" d="M266,1126h84q49,0 81,14t48.5,38.5T496,1235q0,44-32,74t-101,30q-57,0-94.5-25T231,1246H74q0,68 38,117.5T215,1440t145,27q87,0 153-25.5T616,1366t37-123q0-53-32.5-97.5t-94-71T377,1048H266v78Zm0-115v78H377q100,0 164-24t95-69t31-109q0-73-40-125T517.5,683T361,656q-75,0-143.5,24.5T106,757T63,890H220q0-45 40-75.5T366,784q70,0 106.5,31T509,895q0,42-19.5,67.5t-55,37T350,1011H266Z" />
      <glyph unicode="&#xb4;" glyph-name="gid117" horiz-adv-x="642" d="M123,1242l194,294H540L272,1242H123Z" />
      <glyph unicode="&#xb5;" glyph-name="gid118" horiz-adv-x="1161" d="M821,1082h185V0H839L821,250v832Zm33-579l69,2q0-114-20.5-210T839,128T729,18T568-21Q492-21 432.5-1.5t-102,62T260,171L223,460H339q0-103 17-168t47.5-100T474,144t86-13q89,0 146.5,27.5T796,236t45,118t13,149ZM155,1082H339V-416H155V1082Z" />
      <glyph unicode="&#xb6;" glyph-name="gid119" horiz-adv-x="1002" d="M833,0H647V520H560q-159,0-269,60.5T124.5,747T68,988q0,134 56.5,240T291,1395t269,61H833V0Z" />
      <glyph unicode="&#xb7;" glyph-name="gid120" horiz-adv-x="535" d="M148,729q0,47 29,79.5T262,841t85.5-32.5T377,729q0-46-29.5-77.5T262,620t-85,31.5T148,729Z" />
      <glyph unicode="&#xb8;" glyph-name="gid121" horiz-adv-x="508" d="M152,0H285L273-53q58-10 105.5-48T426-226q0-47-19.5-85.5t-57.5-66T254.5-420T123-435l-7,107q46,0 83.5,10t60,32T282-229q0,33-17,52t-52.5,28.5T121-135L152,0Z" />
      <glyph unicode="&#xb9;" glyph-name="gid122" horiz-adv-x="751" d="M495,1456V667H339v601l-216-57v129l354,116h18Z" />
      <glyph unicode="&#xba;" glyph-name="gid123" horiz-adv-x="932" d="M123,1043v81q0,103 42,182.5t118.5,125T465,1477q106,0 182.5-45.5t118-125T807,1124v-81q0-103-41.5-182.5T648,736T467,691q-106,0-183,45T165,860.5T123,1043Zm163,81v-81q0-61 19.5-109t60-76T467,830q60,0 99.5,28t59,76T645,1043v81q0,60-20,108t-59.5,76T465,1336q-60,0-100-28t-59.5-76T286,1124Z" />
      <glyph unicode="&#xbb;" glyph-name="gid124" horiz-adv-x="960" d="M103,153L364,555l176-1V541L245,153H103Zm0,796H245L540,560V547l-176-1L103,949ZM452,153L713,555l176-1V541L594,153H452Zm0,796H594L889,560V547l-176-1L452,949Z" />
      <glyph unicode="&#xbc;" glyph-name="gid125" horiz-adv-x="1500" d="M457,1453V664H301v601L85,1208v129l354,116h18Zm698-196L444,119L340,185l711,1138l104-66Zm271-957V170H787l-7,102l378,517h124L1145,560L938,300h488ZM1318,789V0H1161V789h157Z" />
      <glyph unicode="&#xbd;" glyph-name="gid126" horiz-adv-x="1589" d="M1111,1257L400,119L296,185l711,1138l104-66ZM452,1453V664H296v601L80,1208v129l354,116h18ZM1481,128V0H883V108l288,271q45,42 71,75t37.5,59.5T1291,562q0,48-32,79t-91,31q-75,0-110.5-38T1022,539H864q0,72 36,131t103,94.5T1164,800q90,0 154-29t98-81.5T1450,564q0-53-23.5-99T1360,373t-102-99L1083,128h398Z" />
      <glyph unicode="&#xbe;" glyph-name="gid127" horiz-adv-x="1593" d="M1282,1257L571,119L467,185l711,1138l104-66Zm236-957V170H879l-7,102l378,517h124L1237,560L1030,300h488ZM1410,789V0H1253V789h157ZM315,1126h84q49,0 81,14t48.5,38.5T545,1235q0,44-32,74t-101,30q-57,0-94.5-25T280,1246H123q0,68 38,117.5T264,1440t145,27q87,0 153-25.5T665,1366t37-123q0-53-32.5-97.5t-94-71T426,1048H315v78Zm0-115v78H426q100,0 164-24t95-69t31-109q0-73-40-125T566.5,683T410,656q-75,0-143.5,24.5T155,757T112,890H269q0-45 40-75.5T415,784q70,0 106.5,31T558,895q0,42-19.5,67.5t-55,37T399,1011H315Z" />
      <glyph unicode="&#xbf;" glyph-name="gid128" horiz-adv-x="970" d="M403,680H589q-1-96-17.5-155.5T518.5,415T420,298q-42-45-80-87t-62-92T254,0q0-73 26-123t76-75.5T478-224q59,0 110,22t83.5,67.5T704-20H889q-1-113-55.5-195.5T686.5-342T478-386q-130,0-221.5,45t-140,130T68-6q0,91 36.5,168.5t92.5,144T313,431q36,35 55.5,73.5t27,82.5t7.5,93ZM597,997q0-44-28-75t-81-31q-54,0-82,31t-28,75t28,74.5t82,30.5q53,0 81-30.5T597,997Z" />
      <glyph unicode="&#xc0;" glyph-name="gid248" horiz-adv-x="1336" d="M708,1327L226,0H29L584,1456H711l-3-129ZM1112,0L629,1327l-3,129H753L1310,0H1112Zm-25,539V381H269V539h818ZM584,1847l193-294H618L360,1847H584Z" />
      <glyph unicode="&#xc1;" glyph-name="gid249" horiz-adv-x="1336" d="M708,1327L226,0H29L584,1456H711l-3-129ZM1112,0L629,1327l-3,129H753L1310,0H1112Zm-25,539V381H269V539h818ZM570,1553l194,294H987L719,1553H570Z" />
      <glyph unicode="&#xc2;" glyph-name="gid250" horiz-adv-x="1336" d="M708,1327L226,0H29L584,1456H711l-3-129ZM1112,0L629,1327l-3,129H753L1310,0H1112Zm-25,539V381H269V539h818ZM728,1847l248-273v-10H822L672,1733L523,1564H371v11l245,272H728Z" />
      <glyph unicode="&#xc3;" glyph-name="gid251" horiz-adv-x="1336" d="M708,1327L226,0H29L584,1456H711l-3-129ZM1112,0L629,1327l-3,129H753L1310,0H1112Zm-25,539V381H269V539h818ZM902,1827l125-11q0-73-29-128t-77.5-85T811,1573q-51,0-84,14.5t-59,33t-54.5,33T543,1668t-70.5-32T444,1557l-125,6q0,73 28.5,128.5t77.5,87T534,1810q43,0 75.5-14.5t61.5-33t60-33t71-14.5q42,0 71,32.5t29,79.5Z" />
      <glyph unicode="&#xc4;" glyph-name="gid252" horiz-adv-x="1336" d="M708,1327L226,0H29L584,1456H711l-3-129ZM1112,0L629,1327l-3,129H753L1310,0H1112Zm-25,539V381H269V539h818ZM350,1682q0,45 28,76t81,31q54,0 82-31t28-76q0-43-28-73.5T459,1578q-53,0-81,30.5T350,1682Zm431-2q0,45 27.5,76t81.5,31q53,0 81.5-31t28.5-76q0-43-28.5-73.5T890,1576q-54,0-81.5,30.5T781,1680Z" />
      <glyph unicode="&#xc5;" glyph-name="gid253" horiz-adv-x="1336" d="M708,1327L226,0H29L584,1456H711l-3-129ZM1112,0L629,1327l-3,129H753L1310,0H1112Zm-25,539V381H269V539h818ZM457,1731q0,58 28.5,105t77,75T672,1939q91,0 153-61t62-147q0-58-28.5-104.5t-77-73T672,1527q-91,0-153,58t-62,146Zm99,0q0-44 32.5-79.5T672,1616t83.5,34.5T788,1731q0,47-32.5,82.5T672,1849t-83.5-35.5T556,1731Z" />
      <glyph unicode="&#xc6;" glyph-name="gid129" horiz-adv-x="1914" d="M970,1307L212,0H-15L866,1456H985l-15-149Zm145-779V353H372V528h743Zm765-376V0H1147V152h733ZM1121,1456L1182,0H996L935,1456h186Zm616-622V682H1107V834h630Zm81,622V1304H1086v152h732Z" />
      <glyph unicode="&#xc7;" glyph-name="gid255" horiz-adv-x="1333" d="M1048,463h192q-15-138-79-247T980,43.5T688-20Q560-20 455.5,28T276,164.5t-115.5,213T120,655V800q0,153 40.5,277.5t117,213.5T462,1428t243,48q165,0 279-62t177.5-171.5T1240,989H1048q-14,102-52,175.5T888,1278t-183,40q-97,0-170.5-37t-123-105T337,1013T312,802V655q0-107 22.5-201T403,289T520,177.5T688,137q123,0 196,39T994.5,288T1048,463ZM619-10H752L740-63q58-10 105.5-48T893-236q0-47-19.5-85.5t-57.5-66T721.5-430T590-445l-7,107q46,0 83.5,10t60,32T749-239q0,33-17,52t-52.5,28.5T588-145L619-10Z" />
      <glyph unicode="&#xc8;" glyph-name="gid256" horiz-adv-x="1164" d="M1094,157V0H323V157h771ZM362,1456V0H169V1456H362ZM992,830V673H323V830H992Zm92,626V1298H323v158h761ZM531,1858l193-294H565L307,1858H531Z" />
      <glyph unicode="&#xc9;" glyph-name="gid257" horiz-adv-x="1164" d="M1094,157V0H323V157h771ZM362,1456V0H169V1456H362ZM992,830V673H323V830H992Zm92,626V1298H323v158h761ZM517,1564l194,294H934L666,1564H517Z" />
      <glyph unicode="&#xca;" glyph-name="gid258" horiz-adv-x="1164" d="M1094,157V0H323V157h771ZM362,1456V0H169V1456H362ZM992,830V673H323V830H992Zm92,626V1298H323v158h761ZM675,1858l248-273v-10H769L619,1744L470,1575H318v11l245,272H675Z" />
      <glyph unicode="&#xcb;" glyph-name="gid259" horiz-adv-x="1164" d="M1094,157V0H323V157h771ZM362,1456V0H169V1456H362ZM992,830V673H323V830H992Zm92,626V1298H323v158h761ZM297,1693q0,45 28,76t81,31q54,0 82-31t28-76q0-43-28-73.5T406,1589q-53,0-81,30.5T297,1693Zm431-2q0,45 27.5,76t81.5,31q53,0 81.5-31t28.5-76q0-43-28.5-73.5T837,1587q-54,0-81.5,30.5T728,1691Z" />
      <glyph unicode="&#xcc;" glyph-name="gid260" horiz-adv-x="557" d="M376,1456V0H183V1456H376ZM191,1858l193-294H225L-33,1858H191Z" />
      <glyph unicode="&#xcd;" glyph-name="gid261" horiz-adv-x="557" d="M376,1456V0H183V1456H376ZM177,1564l194,294H594L326,1564H177Z" />
      <glyph unicode="&#xce;" glyph-name="gid262" horiz-adv-x="557" d="M376,1456V0H183V1456H376Zm-41,402l248-273v-10H429L279,1744L130,1575H-22v11l245,272H335Z" />
      <glyph unicode="&#xcf;" glyph-name="gid263" horiz-adv-x="557" d="M376,1456V0H183V1456H376ZM-43,1693q0,45 28,76t81,31q54,0 82-31t28-76q0-43-28-73.5T66,1589q-53,0-81,30.5T-43,1693Zm431-2q0,45 27.5,76t81.5,31q53,0 81.5-31t28.5-76q0-43-28.5-73.5T497,1587q-54,0-81.5,30.5T388,1691Z" />
      <glyph unicode="&#xd0;" glyph-name="gid244" horiz-adv-x="1374" d="M593,0H289l2,157H593q156,0 260,65.5t156.5,184T1062,684v89q0,125-30,222.5t-88,165T802.5,1263T611,1298H283v158H611q143,0 261-47.5t203.5-137t131.5-216T1253,771V684q0-158-46-284.5T1074.5,184T866.5,47.5T593,0ZM392,1456V0H199V1456H392ZM674,817V665H37V817H674Z" />
      <glyph unicode="&#xd1;" glyph-name="gid264" horiz-adv-x="1461" d="M1289,1456V0H1095L362,1123V0H169V1456H362L1098,330V1456h191ZM956,1827l125-11q0-73-29-128t-77.5-85T865,1573q-51,0-84,14.5t-59,33t-54.5,33T597,1668t-70.5-32T498,1557l-125,6q0,73 28.5,128.5t77.5,87T588,1810q43,0 75.5-14.5t61.5-33t60-33t71-14.5q42,0 71,32.5t29,79.5Z" />
      <glyph unicode="&#xd2;" glyph-name="gid265" horiz-adv-x="1409" d="M1290,774V682q0-164-41-294T1131,167T946.5,28T706-20Q577-20 469.5,28t-186,139T162,388T119,682v92q0,164 42.5,293.5t120.5,221T467.5,1428T704,1476q133,0 240.5-48t185-139.5t119-221T1290,774Zm-191-92v94q0,130-26.5,230T995,1174T870.5,1277T704,1312q-90,0-162.5-35t-124-103T338,1006T310,776V682q0-131 28-231.5t80.5-169T543.5,178T706,143q94,0 167,35T996.5,281.5t76.5,169T1099,682ZM619,1849l193-294H653L395,1849H619Z" />
      <glyph unicode="&#xd3;" glyph-name="gid266" horiz-adv-x="1409" d="M1290,774V682q0-164-41-294T1131,167T946.5,28T706-20Q577-20 469.5,28t-186,139T162,388T119,682v92q0,164 42.5,293.5t120.5,221T467.5,1428T704,1476q133,0 240.5-48t185-139.5t119-221T1290,774Zm-191-92v94q0,130-26.5,230T995,1174T870.5,1277T704,1312q-90,0-162.5-35t-124-103T338,1006T310,776V682q0-131 28-231.5t80.5-169T543.5,178T706,143q94,0 167,35T996.5,281.5t76.5,169T1099,682ZM605,1555l194,294h223L754,1555H605Z" />
      <glyph unicode="&#xd4;" glyph-name="gid267" horiz-adv-x="1409" d="M1290,774V682q0-164-41-294T1131,167T946.5,28T706-20Q577-20 469.5,28t-186,139T162,388T119,682v92q0,164 42.5,293.5t120.5,221T467.5,1428T704,1476q133,0 240.5-48t185-139.5t119-221T1290,774Zm-191-92v94q0,130-26.5,230T995,1174T870.5,1277T704,1312q-90,0-162.5-35t-124-103T338,1006T310,776V682q0-131 28-231.5t80.5-169T543.5,178T706,143q94,0 167,35T996.5,281.5t76.5,169T1099,682ZM763,1849l248-273v-10H857L707,1735L558,1566H406v11l245,272H763Z" />
      <glyph unicode="&#xd5;" glyph-name="gid268" horiz-adv-x="1409" d="M1290,774V682q0-164-41-294T1131,167T946.5,28T706-20Q577-20 469.5,28t-186,139T162,388T119,682v92q0,164 42.5,293.5t120.5,221T467.5,1428T704,1476q133,0 240.5-48t185-139.5t119-221T1290,774Zm-191-92v94q0,130-26.5,230T995,1174T870.5,1277T704,1312q-90,0-162.5-35t-124-103T338,1006T310,776V682q0-131 28-231.5t80.5-169T543.5,178T706,143q94,0 167,35T996.5,281.5t76.5,169T1099,682ZM937,1829l125-11q0-73-29-128t-77.5-85T846,1575q-51,0-84,14.5t-59,33t-54.5,33T578,1670t-70.5-32T479,1559l-125,6q0,73 28.5,128.5t77.5,87T569,1812q43,0 75.5-14.5t61.5-33t60-33t71-14.5q42,0 71,32.5t29,79.5Z" />
      <glyph unicode="&#xd6;" glyph-name="gid269" horiz-adv-x="1409" d="M1290,774V682q0-164-41-294T1131,167T946.5,28T706-20Q577-20 469.5,28t-186,139T162,388T119,682v92q0,164 42.5,293.5t120.5,221T467.5,1428T704,1476q133,0 240.5-48t185-139.5t119-221T1290,774Zm-191-92v94q0,130-26.5,230T995,1174T870.5,1277T704,1312q-90,0-162.5-35t-124-103T338,1006T310,776V682q0-131 28-231.5t80.5-169T543.5,178T706,143q94,0 167,35T996.5,281.5t76.5,169T1099,682ZM385,1684q0,45 28,76t81,31q54,0 82-31t28-76q0-43-28-73.5T494,1580q-53,0-81,30.5T385,1684Zm431-2q0,45 27.5,76t81.5,31q53,0 81.5-31t28.5-76q0-43-28.5-73.5T925,1578q-54,0-81.5,30.5T816,1682Z" />
      <glyph unicode="&#xd7;" glyph-name="gid130" horiz-adv-x="1093" d="M208,206L89,329l779,795l119-124L208,206Zm663,0L92,1000l119,124L990,329L871,206Z" />
      <glyph unicode="&#xd8;" glyph-name="gid131" horiz-adv-x="1409" d="M1309,1516L307-93H164L1169,1516h140Zm-19-742V682q0-164-41-294T1131,167T946.5,28T706-20Q603-20 513,11T350.5,101.5T226,246.5t-79.5,195T119,682v92q0,164 42.5,293.5t120.5,221T467.5,1428T704,1476q106,0 196.5-31t162.5-90.5t122.5-145t77.5-195T1290,774Zm-191-92v94q0,104-17,188.5T1032,1114t-81,109t-110,66.5T704,1312q-90,0-162.5-35t-124-103T338,1006T310,776V682q0-105 18-190t52.5-150.5t83-109.5T573,165.5T706,143q94,0 167,35T996.5,281.5t76.5,169T1099,682Z" />
      <glyph unicode="&#xd9;" glyph-name="gid270" horiz-adv-x="1328" d="M1002,1456h192V471q0-164-73-273T927.5,34.5T666-20Q518-20 398.5,34.5T209.5,198T140,471v985H331V471q0-114 42-188T490.5,173T666,137q101,0 176.5,36T960,283t42,188v985ZM579,1847l193-294H613L355,1847H579Z" />
      <glyph unicode="&#xda;" glyph-name="gid271" horiz-adv-x="1328" d="M1002,1456h192V471q0-164-73-273T927.5,34.5T666-20Q518-20 398.5,34.5T209.5,198T140,471v985H331V471q0-114 42-188T490.5,173T666,137q101,0 176.5,36T960,283t42,188v985Zm-437,97l194,294H982L714,1553H565Z" />
      <glyph unicode="&#xdb;" glyph-name="gid272" horiz-adv-x="1328" d="M1002,1456h192V471q0-164-73-273T927.5,34.5T666-20Q518-20 398.5,34.5T209.5,198T140,471v985H331V471q0-114 42-188T490.5,173T666,137q101,0 176.5,36T960,283t42,188v985ZM723,1847l248-273v-10H817L667,1733L518,1564H366v11l245,272H723Z" />
      <glyph unicode="&#xdc;" glyph-name="gid273" horiz-adv-x="1328" d="M1002,1456h192V471q0-164-73-273T927.5,34.5T666-20Q518-20 398.5,34.5T209.5,198T140,471v985H331V471q0-114 42-188T490.5,173T666,137q101,0 176.5,36T960,283t42,188v985ZM345,1682q0,45 28,76t81,31q54,0 82-31t28-76q0-43-28-73.5T454,1578q-53,0-81,30.5T345,1682Zm431-2q0,45 27.5,76t81.5,31q53,0 81.5-31t28.5-76q0-43-28.5-73.5T885,1576q-54,0-81.5,30.5T776,1680Z" />
      <glyph unicode="&#xdd;" glyph-name="gid274" horiz-adv-x="1230" d="M236,1456L614,725l379,731h219L710,544V0H517V544L15,1456H236Zm280,96l194,294H933L665,1552H516Z" />
      <glyph unicode="&#xde;" glyph-name="gid132" horiz-adv-x="1210" d="M167,1456H352V0H167V1456Zm93-293H630q158,0 266.5-55T1061,957t56-219q0-122-56-218T896.5,369T630,314H311V465H630q108,0 174.5,39.5t97,101.5T932,736q0,70-30.5,133t-97,103T630,1012H350l-90,151Z" />
      <glyph unicode="&#xdf;" glyph-name="gid133" horiz-adv-x="1218" d="M324,1112V0H140V1112q0,110 28.5,192.5t80.5,138T373,1526t160,28q109,0 193.5-36T860,1407.5T909,1217q0-80-19.5-133.5t-44.5-94T800.5,910T781,820q0-55 35-98.5T903,638t104.5-85T1095,451t35-134q0-114-49.5-189T944,16.5T745-20Q691-20 631-9.5t-109.5,27T446,52l42,155q35-22 101.5-49T726,131q78,0 126.5,24T923,219t22,89q0,57-35,100.5t-87,84T718.5,578T631,682T596,822q0,60 21,106t48,86.5t48,85T734,1201q0,67-25,111.5T641,1380t-98,23q-69,0-118-31t-75-95.5T324,1112Z" />
      <glyph unicode="&#xe0;" glyph-name="gid275" horiz-adv-x="1114" d="M779,185V742q0,64-25.5,111.5T677,927T551,953q-70,0-122.5-24t-82-63T317,782H132q0,58 30,115t86.5,103.5t136,74T562,1102q118,0 208.5-40t142-120.5T964,740V236q0-54 9.5-115T1002,16V0H809q-14,32-22,85.5T779,185Zm32,471l2-130H626q-79,0-141-12.5T381,476t-64-62.5T295,326q0-51 23-93t69.5-66.5T502,142q85,0 150,36t103.5,88T797,367l79-89q-7-42-38-93T755.5,87.5t-122-77T475-20Q365-20 282.5,23t-128,115.5T109,301q0,87 34,153.5t98,111T395,633t201,23H811ZM494,1536l193-294H528L270,1536H494Z" />
      <glyph unicode="&#xe1;" glyph-name="gid276" horiz-adv-x="1114" d="M779,185V742q0,64-25.5,111.5T677,927T551,953q-70,0-122.5-24t-82-63T317,782H132q0,58 30,115t86.5,103.5t136,74T562,1102q118,0 208.5-40t142-120.5T964,740V236q0-54 9.5-115T1002,16V0H809q-14,32-22,85.5T779,185Zm32,471l2-130H626q-79,0-141-12.5T381,476t-64-62.5T295,326q0-51 23-93t69.5-66.5T502,142q85,0 150,36t103.5,88T797,367l79-89q-7-42-38-93T755.5,87.5t-122-77T475-20Q365-20 282.5,23t-128,115.5T109,301q0,87 34,153.5t98,111T395,633t201,23H811ZM480,1242l194,294H897L629,1242H480Z" />
      <glyph unicode="&#xe2;" glyph-name="gid277" horiz-adv-x="1114" d="M779,185V742q0,64-25.5,111.5T677,927T551,953q-70,0-122.5-24t-82-63T317,782H132q0,58 30,115t86.5,103.5t136,74T562,1102q118,0 208.5-40t142-120.5T964,740V236q0-54 9.5-115T1002,16V0H809q-14,32-22,85.5T779,185Zm32,471l2-130H626q-79,0-141-12.5T381,476t-64-62.5T295,326q0-51 23-93t69.5-66.5T502,142q85,0 150,36t103.5,88T797,367l79-89q-7-42-38-93T755.5,87.5t-122-77T475-20Q365-20 282.5,23t-128,115.5T109,301q0,87 34,153.5t98,111T395,633t201,23H811ZM638,1536l248-273v-10H732L582,1422L433,1253H281v11l245,272H638Z" />
      <glyph unicode="&#xe3;" glyph-name="gid278" horiz-adv-x="1114" d="M779,185V742q0,64-25.5,111.5T677,927T551,953q-70,0-122.5-24t-82-63T317,782H132q0,58 30,115t86.5,103.5t136,74T562,1102q118,0 208.5-40t142-120.5T964,740V236q0-54 9.5-115T1002,16V0H809q-14,32-22,85.5T779,185Zm32,471l2-130H626q-79,0-141-12.5T381,476t-64-62.5T295,326q0-51 23-93t69.5-66.5T502,142q85,0 150,36t103.5,88T797,367l79-89q-7-42-38-93T755.5,87.5t-122-77T475-20Q365-20 282.5,23t-128,115.5T109,301q0,87 34,153.5t98,111T395,633t201,23H811Zm1,860l125-11q0-73-29-128t-77.5-85T721,1262q-51,0-84,14.5t-59,33t-54.5,33T453,1357t-70.5-32T354,1246l-125,6q0,73 28.5,128.5t77.5,87T444,1499q43,0 75.5-14.5t61.5-33t60-33t71-14.5q42,0 71,32.5t29,79.5Z" />
      <glyph unicode="&#xe4;" glyph-name="gid279" horiz-adv-x="1114" d="M779,185V742q0,64-25.5,111.5T677,927T551,953q-70,0-122.5-24t-82-63T317,782H132q0,58 30,115t86.5,103.5t136,74T562,1102q118,0 208.5-40t142-120.5T964,740V236q0-54 9.5-115T1002,16V0H809q-14,32-22,85.5T779,185Zm32,471l2-130H626q-79,0-141-12.5T381,476t-64-62.5T295,326q0-51 23-93t69.5-66.5T502,142q85,0 150,36t103.5,88T797,367l79-89q-7-42-38-93T755.5,87.5t-122-77T475-20Q365-20 282.5,23t-128,115.5T109,301q0,87 34,153.5t98,111T395,633t201,23H811ZM260,1371q0,45 28,76t81,31q54,0 82-31t28-76q0-43-28-73.5T369,1267q-53,0-81,30.5T260,1371Zm431-2q0,45 27.5,76t81.5,31q53,0 81.5-31t28.5-76q0-43-28.5-73.5T800,1265q-54,0-81.5,30.5T691,1369Z" />
      <glyph unicode="&#xe5;" glyph-name="gid280" horiz-adv-x="1114" d="M779,185V742q0,64-25.5,111.5T677,927T551,953q-70,0-122.5-24t-82-63T317,782H132q0,58 30,115t86.5,103.5t136,74T562,1102q118,0 208.5-40t142-120.5T964,740V236q0-54 9.5-115T1002,16V0H809q-14,32-22,85.5T779,185Zm32,471l2-130H626q-79,0-141-12.5T381,476t-64-62.5T295,326q0-51 23-93t69.5-66.5T502,142q85,0 150,36t103.5,88T797,367l79-89q-7-42-38-93T755.5,87.5t-122-77T475-20Q365-20 282.5,23t-128,115.5T109,301q0,87 34,153.5t98,111T395,633t201,23H811ZM367,1420q0,58 28.5,105t77,75T582,1628q91,0 153-61t62-147q0-58-28.5-104.5t-77-73T582,1216q-91,0-153,58t-62,146Zm99,0q0-44 32.5-79.5T582,1305t83.5,34.5T698,1420q0,47-32.5,82.5T582,1538t-83.5-35.5T466,1420Z" />
      <glyph unicode="&#xe6;" glyph-name="gid134" horiz-adv-x="1730" d="M749,183V720q0,72-24.5,123.5t-72.5,79T535,950q-74,0-129-26t-85-69t-30-95L107,778q0,70 31,129t87.5,103t135,68T535,1102q118,0 206.5-43t138-128T929,718V218L749,183Zm41,453V496H529q-87,0-146-27.5t-89-72T264,300q0-48 22.5-86.5t68-61T470,130q54,0 110.5,20.5t104,53t77,68.5T792,339l96-144q-27-49-85.5-99t-150-83.5T434-21Q320-21 240.5,19T120,132.5T79,304q0,79 28.5,140.5t85,104t140.5,65T527,636H790ZM1263-21q-123,0-217,40T888,131.5T791,303T758,520v44q0,119 34.5,217.5t97,170.5T1036,1063.5t183,38.5q108,0 190.5-33.5t138.5-97T1632.5,818T1661,616V498H857V640h618v31q0,76-25,139t-81,101.5T1219,950q-69,0-122-30t-89.5-83T952,714T933,564V520q0-81 19-151.5t59-124T1113.5,161T1263,131q119,0 192,36.5T1578,238l65-136q-22-17-70.5-46.5T1447,2.5T1263-21Z" />
      <glyph unicode="&#xe7;" glyph-name="gid282" horiz-adv-x="1072" d="M574,132q66,0 122,27t92,74.5T829,342h176q-5-96-64.5-178.5T785,30.5T574-20Q452-20 361.5,23t-150,118t-89,172.5T93,520v42q0,109 29.5,206.5t89,172.5t150,118T574,1102q127,0 222-51.5t149.5-140T1005,710H829q-5,67-37.5,121t-88,86.5T574,950q-85,0-142.5-33.5t-91-90t-48-125T278,562V520q0-71 14-140t47.5-125t91-89.5T574,132ZM472-10H605L593-63q58-10 105.5-48T746-236q0-47-19.5-85.5t-57.5-66T574.5-430T443-445l-7,107q46,0 83.5,10t60,32T602-239q0,33-17,52t-52.5,28.5T441-145L472-10Z" />
      <glyph unicode="&#xe8;" glyph-name="gid283" horiz-adv-x="1086" d="M590-20Q477-20 385.5,18.5T228.5,127T128,293T93,503v42q0,132 39,235.5T238,956t152,109t176,37q116,0 200.5-40T905,950.5t80-168T1011,572V489H203V640H826v14q-4,72-29.5,140T716,906T566,950q-63,0-116-26.5T359,845T300,718T279,545V503q0-77 21.5-144.5t63-118.5t101-80T600,131q98,0 166,40T885,278l112-89q-35-53-89-101T775.5,10T590-20ZM477,1536l193-294H511L253,1536H477Z" />
      <glyph unicode="&#xe9;" glyph-name="gid284" horiz-adv-x="1086" d="M590-20Q477-20 385.5,18.5T228.5,127T128,293T93,503v42q0,132 39,235.5T238,956t152,109t176,37q116,0 200.5-40T905,950.5t80-168T1011,572V489H203V640H826v14q-4,72-29.5,140T716,906T566,950q-63,0-116-26.5T359,845T300,718T279,545V503q0-77 21.5-144.5t63-118.5t101-80T600,131q98,0 166,40T885,278l112-89q-35-53-89-101T775.5,10T590-20ZM463,1242l194,294H880L612,1242H463Z" />
      <glyph unicode="&#xea;" glyph-name="gid285" horiz-adv-x="1086" d="M590-20Q477-20 385.5,18.5T228.5,127T128,293T93,503v42q0,132 39,235.5T238,956t152,109t176,37q116,0 200.5-40T905,950.5t80-168T1011,572V489H203V640H826v14q-4,72-29.5,140T716,906T566,950q-63,0-116-26.5T359,845T300,718T279,545V503q0-77 21.5-144.5t63-118.5t101-80T600,131q98,0 166,40T885,278l112-89q-35-53-89-101T775.5,10T590-20Zm31,1556l248-273v-10H715L565,1422L416,1253H264v11l245,272H621Z" />
      <glyph unicode="&#xeb;" glyph-name="gid286" horiz-adv-x="1086" d="M590-20Q477-20 385.5,18.5T228.5,127T128,293T93,503v42q0,132 39,235.5T238,956t152,109t176,37q116,0 200.5-40T905,950.5t80-168T1011,572V489H203V640H826v14q-4,72-29.5,140T716,906T566,950q-63,0-116-26.5T359,845T300,718T279,545V503q0-77 21.5-144.5t63-118.5t101-80T600,131q98,0 166,40T885,278l112-89q-35-53-89-101T775.5,10T590-20ZM243,1371q0,45 28,76t81,31q54,0 82-31t28-76q0-43-28-73.5T352,1267q-53,0-81,30.5T243,1371Zm431-2q0,45 27.5,76t81.5,31q53,0 81.5-31t28.5-76q0-43-28.5-73.5T783,1265q-54,0-81.5,30.5T674,1369Z" />
      <glyph unicode="&#xec;" glyph-name="gid287" horiz-adv-x="507" d="M341,1082V0H156V1082H341ZM164,1534l193-294H198L-60,1534H164Z" />
      <glyph unicode="&#xed;" glyph-name="gid288" horiz-adv-x="507" d="M341,1082V0H156V1082H341ZM150,1240l194,294H567L299,1240H150Z" />
      <glyph unicode="&#xee;" glyph-name="gid289" horiz-adv-x="507" d="M341,1082V0H156V1082H341Zm-33,452l248-273v-10H402L252,1420L103,1251H-49v11l245,272H308Z" />
      <glyph unicode="&#xef;" glyph-name="gid290" horiz-adv-x="507" d="M341,1082V0H156V1082H341ZM-70,1369q0,45 28,76t81,31q54,0 82-31t28-76q0-43-28-73.5T39,1265q-53,0-81,30.5T-70,1369Zm431-2q0,45 27.5,76t81.5,31q53,0 81.5-31t28.5-76q0-43-28.5-73.5T470,1263q-54,0-81.5,30.5T361,1367Z" />
      <glyph unicode="&#xf0;" glyph-name="gid135" horiz-adv-x="1201" d="M255,1421l57,160q169-38 308-120t240-203.5T1015.5,979T1070,633V535q0-123-34.5-225T938,134T789.5,20T602-20Q497-20 409.5,17.5T258.5,122t-98,155.5T126,468q0,116 33.5,209.5t94,161T395.5,942T574,978q113,0 203.5-53.5T921,787.5T974,613l-69,1q0,33-18,70t-53.5,69.5T744,806T618,826q-73,0-130-25t-96-71.5T332.5,617T312,468q0-62 19.5-121.5t57-108t92-77.5T606,132q65,0 116,30.5t87.5,85t55.5,128T884,535V635q0,176-49.5,308t-137,227t-201,156.5T255,1421Zm733-4L451,1051l-73,100l537,365l73-99Z" />
      <glyph unicode="&#xf1;" glyph-name="gid291" horiz-adv-x="1131" d="M326,851V0H141V1082H316l10-231ZM282,582l-77,3q1,111 33,205.5T328,955t138.5,108.5T645,1102q80,0 144-21.5T898.5,1012T968,890.5T992,709V0H806V711q0,85-25,136.5t-73,75T590,946q-69,0-125.5-29t-97-80t-63-116.5T282,582Zm521,934l125-11q0-73-29-128t-77.5-85T712,1262q-51,0-84,14.5t-59,33t-54.5,33T444,1357t-70.5-32T345,1246l-125,6q0,73 28.5,128.5t77.5,87T435,1499q43,0 75.5-14.5t61.5-33t60-33t71-14.5q42,0 71,32.5t29,79.5Z" />
      <glyph unicode="&#xf2;" glyph-name="gid292" horiz-adv-x="1168" d="M92,529v23q0,117 34,217.5t98,175t155,116T583,1102q114,0 205.5-41.5t156-116t98.5-175T1077,552V529q0-117-34-217T944.5,137.5t-155-116T585-20T380,21.5t-155.5,116T126,312T92,529Zm185,23V529q0-81 19-152.5T353.5,250T450,163.5T585,132q76,0 133.5,31.5T814,250t57.5,126.5T891,529v23q0,80-19.5,151.5t-58,127t-96,87.5T583,950q-76,0-133.5-32t-96-87.5T296,703.5T277,552Zm210,984l193-294H521L263,1536H487Z" />
      <glyph unicode="&#xf3;" glyph-name="gid293" horiz-adv-x="1168" d="M92,529v23q0,117 34,217.5t98,175t155,116T583,1102q114,0 205.5-41.5t156-116t98.5-175T1077,552V529q0-117-34-217T944.5,137.5t-155-116T585-20T380,21.5t-155.5,116T126,312T92,529Zm185,23V529q0-81 19-152.5T353.5,250T450,163.5T585,132q76,0 133.5,31.5T814,250t57.5,126.5T891,529v23q0,80-19.5,151.5t-58,127t-96,87.5T583,950q-76,0-133.5-32t-96-87.5T296,703.5T277,552Zm196,690l194,294H890L622,1242H473Z" />
      <glyph unicode="&#xf4;" glyph-name="gid294" horiz-adv-x="1168" d="M92,529v23q0,117 34,217.5t98,175t155,116T583,1102q114,0 205.5-41.5t156-116t98.5-175T1077,552V529q0-117-34-217T944.5,137.5t-155-116T585-20T380,21.5t-155.5,116T126,312T92,529Zm185,23V529q0-81 19-152.5T353.5,250T450,163.5T585,132q76,0 133.5,31.5T814,250t57.5,126.5T891,529v23q0,80-19.5,151.5t-58,127t-96,87.5T583,950q-76,0-133.5-32t-96-87.5T296,703.5T277,552Zm354,984l248-273v-10H725L575,1422L426,1253H274v11l245,272H631Z" />
      <glyph unicode="&#xf5;" glyph-name="gid295" horiz-adv-x="1168" d="M92,529v23q0,117 34,217.5t98,175t155,116T583,1102q114,0 205.5-41.5t156-116t98.5-175T1077,552V529q0-117-34-217T944.5,137.5t-155-116T585-20T380,21.5t-155.5,116T126,312T92,529Zm185,23V529q0-81 19-152.5T353.5,250T450,163.5T585,132q76,0 133.5,31.5T814,250t57.5,126.5T891,529v23q0,80-19.5,151.5t-58,127t-96,87.5T583,950q-76,0-133.5-32t-96-87.5T296,703.5T277,552Zm528,964l125-11q0-73-29-128t-77.5-85T714,1262q-51,0-84,14.5t-59,33t-54.5,33T446,1357t-70.5-32T347,1246l-125,6q0,73 28.5,128.5t77.5,87T437,1499q43,0 75.5-14.5t61.5-33t60-33t71-14.5q42,0 71,32.5t29,79.5Z" />
      <glyph unicode="&#xf6;" glyph-name="gid296" horiz-adv-x="1168" d="M92,529v23q0,117 34,217.5t98,175t155,116T583,1102q114,0 205.5-41.5t156-116t98.5-175T1077,552V529q0-117-34-217T944.5,137.5t-155-116T585-20T380,21.5t-155.5,116T126,312T92,529Zm185,23V529q0-81 19-152.5T353.5,250T450,163.5T585,132q76,0 133.5,31.5T814,250t57.5,126.5T891,529v23q0,80-19.5,151.5t-58,127t-96,87.5T583,950q-76,0-133.5-32t-96-87.5T296,703.5T277,552Zm-24,819q0,45 28,76t81,31q54,0 82-31t28-76q0-43-28-73.5T362,1267q-53,0-81,30.5T253,1371Zm431-2q0,45 27.5,76t81.5,31q53,0 81.5-31t28.5-76q0-43-28.5-73.5T793,1265q-54,0-81.5,30.5T684,1369Z" />
      <glyph unicode="&#xf7;" glyph-name="gid136" horiz-adv-x="1170" d="M1069,784V600H71V784h998ZM462,1098q0,48 29,80t85,32t85.5-32t29.5-80q0-46-29.5-77.5T576,989t-85,31.5T462,1098Zm0-816q0,47 29,79.5T576,394t85.5-32.5T691,282q0-46-29.5-78T576,172t-85,32t-29,78Z" />
      <glyph unicode="&#xf8;" glyph-name="gid137" horiz-adv-x="1161" d="M983,1209L320-135H197L860,1209H983ZM92,529v23q0,117 34,217.5t98,175t155,116T583,1102q114,0 205.5-41.5T944,944.5t98-175T1076,552V529q0-117-34-217T944,137.5T789.5,21.5T585-20T380,21.5t-155.5,116T126,312T92,529Zm185,23V529q0-81 19-152.5T353.5,250T450,163.5T585,132q76,0 133.5,31.5T814,250t57.5,126.5T891,529v23q0,80-19.5,151.5t-58,127t-96,87.5T583,950q-76,0-133.5-32t-96-87.5T296,703.5T277,552Z" />
      <glyph unicode="&#xf9;" glyph-name="gid297" horiz-adv-x="1129" d="M803,250v832H989V0H812l-9,250Zm35,228l77,2q0-108-22.5-199.5T820,122T689,17.5T492-20Q413-20 347.5,3T235,74T162.5,199T137,384v698H322V382q0-73 16.5-120.5t45-75t64-38.5T521,137q118,0 187,45.5t99.5,123T838,478ZM479,1536l193-294H513L255,1536H479Z" />
      <glyph unicode="&#xfa;" glyph-name="gid298" horiz-adv-x="1129" d="M803,250v832H989V0H812l-9,250Zm35,228l77,2q0-108-22.5-199.5T820,122T689,17.5T492-20Q413-20 347.5,3T235,74T162.5,199T137,384v698H322V382q0-73 16.5-120.5t45-75t64-38.5T521,137q118,0 187,45.5t99.5,123T838,478ZM465,1242l194,294H882L614,1242H465Z" />
      <glyph unicode="&#xfb;" glyph-name="gid299" horiz-adv-x="1129" d="M803,250v832H989V0H812l-9,250Zm35,228l77,2q0-108-22.5-199.5T820,122T689,17.5T492-20Q413-20 347.5,3T235,74T162.5,199T137,384v698H322V382q0-73 16.5-120.5t45-75t64-38.5T521,137q118,0 187,45.5t99.5,123T838,478ZM623,1536l248-273v-10H717L567,1422L418,1253H266v11l245,272H623Z" />
      <glyph unicode="&#xfc;" glyph-name="gid300" horiz-adv-x="1129" d="M803,250v832H989V0H812l-9,250Zm35,228l77,2q0-108-22.5-199.5T820,122T689,17.5T492-20Q413-20 347.5,3T235,74T162.5,199T137,384v698H322V382q0-73 16.5-120.5t45-75t64-38.5T521,137q118,0 187,45.5t99.5,123T838,478ZM245,1371q0,45 28,76t81,31q54,0 82-31t28-76q0-43-28-73.5T354,1267q-53,0-81,30.5T245,1371Zm431-2q0,45 27.5,76t81.5,31q53,0 81.5-31t28.5-76q0-43-28.5-73.5T785,1265q-54,0-81.5,30.5T676,1369Z" />
      <glyph unicode="&#xfd;" glyph-name="gid301" horiz-adv-x="969" d="M445,112l301,970H944L510-167q-15-40-39.5-86.5T408-342t-91.5-68.5T189-437q-22,0-56,6T85-421L84-271q8-1 25.5-2.5T134-275q63,0 107,16.5t74.5,55T368-98l77,210ZM224,1082L505,242L553,47L420-21L22,1082H224Zm182,160l194,294H823L555,1242H406Z" />
      <glyph unicode="&#xfe;" glyph-name="gid138" horiz-adv-x="1180" d="M335,1536V-416H149V1536H335Zm729-986V529q0-118-28-218.5T954.5,136T823,21T644-20Q541-20 462,14T328,113T240.5,269T196,474V586q12,120 45,215t87.5,162.5t132.5,103T641,1102t181-39.5T955,950t81.5-174.5T1064,550ZM878,529v21q0,81-17,152.5t-52.5,126t-90.5,86T587,946q-70,0-121.5-24T378,857.5t-58.5-92T286,659V400q15-53 38.5-101t59-85.5t86-59.5T589,132q75,0 129.5,31.5t90,86.5T861,376.5T878,529Z" />
      <glyph unicode="&#xff;" glyph-name="gid302" horiz-adv-x="969" d="M445,112l301,970H944L510-167q-15-40-39.5-86.5T408-342t-91.5-68.5T189-437q-22,0-56,6T85-421L84-271q8-1 25.5-2.5T134-275q63,0 107,16.5t74.5,55T368-98l77,210ZM224,1082L505,242L553,47L420-21L22,1082H224Zm-38,289q0,45 28,76t81,31q54,0 82-31t28-76q0-43-28-73.5T295,1267q-53,0-81,30.5T186,1371Zm431-2q0,45 27.5,76t81.5,31q53,0 81.5-31t28.5-76q0-43-28.5-73.5T726,1265q-54,0-81.5,30.5T617,1369Z" />
      <glyph unicode="&#x2013;" glyph-name="gid177" horiz-adv-x="1344" d="M1164,803V651H162V803H1164Z" />
      <glyph unicode="&#x2014;" glyph-name="gid178" horiz-adv-x="1599" d="M1480,803V651H144V803H1480Z" />
      <glyph unicode="&#x2018;" glyph-name="gid179" horiz-adv-x="410" d="M97,1073v121q0,61 20.5,127.5t59.5,128T271,1556l105-73q-46-66-71-135.5T280,1197V1073H97Z" />
      <glyph unicode="&#x2019;" glyph-name="gid180" horiz-adv-x="410" d="M328,1536V1408q0-60-20.5-126.5t-59.5-128T154,1046L48,1119q47,66 71.5,135.5T144,1405v131H328Z" />
      <glyph unicode="&#x201a;" glyph-name="gid181" horiz-adv-x="408" d="M316,182V79q0-60-20.5-126.5T236-175.5T142-283L36-211q47,66 71,136T131,76V182H316Z" />
      <glyph unicode="&#x201c;" glyph-name="gid182" horiz-adv-x="724" d="M105,1073v121q0,61 20.5,127.5t59.5,128T279,1556l105-73q-46-66-71-135.5T288,1197V1073H105Zm315,0v121q0,61 20.5,127.5t59.5,128T594,1556l105-73q-46-66-71-135.5T603,1197V1073H420Z" />
      <glyph unicode="&#x201d;" glyph-name="gid183" horiz-adv-x="732" d="M340,1536V1408q0-60-20.5-126.5t-59.5-128T166,1046L60,1119q47,66 71.5,135.5T156,1405v131H340Zm307,0V1408q0-60-20.5-126.5t-59.5-128T473,1046l-106,73q47,66 71.5,135.5T463,1405v131H647Z" />
      <glyph unicode="&#x201e;" glyph-name="gid184" horiz-adv-x="706" d="M316,246V79q0-64-20.5-134T236-189.5T142-302L36-229q47,71 71,145T131,76V246H316Zm296,0V79q0-64-20.5-134T532-189.5T438-302L332-229q47,71 71,145T427,76V246H612Z" />
      <glyph unicode="&#x2022;" glyph-name="gid186" horiz-adv-x="691" d="M139,732v41q0,86 54.5,142T342,971q95,0 150-56t55-142V732q0-85-54.5-140.5T343,536q-94,0-149,55.5T139,732Z" />
      <glyph unicode="&#x2039;" glyph-name="gid188" horiz-adv-x="615" d="M545,949L284,547l-176,1v13L403,949H545ZM284,556L545,153H403L108,542v13l176,1Z" />
      <glyph unicode="&#x203a;" glyph-name="gid189" horiz-adv-x="615" d="M90,153L351,555l176-1V541L232,153H90Zm0,796H232L527,560V547l-176-1L90,949Z" />
    </font>
</defs>
</svg>
