<?xml version="1.0" standalone="no"?>
<!DOCTYPE svg PUBLIC "-//W3C//DTD SVG 1.1//EN" "http://www.w3.org/Graphics/SVG/1.1/DTD/svg11.dtd">
<svg xmlns="http://www.w3.org/2000/svg">
  <defs>
    <font id="Fahkwang" horiz-adv-x="628">
      <font-face font-family="Fahkwang" units-per-em="1000" panose-1="0 0 5 0 0 0 0 0 0 0" ascent="1008" descent="-292" alphabetic="0" />
      <glyph unicode=" " glyph-name="space" horiz-adv-x="266" />
      <glyph unicode="!" glyph-name="exclam" horiz-adv-x="248" d="M110,150q-3,64-17,204Q72,566 74,658q1,31 14,47.5T124,722q24,0 37-16.5T174,658q0-71-8.5-173T155,364q-11-117-17-214H110ZM124-10Q99-10 83.5,5.5T68,46q0,24 15.5,39.5T124,101t40.5-15.5T180,46q0-25-15.5-40.5T124-10Z" />
      <glyph unicode="&quot;" glyph-name="quotedbl" horiz-adv-x="353" d="M78,382q-8,94-17,181q-9,86-9,102q0,21 10.5,33T91,710t28.5-12.5T130,664q0-15-9-100q-9-88-17-182H78Zm171,0q-8,94-17,181q-9,86-9,102q0,21 10.5,33T262,710t28.5-12.5T301,664q0-15-9-100q-9-88-17-182H249Z" />
      <glyph unicode="#" glyph-name="numbersign" horiz-adv-x="641" d="M474,416L451,255H561V213H446L416,0H356l30,213H231L201,0H141l30,213H52v42H176l23,161H80v42H204l30,213h60L264,458H419l30,213h60L479,458H589V416H474Zm-60,0H259L236,255H391l23,161Z" />
      <glyph unicode="$" glyph-name="dollar" horiz-adv-x="764" d="M706,189q0-91-81-144T405-10V-116H352V-9Q219-1 142.5,57T58,217h90q7-92 66.5-135.5T390,38q103,0 157.5,36T602,177q0,40-21,67t-71.5,48T368,331q-145,28-218.5,72.5T76,529q0,86 75.5,131T352,709V819h53V710q128-4 199-53.5T687,523H598q-15,73-70.5,106T374,662q-95,0-144.5-31T180,545q0-33 19-56t66.5-42T401,410q108-22 173.5-48T673,294.5T706,189Z" />
      <glyph unicode="%" glyph-name="percent" horiz-adv-x="1006" d="M241,285q-94,0-145.5,55.5T44,498q0,101 51.5,156.5T241,710t145-55.5T437,498q0-102-51-157.5T241,285ZM260,0L672,700h79L339,0H260ZM241,327q51,0 78.5,44T347,498T319.5,625T241,669t-79-44T134,498t28-127t79-44ZM765-10q-94,0-145,55.5T569,202q0,102 51,157.5T765,415t145.5-55.5T962,202q0-101-51.5-156.5T765-10Zm0,41q51,0 79,44t28,127T844,329t-79,44t-78.5-44T659,202T686.5,75T765,31Z" />
      <glyph unicode="&amp;" glyph-name="ampersand" horiz-adv-x="758" d="M623,0q-34,24-78,62Q498,28 438,9T312-10Q188-10 118,40T48,178q0,72 43.5,125T226,395q-38,46-56,81.5T152,553q0,72 47,114.5T328,710q78,0 124-33.5T498,585q0-63-44-103.5T323,400Q437,262 560,149q34,54 34,123q0,42-11,78h85q3-24 3-40q0-56-18.5-106T600,114Q678,45 748,0H623ZM320,672q-41,0-64.5-28T232,567q0-32 14.5-62.5T294,432q50,29 78.5,67.5T401,578q0,44-21.5,69T320,672Zm0-640q114,0 190,60Q378,210 253,361Q153,299 153,186q0-73 44.5-113.5T320,32Z" />
      <glyph unicode="&apos;" glyph-name="quotesingle" horiz-adv-x="182" d="M78,382q-8,94-17,181q-9,86-9,102q0,21 10.5,33T91,710t28.5-12.5T130,664q0-15-9-100q-9-88-17-182H78Z" />
      <glyph unicode="(" glyph-name="parenleft" horiz-adv-x="301" d="M220-139Q128-23 86.5,83T45,309q0,119 41,222.5T220,750h48q-65-112-93-214T147,309q0-129 29-236t92-212H220Z" />
      <glyph unicode=")" glyph-name="parenright" horiz-adv-x="301" d="M33-139Q96-34 125,73t29,236q0,125-28,227T33,750H81q93-115 134-218.5T256,309q0-120-41.5-226T81-139H33Z" />
      <glyph unicode="*" glyph-name="asterisk" horiz-adv-x="465" d="M92,391L208,505L51,532l27,77l139-74L190,700h82L246,534l143,75l25-77L255,505L374,391l-67-53L232,489L158,338L92,391Z" />
      <glyph unicode="+" glyph-name="plus" horiz-adv-x="660" d="M289,256H44v58H289V570h82V314H616V256H371V0H289V256Z" />
      <glyph unicode="," glyph-name="comma" horiz-adv-x="208" d="M61-128q26,21 42.5,56.5T119,1Q109-5 97-5Q75-5 61,9T47,45q0,23 14.5,37.5T101,97q28,0 44-20.5T161,19q0-47-24-92T76-140L61-128Z" />
      <glyph unicode="-" glyph-name="hyphen" horiz-adv-x="461" d="M52,277H409V235H52v42Z" />
      <glyph unicode="." glyph-name="period" horiz-adv-x="207" d="M103-10Q78-10 62.5,5.5T47,45q0,23 16,38.5T103,99q25,0 41-15.5T160,45q0-24-16-39.5T103-10Z" />
      <glyph unicode="/" glyph-name="slash" horiz-adv-x="329" d="M281,721h52L48-22H-4L281,721Z" />
      <glyph unicode="0" glyph-name="zero" horiz-adv-x="695" d="M348-10Q192-10 107.5,83.5T23,350t84.5,266.5T348,710q155,0 239.5-93.5T672,350T588,83.5T348-10Zm0,42q104,0 161.5,83T567,350T509.5,585T348,668T186.5,585T129,350t57.5-235T348,32Z" />
      <glyph unicode="1" glyph-name="one" horiz-adv-x="696" d="M337,546H155v39q74,2 127,31.5T359,700h80V0H337V546Z" />
      <glyph unicode="2" glyph-name="two" horiz-adv-x="695" d="M51,0q8,74 70,137T314,268q79,42 124,77t65,71.5T523,499q0,80-48,122.5T337,664q-93,0-146.5-46.5T135,490H45q12,102 92,161t205,59q85,0 149.5-26T592,610t36-110q0-51-25-93.5T520.5,321T361,224q-69-37-107.5-64t-57-53.5T172,46H642V0H51Z" />
      <glyph unicode="3" glyph-name="three" horiz-adv-x="695" d="M352-10Q214-10 132.5,42T47,186h89q4-73 60-113T350,33T500,75.5T552,198q0,78-51.5,115T341,350q-70,0-128-11v57q35-6 95-6q95,0 153,39.5T519,534q0,62-48,97.5T339,667q-91,0-147.5-41.5T131,514H41q2,58 40.5,102.5t105,69T339,710q83,0 148-22.5t101-63T624,533q0-55-42.5-97.5T465,375q192-28 192-176q0-98-81-153.5T352-10Z" />
      <glyph unicode="4" glyph-name="four" horiz-adv-x="695" d="M449,119H38v35L506,710h47V164H663V119H553V0H449V119Zm0,45V554L124,164H449Z" />
      <glyph unicode="5" glyph-name="five" horiz-adv-x="695" d="M340-10Q206-10 130.5,41T51,186H156q4-72 53-112.5T340,33q96,0 150,48.5T544,217q0,88-55.5,138T335,405T159,347H68l37,353H615V655H205L178,408q73,42 176,42q89,0 156-28t103-80t36-120q0-109-82-170.5T340-10Z" />
      <glyph unicode="6" glyph-name="six" horiz-adv-x="696" d="M377,475q86,0 150.5-29t100-82.5T663,239q0-73-38-129.5t-107-88T359-10Q204-10 118,80.5T32,336q0,115 41,199.5T190,665t180,45q70,0 128-22t96.5-61.5T645,535H556q-22,65-70.5,98.5T368,667q-70,0-122.5-37T164,526T135,370V353q32,58 96,90t146,32ZM359,33q91,0 145,53.5T558,231T504,376.5T359,431q-90,0-143.5-54T162,231T215,86T359,33Z" />
      <glyph unicode="7" glyph-name="seven" horiz-adv-x="695" d="M189,0q0,79 22.5,151.5t73,152.5T421,486q57,67 79.5,104T524,655H49v45H640q0-40-26.5-85T512,482Q393,341 343.5,233T294,0H189Z" />
      <glyph unicode="8" glyph-name="eight" horiz-adv-x="696" d="M443,392q119-41 173.5-88T671,193q0-61-40.5-107T516,15T342-10q-97,0-168.5,24T63.5,82T25,186q0,70 53,121.5T224,380q-81,33-119,71.5T67,538q0,79 77,125.5T353,710q81,0 143-20t96-56.5T626,549q0-52-49-93.5T443,392ZM172,556q0-45 46.5-77T378,413q68,25 105.5,63T521,556q0,49-49,80T345,667T219.5,636.5T172,556ZM349,33q98,0 157,41t59,110q0,35-22.5,61.5T470,295T333,343l-38,12q-80-19-122.5-59.5T130,197q0-74 60-119T349,33Z" />
      <glyph unicode="9" glyph-name="nine" horiz-adv-x="696" d="M336,710q155,0 241-90.5T663,364q0-115-41-199.5T505,35T325-10q-69,0-127.5,22t-97,61.5T50,165h89q22-64 70.5-98T327,33q70,0 123,37t81.5,104T560,330v9q-32-53-97-83.5T318,225q-86,0-150.5,29t-100,82.5T32,461q0,73 38,129.5t107,88T336,710Zm0-441q91,0 144,54t53,146T480,614T336,667T191,613.5T137,469t54.5-145.5T336,269Z" />
      <glyph unicode=":" glyph-name="colon" horiz-adv-x="207" d="M103-10Q78-10 62.5,5.5T47,45q0,23 16,38.5T103,99q25,0 41-15.5T160,45q0-24-16-39.5T103-10Zm0,400q-25,0-40.5,15.5T47,445q0,23 16,38.5T103,499q25,0 41-15.5T160,445q0-24-16-39.5T103,390Z" />
      <glyph unicode=";" glyph-name="semicolon" horiz-adv-x="208" d="M105,390q-25,0-40.5,15.5T49,445q0,23 16,38.5T105,499q25,0 41-15.5T162,445q0-24-16-39.5T105,390ZM61-128q26,21 42.5,56.5T119,1Q109-5 97-5Q75-5 61,9T47,45q0,23 14.5,37.5T101,97q28,0 44-20.5T161,19q0-47-24-92T76-140L61-128Z" />
      <glyph unicode="&lt;" glyph-name="less" horiz-adv-x="660" d="M49,264v56L611,583V512L135,292L611,72V1L49,264Z" />
      <glyph unicode="=" glyph-name="equal" horiz-adv-x="660" d="M44,412H616V355H44v57Zm0-197H616V158H44v57Z" />
      <glyph unicode="&gt;" glyph-name="greater" horiz-adv-x="660" d="M49,72L525,292L49,512v71L611,320V264L49,1V72Z" />
      <glyph unicode="?" glyph-name="question" horiz-adv-x="542" d="M256,153q0,78 18.5,130.5T337,383q31,34 48,68t17,76q0,64-35,101.5T271,666q-64,0-101.5-39.5T126,513H39q8,92 69.5,144.5T270,710q109,0 171-49.5T503,524q0-50-25.5-87.5T398,353q-53-45-79.5-90.5T292,153H256ZM274-10q-24,0-39.5,15.5T219,46q0,24 15.5,39.5T274,101q25,0 40.5-15.5T330,46q0-25-15.5-40.5T274-10Z" />
      <glyph unicode="@" glyph-name="at" horiz-adv-x="861" d="M447-114q-192,0-295.5,87.5T48,226q0,117 50,205T239.5,566.5T454,614q111,0 192-38T770,467t43-170q0-73-24-128T721.5,84T621,54q-46,0-75,20.5T510,132q-21-36-53.5-55T384,58q-58,0-92,34.5T258,195q0,69 23.5,123.5t66.5,85T447,434q34,0 59-17.5T540,370l35,52h53l-16-52q-18-58-33.5-124T563,148q0-29 14-42.5T622,92q60,0 95.5,56.5T753,301q0,80-37.5,141.5T610.5,538T454,572q-98,0-170.5-41.5T171.5,411T132,226Q132,83 212,3.5T443-76q57,0 127,14.5T680-26l8-32Q647-82 576.5-98T447-114ZM397,100q37,0 64.5,32.5t41.5,80T517,303q0,37-16.5,63T455,392q-32,0-59-28t-42.5-75T338,189q0-48 17-68.5T397,100Z" />
      <glyph unicode="A" glyph-name="A" horiz-adv-x="779" d="M573,182H170L79,0H9L373,710h54L770,0H658L573,182Zm-23,48L378,598L194,230H550Z" />
      <glyph unicode="B" glyph-name="B" horiz-adv-x="750" d="M74,700H400q126,0 200-44t74-120q0-65-53-111.5T482,365q114-11 174-52.5T716,188q0-91-75-139.5T424,0H74V700ZM362,387q101,0 155,36.5T571,530q0,62-51,92T365,652H178V387H362ZM434,48q84,0 131,38t47,107q0,73-64.5,109.5T356,339H178V48H434Z" />
      <glyph unicode="C" glyph-name="C" horiz-adv-x="807" d="M426-10Q247-10 151,84T55,353q0,171 95.5,264T424,710q145,0 236-61T768,479H678q-17,86-83,134.5T429,662q-130,0-199.5-80T160,353q0-152 70-233.5T431,38q100,0 165,48t82,135h90Q751,112 660,51T426-10Z" />
      <glyph unicode="D" glyph-name="D" horiz-adv-x="803" d="M75,700H347q196,0 298-86T747,362q0-173-102.5-267.5T353,0H75V700ZM367,48q133,0 204.5,81T643,362q0,143-70,216.5T367,652H179V48H367Z" />
      <glyph unicode="E" glyph-name="E" horiz-adv-x="695" d="M74,700H667V652H178V399H610V352H178V48H667V0H74V700Z" />
      <glyph unicode="F" glyph-name="F" horiz-adv-x="656" d="M74,700H648V652H178V399H581V352H178V0H74V700Z" />
      <glyph unicode="G" glyph-name="G" horiz-adv-x="831" d="M443-10Q321-10 234,32.5T101,156T55,349t45,193T230,666.5T432,710q142,0 233.5-61.5T776,479H686q-18,88-83,135.5T435,662q-129,0-202-82.5T160,350q0-149 74.5-230.5T444,38q63,0 115,13.5T658,94V321H413v45H762V87Q703,40 621.5,15T443-10Z" />
      <glyph unicode="H" glyph-name="H" horiz-adv-x="805" d="M74,700H178V399H627V700H731V0H627V352H178V0H74V700Z" />
      <glyph unicode="I" glyph-name="I" horiz-adv-x="334" d="M115,700H219V0H115V700Z" />
      <glyph unicode="J" glyph-name="J" horiz-adv-x="571" d="M253-10Q143-10 83,35.5T18,165h95q2-65 38.5-96.5T254,37q68,0 103.5,39T393,192V700H497V212q0-108-62.5-165T253-10Z" />
      <glyph unicode="K" glyph-name="K" horiz-adv-x="705" d="M302,344L178,220V0H74V700H178V313L569,700h90L372,414L690,0H567L302,344Z" />
      <glyph unicode="L" glyph-name="L" horiz-adv-x="636" d="M74,700H178V48H618V0H74V700Z" />
      <glyph unicode="M" glyph-name="M" horiz-adv-x="928" d="M853,700V0H749V588L477,0H428L136,596V0H74V700H193L472,124L739,700H853Z" />
      <glyph unicode="N" glyph-name="N" horiz-adv-x="767" d="M74,700H179L605,157V700h88V0H641L162,609V0H74V700Z" />
      <glyph unicode="O" glyph-name="O" horiz-adv-x="865" d="M433-10Q315-10 230,33T100,157.5T55,353q0,112 45,192.5T230,668t203,42t202.5-42T765,545.5T810,353q0-114-45-195.5T635.5,33T433-10Zm0,48q130,0 201,82t71,233q0,148-70.5,228.5T433,662T231,582T160,353q0-151 71-233T433,38Z" />
      <glyph unicode="P" glyph-name="P" horiz-adv-x="664" d="M74,700H339q144,0 223-53t79-162q0-108-78-161T339,271H178V0H74V700ZM341,319q196,0 196,166q0,167-196,167H178V319H341Z" />
      <glyph unicode="Q" glyph-name="Q" horiz-adv-x="865" d="M461-9q16-63 77-99.5T686-145q18,0 36,3l-9-30q-36-6-69-6q-65,0-123.5,21.5T421-95.5T364-6Q217,12 136,105.5T55,353q0,112 45,192.5T230,668t203,42t202.5-42T765,545.5T810,353q0-165-92-259.5T461-9ZM160,353q0-151 71-233T433,38q130,0 201,82t71,233q0,148-70.5,228.5T433,662T231,582T160,353Z" />
      <glyph unicode="R" glyph-name="R" horiz-adv-x="701" d="M608,147q23-58 42.5-92.5T689,8V0H580q-17,19-31.5,48T517,122q-28,74-57,114.5T389,290H363H178V0H74V700H363q144,0 222.5-50.5T664,495q0-155-175-193q38-19 66-55.5T608,147ZM365,337q196,0 196,158q0,157-196,157H178V337H365Z" />
      <glyph unicode="S" glyph-name="S" horiz-adv-x="764" d="M392-10Q241-10 154,49T58,217h90q7-92 66.5-135.5T390,38q103,0 157.5,36T602,177q0,40-21,67t-71.5,48T368,331q-145,28-218.5,72.5T76,529q0,90 84,135.5T381,710q139,0 216.5-49.5T687,523H598q-15,73-70.5,106T374,662q-95,0-144.5-31T180,545q0-33 19-56t66.5-42T401,410q108-22 173.5-48T673,294.5T706,189q0-94-84.5-146.5T392-10Z" />
      <glyph unicode="T" glyph-name="T" horiz-adv-x="713" d="M305,652H9v48H704V652H409V0H305V652Z" />
      <glyph unicode="U" glyph-name="U" horiz-adv-x="805" d="M403-10Q229-10 151.5,67.5T74,291V700H178V268q0-112 53-171T403,38q117,0 170.5,58T627,268V700H731V291q0-146-77-223.5T403-10Z" />
      <glyph unicode="V" glyph-name="V" horiz-adv-x="770" d="M4,700H119L398,109L698,700h68L405-10H351L4,700Z" />
      <glyph unicode="W" glyph-name="W" horiz-adv-x="994" d="M6,700H114L293,170L483,700h61L737,149L928,700h61L745-10H691L493,554L296-10H251L6,700Z" />
      <glyph unicode="X" glyph-name="X" horiz-adv-x="689" d="M563,0L331,296L79,0H4L296,342L16,700H138L359,417L601,700h74L395,371L685,0H563Z" />
      <glyph unicode="Y" glyph-name="Y" horiz-adv-x="724" d="M304,304L4,700H117L372,365L647,700h73L408,319V0H304V304Z" />
      <glyph unicode="Z" glyph-name="Z" horiz-adv-x="655" d="M18,9L504,652H53v48H637v-9L151,48H617V0H18V9Z" />
      <glyph unicode="[" glyph-name="bracketleft" horiz-adv-x="308" d="M266-164q-100,0-145,48T76,38V524q0,105 45,153t145,48V702q-40-5-59.5-23t-25-46.5T176,555V6q0-49 5.5-77.5t25-46.5T266-141v-23Z" />
      <glyph unicode="\" glyph-name="backslash" horiz-adv-x="320" d="M-10,721H42L330-22H278L-10,721Z" />
      <glyph unicode="]" glyph-name="bracketright" horiz-adv-x="308" d="M42-141q40,5 59.5,23t25,46.5T132,6V555q0,49-5.5,77.5t-25,46.5T42,702v23q100,0 145-48t45-153V38q0-106-45-154T42-164v23Z" />
      <glyph unicode="^" glyph-name="asciicircum" horiz-adv-x="671" d="M308,675h58L568,270H492L337,591L180,270H104L308,675Z" />
      <glyph unicode="_" glyph-name="underscore" horiz-adv-x="547" d="M0-102H547v-42H0v42Z" />
      <glyph unicode="`" glyph-name="grave" horiz-adv-x="500" d="M170,667q-39,26-39,47q0,11 9,18.5t23,7.5q29,0 54-26L358,560H323L170,667Z" />
      <glyph unicode="a" glyph-name="a" horiz-adv-x="611" d="M255-10q-97,0-147.5,39T57,140q0,77 61,117.5T296,298H442v36q0,61-37,93T298,459q-66,0-106-30.5T145,342H73q10,76 70,117t160,41q112,0 171-45.5T533,323V161q0-86 15-161H462q-11,45-14,86Q388-10 255-10Zm23,39q46,0 83.5,21.5t59,57.5T442,188v69H321q-88,0-130.5-28.5T148,141q0-55 33-83.5T278,29Z" />
      <glyph unicode="b" glyph-name="b" horiz-adv-x="659" d="M357-10q-67,0-117,26T161,92V0H69V683h92V396q28,49 81,76.5T363,500q114,0 180.5-68T610,246q0-76-31.5-134T490,22T357-10ZM340,30q81,0 129.5,60T518,248T471,403T343,460q-54,0-95.5-27t-64-76T161,244q0-97 49-155.5T340,30Z" />
      <glyph unicode="c" glyph-name="c" horiz-adv-x="633" d="M329-10q-85,0-148.5,31T83,109.5T49,245T83,380.5T180,469t148,31q104,0 171.5-43.5T583,336H508q-14,57-61.5,90T332,459q-88,0-139.5-57.5T141,245T192.5,88.5T332,31q66,0 114,33t62,90h75Q567,77 499,33.5T329-10Z" />
      <glyph unicode="d" glyph-name="d" horiz-adv-x="659" d="M306-10q-75,0-133.5,32.5T81.5,113T49,245q0,76 31,133.5T167.5,468T298,500q67,0 119-26.5T498,399V683h92V0H498V89q-28-48-77.5-73.5T306-10Zm13,40q53,0 93.5,26.5t63,75T498,243q0,65-22.5,114.5t-64,76T316,460q-80,0-127.5-57.5T141,247q0-65 22-114t62.5-76T319,30Z" />
      <glyph unicode="e" glyph-name="e" horiz-adv-x="629" d="M325,31q68,0 114.5,33T499,154h75Q555,77 487,33.5T321-10q-82,0-143.5,31t-95,88.5T49,243q0,78 33,136t94.5,89.5T319,500q122,0 190.5-66T581,248H141v-5q0-99 48-155.5T325,31Zm-4,428q-75,0-121-44.5T144,289H494q-11,82-55.5,126T321,459Z" />
      <glyph unicode="f" glyph-name="f" horiz-adv-x="341" d="M115,449H14l12,41h89v53q0,66 38,101t111,35q54,0 88-18l-13-42q-21,19-53,19q-37,0-58-22.5T207,553V490H343l-11-41H207V0H115V449Z" />
      <glyph unicode="g" glyph-name="g" horiz-adv-x="644" d="M595,478q-33,15-76,15q-47,0-80-13q52-20 80-57t28-89q0-72-57.5-120.5T316,161q-44-2-74-12.5T212,123q0-13 19.5-19.5T281,97h43q124,0 191.5-34.5T583-36q0-48-34.5-83.5t-98-55T303-194q-80,0-139.5,16.5t-92,46T39-63Q39-21 79,7.5T203,47q-46,6-68,23.5T113,112t27,43t71,24q-67,18-99.5,58T79,335q0,75 64,120t170,45q46,0 80-7q27,25 62,38t74,13q40,0 66-9V478ZM313,203q69,0 106,32.5T456,331q0,62-37,95T313,459q-68,0-105-33t-37-95q0-63 36.5-95.5T313,203ZM333,41Q228,41 169,14.5T110-58q0-44 53-71.5T304-157q92,0 147.5,32T507-43q0,42-47.5,63T333,41Z" />
      <glyph unicode="h" glyph-name="h" horiz-adv-x="617" d="M69,683h92V396q26,49 77.5,76.5T355,500q96,0 149.5-47.5T558,320V0H466V329q0,62-34,96t-97,34q-79,0-126.5-52T161,270V0H69V683Z" />
      <glyph unicode="i" glyph-name="i" horiz-adv-x="276" d="M138,551q-30,0-49,17T70,613t19,45t49,17t49-17t19-45t-19-45t-49-17ZM92,490h92V0H92V490Z" />
      <glyph unicode="j" glyph-name="j" horiz-adv-x="292" d="M154,551q-30,0-49,17T86,613t19,45t49,17t49-17t19-45t-19-45t-49-17ZM37-184q-67,0-108,35l28,49q26-41 69-41q42,0 61.5,40.5T107,26V490h92V46q0-113-41.5-171.5T37-184Z" />
      <glyph unicode="k" glyph-name="k" horiz-adv-x="575" d="M459,0L249,265l-88-77V0H69V683h92V254L436,490h71L308,317L559,0H459Z" />
      <glyph unicode="l" glyph-name="l" horiz-adv-x="284" d="M96,683h92V0H96V683Z" />
      <glyph unicode="m" glyph-name="m" horiz-adv-x="954" d="M70,490h90V407q22,44 67.5,68.5T332,500q71,0 117.5-30T515,383q23,59 69.5,88T696,500q96,0 147-47.5T894,317V0H802V326q0,61-34.5,97T675,459q-68,0-108-56.5T527,247V0H437V283q0,85-34.5,130.5T304,459q-65,0-103.5-48.5T162,279V0H70V490Z" />
      <glyph unicode="n" glyph-name="n" horiz-adv-x="619" d="M70,490h92V404q24,44 74.5,70T350,500q97,0 153-50.5T559,313V0H467V323q0,65-36,100.5T329,459q-76,0-121.5-49.5T162,279V0H70V490Z" />
      <glyph unicode="o" glyph-name="o" horiz-adv-x="665" d="M332-10q-85,0-149,31.5T84,111T49,245T84,379t99,89.5T332,500t149.5-31.5T581,379t35-134T581,111T481.5,21.5T332-10Zm0,41q89,0 140,57t51,157T472,402T332,459T192.5,402T142,245T192.5,88T332,31Z" />
      <glyph unicode="p" glyph-name="p" horiz-adv-x="659" d="M69,490h92V399q28,47 80.5,74T360,500q117,0 183.5-67.5T610,247q0-120-67-188.5T360-10q-68,0-119,27T161,95V-190H69V490ZM339,30q53,0 94,27.5t63,77T518,249q0,98-47.5,154.5T342,460q-53,0-94.5-27t-64-76T161,244q0-98 48-156T339,30Z" />
      <glyph unicode="q" glyph-name="q" horiz-adv-x="659" d="M498,95q-29-51-80-78T299-10Q183-10 116,58.5T49,247q0,118 66.5,185.5T299,500q66,0 118-27t81-74v91h92V-190H498V95ZM320,30q81,0 129.5,58.5T498,244q0,64-22.5,113t-64,76T317,460q-81,0-128.5-56.5T141,249q0-65 22-114.5t63-77T320,30Z" />
      <glyph unicode="r" glyph-name="r" horiz-adv-x="363" d="M67,490h92V385q19,55 60.5,85T320,500q23,0 34-4l-9-64q-15,8-42,8q-68,0-106-57T159,239V0H67V490Z" />
      <glyph unicode="s" glyph-name="s" horiz-adv-x="590" d="M293-10Q190-10 126.5,30T50,142h76q8-52 52.5-81.5T296,31q69,0 110.5,28T448,133q0,37-36,58.5T292,227T158.5,258.5T87,301.5T65,365q0,62 59.5,98.5T291,500q104,0 168.5-39.5T534,350H458q-9,51-52,80T297,459q-63,0-101.5-22.5T157,376q0-23 13-37t47.5-25T320,291q116-20 168-55.5T540,139q0-70-65.5-109.5T293-10Z" />
      <glyph unicode="t" glyph-name="t" horiz-adv-x="357" d="M230-10q-65,0-97,36T101,137V449H13l14,41h75l36,138h55V490H330l-13-41H193V123q0-91 68-91q36,0 70,19V8Q289-10 230-10Z" />
      <glyph unicode="u" glyph-name="u" horiz-adv-x="617" d="M267-10q-98,0-153.5,50.5T58,180V490h92V170q0-67 35.5-103T287,31q76,0 122.5,49.5T456,211V490h92V0H456V86q-24-45-74-70.5T267-10Z" />
      <glyph unicode="v" glyph-name="v" horiz-adv-x="575" d="M8,490H108L312,95L512,490h54L316-10H273L8,490Z" />
      <glyph unicode="w" glyph-name="w" horiz-adv-x="837" d="M11,490h97L264,127L406,500h45L609,118L770,490h56L611-10H568L412,363L270-10H229L11,490Z" />
      <glyph unicode="x" glyph-name="x" horiz-adv-x="532" d="M419,0L250,201L75,0H8L217,241L8,490H113L274,298L437,490h65L306,259L522,0H419Z" />
      <glyph unicode="y" glyph-name="y" horiz-adv-x="571" d="M116-193q-31,0-58.5,8T12-163l28,49q11-15 31.5-24t39.5-9q33,0 66.5,21.5T232-70T253-1q0,34-16,63L8,490H110L312,95L504,490h58L317-15Q230-193 116-193Z" />
      <glyph unicode="z" glyph-name="z" horiz-adv-x="544" d="M393,449H63l14,41H516L152,41H509L494,0H28L393,449Z" />
      <glyph unicode="{" glyph-name="braceleft" horiz-adv-x="346" d="M304-164q-77,0-117,22T134.5-87.5T122-12q0,27 4,81q4,48 4,66q0,62-17.5,92T52,270v21q43,13 60.5,43T130,426q0,18-4,66q-4,54-4,81q0,46 12.5,78.5t52.5,53T304,725V702q-49,0-66-31.5T221,577q0-24 3-56q1-13 2-30.5t1-39.5q0-78-17.5-117.5T147,281v-1q45-13 62.5-52.5T227,110q0-23-1-42t-2-32q-3-31-3-52q0-70 18.5-97.5T304-141v-23Z" />
      <glyph unicode="|" glyph-name="bar" horiz-adv-x="222" d="M68,737h86V-192H68V737Z" />
      <glyph unicode="}" glyph-name="braceright" horiz-adv-x="346" d="M42-141q46,0 64.5,27.5T125-16q0,21-3,52q-1,13-2,32t-1,42q0,78 17.5,117.5T199,280v1q-45,13-62.5,52.5T119,451q0,22 1,39.5t2,30.5q3,32 3,56q0,62-17,93.5T42,702v23q77,0 117-20.5t52.5-53T224,573q0-27-4-81q-4-48-4-66q0-62 17.5-92T294,291V270q-43-13-60.5-43T216,135q0-18 4-66q4-54 4-81q0-43-12.5-75.5T159-142T42-164v23Z" />
      <glyph unicode="~" glyph-name="asciitilde" horiz-adv-x="671" d="M451,214q-30,0-59,9t-68,33q-37,23-61,31.5T217,296q-83,0-128-79L46,257q24,46 69.5,73.5T218,358q33,0 64.5-10T351,314q33-21 56.5-29.5T451,276q35,0 67.5,22T569,356l45-42q-23-42-69.5-71T451,214Z" />
      <glyph unicode="&#xa0;" glyph-name="uni00A0" horiz-adv-x="266" />
      <glyph unicode="&#xa1;" glyph-name="exclamdown" horiz-adv-x="248" d="M124,587q25,0 40.5-15.5T180,531q0-24-15.5-39.5T124,476T83.5,491.5T68,531q0,25 15.5,40.5T124,587Zm14-160q6-97 17-214q2-19 10.5-121T174-81q0-31-13-47.5T124-145q-23,0-36,16.5T74-81Q72,11 93,223q14,140 17,204h28Z" />
      <glyph unicode="&#xa2;" glyph-name="cent" horiz-adv-x="633" d="M332,131q66,0 114,33t62,90h75q-15-72-76-115T353,91V-17H305V91q-119,6-187.5,73.5T49,345t68.5,180.5T305,599V708h48V599q93-5 153.5-48T583,436H508q-14,57-61.5,90T332,559q-88,0-139.5-57.5T141,345t51.5-156.5T332,131Z" />
      <glyph unicode="&#xa3;" glyph-name="sterling" horiz-adv-x="724" d="M683,123q-18-58-59-93T521-5q-49,0-82,19T373,73l-8,9q-24-42-70-64.5T186-5Q121-5 79.5,20.5T38,92q0,49 49.5,77T216,197q37,0 74-8q-10,60-42,144l-2,6H124v44H231q-24,79-24,119q0,86 58,136t157,50q76,0 123.5-28T621,577l-56-23q-16,41-49.5,65.5T432,644q-57,0-90.5-32.5T308,524q0-36 7-68.5T337,383H557V339H355q19-47 27.5-81t8.5-72q0-21-3-41q20-13 36-29q34-31 58.5-46.5T538,54q42,0 71.5,20T661,132l22-9ZM199,40q42,0 67,27.5T293,141q-40,21-83,21q-37,0-60-16.5T127,99q0-28 19.5-43.5T199,40Z" />
      <glyph unicode="&#xa4;" glyph-name="currency" horiz-adv-x="706" d="M353,72q-48,0-92,14.5T184,128L125,72L87,110l59,55Q87,234 87,336t59,171L87,562l38,38l59-56q33,27 77,41.5T353,600q100,0 170-56l59,56l37-38l-58-55q58-68 58-171T561,165l58-55L582,72l-59,56q-34-27-78-41.5T353,72Zm0,54q61,0 109,26.5T536.5,227T563,336T536.5,445T462,519.5T353,546T244,519.5T169.5,445T143,336t26.5-109T244,152.5T353,126Z" />
      <glyph unicode="&#xa5;" glyph-name="yen" horiz-adv-x="724" d="M414,326H570V286H408V209H570V168H408V0H304V168H140v41H304v77H140v40H287L4,700H117L372,365L647,700h73L414,326Z" />
      <glyph unicode="&#xa6;" glyph-name="brokenbar" horiz-adv-x="222" d="M68,737h86V353H68V737Zm0-543h86V-192H68V194Z" />
      <glyph unicode="&#xa7;" glyph-name="section" horiz-adv-x="600" d="M302-46Q197-46 128.5-4.5T51,115h80q8-56 53.5-87.5T296-4q58,0 101.5,22.5T441,86q0,39-43,59.5T273,179q-111,17-168,56.5T48,334q0,47 40,81t105,49q-62,16-95,42.5T65,574q0,68 67,102t166,34q105,0 173.5-41.5T549,549H469q-8,56-53.5,87.5T304,668q-58,0-101.5-22.5T159,578q0-39 43-59.5T327,485q111-17 168-56t57-97q0-48-39.5-82T407,200q62-16 95-42.5T535,90q0-68-67-102T302-46Zm6,275q67,0 108.5,27.5T458,328q0,48-46,77.5T292,435q-67,0-108.5-26.5T142,338q0-49 46-79t120-30Z" />
      <glyph unicode="&#xa8;" glyph-name="dieresis" horiz-adv-x="500" d="M138,560q-23,0-37.5,14T86,610t15,36.5T138,661t37-14.5T190,610t-14.5-36T138,560Zm224,0q-23,0-37.5,14T310,610t15,36.5T362,661t37-14.5T414,610t-14.5-36T362,560Z" />
      <glyph unicode="&#xa9;" glyph-name="copyright" horiz-adv-x="866" d="M433-30Q318-30 230,18T93,152T44,350T93,548T230,682t203,48t203-48T773,548t49-198T773,152T636,18T433-30Zm0,48q99,0 175.5,41.5T727,176.5T769,350T727,523.5t-118.5,117T433,682T258,640.5t-118-117T98,350t42-173.5t118-117T433,18Zm5,114q-67,0-119,28t-80.5,78.5T210,355q0,64 28.5,113.5t80.5,77T438,573q80,0 137-40.5T645,426H575q-11,44-48.5,70.5T438,523q-72,0-115-45.5T280,355q0-79 43-126t115-47q50,0 88,27t51,71h67q-10-66-67.5-107T438,132Z" />
      <glyph unicode="&#xaa;" glyph-name="ordfeminine" horiz-adv-x="406" d="M167,346q-65,0-102,28.5T28,453q0,55 47.5,85.5T210,569h90v22q0,41-24,62.5T205,675q-45,0-73.5-20.5T98,599H42q7,53 50.5,82T208,710q77,0 120.5-33.5T372,584V470q0-62 9-116H317q-6,22-8,60q-20-33-57-50.5T167,346Zm14,35q53,0 86,33t33,87v35H211q-52,0-81.5-21T100,456q0-35 22-55t59-20Z" />
      <glyph unicode="&#xab;" glyph-name="guillemotleft" horiz-adv-x="480" d="M42,285L186,498l60-43L102,285L246,114L186,71L42,285Zm182,0L368,498l60-43L284,285L428,114L368,71L224,285Z" />
      <glyph unicode="&#xac;" glyph-name="logicalnot" horiz-adv-x="629" d="M510,362H13v57H588V124H510V362Z" />
      <glyph unicode="&#xad;" glyph-name="uni00AD" horiz-adv-x="404" d="M52,277H352V235H52v42Z" />
      <glyph unicode="&#xae;" glyph-name="registered" horiz-adv-x="866" d="M433,730q115,0 203-48T773,548t49-198T773,152T636,18T433-30T230,18T93,152T44,350T93,548T230,682t203,48Zm0-712q99,0 175.5,41.5T727,176.5T769,350T727,523.5t-118.5,117T433,682T258,640.5t-118-117T98,350t42-173.5t118-117T433,18ZM590,231q10-27 20-46t25-34v-6H563q-21,27-39,74q-13,36-26,55.5T457,303h-9H347V145H277V565H448q76,0 119-33.5T610,438q0-43-21-74.5T529,317q23-14 37-34.5T590,231ZM347,353H448q44,0 68,22t24,63q0,37-24,57t-68,20H347V353Z" />
      <glyph unicode="&#xaf;" glyph-name="macron" horiz-adv-x="500" d="M96,624H404V580H96v44Z" />
      <glyph unicode="&#xb0;" glyph-name="degree" horiz-adv-x="422" d="M211,393q-71,0-116,44T50,551T95,665.5T211,710t116-44.5T372,551T327,437T211,393Zm0,37q52,0 84.5,34T328,551q0,54-32.5,87.5T211,672t-84.5-33.5T94,551q0-53 32.5-87T211,430Z" />
      <glyph unicode="&#xb1;" glyph-name="plusminus" horiz-adv-x="660" d="M289,326H44v57H289V590h82V383H616V326H371V118H289V326ZM44,57H616V0H44V57Z" />
      <glyph unicode="&#xb2;" glyph-name="uni00B2" horiz-adv-x="451" d="M50,272q5,59 46,105t122,84q55,26 80,54t25,64q0,44-26,67.5T222,670q-47,0-76-25t-36-71H40q9,63 58.5,98.5T226,708q82,0 129-34.5T402,579q0-46-31.5-78.5T258,430q-59-28-88.5-56T136,312H411V272H50Z" />
      <glyph unicode="&#xb3;" glyph-name="uni00B3" horiz-adv-x="456" d="M228,266q-81,0-130.5,32T44,385h70q3-38 32.5-59.5T225,304q53,0 83,23.5T338,394q0,42-30,65t-85,23q-38,0-77-7v44q22-2 57-2q55,0 84.5,21.5T317,600q0,33-26,51.5T218,670q-49,0-77.5-21.5T110,589H40q4,55 53,87t129,32q79,0 126-29t47-79q0-37-27-62.5T293,502q123-13 123-108q0-59-51-93.5T228,266Z" />
      <glyph unicode="&#xb4;" glyph-name="acute" horiz-adv-x="500" d="M281,714q25,26 54,26q14,0 23-7.5t9-18.5q0-21-39-47L175,560H140L281,714Z" />
      <glyph unicode="&#xb5;" glyph-name="uni00B5" horiz-adv-x="617" d="M548,490V0H456V86q-24-45-74-70.5T267-10q-69,0-121,27V-200H58V490h92V170q0-67 35.5-103T287,31q76,0 122.5,49.5T456,211V490h92Z" />
      <glyph unicode="&#xb6;" glyph-name="paragraph" horiz-adv-x="570" d="M455-147H401l-1,809H324V-147H268V256q-104,0-160,63T52,487q0,63 28.5,112t78,75.5T271,701H544V662H454l1-809Z" />
      <glyph unicode="&#xb7;" glyph-name="periodcentered" horiz-adv-x="207" d="M103,204q-25,0-40.5,15.5T47,259q0,23 16,38.5T103,313q25,0 41-15.5T160,259q0-24-16-39.5T103,204Z" />
      <glyph unicode="&#xb8;" glyph-name="cedilla" horiz-adv-x="500" d="M234-248q-63,0-106,35l22,32q40-24 77-24q27,0 43,12t16,36q0,56-101,52l-7,22L231,7h52L239-70q48-2 77.5-24T346-156q0-45-32.5-68.5T234-248Z" />
      <glyph unicode="&#xb9;" glyph-name="uni00B9" horiz-adv-x="272" d="M124,604H30v26q50,1 76,16.5T149,702h53V272H124V604Z" />
      <glyph unicode="&#xba;" glyph-name="ordmasculine" horiz-adv-x="472" d="M236,346q-93,0-149,49.5T31,528T87,660.5T236,710q92,0 148.5-50T441,528T384.5,396T236,346Zm0,34q62,0 97.5,39T369,528T333.5,637T236,676q-63,0-98-39T103,528t35-109t98-39Z" />
      <glyph unicode="&#xbb;" glyph-name="guillemotright" horiz-adv-x="480" d="M52,114L196,285L52,455l60,43L256,285L112,71L52,114Zm182,0L378,285L234,455l60,43L438,285L294,71l-60,43Z" />
      <glyph unicode="&#xbc;" glyph-name="onequarter" horiz-adv-x="810" d="M633,78H389V96L683,436h28V115h59V78H711V1H633V78Zm2,37V316L461,115H635ZM134,604H40v26q50,1 76,16.5T159,702h53V272H134V604ZM602,704h54L169-4H115L602,704Z" />
      <glyph unicode="&#xbd;" glyph-name="onehalf" horiz-adv-x="915" d="M134,604H40v26q50,1 76,16.5T159,702h53V272H134V604ZM514-2q5,59 46,105t122,84q55,26 80,54t25,64q0,44-26,67.5T686,396q-47,0-76-25t-36-71H504q9,63 58.5,98.5T690,434q82,0 129-34.5T866,305q0-46-31.5-78.5T722,156q-59-28-88.5-56T600,38H875V-2H514Zm77,706h54L158-4H104L591,704Z" />
      <glyph unicode="&#xbe;" glyph-name="threequarters" horiz-adv-x="947" d="M228,270q-81,0-130.5,32T44,389h70q3-38 32.5-59.5T225,308q53,0 83,23.5T338,398q0,42-30,65t-85,23q-38,0-77-7v44q22-2 57-2q55,0 84.5,21.5T317,604q0,33-26,51.5T218,674q-49,0-77.5-21.5T110,593H40q4,55 53,87t129,32q79,0 126-29t47-79q0-37-27-62.5T293,506q123-13 123-108q0-59-51-93.5T228,270ZM754,704h54L321-4H267L754,704ZM770,78H526V96L820,436h28V115h59V78H848V1H770V78Zm2,37V316L598,115H772Z" />
      <glyph unicode="&#xbf;" glyph-name="questiondown" horiz-adv-x="542" d="M268,586q24,0 39.5-15.5T323,530q0-24-15.5-39.5T268,475q-25,0-40.5,15.5T212,530q0,25 15.5,40.5T268,586Zm18-163q0-78-18.5-130.5T205,193q-31-34-48-68T140,49q0-64 35-101.5T271-90q64,0 101.5,39.5T416,63h87q-8-92-69.5-144.5T272-134q-109,0-171,49.5T39,52q0,50 25.5,87.5T144,223q53,45 79.5,90.5T250,423h36Z" />
      <glyph unicode="&#xc0;" glyph-name="Agrave" horiz-adv-x="779" d="M573,182H170L79,0H9L373,710h54L770,0H658L573,182Zm-23,48L378,598L194,230H550ZM222,877q-38,26-38,47q0,11 8.5,18.5T216,950q30,0 53-26L410,770H375L222,877Z" />
      <glyph unicode="&#xc1;" glyph-name="Aacute" horiz-adv-x="779" d="M573,182H170L79,0H9L373,710h54L770,0H658L573,182Zm-23,48L378,598L194,230H550ZM519,924q23,26 53,26q15,0 23.5-7.5T604,924q0-21-38-47L413,770H378L519,924Z" />
      <glyph unicode="&#xc2;" glyph-name="Acircumflex" horiz-adv-x="779" d="M573,182H170L79,0H9L373,710h54L770,0H658L573,182Zm-23,48L378,598L194,230H550ZM359,923h70L553,770H504L394,876L284,770H235L359,923Z" />
      <glyph unicode="&#xc3;" glyph-name="Atilde" horiz-adv-x="779" d="M573,182H170L79,0H9L373,710h54L770,0H658L573,182Zm-23,48L378,598L194,230H550ZM220,770q0,50 28.5,81T323,882q28,0 49.5-10.5T418,842q17-14 31-22t28-8q26,0 44.5,19.5T542,882h26q0-49-28.5-80.5T466,770q-29,0-48.5,9.5T375,807q-16,13-28,19.5T319,833q-31,0-51-17.5T247,770H220Z" />
      <glyph unicode="&#xc4;" glyph-name="Adieresis" horiz-adv-x="779" d="M573,182H170L79,0H9L373,710h54L770,0H658L573,182Zm-23,48L378,598L194,230H550ZM282,770q-23,0-37.5,14T230,820t15,36.5T282,871t37-14.5T334,820t-14.5-36T282,770Zm224,0q-23,0-37.5,14T454,820t15,36.5T506,871t37-14.5T558,820t-14.5-36T506,770Z" />
      <glyph unicode="&#xc5;" glyph-name="Aring" horiz-adv-x="779" d="M573,182H170L79,0H9L373,710h54L770,0H658L573,182Zm-23,48L378,598L194,230H550ZM394,743q-46,0-75.5,27.5T289,841t29.5,71T394,940t75.5-28T499,841t-29.5-70.5T394,743Zm0,34q28,0 45.5,18T457,841t-17.5,46T394,905t-45.5-18T331,841t17.5-46T394,777Z" />
      <glyph unicode="&#xc6;" glyph-name="AE" horiz-adv-x="991" d="M621,654V397H906V354H621V44H963V0H523V183H213L94,0H8L465,700H963V654H621ZM523,226V654h-3L241,226H523Z" />
      <glyph unicode="&#xc7;" glyph-name="Ccedilla" horiz-adv-x="807" d="M431,38q100,0 165,48t82,135h90Q752,118 668,57T452-9L417-70q48-2 77.5-24T524-156q0-45-32.5-68.5T412-248q-63,0-106,35l22,32q40-24 77-24q27,0 43,12t16,36q0,56-101,52l-7,22L399-9Q233-2 144,91.5T55,353q0,171 95.5,264T424,710q145,0 236-61T768,479H678q-17,86-83,134.5T429,662q-130,0-199.5-80T160,353q0-152 70-233.5T431,38Z" />
      <glyph unicode="&#xc8;" glyph-name="Egrave" horiz-adv-x="695" d="M74,700H667V652H178V399H610V352H178V48H667V0H74V700ZM207,877q-38,26-38,47q0,11 8.5,18.5T201,950q30,0 53-26L395,770H360L207,877Z" />
      <glyph unicode="&#xc9;" glyph-name="Eacute" horiz-adv-x="695" d="M74,700H667V652H178V399H610V352H178V48H667V0H74V700ZM504,924q23,26 53,26q15,0 23.5-7.5T589,924q0-21-38-47L398,770H363L504,924Z" />
      <glyph unicode="&#xca;" glyph-name="Ecircumflex" horiz-adv-x="695" d="M74,700H667V652H178V399H610V352H178V48H667V0H74V700ZM344,923h70L538,770H489L379,876L269,770H220L344,923Z" />
      <glyph unicode="&#xcb;" glyph-name="Edieresis" horiz-adv-x="695" d="M74,700H667V652H178V399H610V352H178V48H667V0H74V700Zm193,70q-23,0-37.5,14T215,820t15,36.5T267,871t37-14.5T319,820t-14.5-36T267,770Zm224,0q-23,0-37.5,14T439,820t15,36.5T491,871t37-14.5T543,820t-14.5-36T491,770Z" />
      <glyph unicode="&#xcc;" glyph-name="Igrave" horiz-adv-x="334" d="M115,700H219V0H115V700ZM-5,877q-38,26-38,47q0,11 8.5,18.5T-11,950q30,0 53-26L183,770H148L-5,877Z" />
      <glyph unicode="&#xcd;" glyph-name="Iacute" horiz-adv-x="334" d="M115,700H219V0H115V700ZM292,924q23,26 53,26q15,0 23.5-7.5T377,924q0-21-38-47L186,770H151L292,924Z" />
      <glyph unicode="&#xce;" glyph-name="Icircumflex" horiz-adv-x="334" d="M115,700H219V0H115V700Zm17,223h70L326,770H277L167,876L57,770H8L132,923Z" />
      <glyph unicode="&#xcf;" glyph-name="Idieresis" horiz-adv-x="334" d="M115,700H219V0H115V700ZM55,770q-23,0-37.5,14T3,820t15,36.5T55,871t37-14.5T107,820T92.5,784T55,770Zm224,0q-23,0-37.5,14T227,820t15,36.5T279,871t37-14.5T331,820t-14.5-36T279,770Z" />
      <glyph unicode="&#xd0;" glyph-name="Eth" horiz-adv-x="803" d="M347,700q196,0 298-86T747,362q0-173-102.5-267.5T353,0H75V348H-2v44H75V700H347ZM367,48q133,0 204.5,81T643,362q0,143-70,216.5T367,652H179V392H391V348H179V48H367Z" />
      <glyph unicode="&#xd1;" glyph-name="Ntilde" horiz-adv-x="767" d="M74,700H179L605,157V700h88V0H641L162,609V0H74V700Zm136,70q0,50 28.5,81T313,882q28,0 49.5-10.5T408,842q17-14 31-22t28-8q26,0 44.5,19.5T532,882h26q0-49-28.5-80.5T456,770q-29,0-48.5,9.5T365,807q-16,13-28,19.5T309,833q-31,0-51-17.5T237,770H210Z" />
      <glyph unicode="&#xd2;" glyph-name="Ograve" horiz-adv-x="865" d="M433-10Q315-10 230,33T100,157.5T55,353q0,112 45,192.5T230,668t203,42t202.5-42T765,545.5T810,353q0-114-45-195.5T635.5,33T433-10Zm0,48q130,0 201,82t71,233q0,148-70.5,228.5T433,662T231,582T160,353q0-151 71-233T433,38ZM261,877q-38,26-38,47q0,11 8.5,18.5T255,950q30,0 53-26L449,770H414L261,877Z" />
      <glyph unicode="&#xd3;" glyph-name="Oacute" horiz-adv-x="865" d="M433-10Q315-10 230,33T100,157.5T55,353q0,112 45,192.5T230,668t203,42t202.5-42T765,545.5T810,353q0-114-45-195.5T635.5,33T433-10Zm0,48q130,0 201,82t71,233q0,148-70.5,228.5T433,662T231,582T160,353q0-151 71-233T433,38ZM558,924q23,26 53,26q15,0 23.5-7.5T643,924q0-21-38-47L452,770H417L558,924Z" />
      <glyph unicode="&#xd4;" glyph-name="Ocircumflex" horiz-adv-x="865" d="M433-10Q315-10 230,33T100,157.5T55,353q0,112 45,192.5T230,668t203,42t202.5-42T765,545.5T810,353q0-114-45-195.5T635.5,33T433-10Zm0,48q130,0 201,82t71,233q0,148-70.5,228.5T433,662T231,582T160,353q0-151 71-233T433,38ZM398,923h70L592,770H543L433,876L323,770H274L398,923Z" />
      <glyph unicode="&#xd5;" glyph-name="Otilde" horiz-adv-x="865" d="M433-10Q315-10 230,33T100,157.5T55,353q0,112 45,192.5T230,668t203,42t202.5-42T765,545.5T810,353q0-114-45-195.5T635.5,33T433-10Zm0,48q130,0 201,82t71,233q0,148-70.5,228.5T433,662T231,582T160,353q0-151 71-233T433,38ZM259,770q0,50 28.5,81T362,882q28,0 49.5-10.5T457,842q17-14 31-22t28-8q26,0 44.5,19.5T581,882h26q0-49-28.5-80.5T505,770q-29,0-48.5,9.5T414,807q-16,13-28,19.5T358,833q-31,0-51-17.5T286,770H259Z" />
      <glyph unicode="&#xd6;" glyph-name="Odieresis" horiz-adv-x="865" d="M433-10Q315-10 230,33T100,157.5T55,353q0,112 45,192.5T230,668t203,42t202.5-42T765,545.5T810,353q0-114-45-195.5T635.5,33T433-10Zm0,48q130,0 201,82t71,233q0,148-70.5,228.5T433,662T231,582T160,353q0-151 71-233T433,38ZM321,770q-23,0-37.5,14T269,820t15,36.5T321,871t37-14.5T373,820t-14.5-36T321,770Zm224,0q-23,0-37.5,14T493,820t15,36.5T545,871t37-14.5T597,820t-14.5-36T545,770Z" />
      <glyph unicode="&#xd7;" glyph-name="multiply" horiz-adv-x="660" d="M44,51L282,291L44,530l50,49L331,341L566,579l50-49L380,291L616,51L566,2L331,240L94,2L44,51Z" />
      <glyph unicode="&#xd8;" glyph-name="Oslash" horiz-adv-x="865" d="M674,645q66-45 101-119.5T810,353q0-114-45-195.5T635.5,33T433-10Q317-10 231,32L171-50H112L189,57q-65,46-99.5,121T55,353q0,112 45,192.5T230,668t203,42q115,0 200-41l51,71h59l-69-95ZM160,353q0-76 18.5-135.5T233,118L595,617q-64,45-162,45q-131,0-202-80T160,353ZM433,38q130,0 201,82t71,233q0,152-74,232L269,85q65-47 164-47Z" />
      <glyph unicode="&#xd9;" glyph-name="Ugrave" horiz-adv-x="805" d="M403-10Q229-10 151.5,67.5T74,291V700H178V268q0-112 53-171T403,38q117,0 170.5,58T627,268V700H731V291q0-146-77-223.5T403-10ZM231,877q-38,26-38,47q0,11 8.5,18.5T225,950q30,0 53-26L419,770H384L231,877Z" />
      <glyph unicode="&#xda;" glyph-name="Uacute" horiz-adv-x="805" d="M403-10Q229-10 151.5,67.5T74,291V700H178V268q0-112 53-171T403,38q117,0 170.5,58T627,268V700H731V291q0-146-77-223.5T403-10ZM528,924q23,26 53,26q15,0 23.5-7.5T613,924q0-21-38-47L422,770H387L528,924Z" />
      <glyph unicode="&#xdb;" glyph-name="Ucircumflex" horiz-adv-x="805" d="M403-10Q229-10 151.5,67.5T74,291V700H178V268q0-112 53-171T403,38q117,0 170.5,58T627,268V700H731V291q0-146-77-223.5T403-10ZM368,923h70L562,770H513L403,876L293,770H244L368,923Z" />
      <glyph unicode="&#xdc;" glyph-name="Udieresis" horiz-adv-x="805" d="M403-10Q229-10 151.5,67.5T74,291V700H178V268q0-112 53-171T403,38q117,0 170.5,58T627,268V700H731V291q0-146-77-223.5T403-10ZM291,770q-23,0-37.5,14T239,820t15,36.5T291,871t37-14.5T343,820t-14.5-36T291,770Zm224,0q-23,0-37.5,14T463,820t15,36.5T515,871t37-14.5T567,820t-14.5-36T515,770Z" />
      <glyph unicode="&#xdd;" glyph-name="Yacute" horiz-adv-x="724" d="M304,304L4,700H117L372,365L647,700h73L408,319V0H304V304ZM487,924q23,26 53,26q15,0 23.5-7.5T572,924q0-21-38-47L381,770H346L487,924Z" />
      <glyph unicode="&#xde;" glyph-name="Thorn" horiz-adv-x="647" d="M57,750H161V609H322q143,0 222.5-56.5T624,395q0-102-79-158.5T322,180H161V0H57V750ZM324,227q96,0 146,43t50,125T470,520T324,563H161V227H324Z" />
      <glyph unicode="&#xdf;" glyph-name="germandbls" horiz-adv-x="674" d="M388-10q-52,0-87.5,13T239,41l24,37q23-22 51.5-34T384,32q73,0 105.5,44T522,188q0,71-38,115.5T386,348H305v42h78q42,0 67,40.5T475,530q0,72-38,105.5T331,669q-80,0-117.5-51.5T176,459V0H83V456q0,127 63,190.5T331,710q106,0 171-47t65-135q0-55-29.5-96.5T440,372q83-12 129.5-60T616,188q0-89-60-143.5T388-10Z" />
      <glyph unicode="&#xe0;" glyph-name="agrave" horiz-adv-x="611" d="M255-10q-97,0-147.5,39T57,140q0,77 61,117.5T296,298H442v36q0,61-37,93T298,459q-66,0-106-30.5T145,342H73q10,76 70,117t160,41q112,0 171-45.5T533,323V161q0-86 15-161H462q-11,45-14,86Q388-10 255-10Zm23,39q46,0 83.5,21.5t59,57.5T442,188v69H321q-88,0-130.5-28.5T148,141q0-55 33-83.5T278,29ZM133,667q-38,26-38,47q0,11 8.5,18.5T127,740q30,0 53-26L321,560H286L133,667Z" />
      <glyph unicode="&#xe1;" glyph-name="aacute" horiz-adv-x="611" d="M255-10q-97,0-147.5,39T57,140q0,77 61,117.5T296,298H442v36q0,61-37,93T298,459q-66,0-106-30.5T145,342H73q10,76 70,117t160,41q112,0 171-45.5T533,323V161q0-86 15-161H462q-11,45-14,86Q388-10 255-10Zm23,39q46,0 83.5,21.5t59,57.5T442,188v69H321q-88,0-130.5-28.5T148,141q0-55 33-83.5T278,29ZM430,714q23,26 53,26q15,0 23.5-7.5T515,714q0-21-38-47L324,560H289L430,714Z" />
      <glyph unicode="&#xe2;" glyph-name="acircumflex" horiz-adv-x="611" d="M255-10q-97,0-147.5,39T57,140q0,77 61,117.5T296,298H442v36q0,61-37,93T298,459q-66,0-106-30.5T145,342H73q10,76 70,117t160,41q112,0 171-45.5T533,323V161q0-86 15-161H462q-11,45-14,86Q388-10 255-10Zm23,39q46,0 83.5,21.5t59,57.5T442,188v69H321q-88,0-130.5-28.5T148,141q0-55 33-83.5T278,29Zm-8,684h70L464,560H415L305,666L195,560H146L270,713Z" />
      <glyph unicode="&#xe3;" glyph-name="atilde" horiz-adv-x="611" d="M255-10q-97,0-147.5,39T57,140q0,77 61,117.5T296,298H442v36q0,61-37,93T298,459q-66,0-106-30.5T145,342H73q10,76 70,117t160,41q112,0 171-45.5T533,323V161q0-86 15-161H462q-11,45-14,86Q388-10 255-10Zm23,39q46,0 83.5,21.5t59,57.5T442,188v69H321q-88,0-130.5-28.5T148,141q0-55 33-83.5T278,29ZM131,560q0,50 28.5,81T234,672q28,0 49.5-10.5T329,632q17-14 31-22t28-8q26,0 44.5,19.5T453,672h26q0-49-28.5-80.5T377,560q-29,0-48.5,9.5T286,597q-16,13-28,19.5T230,623q-31,0-51-17.5T158,560H131Z" />
      <glyph unicode="&#xe4;" glyph-name="adieresis" horiz-adv-x="611" d="M255-10q-97,0-147.5,39T57,140q0,77 61,117.5T296,298H442v36q0,61-37,93T298,459q-66,0-106-30.5T145,342H73q10,76 70,117t160,41q112,0 171-45.5T533,323V161q0-86 15-161H462q-11,45-14,86Q388-10 255-10Zm23,39q46,0 83.5,21.5t59,57.5T442,188v69H321q-88,0-130.5-28.5T148,141q0-55 33-83.5T278,29ZM193,560q-23,0-37.5,14T141,610t15,36.5T193,661t37-14.5T245,610t-14.5-36T193,560Zm224,0q-23,0-37.5,14T365,610t15,36.5T417,661t37-14.5T469,610t-14.5-36T417,560Z" />
      <glyph unicode="&#xe5;" glyph-name="aring" horiz-adv-x="611" d="M255-10q-97,0-147.5,39T57,140q0,77 61,117.5T296,298H442v36q0,61-37,93T298,459q-66,0-106-30.5T145,342H73q10,76 70,117t160,41q112,0 171-45.5T533,323V161q0-86 15-161H462q-11,45-14,86Q388-10 255-10Zm23,39q46,0 83.5,21.5t59,57.5T442,188v69H321q-88,0-130.5-28.5T148,141q0-55 33-83.5T278,29Zm27,504q-46,0-75.5,27.5T200,631t29.5,71T305,730t75.5-28T410,631t-29.5-70.5T305,533Zm0,34q28,0 45.5,18T368,631t-17.5,46T305,695t-45.5-18T242,631t17.5-46T305,567Z" />
      <glyph unicode="&#xe6;" glyph-name="ae" horiz-adv-x="956" d="M239-10Q146-10 95.5,29T45,140q0,148 241,148H415v46q0,60-34,92.5T281,459q-65,0-102.5-30T134,342H62q11,76 68.5,117T284,500q71,0 119-27.5T470,395q28,49 82.5,77T672,500q115,0 179.5-66T919,248H498v-1q0-100 47-158T672,31q63,0 107,33t58,90h75Q894,77 831,33.5T674-10q-72,0-128,31t-83,87q-27-58-85-88T239-10ZM831,289q-7,82-49.5,126T668,459q-70,0-114.5-45T501,289H831ZM253,29q72,0 117,41.5T415,179v68H300q-86,0-124.5-25.5T137,140q0-53 30-82t86-29Z" />
      <glyph unicode="&#xe7;" glyph-name="ccedilla" horiz-adv-x="633" d="M332,31q66,0 114,33t62,90h75Q568,80 503.5,36.5T342-10L308-70q48-2 77.5-24T415-156q0-45-32.5-68.5T303-248q-63,0-106,35l22,32q40-24 77-24q27,0 43,12t16,36q0,56-101,52l-7,22L291-8Q178,2 113.5,69T49,245q0,78 34,135.5T180,469t148,31q104,0 171.5-43.5T583,336H508q-14,57-61.5,90T332,459q-88,0-139.5-57.5T141,245T192.5,88.5T332,31Z" />
      <glyph unicode="&#xe8;" glyph-name="egrave" horiz-adv-x="629" d="M325,31q68,0 114.5,33T499,154h75Q555,77 487,33.5T321-10q-82,0-143.5,31t-95,88.5T49,243q0,78 33,136t94.5,89.5T319,500q122,0 190.5-66T581,248H141v-5q0-99 48-155.5T325,31Zm-4,428q-75,0-121-44.5T144,289H494q-11,82-55.5,126T321,459ZM143,667q-38,26-38,47q0,11 8.5,18.5T137,740q30,0 53-26L331,560H296L143,667Z" />
      <glyph unicode="&#xe9;" glyph-name="eacute" horiz-adv-x="629" d="M325,31q68,0 114.5,33T499,154h75Q555,77 487,33.5T321-10q-82,0-143.5,31t-95,88.5T49,243q0,78 33,136t94.5,89.5T319,500q122,0 190.5-66T581,248H141v-5q0-99 48-155.5T325,31Zm-4,428q-75,0-121-44.5T144,289H494q-11,82-55.5,126T321,459ZM440,714q23,26 53,26q15,0 23.5-7.5T525,714q0-21-38-47L334,560H299L440,714Z" />
      <glyph unicode="&#xea;" glyph-name="ecircumflex" horiz-adv-x="629" d="M325,31q68,0 114.5,33T499,154h75Q555,77 487,33.5T321-10q-82,0-143.5,31t-95,88.5T49,243q0,78 33,136t94.5,89.5T319,500q122,0 190.5-66T581,248H141v-5q0-99 48-155.5T325,31Zm-4,428q-75,0-121-44.5T144,289H494q-11,82-55.5,126T321,459ZM280,713h70L474,560H425L315,666L205,560H156L280,713Z" />
      <glyph unicode="&#xeb;" glyph-name="edieresis" horiz-adv-x="629" d="M325,31q68,0 114.5,33T499,154h75Q555,77 487,33.5T321-10q-82,0-143.5,31t-95,88.5T49,243q0,78 33,136t94.5,89.5T319,500q122,0 190.5-66T581,248H141v-5q0-99 48-155.5T325,31Zm-4,428q-75,0-121-44.5T144,289H494q-11,82-55.5,126T321,459ZM203,560q-23,0-37.5,14T151,610t15,36.5T203,661t37-14.5T255,610t-14.5-36T203,560Zm224,0q-23,0-37.5,14T375,610t15,36.5T427,661t37-14.5T479,610t-14.5-36T427,560Z" />
      <glyph unicode="&#xec;" glyph-name="igrave" horiz-adv-x="284" d="M96,490h92V0H96V490ZM-30,667q-38,26-38,47q0,11 8.5,18.5T-36,740q30,0 53-26L158,560H123L-30,667Z" />
      <glyph unicode="&#xed;" glyph-name="iacute" horiz-adv-x="284" d="M96,490h92V0H96V490ZM267,714q23,26 53,26q15,0 23.5-7.5T352,714q0-21-38-47L161,560H126L267,714Z" />
      <glyph unicode="&#xee;" glyph-name="icircumflex" horiz-adv-x="284" d="M96,490h92V0H96V490Zm11,223h70L301,560H252L142,666L32,560H-17L107,713Z" />
      <glyph unicode="&#xef;" glyph-name="idieresis" horiz-adv-x="284" d="M96,490h92V0H96V490ZM30,560Q7,560-7.5,574T-22,610t15,36.5T30,661t37-14.5T82,610T67.5,574T30,560Zm224,0q-23,0-37.5,14T202,610t15,36.5T254,661t37-14.5T306,610t-14.5-36T254,560Z" />
      <glyph unicode="&#xf0;" glyph-name="eth" horiz-adv-x="665" d="M616,245q0-76-35-134T481.5,21.5T332-10T183,21.5T84,111T49,245T84,379t99,89.5T332,500q70,0 128-22q-54,85-145,148L161,557v47l111,50q-54,30-118,54l20,42q89-32 156-70l134,60V693l-90-40q115-75 178.5-177.5T616,246v-1ZM332,31q89,0 140,57t51,157T472,402T332,459T192.5,402T142,245T192.5,88T332,31Z" />
      <glyph unicode="&#xf1;" glyph-name="ntilde" horiz-adv-x="619" d="M70,490h92V404q24,44 74.5,70T350,500q97,0 153-50.5T559,313V0H467V323q0,65-36,100.5T329,459q-76,0-121.5-49.5T162,279V0H70V490Zm65,70q0,50 28.5,81T238,672q28,0 49.5-10.5T333,632q17-14 31-22t28-8q26,0 44.5,19.5T457,672h26q0-49-28.5-80.5T381,560q-29,0-48.5,9.5T290,597q-16,13-28,19.5T234,623q-31,0-51-17.5T162,560H135Z" />
      <glyph unicode="&#xf2;" glyph-name="ograve" horiz-adv-x="665" d="M332-10q-85,0-149,31.5T84,111T49,245T84,379t99,89.5T332,500t149.5-31.5T581,379t35-134T581,111T481.5,21.5T332-10Zm0,41q89,0 140,57t51,157T472,402T332,459T192.5,402T142,245T192.5,88T332,31ZM160,667q-38,26-38,47q0,11 8.5,18.5T154,740q30,0 53-26L348,560H313L160,667Z" />
      <glyph unicode="&#xf3;" glyph-name="oacute" horiz-adv-x="665" d="M332-10q-85,0-149,31.5T84,111T49,245T84,379t99,89.5T332,500t149.5-31.5T581,379t35-134T581,111T481.5,21.5T332-10Zm0,41q89,0 140,57t51,157T472,402T332,459T192.5,402T142,245T192.5,88T332,31ZM457,714q23,26 53,26q15,0 23.5-7.5T542,714q0-21-38-47L351,560H316L457,714Z" />
      <glyph unicode="&#xf4;" glyph-name="ocircumflex" horiz-adv-x="665" d="M332-10q-85,0-149,31.5T84,111T49,245T84,379t99,89.5T332,500t149.5-31.5T581,379t35-134T581,111T481.5,21.5T332-10Zm0,41q89,0 140,57t51,157T472,402T332,459T192.5,402T142,245T192.5,88T332,31ZM297,713h70L491,560H442L332,666L222,560H173L297,713Z" />
      <glyph unicode="&#xf5;" glyph-name="otilde" horiz-adv-x="665" d="M332-10q-85,0-149,31.5T84,111T49,245T84,379t99,89.5T332,500t149.5-31.5T581,379t35-134T581,111T481.5,21.5T332-10Zm0,41q89,0 140,57t51,157T472,402T332,459T192.5,402T142,245T192.5,88T332,31ZM158,560q0,50 28.5,81T261,672q28,0 49.5-10.5T356,632q17-14 31-22t28-8q26,0 44.5,19.5T480,672h26q0-49-28.5-80.5T404,560q-29,0-48.5,9.5T313,597q-16,13-28,19.5T257,623q-31,0-51-17.5T185,560H158Z" />
      <glyph unicode="&#xf6;" glyph-name="odieresis" horiz-adv-x="665" d="M332-10q-85,0-149,31.5T84,111T49,245T84,379t99,89.5T332,500t149.5-31.5T581,379t35-134T581,111T481.5,21.5T332-10Zm0,41q89,0 140,57t51,157T472,402T332,459T192.5,402T142,245T192.5,88T332,31ZM220,560q-23,0-37.5,14T168,610t15,36.5T220,661t37-14.5T272,610t-14.5-36T220,560Zm224,0q-23,0-37.5,14T392,610t15,36.5T444,661t37-14.5T496,610t-14.5-36T444,560Z" />
      <glyph unicode="&#xf7;" glyph-name="divide" horiz-adv-x="660" d="M330,436q-32,0-52.5,18.5T257,503q0,29 20.5,48T330,570t52.5-19T403,503q0-30-20.5-48.5T330,436ZM44,314H616V256H44v58ZM330,0q-32,0-52.5,18.5T257,67q0,29 20.5,48T330,134t52.5-19T403,67q0-30-20.5-48.5T330,0Z" />
      <glyph unicode="&#xf8;" glyph-name="oslash" horiz-adv-x="665" d="M525,442q44-34 67.5-84.5T616,245q0-76-35-134T481.5,21.5T332-10Q267-10 212,9L169-50H114l56,78q-58,33-89.5,88.5T49,245q0,76 35,134t99,89.5T332,500q89,0 155-34l45,62h55l-62-86ZM142,245q0-112 63-169L453,419q-48,40-121,40q-89,0-139.5-57T142,245ZM332,31q89,0 140,57t51,157q0,85-39,141L242,51q40-20 90-20Z" />
      <glyph unicode="&#xf9;" glyph-name="ugrave" horiz-adv-x="617" d="M267-10q-98,0-153.5,50.5T58,180V490h92V170q0-67 35.5-103T287,31q76,0 122.5,49.5T456,211V490h92V0H456V86q-24-45-74-70.5T267-10ZM136,667q-38,26-38,47q0,11 8.5,18.5T130,740q30,0 53-26L324,560H289L136,667Z" />
      <glyph unicode="&#xfa;" glyph-name="uacute" horiz-adv-x="617" d="M267-10q-98,0-153.5,50.5T58,180V490h92V170q0-67 35.5-103T287,31q76,0 122.5,49.5T456,211V490h92V0H456V86q-24-45-74-70.5T267-10ZM433,714q23,26 53,26q15,0 23.5-7.5T518,714q0-21-38-47L327,560H292L433,714Z" />
      <glyph unicode="&#xfb;" glyph-name="ucircumflex" horiz-adv-x="617" d="M267-10q-98,0-153.5,50.5T58,180V490h92V170q0-67 35.5-103T287,31q76,0 122.5,49.5T456,211V490h92V0H456V86q-24-45-74-70.5T267-10Zm6,723h70L467,560H418L308,666L198,560H149L273,713Z" />
      <glyph unicode="&#xfc;" glyph-name="udieresis" horiz-adv-x="617" d="M267-10q-98,0-153.5,50.5T58,180V490h92V170q0-67 35.5-103T287,31q76,0 122.5,49.5T456,211V490h92V0H456V86q-24-45-74-70.5T267-10ZM196,560q-23,0-37.5,14T144,610t15,36.5T196,661t37-14.5T248,610t-14.5-36T196,560Zm224,0q-23,0-37.5,14T368,610t15,36.5T420,661t37-14.5T472,610t-14.5-36T420,560Z" />
      <glyph unicode="&#xfd;" glyph-name="yacute" horiz-adv-x="571" d="M116-193q-31,0-58.5,8T12-163l28,49q11-15 31.5-24t39.5-9q33,0 66.5,21.5T232-70T253-1q0,34-16,63L8,490H110L312,95L504,490h58L317-15Q230-193 116-193ZM410,714q23,26 53,26q15,0 23.5-7.5T495,714q0-21-38-47L304,560H269L410,714Z" />
      <glyph unicode="&#xfe;" glyph-name="thorn" horiz-adv-x="659" d="M69,700h92V399q28,47 80.5,74T360,500q117,0 183.5-67.5T610,247q0-120-67-188.5T360-10q-68,0-119,27T161,95V-190H69V700ZM339,30q53,0 94,27.5t63,77T518,249q0,98-47.5,154.5T342,460q-53,0-94.5-27t-64-76T161,244q0-98 48-156T339,30Z" />
      <glyph unicode="&#xff;" glyph-name="ydieresis" horiz-adv-x="571" d="M116-193q-31,0-58.5,8T12-163l28,49q11-15 31.5-24t39.5-9q33,0 66.5,21.5T232-70T253-1q0,34-16,63L8,490H110L312,95L504,490h58L317-15Q230-193 116-193Zm57,753q-23,0-37.5,14T121,610t15,36.5T173,661t37-14.5T225,610t-14.5-36T173,560Zm224,0q-23,0-37.5,14T345,610t15,36.5T397,661t37-14.5T449,610t-14.5-36T397,560Z" />
      <glyph unicode="&#x2013;" glyph-name="endash" horiz-adv-x="678" d="M52,277H626V235H52v42Z" />
      <glyph unicode="&#x2014;" glyph-name="emdash" horiz-adv-x="839" d="M52,277H787V235H52v42Z" />
      <glyph unicode="&#x2018;" glyph-name="quoteleft" horiz-adv-x="200" d="M143,708q-26-21-42.5-56.5T85,579q10,6 22,6q23,0 36.5-13.5T157,535t-14.5-37.5T103,483q-28,0-44,20.5T43,561q0,47 24,92t61,67l15-12Z" />
      <glyph unicode="&#x2019;" glyph-name="quoteright" horiz-adv-x="200" d="M57,485q26,21 42.5,56.5T115,614q-10-6-22-6q-22,0-36,14T43,658q0,23 14.5,37.5T97,710q28,0 44-20.5T157,632q0-47-24-92T72,473L57,485Z" />
      <glyph unicode="&#x201a;" glyph-name="quotesinglbase" horiz-adv-x="200" d="M57-128q26,21 42.5,56.5T115,1Q105-5 93-5Q71-5 57,9T43,45q0,23 14.5,37.5T97,97q28,0 44-20.5T157,19q0-47-24-92T72-140L57-128Z" />
      <glyph unicode="&#x201c;" glyph-name="quotedblleft" horiz-adv-x="369" d="M143,708q-26-21-42.5-56.5T85,579q10,6 22,6q23,0 36.5-13.5T157,535t-14.5-37.5T103,483q-28,0-44,20.5T43,561q0,47 24,92t61,67l15-12Zm169,0q-26-21-42.5-56.5T254,579q10,6 22,6q23,0 36.5-13.5T326,535t-14.5-37.5T272,483q-28,0-44,20.5T212,561q0,47 24,92t61,67l15-12Z" />
      <glyph unicode="&#x201d;" glyph-name="quotedblright" horiz-adv-x="369" d="M57,485q26,21 42.5,56.5T115,614q-10-6-22-6q-22,0-36,14T43,658q0,23 14.5,37.5T97,710q28,0 44-20.5T157,632q0-47-24-92T72,473L57,485Zm169,0q26,21 42.5,56.5T284,614q-10-6-22-6q-22,0-36,14t-14,36q0,23 14.5,37.5T266,710q28,0 44-20.5T326,632q0-47-24-92t-61-67l-15,12Z" />
      <glyph unicode="&#x201e;" glyph-name="quotedblbase" horiz-adv-x="369" d="M57-128q26,21 42.5,56.5T115,1Q105-5 93-5Q71-5 57,9T43,45q0,23 14.5,37.5T97,97q28,0 44-20.5T157,19q0-47-24-92T72-140L57-128Zm169,0q26,21 42.5,56.5T284,1q-10-6-22-6Q240-5 226,9T212,45q0,23 14.5,37.5T266,97q28,0 44-20.5T326,19q0-47-24-92t-61-67l-15,12Z" />
      <glyph unicode="&#x2022;" glyph-name="bullet" horiz-adv-x="481" d="M240,81q-55,0-97.5,24T76,171.5T52,269t24,97.5T142.5,433T240,457t98-24t67-66.5T429,269t-24-97.5T338,105T240,81Z" />
      <glyph unicode="&#x2039;" glyph-name="guilsinglleft" horiz-adv-x="298" d="M42,285L186,498l60-43L102,285L246,114L186,71L42,285Z" />
      <glyph unicode="&#x203a;" glyph-name="guilsinglright" horiz-adv-x="298" d="M48,114L192,285L48,455l60,43L252,285L108,71L48,114Z" />
    </font>
</defs>
</svg>
