<?xml version="1.0" standalone="no"?>
<!DOCTYPE svg PUBLIC "-//W3C//DTD SVG 1.1//EN" "http://www.w3.org/Graphics/SVG/1.1/DTD/svg11.dtd">
<svg xmlns="http://www.w3.org/2000/svg">
<defs >
<font id="NanumGothic" horiz-adv-x="935" ><font-face
    font-family="NanumGothicExtraBold"
    units-per-em="1000"
    panose-1="0 0 0 0 0 0 0 0 0 0"
    ascent="856"
    descent="-144"
    alphabetic="0" />
<glyph unicode=" " horiz-adv-x="280" />
<glyph unicode="!" horiz-adv-x="424" d="M281 215Q281 198 278 194T261 190H174Q162 190 159 194T155 215L144 741Q143 763 145 769T164 775H272Q288 775 290 769T293 741L281 215ZM219 -14Q185 -14 163 7T141 61Q141 93 163 114T219 136Q253 136 275 115T298
61Q298 28 275 7T219 -14Z" />
<glyph unicode="&quot;" horiz-adv-x="430" d="M104 523Q95 523 91 526T87 540V746Q87 763 104 763H179Q196 763 196 746V540Q196 529 193 526T179 523H104ZM251 523Q242 523 238 526T234 540V746Q234 763 251 763H326Q343 763 343 746V540Q343 529 340 526T326 523H251Z" />
<glyph unicode="#" horiz-adv-x="606" d="M474 434L462 344H529Q547 344 551 340T555 318V258Q555 238 552 234T529 229H447L422 31Q420 14 417 12T396 9H320Q303 9 300 13T298 34L323 229H260L236 33Q234 18 230 14T209 9H138Q117 9 114 14T112 36L138 229H60Q41
229 37 232T33 256V319Q33 340 37 342T60 345H153L164 435H88Q69 435 65 439T61 461V521Q61 541 64 545T88 550H179L206 755Q208 766 211 768T231 770H307Q321 770 326 768T329 751L303 550H365L393 753Q395 765 398 767T420 770H489Q509 770 513 768T515 747L489
550H557Q576 550 580 546T584 523V460Q584 442 580 438T557 434H474ZM276 344H335L347 434H288L276 344Z" />
<glyph unicode="$" horiz-adv-x="606" d="M479 54Q460 34 429 17T363 -8V-67Q363 -79 359 -82T345 -86H267Q257 -86 253 -83T249 -67V-11Q208 -7 168 2T97 22Q90 24 87 28T85 41L94 133Q95 141 99 143T116 141Q151 130 184 122T249 108V358Q162 409 118 457T73
571Q73 607 85 639T121 698T176 743T249 771V829Q249 840 252 844T267 848H345Q356 848 359 844T363 829V777Q395 774 421 768T466 755Q480 750 481 746T481 731L465 655Q462 640 458 637T440 638Q399 654 363 658V436Q461 379 500 325T540 208Q540 163 524 124T479
54ZM413 204Q413 223 400 245T363 289V118Q413 143 413 204ZM198 573Q198 551 212 534T249 500V648Q226 637 212 619T198 573Z" />
<glyph unicode="%" horiz-adv-x="1090" d="M951 55Q926 23 892 9T811 -6Q761 -6 727 10T670 54T637 121T627 205Q627 249 637 288T669 356T726 403T811 420Q860 420 894 403T951 357T984 288T995 205Q995 157 985 120T951 55ZM407 -6Q402 -16 395 -18T377 -20H287Q273
-20 268 -16T270 4L701 784Q706 792 710 794T724 796H828Q845 796 848 791T844 770L407 -6ZM811 299Q782 299 768 278T754 205Q754 168 766 140T811 111Q838 111 852 132T866 205Q866 256 852 277T811 299ZM437 422Q412 390 378 376T297 361Q247 361 213 377T156
421T123 488T113 572Q113 616 123 655T155 723T212 770T297 787Q346 787 380 770T437 724T470 655T481 572Q481 524 471 487T437 422ZM297 666Q268 666 254 645T240 572Q240 535 252 507T297 478Q324 478 338 499T352 572Q352 623 338 644T297 666Z" />
<glyph unicode="&amp;" horiz-adv-x="727" d="M586 9Q575 9 571 13T560 23L512 76Q468 33 412 14T298 -5Q250 -5 205 8T124 48T67 118T46 217Q46 287 88 344T194 438Q181 454 168 472T145 511T128 554T121 601Q121 647 141 681T193 739T263 774T339 786Q376 786
410 775T471 741T514 685T530 608Q530 551 495 497T388 404L508 271Q521 297 528 336T536 410Q536 425 539 430T556 435H640Q657 435 660 432T663 411Q663 383 659 351T645 288T624 227T597 176L720 34Q728 24 726 17T709 9H586ZM336 672Q298 672 277 653T255 602Q255
585 267 557T309 498Q324 505 339 515T368 538T389 567T398 603Q398 629 382 650T336 672ZM275 344Q258 335 242 322T212 292T190 258T182 222Q182 198 191 179T217 146T255 125T302 118Q330 118 365 131T427 170L275 344Z" />
<glyph unicode="&apos;" horiz-adv-x="303" d="M104 525Q95 525 92 528T89 542V746Q89 756 92 759T104 763H215Q224 763 227 760T230 746V542Q230 531 227 528T215 525H104Z" />
<glyph unicode="(" horiz-adv-x="363" d="M265 -131Q258 -131 254 -130T244 -122Q160 -10 112 112T63 358Q63 481 111 602T244 836Q249 842 252 844T263 847H334Q349 847 350 843T345 825Q279 704 240 586T201 358Q201 249 238 128T346 -112Q352 -122 350 -126T334
-131H265Z" />
<glyph unicode=")" horiz-adv-x="363" d="M35 -131Q21 -131 19 -127T23 -112Q93 6 130 127T168 358Q168 467 129 585T24 825Q17 838 18 842T35 847H106Q114 847 117 845T125 836Q209 723 257 602T306 358Q306 234 258 112T125 -122Q120 -129 116 -130T104 -131H35Z" />
<glyph unicode="*" horiz-adv-x="606" d="M114 395Q98 400 95 407T98 431L121 491Q129 510 136 514T158 511L253 467L245 571Q244 589 249 594T275 600H337Q358 600 364 594T369 570L361 465L458 503Q475 511 481 507T494 484L512 425Q519 403 516 397T495 386L394
363L466 285Q477 271 475 264T457 244L407 207Q390 194 381 195T363 212L310 303L250 210Q240 195 233 195T211 205L159 242Q141 255 141 263T151 285L219 365L114 395Z" />
<glyph unicode="+" horiz-adv-x="654" d="M392 323V122Q392 110 388 107T373 103H285Q275 103 271 106T266 122V323H66Q47 323 47 342V423Q47 442 66 442H266V641Q266 660 285 660H373Q392 660 392 641V442H591Q603 442 606 438T610 423V342Q610 332 607 328T591
323H392Z" />
<glyph unicode="," horiz-adv-x="303" d="M181 -123Q178 -131 171 -134T157 -138H59Q53 -138 48 -134T45 -122L91 62Q93 67 98 73T114 80H237Q249 80 251 73T251 59L181 -123Z" />
<glyph unicode="-" horiz-adv-x="363" d="M62 331Q57 331 53 334T49 343V443Q49 448 53 451T62 455H324Q330 455 333 452T337 443V343Q337 338 334 335T324 331H62Z" />
<glyph unicode="." horiz-adv-x="303" d="M158 -78Q120 -78 94 -52T68 12Q68 50 94 76T158 102Q196 102 222 76T248 12Q248 -26 222 -52T158 -78Z" />
<glyph unicode="/" horiz-adv-x="375" d="M132 -54Q128 -63 123 -65T109 -68H7Q-4 -68 -9 -64T-11 -47L248 770Q252 781 264 781H373Q396 781 390 761L132 -54Z" />
<glyph unicode="0" horiz-adv-x="606" d="M316 -14Q249 -14 200 14T120 95T73 220T58 384Q58 424 62 469T76 558T105 642T152 714T221 763T316 782Q370 782 410 764T478 714T525 643T553 558T568 468T572 384Q572 294 557 221T511 96T431 15T316 -14ZM316 652Q291
652 269 639T231 595T205 512T195 384Q195 307 204 256T230 173T269 129T316 116Q341 116 363 129T401 173T427 255T437 384Q437 460 428 511T402 594T363 639T316 652Z" />
<glyph unicode="1" horiz-adv-x="606" d="M274 -3Q263 -3 259 1T255 18V588L194 530Q178 515 169 527L110 594Q104 601 106 606T118 620L272 764Q283 773 296 773H362Q384 773 388 768T392 738V18Q392 7 388 2T373 -3H274Z" />
<glyph unicode="2" horiz-adv-x="606" d="M78 -3Q64 -3 58 0T52 17V88Q52 99 57 106T69 122L215 298Q296 396 332 458T368 557Q368 598 347 622T285 650Q247 654 208 642T121 603Q107 595 102 597T94 609L76 697Q74 705 76 710T91 723Q110 736 134 746T183 764T234
775T279 779Q327 779 369 765T443 724T492 655T510 560Q510 513 490 466T441 375T379 290T318 216Q301 194 278 168T235 120H499Q514 120 517 115T521 96V21Q521 6 517 2T499 -3H78Z" />
<glyph unicode="3" horiz-adv-x="606" d="M535 221Q535 170 517 126T462 50T372 -1T248 -19Q206 -19 158 -12T74 10Q60 15 57 22T56 40L66 120Q68 134 73 137T95 135Q119 127 150 119T205 109Q239 106 273 110T334 127T377 165T394 225Q394 246 384 266T354 303T303
329T231 339H177Q164 339 161 343T157 359V441Q157 455 160 458T177 462H229Q250 462 275 468T323 487T361 519T377 566Q377 604 351 630T270 656Q235 656 195 646T123 622Q109 616 101 617T91 633L81 716Q79 726 82 731T101 742Q143 759 188 770T276 782Q320 782
364 770T443 734T499 671T521 580Q521 551 511 524T482 474T438 432T382 401Q458 372 496 322T535 221Z" />
<glyph unicode="4" horiz-adv-x="606" d="M482 165V19Q482 2 479 -2T458 -7H375Q358 -7 355 -2T351 19V165H46Q32 165 28 168T23 185V256Q23 267 28 274T38 290Q114 407 189 526T344 760Q349 768 354 770T370 773H462Q480 773 481 767T482 750V288H564Q579 288
582 285T586 265V187Q586 170 582 168T564 165H482ZM173 288H351V563L173 288Z" />
<glyph unicode="5" horiz-adv-x="606" d="M469 57Q432 23 380 7T271 -9Q253 -9 231 -7T186 0T143 11T108 24Q100 28 98 31T95 45V139Q95 151 99 154T114 153Q129 147 149 142T191 131T236 123T279 120Q338 120 375 155T413 250Q413 306 383 342T279 378Q250 378
215 372T149 354Q140 350 131 348T115 346T104 355T100 379L105 750Q105 765 111 769T134 773H497Q509 773 512 769T516 753V670Q516 659 513 654T497 649H237L233 486Q250 490 268 491T304 493Q355 493 399 478T477 433T529 360T548 260Q548 132 469 57Z" />
<glyph unicode="6" horiz-adv-x="606" d="M308 -10Q185 -10 122 83T59 361Q59 445 76 521T132 655T235 747T394 781Q408 781 425 780T460 776T493 771T521 764Q531 760 532 755T534 742L530 647Q529 636 524 635T504 638Q487 643 474 646T448 651T422 653T390
654Q306 654 260 601T204 458Q225 483 260 498T327 513Q375 513 418 496T492 445T542 365T561 260Q561 203 544 154T493 68T413 11T308 -10ZM319 389Q262 389 230 355T198 262Q198 230 207 203T231 157T266 126T310 114Q361 114 394 151T428 255Q428 319 399 354T319
389Z" />
<glyph unicode="7" horiz-adv-x="606" d="M532 660Q499 571 467 490T402 330T338 175T273 17Q268 3 264 0T245 -3H148Q131 -3 127 2T131 27L375 639H82Q69 639 64 643T59 663V744Q59 760 63 764T82 768H505Q522 768 528 764T534 743V672Q534 666 532 660Z" />
<glyph unicode="8" horiz-adv-x="606" d="M306 -27Q261 -27 214 -13T128 30T65 102T40 204Q40 241 53 270T86 324T133 366T185 400Q160 417 138 437T99 479T72 527T62 581Q62 627 82 665T135 731T213 773T306 788Q356 788 400 775T477 735T529 671T548 584Q548
531 514 488T424 401Q454 382 481 362T528 319T561 268T573 204Q573 145 550 102T488 30T403 -13T306 -27ZM306 665Q286 665 268 659T235 640T211 612T202 575Q202 558 213 540T241 507T275 479T307 460Q322 466 339 480T372 511T398 546T409 578Q409 595 402 611T380
639T347 658T306 665ZM307 330Q286 323 264 313T223 287T193 250T181 202Q181 180 192 161T220 129T260 107T306 99Q331 99 354 106T394 127T421 160T432 202Q432 218 422 236T394 272T355 305T307 330Z" />
<glyph unicode="9" horiz-adv-x="606" d="M307 780Q430 780 493 687T556 409Q556 325 539 249T483 115T380 23T221 -11Q207 -11 190 -10T155 -7T122 -1T94 6Q84 10 83 15T81 28L85 123Q86 134 91 135T111 132Q128 127 141 124T167 119T193 117T225 116Q309 116
355 169T411 312Q390 287 355 272T288 257Q240 257 197 274T123 325T73 405T54 510Q54 567 71 616T122 702T201 759T307 780ZM296 381Q353 381 385 415T417 508Q417 539 408 566T384 613T349 644T305 656Q254 656 221 619T187 515Q187 451 216 416T296 381Z" />
<glyph unicode=":" horiz-adv-x="315" d="M158 524Q122 524 97 548T72 608Q72 643 97 668T158 693Q194 693 218 668T243 608Q243 573 219 549T158 524ZM158 69Q122 69 97 93T72 153Q72 188 97 213T158 238Q194 238 218 213T243 153Q243 118 219 94T158 69Z" />
<glyph unicode=";" horiz-adv-x="315" d="M158 525Q140 525 125 531T99 549T81 576T74 609Q74 644 98 669T158 694Q194 694 219 669T244 609Q244 574 219 550T158 525ZM168 -9Q165 -17 159 -19T146 -22H52Q47 -22 44 -19T43 -9L91 176Q93 182 97 187T113 193H226Q239
193 240 187T239 174L168 -9Z" />
<glyph unicode="&lt;" horiz-adv-x="569" d="M200 365Q194 357 200 350L497 44Q505 36 507 31T509 9V-111Q509 -136 502 -137T475 -117L83 295Q75 304 74 307T72 321V391Q72 403 73 407T83 420L475 832Q495 853 502 852T509 826V706Q509 690 507 685T497 671L200 365Z" />
<glyph unicode="=" horiz-adv-x="680" d="M61 425Q56 425 53 428Q49 432 49 437V529Q49 533 52 536L55 539Q55 539 59 541H61H599Q602 541 604 539Q605 539 605 539T607 538Q609 536 609 535Q610 534 610 533Q611 531 611 529V437V435Q611 434 610 433Q610 431
609 431Q607 428 604 426Q603 426 603 426T601 425H599H61ZM61 222Q59 222 55 224Q54 224 53 225L52 226Q49 229 49 234V326V328Q49 330 51 332Q51 333 53 335L59 338H61H599Q605 338 609 332Q611 330 611 328V326V234Q611 229 608 226Q604 222 599 222H61Z" />
<glyph unicode="&gt;" horiz-adv-x="569" d="M61 671Q53 679 51 684T49 706V826Q49 851 56 852T83 832L475 420Q483 412 484 408T486 391V321Q486 310 485 307T475 295L83 -117Q63 -138 56 -137T49 -111V9Q49 25 51 30T61 44L358 350Q364 357 358 365L61 671Z" />
<glyph unicode="?" horiz-adv-x="555" d="M465 590Q465 542 453 506T412 432Q382 392 362 363T330 308T312 258T307 206Q307 193 303 189T286 184H202Q191 184 186 188T181 206Q181 267 201 320T265 427Q300 471 316 505T332 575Q332 613 308 634T249 655Q205
655 170 648T103 630Q92 626 89 628T86 641V740Q86 747 88 750T99 757Q118 765 139 770T181 779T220 784T254 786Q299 786 337 772T404 731T449 669T465 590ZM238 -15Q206 -15 184 7T162 62Q162 92 184 115T238 139Q253 139 267 133T292 116T309 91T316 62Q316
30 293 8T238 -15Z" />
<glyph unicode="@" horiz-adv-x="872" d="M839 455Q839 418 831 385T810 324T780 273T746 234Q664 155 571 155Q546 155 524 171T492 219Q480 205 464 194T429 176T393 164T361 160Q321 160 291 173T242 208T213 262T203 330Q203 384 222 434T275 523T355 585T456
608Q488 608 518 592T562 550L576 597H652Q614 636 559 657T444 678Q387 678 336 657T245 596T184 504T161 388Q161 314 184 258T246 163T338 106T450 86Q497 86 532 92T594 110T640 137T674 172H819Q765 77 673 27T446 -23Q359 -23 284 6T153 90T66 219T34 386Q34
473 66 548T153 677T284 763T445 794Q527 794 599 767T724 694T808 586T839 455ZM461 506Q433 506 410 489T370 444T344 387T334 329T344 285T376 267Q404 267 428 284T471 326T499 383T510 443Q510 472 498 489T461 506ZM715 445Q715 474 708 500T688 549Q668
493 649 442T610 330Q604 311 602 300T600 283T603 276T608 274Q625 274 644 288T678 325T704 380T715 445Z" />
<glyph unicode="A" horiz-adv-x="727" d="M613 1Q602 1 596 3T585 18L522 183H211L148 18Q143 6 138 4T121 1H24Q8 1 3 6T4 26L295 754Q302 771 319 771H416Q429 771 433 768T442 753L731 26Q737 11 733 6T711 1H613ZM258 306H475L367 589L258 306Z" />
<glyph unicode="B" horiz-adv-x="606" d="M98 1Q89 1 84 3T79 19V749Q79 760 81 765T98 771H276Q332 771 377 759T455 721T504 658T522 568Q522 543 515 519T493 473T459 434T414 404Q444 393 467 375T507 335T532 287T541 237Q541 123 469 62T251 1H98ZM215 650V457H259Q295
457 319 465T357 487T378 519T384 560Q384 578 379 594T362 623T328 642T276 650H215ZM213 345V122H253Q298 122 327 130T373 153T398 188T405 233Q405 257 398 277T372 313T322 336T243 345H213Z" />
<glyph unicode="C" horiz-adv-x="672" d="M606 11Q577 1 538 -6T444 -13Q358 -13 287 15T164 96T85 222T56 386Q56 474 84 547T164 673T286 755T444 784Q489 784 531 779T609 762Q623 757 623 750T624 733L622 647Q622 630 614 628T588 631Q543 644 508 648T434
653Q378 653 334 634T258 579T211 494T194 386Q194 328 212 280T262 196T337 139T433 112Q481 107 525 115T597 134Q610 139 614 137T619 124L624 34Q625 23 621 19T606 11Z" />
<glyph unicode="D" horiz-adv-x="727" d="M534 90Q507 67 472 51T399 23T319 7T237 1H111Q100 1 94 2T85 6T82 15T81 32V737Q81 749 81 756T85 766T94 770T113 771H286Q478 771 577 658Q619 609 639 544T660 388Q660 294 628 217T534 90ZM473 572Q444 609 397
629T283 649H217V124H250Q309 124 359 141T445 192T501 275T522 391Q522 508 473 572Z" />
<glyph unicode="E" horiz-adv-x="576" d="M123 0Q99 0 94 6T89 37V736Q89 759 93 765T121 771H477Q494 771 496 765T498 747V669Q498 655 495 651T477 646H225V456H464Q480 456 482 450T485 432V354Q485 340 482 336T464 331H225V125H487Q503 125 505 120T508
102V24Q508 11 506 6T487 0H123Z" />
<glyph unicode="F" horiz-adv-x="503" d="M214 644V458H445Q457 458 460 454T464 438V352Q464 341 461 337T445 332H214V24Q214 10 210 6T194 1H99Q87 1 83 5T78 24V745Q78 761 82 766T100 771H458Q469 771 473 767T477 751V664Q477 653 474 649T458 644H214Z" />
<glyph unicode="G" horiz-adv-x="797" d="M683 26Q665 17 637 10T578 -1T514 -8T454 -11Q370 -11 299 15T176 92T95 217T65 386Q65 472 92 545T170 671T293 753T455 783Q514 783 564 776T657 755Q672 750 674 746T675 732L660 643Q658 628 652 628T630 632Q585
647 542 653T454 659Q399 659 354 639T275 583T224 496T205 386Q205 321 223 270T275 184T354 130T454 111Q491 111 521 113T568 121V306H415Q395 306 395 326V411Q395 431 416 431H672Q695 431 699 425T704 399V67Q704 48 699 41T683 26Z" />
<glyph unicode="H" horiz-adv-x="727" d="M112 1Q101 1 97 5T92 21V751Q92 771 112 771H208Q228 771 228 751V459H503V751Q503 771 523 771H619Q639 771 639 751V21Q639 9 635 5T619 1H523Q512 1 508 5T503 21V333H228V21Q228 9 224 5T208 1H112Z" />
<glyph unicode="I" horiz-adv-x="242" d="M79 1Q68 1 64 5T59 21V751Q59 771 79 771H175Q195 771 195 751V21Q195 9 191 5T175 1H79Z" />
<glyph unicode="J" horiz-adv-x="363" d="M258 57Q235 22 195 7T114 -8Q94 -8 72 -7T36 -1Q26 2 23 6T20 22V114Q20 128 23 131T43 129Q68 123 107 123Q130 123 142 143T155 217V751Q155 771 173 771H270Q291 771 291 751V222Q291 175 285 131T258 57Z" />
<glyph unicode="K" horiz-adv-x="641" d="M487 2Q476 2 473 4T463 17L262 324L208 264V21Q208 9 203 5T188 1H92Q81 1 77 5T72 21V751Q72 771 92 771H188Q208 771 208 751V455L443 756Q448 761 451 764T463 767H575Q610 767 589 742L342 430L615 23Q630 2 602 2H487Z" />
<glyph unicode="L" horiz-adv-x="484" d="M102 1Q81 1 81 23V753Q81 764 85 767T100 771H200Q211 771 214 768T217 753V127H458Q469 127 473 123T477 107V21Q477 10 473 6T458 1H102Z" />
<glyph unicode="M" horiz-adv-x="969" d="M762 1Q749 1 746 4T743 20V522L548 23Q543 12 539 9T524 6H437Q426 6 422 9T413 23L218 522V20Q218 8 215 5T199 1H101Q88 1 85 4T82 20V741Q82 762 86 766T111 771H223Q232 771 237 768T246 755L480 174L715 755Q721
771 740 771H849Q870 771 874 767T879 741V20Q879 8 876 5T860 1H762Z" />
<glyph unicode="N" horiz-adv-x="727" d="M530 1Q518 1 514 3T504 17L215 544V25Q215 9 212 5T193 1H102Q87 1 83 5T79 25V746Q79 763 82 768T104 773H203Q215 773 219 770T230 754L515 231V749Q515 764 518 768T537 773H627Q645 773 648 768T651 749V29Q651 10
647 6T625 1H530Z" />
<glyph unicode="O" horiz-adv-x="787" d="M651 99Q604 40 540 12T395 -16Q305 -16 241 16T135 104T74 232T54 385Q54 463 74 535T136 663T242 752T395 785Q483 785 547 752T653 663T715 535T735 385Q734 297 714 226T651 99ZM395 661Q343 661 306 638T244 575T208
487T196 385Q196 333 207 284T243 195T305 132T395 108Q446 108 483 132T545 195T580 284T592 385Q592 435 581 484T545 573T484 636T395 661Z" />
<glyph unicode="P" horiz-adv-x="577" d="M221 300V21Q221 7 217 4T201 0H105Q95 0 90 3T85 21V750Q85 762 90 766T104 770H304Q359 770 404 756T482 713T531 641T549 537Q549 479 530 435T477 361T397 316T296 300H221ZM221 646V424H287Q347 424 379 451T411
538Q411 591 386 618T318 646H221Z" />
<glyph unicode="Q" horiz-adv-x="787" d="M574 -142Q560 -142 557 -141T545 -131L439 -21Q428 -22 416 -22T392 -23Q308 -23 244 6T138 89T73 217T51 381Q51 462 70 532T131 659Q177 720 244 752T392 784Q477 784 540 752T652 659Q684 617 704 563T730 450T731
329T705 212T653 110T574 32L714 -109Q747 -142 705 -142H574ZM540 573Q485 660 392 660Q340 660 303 636T241 572T206 482T194 381Q194 328 206 278T242 189T304 127T394 103Q439 103 475 123T536 181T575 269T589 381Q589 435 577 485T540 573Z" />
<glyph unicode="R" horiz-adv-x="622" d="M483 1Q471 1 468 3T459 17L317 302H225V22Q225 8 221 5T206 1H109Q99 1 94 4T89 22V751Q89 763 94 767T108 771H309Q365 771 410 757T488 714T537 642T555 538Q555 466 524 416T442 336L604 27Q612 12 610 7T593 1H483ZM225
648V424H292Q352 424 385 451T418 539Q418 593 392 620T323 648H225Z" />
<glyph unicode="S" horiz-adv-x="545" d="M440 56Q414 27 371 9T283 -14Q259 -17 229 -15T169 -9T116 1T80 12Q69 17 66 21T65 38L75 135Q76 145 79 147T95 144Q114 136 138 130T188 120T238 115T283 119Q325 129 343 152T361 218Q361 227 357 239T342 265T313
296T265 330Q210 364 172 393T109 450T73 509T61 575Q61 620 79 658T130 725T207 770T302 786Q353 786 389 779T450 760Q463 754 464 750T464 735L445 650Q443 641 438 639T418 642Q371 657 332 660T263 653T218 622T201 567Q201 543 222 518T292 464Q353 426 393
396T458 338T492 280T502 214Q502 166 486 127T440 56Z" />
<glyph unicode="T" horiz-adv-x="545" d="M341 645V21Q341 9 337 5T322 1H224Q214 1 210 5T205 21V645H28Q17 645 13 649T8 664V751Q8 771 28 771H520Q533 771 536 767T540 751V664Q540 653 537 649T520 645H341Z" />
<glyph unicode="U" horiz-adv-x="727" d="M550 44Q512 14 466 0T366 -15Q312 -15 267 -1T184 44Q132 85 109 144T85 280V749Q85 758 88 764T105 771H201Q221 771 221 751V270Q221 197 258 154T366 110Q437 110 474 152T511 270V751Q511 771 531 771H627Q640 771
643 765T647 749V280Q647 205 623 145T550 44Z" />
<glyph unicode="V" horiz-adv-x="666" d="M406 16Q401 5 398 3T386 1H285Q278 1 275 3T266 16L0 747Q-6 764 -2 767T20 771H117Q128 771 132 769T140 755L334 183L532 755Q536 766 540 768T556 771H654Q671 771 674 767T671 747L406 16Z" />
<glyph unicode="W" horiz-adv-x="1029" d="M807 18Q803 6 799 4T783 1H685Q673 1 669 4T661 18L515 571L357 18Q354 7 350 4T333 1H236Q225 1 221 3T212 18L1 748Q-3 762 -1 766T17 771H113Q123 771 128 770T135 760L292 210L442 756Q445 767 450 769T466 771H563Q574
771 579 769T588 756L737 210L894 758Q896 767 900 769T915 771H1011Q1025 771 1028 766T1027 748L807 18Z" />
<glyph unicode="X" horiz-adv-x="666" d="M158 11Q153 4 150 3T140 1H23Q8 1 5 5T13 26L254 400L24 748Q15 762 18 766T39 771H149Q158 771 162 769T170 761L333 510L496 761Q500 767 504 769T517 771H627Q644 771 647 767T642 748L412 400L653 26Q664 10 661
6T643 1H526Q519 1 516 2T508 11L333 282L158 11Z" />
<glyph unicode="Y" horiz-adv-x="666" d="M404 21Q404 9 400 5T384 1H288Q277 1 273 5T268 21V330L11 747Q3 760 5 765T24 771H129Q144 771 152 758L340 444L522 758Q530 771 543 771H653Q670 771 670 764T663 745L404 330V21Z" />
<glyph unicode="Z" horiz-adv-x="545" d="M41 1Q22 1 22 21V92Q22 99 25 106T32 118L346 645H51Q40 645 36 649T32 665V751Q32 762 36 766T51 771H492Q505 771 508 767T512 751V670Q512 665 510 660T505 650L184 127H507Q518 127 522 123T526 107V21Q526 10 522
6T507 1H41Z" />
<glyph unicode="[" horiz-adv-x="378" d="M130 -139Q120 -139 117 -136T113 -119V836Q113 856 130 856H293Q304 856 307 852T311 836V751Q311 740 308 736T293 731H234V-14H293Q304 -14 307 -18T311 -34V-119Q311 -130 308 -134T293 -139H130Z" />
<glyph unicode="\" horiz-adv-x="374" d="M242 -54Q246 -63 251 -65T265 -68H367Q378 -68 383 -64T385 -47L126 770Q122 781 110 781H1Q-22 781 -16 761L242 -54Z" />
<glyph unicode="]" horiz-adv-x="378" d="M71 -139Q60 -139 57 -135T53 -119V-34Q53 -23 56 -19T71 -14H130V731H71Q60 731 57 735T53 751V836Q53 847 56 851T71 856H234Q251 856 251 836V-119Q251 -132 248 -135T234 -139H71Z" />
<glyph unicode="^" horiz-adv-x="680" d="M500 284Q489 284 486 285T478 295L331 608L184 295Q181 288 177 286T162 284H63Q49 284 47 288T49 304L270 751Q273 757 276 759T290 761H371Q387 761 392 751L611 304Q616 293 613 289T595 284H500Z" />
<glyph unicode="_" horiz-adv-x="580" d="M34 -128Q23 -128 20 -125T17 -113V-27Q17 -18 20 -15T34 -12H545Q556 -12 559 -15T562 -27V-113Q562 -122 559 -125T545 -128H34Z" />
<glyph unicode="`" horiz-adv-x="290" d="M160 616Q152 616 147 617T135 624L17 755Q7 766 10 770T28 775H150Q160 775 163 774T171 766L252 638Q259 628 259 622T246 616H160Z" />
<glyph unicode="a" horiz-adv-x="545" d="M374 -1Q365 -1 363 1T360 13V56Q343 29 305 10T228 -9Q187 -9 149 2T87 38T48 97T34 176Q34 228 59 270T125 335T224 369T350 376Q344 455 282 463Q262 465 242 462T202 453T164 438T132 420Q111 406 102 406T93 426V509Q93
522 95 527T110 539Q140 554 180 567T276 580Q378 580 428 528T479 367V139Q479 126 479 111T479 79T480 49T482 23Q484 3 480 1T466 -1H374ZM360 275Q303 274 266 267T207 246T176 215T168 175Q168 143 187 126T240 108Q294 108 326 147T360 275Z" />
<glyph unicode="b" horiz-adv-x="606" d="M209 18Q209 7 206 4T192 0H99Q87 0 83 3T78 21V808Q78 822 82 825T97 829H192Q204 829 207 826T210 808V529Q231 552 265 568T331 584Q385 584 427 564T499 505T545 413T561 290Q561 221 546 166T501 72T430 13T332 -8Q314
-8 296 -3T262 10T231 29T209 51V18ZM317 464Q294 464 275 455T240 425T217 371T208 290Q208 244 217 211T242 156T276 124T317 113Q365 113 396 154T427 290Q427 380 397 422T317 464Z" />
<glyph unicode="c" horiz-adv-x="484" d="M449 5Q438 0 422 -4T386 -10T345 -13T305 -12Q242 -7 194 17T112 79T62 170T45 283Q45 347 65 401T121 494T209 554T324 576Q353 576 387 572T451 558Q460 555 461 551T462 536L452 459Q450 447 446 443T426 444Q405
452 375 455T322 458Q253 456 216 409T178 283Q178 208 213 162T313 109Q345 104 376 107T432 119Q448 124 451 122T456 108L462 31Q463 19 461 15T449 5Z" />
<glyph unicode="d" horiz-adv-x="606" d="M407 51Q399 40 385 29T355 10T320 -3T284 -8Q174 -8 115 71T55 290Q55 358 71 412T116 505T188 563T285 584Q317 584 351 568T406 529V808Q406 822 409 825T424 829H519Q530 829 534 826T538 808V21Q538 7 534 4T517
0H424Q414 0 411 3T407 18V51ZM299 464Q249 464 219 422T189 290Q189 195 220 154T299 113Q320 113 339 123T374 155T398 210T408 290Q408 338 400 371T376 424T341 454T299 464Z" />
<glyph unicode="e" horiz-adv-x="545" d="M512 262Q511 250 507 244T490 237H177Q184 170 219 138T304 104Q350 102 384 113T451 144Q465 153 470 149T475 128V53Q475 42 473 38T461 27Q432 7 388 -3T300 -13Q180 -13 111 64T41 283Q41 336 55 389T100 484T176
553T283 580Q346 580 389 557T460 495T500 405T512 295V262ZM286 464Q265 464 247 454T216 428T192 391T179 347H382Q382 367 376 388T358 425T328 453T286 464Z" />
<glyph unicode="f" horiz-adv-x="363" d="M349 716Q349 706 345 705T332 707Q318 713 306 715T278 715Q252 711 243 677Q241 669 240 653T239 617V567H323Q335 567 338 563T342 547V464Q342 453 339 449T323 444H239V21Q239 9 235 5T220 1H127Q116 1 112 5T108
21V444H38Q19 444 19 464V547Q19 567 38 567H108V610Q108 652 114 693T138 765T186 815T265 836Q285 837 309 834T344 826Q351 823 353 820T354 808L349 716Z" />
<glyph unicode="g" horiz-adv-x="606" d="M276 -167Q236 -167 195 -159T115 -136Q105 -132 103 -128T101 -112L107 -25Q108 -13 112 -9T133 -13Q163 -28 202 -38T282 -46Q338 -44 374 -10T415 87Q389 57 351 43T281 30Q229 31 187 51T116 106T70 190T54 295Q54
426 113 500T282 575Q301 575 321 570T359 557T392 539T415 517V555Q415 572 431 572H523Q534 572 537 568T541 550V142Q541 -7 471 -87T276 -167ZM302 454Q252 454 221 419T190 297Q190 263 199 236T224 189T258 160T298 150Q346 150 378 189T410 298Q410 371
379 412T302 454Z" />
<glyph unicode="h" horiz-adv-x="606" d="M413 1Q402 1 398 5T393 21V339Q393 466 318 466Q276 466 249 450T210 404V21Q210 9 205 5T190 1H98Q87 1 83 5T79 21V806Q79 826 98 826H190Q210 826 210 806V536Q236 558 267 571T326 585Q427 585 475 526T524 340V21Q524
9 520 5T505 1H413Z" />
<glyph unicode="i" horiz-adv-x="242" d="M75 -55Q66 -55 63 -51T59 -35V486Q59 498 62 502T75 506H174Q184 506 187 502T191 486V-35Q191 -47 188 -51T174 -55H75ZM126 591Q93 591 71 614T49 670Q49 703 70 726T126 750Q160 750 182 727T204 670Q204 637 182
614T126 591Z" />
<glyph unicode="j" horiz-adv-x="269" d="M196 -97Q180 -130 148 -146T81 -162Q71 -162 51 -161T20 -154Q13 -151 11 -148T9 -136V-63Q9 -53 11 -47T26 -46Q48 -54 65 -51T84 -33Q86 -24 86 4T87 61V544Q87 564 105 564H202Q213 564 216 560T219 544V57Q219 21
218 -2T214 -42T207 -71T196 -97ZM154 647Q121 647 99 670T77 726Q77 759 98 782T154 806Q188 806 210 783T232 726Q232 693 210 670T154 647Z" />
<glyph unicode="k" horiz-adv-x="520" d="M411 1Q397 1 392 3T381 15L243 233L203 186V23Q203 11 199 7T183 3H91Q80 3 76 7T72 23V803Q72 823 91 823H183Q203 823 203 803V367L359 556Q364 562 368 564T381 566H479Q496 566 498 559T486 534L321 327L513 27Q522
14 521 8T502 1H411Z" />
<glyph unicode="l" horiz-adv-x="242" d="M78 2Q69 2 66 6T62 22V803Q62 815 65 819T78 823H177Q187 823 190 819T194 803V22Q194 10 191 6T177 2H78Z" />
<glyph unicode="m" horiz-adv-x="908" d="M717 1Q706 1 701 5T696 22V358Q696 398 674 422T619 447Q594 447 574 436T540 404T519 358T511 304V21Q511 1 492 1H398Q387 1 382 5T377 22V358Q377 405 359 426T305 447Q257 447 229 415T201 337V21Q201 9 197 5T182
1H89Q77 1 73 6T69 22V413Q69 451 69 488T67 546Q65 557 69 561T89 566H182Q193 566 196 564T199 553V512Q221 535 252 552T316 570Q364 570 406 545T472 478Q485 497 502 514T538 544T580 565T627 573Q672 573 709 560T772 522T813 461T828 377V21Q828 9 824 5T808
1H717Z" />
<glyph unicode="n" horiz-adv-x="606" d="M209 21Q209 9 205 5T190 1H97Q85 1 81 6T77 22V413Q77 451 77 490T75 549Q73 560 77 563T95 566H190Q201 566 204 564T207 553V515Q228 537 261 555T330 574Q430 574 476 517T523 351V21Q523 9 519 5T504 1H411Q391 1
391 22V331Q391 452 318 452Q267 452 238 419T209 329V21Z" />
<glyph unicode="o" horiz-adv-x="606" d="M509 79Q472 32 421 9T306 -15Q240 -15 191 9T108 73T57 168T40 282Q40 342 56 396T106 490T190 554T306 578Q372 578 422 554T505 490T556 396T573 282Q573 223 557 171T509 79ZM306 461Q273 461 248 446T207 405T182
348T173 282Q173 248 181 216T206 159T248 118T306 102Q340 102 365 117T406 158T431 216T439 282Q439 315 431 347T407 404T365 445T306 461Z" />
<glyph unicode="p" horiz-adv-x="606" d="M322 -23Q291 -23 259 -9T202 34V-137Q202 -148 199 -152T183 -157H90Q79 -157 75 -153T71 -137V541Q71 555 76 559T93 564H183Q195 564 199 561T204 546V507Q213 519 227 530T258 550T294 564T333 569Q384 569 424 548T494
488T538 394T554 270Q554 205 538 151T492 59T419 -1T322 -23ZM310 447Q289 447 270 437T235 405T211 350T201 272Q201 225 209 192T232 138T267 108T310 98Q360 98 390 140T421 272Q421 366 390 406T310 447Z" />
<glyph unicode="q" horiz-adv-x="606" d="M281 -23Q227 -23 184 -2T111 58T65 151T49 270Q49 339 64 394T109 488T178 548T270 569Q289 569 308 564T345 551T376 531T399 507V546Q399 557 403 560T420 564H510Q521 564 526 560T532 541V-137Q532 -148 528 -152T513
-157H420Q408 -157 405 -153T401 -137V34Q377 5 345 -9T281 -23ZM293 447Q244 447 213 407T182 272Q182 182 212 140T293 98Q316 98 336 107T370 138T393 192T402 272Q402 317 393 350T368 404T334 436T293 447Z" />
<glyph unicode="r" horiz-adv-x="363" d="M344 441Q325 449 309 450T281 448Q257 440 243 422T221 380T211 330T209 280V22Q209 10 206 6T191 1H95Q84 1 81 5T78 23V419Q78 451 77 486T76 544Q76 557 80 561T95 565H191Q206 565 206 549V511Q219 530 239 548T281
570Q302 574 322 573T354 563Q359 559 360 556T362 544V457Q362 446 358 441T344 441Z" />
<glyph unicode="s" horiz-adv-x="424" d="M328 22Q302 2 269 -6T199 -15Q180 -15 158 -13T116 -7T79 2T53 11Q42 16 39 19T36 34L44 107Q45 119 49 122T64 121Q95 110 128 102T198 94Q234 94 251 112T268 157Q268 176 251 194T209 229T160 258T120 281Q87 301
65 332T42 406Q42 451 57 483T98 537T157 568T226 578Q244 578 264 576T303 569T338 560T363 551Q373 546 374 542T375 530L366 454Q364 442 359 441T343 444Q291 469 232 467Q200 466 186 452T171 411Q171 400 184 384T230 350Q261 333 286 318T324 293Q360 265
378 237T397 162Q397 118 380 83T328 22Z" />
<glyph unicode="t" horiz-adv-x="363" d="M351 8Q331 -1 303 -7T239 -13Q202 -12 172 5T128 48Q114 77 111 113T108 208V444H37Q18 444 18 464V547Q18 567 37 567H108V700Q108 720 128 720H220Q239 720 239 700V567H324Q336 567 339 563T343 547V464Q343 453 340
449T324 444H239V220Q239 184 239 162T241 132Q245 113 258 108T286 105T315 112T337 121Q345 125 349 122T354 107L363 32Q364 23 362 18T351 8Z" />
<glyph unicode="u" horiz-adv-x="606" d="M419 -1Q408 -1 405 2T401 13V51Q392 37 378 26T346 6T311 -7T277 -12Q179 -12 130 46T81 211V543Q81 554 85 559T100 564H192Q204 564 208 558T212 542V228Q212 193 217 171T233 135T257 116T290 110Q334 110 364 144T395
252V543Q395 554 399 559T414 564H507Q519 564 522 557T526 541V140Q526 110 527 78T528 20Q528 7 526 3T509 -1H419Z" />
<glyph unicode="v" horiz-adv-x="484" d="M308 13Q306 5 303 3T289 1H198Q190 1 186 3T180 13L4 543Q-1 558 2 562T23 566H116Q126 566 129 564T135 554L245 194L355 554Q357 562 360 564T374 566H466Q483 566 486 562T485 543L308 13Z" />
<glyph unicode="w" horiz-adv-x="848" d="M425 375L311 13Q309 5 306 3T292 1H196Q188 1 184 3T178 13L7 543Q2 558 5 562T26 566H118Q128 566 131 564T137 554L246 190L358 554Q360 562 363 564T377 566H473Q484 566 487 564T492 554L604 190L713 554Q715 562
718 564T732 566H824Q841 566 844 562T843 543L672 13Q670 5 666 3T654 1H558Q547 1 544 3T539 13L425 375Z" />
<glyph unicode="x" horiz-adv-x="510" d="M149 13Q144 5 141 4T132 2H19Q8 2 7 6T15 25L184 296L26 541Q16 556 18 561T37 566H144Q156 566 162 556L255 403L348 556Q354 566 366 566H473Q490 566 492 561T484 541L326 296L495 25Q504 11 503 7T491 2H378Q373
2 370 3T361 13L255 189L149 13Z" />
<glyph unicode="y" horiz-adv-x="464" d="M268 -20Q242 -94 203 -126T110 -159Q99 -159 78 -158T37 -148Q26 -143 23 -140T20 -125L27 -43Q28 -34 33 -33T46 -34Q60 -39 74 -41T104 -43Q112 -42 119 -39T131 -27Q142 -4 151 18T170 69L4 541Q-1 556 3 560T19 564H114Q123
564 126 562T133 548L232 230L331 548Q334 559 337 561T350 564H447Q461 564 463 559T461 540L268 -20Z" />
<glyph unicode="z" horiz-adv-x="484" d="M51 2Q40 2 36 6T32 22V96Q32 101 34 107T39 118L293 444H63Q44 444 44 464V546Q44 566 63 566H439Q451 566 454 562T458 546V465Q458 458 455 453T449 445L191 124H441Q453 124 456 120T460 104V22Q460 11 457 7T441 2H51Z" />
<glyph unicode="{" horiz-adv-x="315" d="M219 505Q219 457 195 422T143 361Q156 348 170 333T194 300T212 262T219 217V48Q219 16 220 3T233 -21Q241 -28 256 -30T282 -30Q290 -28 294 -29T298 -43V-116Q298 -126 296 -129T282 -135Q262 -138 241 -138T195 -129Q150
-115 125 -75T100 28V199Q100 211 99 227T94 258T83 287T64 308Q54 313 45 316T36 334V388Q36 402 43 404T59 411Q66 415 73 421T86 439T96 471T100 522V693Q100 756 125 796T195 850Q220 858 241 858T282 856Q293 854 295 851T298 837V764Q298 752 294 751T282
751Q271 753 256 751T233 742Q222 732 221 719T219 674V505Z" />
<glyph unicode="|" horiz-adv-x="252" d="M84 -111Q73 -111 69 -107T64 -91V802Q64 822 84 822H170Q190 822 190 802V-91Q190 -103 186 -107T170 -111H84Z" />
<glyph unicode="}" horiz-adv-x="315" d="M85 674Q85 706 84 719T71 742Q63 749 48 751T22 751Q14 749 10 750T6 764V837Q6 847 8 850T22 856Q42 859 63 859T109 850Q154 836 179 796T204 693V522Q204 491 208 471T218 439T231 421T245 411Q254 406 261 404T268
388V334Q268 320 259 317T240 308Q228 301 221 288T210 259T205 227T204 199V28Q204 -35 179 -75T109 -129Q84 -137 63 -137T22 -135Q11 -133 9 -130T6 -116V-43Q6 -31 10 -30T22 -30Q33 -32 48 -30T71 -21Q82 -11 83 2T85 48V217Q85 241 92 261T109 300T133 333T161
361Q134 386 110 421T85 505V674Z" />
<glyph unicode="~" horiz-adv-x="660" d="M587 379Q561 339 524 316T440 293Q413 293 384 302T327 322T273 342T229 351Q208 351 184 333T139 289Q131 279 126 281T112 296L75 356Q70 363 71 368T74 378Q99 420 139 441T230 463Q256 463 286 455T344 437T395 419T434
410Q446 410 458 416T481 431T501 449T518 466Q526 474 530 475T543 466L588 403Q593 396 593 392T587 379Z" />
<glyph unicode="&#xa1;" horiz-adv-x="302" d="M231 713Q231 680 209 658T153 635Q119 635 97 657T74 713Q74 747 96 769T153 792Q187 792 209 770T231 713ZM96 553Q96 566 100 574T123 582H184Q202 582 206 579T210 553Q213 423 217 296T224 40Q225 13 221 7T196
1H110Q89 1 85 7T81 40L96 553Z" />
<glyph unicode="&#xa2;" horiz-adv-x="484" d="M249 130V438Q214 417 196 377T178 283Q178 229 196 190T249 130ZM449 5Q427 -5 386 -10Q381 -11 375 -11T363 -13V-67Q363 -79 359 -82T345 -86H267Q257 -86 253 -83T249 -67V-3Q198 11 160 37T96 101T58 185T45
283Q45 333 58 379T97 463T161 528T249 567V639Q249 650 252 654T267 658H345Q356 658 359 654T363 639V574Q386 572 408 569T451 558Q460 555 461 551T462 536L452 459Q450 450 448 446T439 441Q435 441 426 444Q413 449 397 452T363 457V106Q382 107 399 110T432
119Q437 121 441 122T447 123Q452 123 453 120T456 108L462 31Q463 19 461 15T449 5Z" />
<glyph unicode="&#xa3;" horiz-adv-x="641" d="M208 145Q195 148 178 148Q148 148 148 121Q148 100 171 100Q186 100 194 112T208 145ZM486 309H324Q330 283 334 255T336 196Q368 171 398 153T448 134Q472 134 478 149T488 196Q491 209 506 209L597 195Q612 192
609 176Q599 133 587 102T558 50T517 19T458 9Q426 9 391 26T309 80Q289 47 255 27T164 6Q107 6 72 37T36 124Q36 151 46 173T74 210T115 234T164 242Q175 242 186 240T209 235Q207 251 203 270T194 309H76Q64 309 64 321V415Q64 427 76 427H159Q150 456 145 482T139
529Q139 623 193 674T353 725Q397 725 433 711T497 672T540 609T559 525Q560 518 556 514T544 509H429Q423 509 419 513T414 524Q412 566 394 583T346 600Q315 600 298 579T280 515Q280 492 283 470T291 427H486Q498 427 498 415V321Q498 309 486 309Z" />
<glyph unicode="&#xa4;" horiz-adv-x="838" d="M604 357Q604 398 589 433T549 493T488 534T412 549Q372 549 337 534T277 493T236 432T221 357Q221 317 236 283T277 222T337 181T412 166Q452 166 487 181T548 221T589 282T604 357ZM749 709L821 637L692 523Q715
485 726 445T737 357Q737 309 723 265T684 182L820 58L753 -19L618 106Q576 71 524 52T412 33Q301 33 215 99L85 -21L18 56L145 172Q117 211 102 257T87 357Q87 405 99 448T134 529Q119 543 101 559T65 591T34 619T17 635L90 707L203 605Q289 682 412 682Q475 682
528 661T627 600L749 709Z" />
<glyph unicode="&#xa5;" horiz-adv-x="666" d="M471 437H602Q614 437 614 425V323Q614 311 602 311H404V249H602Q614 249 614 237V135Q614 123 602 123H404V21Q404 9 400 5T384 1H288Q277 1 273 5T268 21V123H74Q62 123 62 135V237Q62 249 74 249H268V311H74Q62
311 62 323V425Q62 437 74 437H202L11 747Q3 760 5 765T24 771H129Q145 771 152 758L340 444L522 758Q529 771 543 771H653Q670 771 670 764T663 745L471 437Z" />
<glyph unicode="&#xa6;" horiz-adv-x="250" d="M168 -111H82Q71 -111 67 -107T62 -91V262Q62 282 82 282H168Q188 282 188 262V-91Q188 -103 184 -107T168 -111ZM168 439H82Q71 439 67 443T62 459V802Q62 822 82 822H168Q188 822 188 802V459Q188 447 184 443T168 439Z" />
<glyph unicode="&#xa7;" horiz-adv-x="506" d="M302 375Q288 380 275 382T249 385Q207 385 191 363T174 310Q174 281 185 263T216 233H231Q276 233 297 260T318 326Q318 353 302 375ZM367 175Q394 159 412 132T430 56Q430 13 414 -20T371 -76T306 -111T225 -123Q210
-123 190 -122T148 -117T109 -107T79 -91Q75 -89 71 -86T67 -74L73 1Q74 8 74 11T79 15Q83 15 89 12Q122 -2 157 -9T221 -17Q260 -17 279 5T298 56Q298 83 279 96T232 120T170 140T109 169T61 220T42 307Q42 373 75 414T164 466Q127 489 100 522T72 607Q72 689
122 734T253 780Q268 780 288 778T327 773T364 766T391 755Q396 752 396 750T396 742L390 658Q389 644 381 644Q374 644 370 646Q343 656 314 660T259 665Q229 665 217 649T204 610Q204 579 222 562T267 531T327 504T386 470T432 415T450 326Q450 273 428 235T367
175Z" />
<glyph unicode="&#xa9;" horiz-adv-x="855" d="M431 -41Q345 -41 272 -12T146 70T62 196T32 355Q32 443 62 516T145 641T272 723T431 752Q518 752 591 723T717 641T800 515T830 355Q830 268 800 195T716 70T589 -12T431 -41ZM431 47Q497 47 553 70T651 134T715
232T738 355Q738 423 715 479T650 577T553 641T431 664Q364 664 308 641T210 577T145 479T122 355Q122 289 145 233T209 135T307 70T431 47ZM195 353Q195 408 213 454T265 534T347 587T454 606Q483 606 517 602T581 588Q590 585 591 581T592 566L582 489Q580 480
578 476T569 471Q565 471 556 474Q530 483 500 485T442 488Q387 486 358 450T328 353Q328 280 368 248T474 216Q499 216 521 219T562 229Q567 231 571 232T577 233Q582 233 583 230T586 218L592 141Q593 129 591 125T579 115Q558 105 525 101T468 97Q409 97 359
113T272 162T216 242T195 353Z" />
<glyph unicode="&#xaa;" horiz-adv-x="545" d="M412 379H315Q310 379 309 379T307 385V417Q290 391 263 379T208 367Q150 367 118 400T86 490Q86 532 102 560T146 604T214 626T300 633Q300 658 291 673T259 688Q192 688 143 657Q132 649 129 651Q124 651 124 658V738Q126
743 128 745T136 751Q162 763 189 770T258 778Q339 778 378 744T417 635V469Q417 449 418 428T420 390Q420 379 412 379ZM302 539V546Q240 546 214 534T188 495Q188 478 200 470T234 461Q265 461 283 479T302 539Z" />
<glyph unicode="&#xab;" horiz-adv-x="940" d="M835 73L782 3L319 327V388L782 711L835 641L432 357L835 73ZM624 70L570 -1L108 327V388L570 716L624 645L220 357L624 70Z" />
<glyph unicode="&#xac;" horiz-adv-x="654" d="M610 122Q610 110 606 107T591 103H503Q493 103 489 106T484 122V323H66Q47 323 47 342V423Q47 442 66 442H591Q603 442 606 438T610 423V122Z" />
<glyph unicode="&#xad;" horiz-adv-x="363" d="M324 331H62Q49 331 49 343V443Q49 455 62 455H324Q337 455 337 443V343Q337 331 324 331Z" />
<glyph unicode="&#xae;" horiz-adv-x="857" d="M431 -41Q345 -41 272 -12T146 70T62 196T32 355Q32 443 62 516T145 641T272 723T431 752Q518 752 591 723T717 641T800 515T830 355Q830 268 800 195T716 70T589 -12T431 -41ZM431 47Q497 47 553 70T651 134T715
232T738 355Q738 423 715 479T650 577T553 641T431 664Q364 664 308 641T210 577T145 479T122 355Q122 289 145 233T209 135T307 70T431 47ZM424 503H373V404H405Q438 404 455 416T473 455Q473 479 460 491T424 503ZM510 325L609 137Q614 128 613 125T602 121H509Q501
121 499 122T494 131L406 308H383V134Q383 125 381 123T372 121H291Q285 121 282 123T279 134V587Q279 595 282 597T291 599H436Q509 599 548 563T588 454Q588 406 567 374T510 325Z" />
<glyph unicode="&#xb0;" horiz-adv-x="446" d="M270 663Q270 683 256 696T223 710Q204 710 190 697T176 663Q176 643 190 629T223 615Q242 615 256 629T270 663ZM355 663Q355 636 345 612T316 570T274 541T223 530Q196 530 172 540T130 569T102 612T91 663Q91
690 101 714T130 756T172 784T223 795Q250 795 274 785T316 756T344 714T355 663Z" />
<glyph unicode="&#xb1;" horiz-adv-x="567" d="M532 67Q532 45 509 45H58Q35 45 35 67V132Q35 154 58 154H509Q532 154 532 132V67ZM538 423Q538 400 515 400H338V220Q338 198 316 198H250Q228 198 228 220V400H53Q30 400 30 423V487Q30 509 53 509H228V688Q228
710 250 710H316Q338 710 338 688V509H515Q538 509 538 487V423Z" />
<glyph unicode="&#xb2;" horiz-adv-x="416" d="M323 377H57Q52 377 52 383V474Q52 477 53 480T57 485Q77 488 101 503T147 539T182 583T197 627Q197 669 159 669Q139 669 116 663T69 645Q68 644 65 644Q61 644 61 649L58 752Q58 761 63 763Q89 776 116 781T166
787Q239 787 278 755T318 663Q318 631 300 589T231 490H323Q331 490 331 483V384Q331 377 323 377Z" />
<glyph unicode="&#xb3;" horiz-adv-x="402" d="M62 375Q55 379 55 387L57 477Q58 481 62 481Q64 481 66 480Q90 471 118 467T173 463Q196 463 209 472T223 497Q223 511 207 518T160 526H122Q115 526 115 532V631Q115 638 122 638H125Q172 638 197 644T222 662Q222
683 179 683Q132 683 73 666Q72 665 70 665Q67 665 65 670L63 761Q61 768 70 771Q98 779 127 783T183 787Q253 787 291 762T330 688Q330 658 312 628T259 583Q294 578 312 551T331 478Q331 443 316 421T278 385T225 367T167 362Q136 363 109 366T62 375Z" />
<glyph unicode="&#xb5;" horiz-adv-x="606" d="M194 -137H95Q86 -137 83 -133T79 -117V544Q79 556 82 560T95 564Q123 564 142 564T174 565Q202 565 206 562T211 544V228Q211 171 227 141T289 110Q334 110 364 144T394 252V543Q394 554 398 559T413 564H506Q518
564 521 557T525 541V140Q525 132 525 115T526 79T526 44T527 20Q527 7 525 3T508 -1H418Q407 -1 404 2T400 13V51Q384 23 358 6T286 -12Q238 -12 211 26V-117Q211 -129 208 -133T194 -137Z" />
<glyph unicode="&#xb6;" horiz-adv-x="605" d="M536 -52H430V676H380V-52H274V346Q175 355 122 413T69 558Q69 604 84 643T128 710T200 755T300 772H536V-52Z" />
<glyph unicode="&#xb7;" horiz-adv-x="290" d="M228 389Q228 352 204 329T142 305Q105 305 81 328T57 389Q57 426 80 450T141 474Q178 474 203 450T228 389Z" />
<glyph unicode="&#xb9;" horiz-adv-x="336" d="M266 742V393Q266 379 252 379H158Q144 379 144 393V633Q125 622 104 610T68 586Q63 581 58 581Q52 581 48 588L3 660Q0 665 0 671Q0 675 5 680L127 766Q131 770 139 770H238Q259 770 262 767T266 742Z" />
<glyph unicode="&#xba;" horiz-adv-x="441" d="M224 361Q177 361 142 376T85 419T51 486T40 572Q40 620 51 659T85 727T143 771T224 787Q271 787 305 771T363 727T397 659T408 572Q408 477 363 419T224 361ZM224 666Q195 666 181 645T167 572Q167 535 179 507T224
478Q251 478 265 499T279 572Q279 623 265 644T224 666Z" />
<glyph unicode="&#xbb;" horiz-adv-x="940" d="M620 327L157 3L104 73L507 357Q407 428 306 499T104 641L157 711L620 388V327ZM831 327L369 -1L315 70L719 357Q619 429 517 502T315 645L369 716L831 388V327Z" />
<glyph unicode="&#xbc;" horiz-adv-x="1082" d="M837 770L400 -6Q395 -16 388 -18T370 -20H280Q266 -20 261 -16T263 4L694 784Q699 792 703 794T717 796H821Q838 796 841 791T837 770ZM379 742V393Q379 379 365 379H271Q257 379 257 393V633Q238 622 217 610T181
586Q176 581 171 581Q165 581 161 588L116 660Q113 665 113 671Q113 675 118 680L240 766Q244 770 252 770H351Q372 770 375 767T379 742ZM751 159H836V283L751 159ZM933 69V26Q933 12 919 12H850Q836 12 836 26V69H660Q638 69 638 91V142Q638 151 639 154T645
165L799 392Q805 401 807 402T821 404H895Q916 404 924 401T933 376V159H973Q987 159 987 145V83Q987 69 973 69H933Z" />
<glyph unicode="&#xbd;" horiz-adv-x="1061" d="M837 770L400 -6Q395 -16 388 -18T370 -20H280Q266 -20 261 -16T263 4L694 784Q699 792 703 794T717 796H821Q838 796 841 791T837 770ZM379 742V393Q379 379 365 379H271Q257 379 257 393V633Q238 622 217 610T181
586Q176 581 171 581Q165 581 161 588L116 660Q113 665 113 671Q113 675 118 680L240 766Q244 770 252 770H351Q372 770 375 767T379 742ZM958 10H692Q687 10 687 16V107Q687 110 688 113T692 118Q712 121 736 136T782 172T817 216T832 260Q832 302 794 302Q774
302 751 296T704 278Q703 277 700 277Q696 277 696 282L693 385Q693 394 698 396Q724 409 751 414T801 420Q874 420 913 388T953 296Q953 264 935 222T866 123H958Q966 123 966 116V17Q966 10 958 10Z" />
<glyph unicode="&#xbe;" horiz-adv-x="1067" d="M822 770L385 -6Q380 -16 373 -18T355 -20H265Q251 -20 246 -16T248 4L679 784Q684 792 688 794T702 796H806Q823 796 826 791T822 770ZM120 375Q113 379 113 387L115 477Q116 481 120 481Q122 481 124 480Q148
471 176 467T231 463Q254 463 267 472T281 497Q281 511 265 518T218 526H180Q173 526 173 532V631Q173 638 180 638H183Q230 638 255 644T280 662Q280 683 237 683Q190 683 131 666Q130 665 128 665Q125 665 123 670L121 761Q119 768 128 771Q156 779 185 783T241
787Q311 787 349 762T388 688Q388 658 370 628T317 583Q352 578 370 551T389 478Q389 443 374 421T336 385T283 367T225 362Q194 363 167 366T120 375ZM736 159H821V283L736 159ZM918 69V26Q918 12 904 12H835Q821 12 821 26V69H645Q623 69 623 91V142Q623 151
624 154T630 165L784 392Q790 401 792 402T806 404H880Q901 404 909 401T918 376V159H958Q972 159 972 145V83Q972 69 958 69H918Z" />
<glyph unicode="&#xbf;" horiz-adv-x="540" d="M378 715Q378 685 357 663T305 641Q273 641 252 663T230 715Q230 747 251 768T305 789Q336 789 357 768T378 715ZM206 452Q220 475 229 502T238 565Q238 593 265 593H337Q351 593 356 588T362 567Q362 533 357 505T341
451T314 401T277 350Q248 318 229 280T209 209Q209 167 235 146T299 125Q336 125 364 129T426 148Q440 154 450 151T461 131V52Q461 36 443 29Q407 13 367 8T290 2Q245 2 207 16T140 56T96 117T80 193Q80 241 90 273T118 330Q140 361 163 390T206 452Z" />
<glyph unicode="&#xc6;" horiz-adv-x="947" d="M460 615L448 589L300 306H460V615ZM858 0H494Q470 0 465 6T460 37V183H235L149 18Q143 7 138 4T122 1H25Q9 1 3 6T5 26L376 754Q384 771 400 771H848Q865 771 867 765T869 747V669Q869 655 866 651T848 646H596V456H835Q851
456 853 450T856 432V354Q856 340 853 336T835 331H596V125H858Q874 125 876 120T879 102V24Q879 11 877 6T858 0Z" />
<glyph unicode="&#xd0;" horiz-adv-x="727" d="M534 90Q506 66 470 49T394 22T314 6T237 1H111Q90 1 85 6Q82 9 82 15Q81 19 81 32V325H37Q18 325 18 345V428Q18 448 37 448H81V737Q81 751 82 756Q82 769 95 770Q99 771 113 771H286Q472 771 566 670T660 388Q660
294 628 217T534 90ZM283 649H217V448H364Q376 448 379 444T383 428V345Q383 334 380 330T364 325H217V124H250Q312 124 362 142T447 194T502 278T522 391Q522 451 509 498T466 579T392 631T283 649Z" />
<glyph unicode="&#xd7;" horiz-adv-x="592" d="M507 115Q490 99 471 115L296 290Q252 247 208 203T119 114Q98 96 84 114Q74 124 64 135T43 156Q35 164 35 174T43 193L218 368Q176 410 134 452T50 536Q32 554 50 571L92 614Q110 634 129 614H128Q172 571 212 531T297
447Q340 489 382 532T468 617Q476 624 486 624T504 617L543 575Q550 567 550 557T543 538L374 368Q419 323 461 281T548 193Q563 176 548 158L507 115Z" />
<glyph unicode="&#xd8;" horiz-adv-x="787" d="M395 -16Q337 -16 290 -3T206 37L165 -28Q159 -39 150 -39Q147 -39 142 -36L126 -25Q112 -15 120 -1L165 71Q134 99 113 136T79 216T60 301T54 385Q54 465 74 537T137 665T243 752T395 785Q451 785 496 772T579 733L620
799Q623 805 630 805Q636 805 639 803L658 792Q672 784 665 771L620 700Q640 680 653 663Q695 607 715 535T735 385Q734 304 715 231T654 103T549 16T395 -16ZM543 576L278 153Q301 132 330 120T395 108Q450 108 487 134T548 200T582 290T592 385Q592 436 581 485T545
573L543 576ZM395 661Q340 661 302 635T241 569T207 480T196 385Q196 334 207 285T243 196L507 619Q485 639 458 650T395 661Z" />
<glyph unicode="&#xde;" horiz-adv-x="577" d="M194 302H287Q347 302 379 329T411 416Q411 470 386 497T318 524H194V302ZM177 2H78Q69 2 66 6T62 22V803Q62 815 65 819T78 823H177Q187 823 190 819T194 803V648H304Q421 648 485 589T549 415Q549 360 531 316T479
242T400 195T296 178H194V22Q194 10 191 6T177 2Z" />
<glyph unicode="&#xdf;" horiz-adv-x="624" d="M597 162Q597 119 582 87T541 33T481 0T409 -11Q379 -11 348 -8T291 6Q277 11 278 24L282 121Q284 133 291 133Q292 133 298 131Q324 117 350 112T404 106Q429 106 445 121T461 162Q461 182 448 198T416 229T373
261T331 298T298 342T285 399Q285 444 303 478T343 540T383 593T401 647Q401 680 377 698T307 716Q253 716 224 684T194 591V19Q194 5 180 5H76Q62 5 62 19V604Q62 833 311 833Q422 833 481 789T541 663Q541 614 523 583T484 525T445 473T427 409Q427 387 439 371T471
339T512 308T553 272T584 226T597 162Z" />
<glyph unicode="&#xe6;" horiz-adv-x="840" d="M581 464Q560 464 542 454T509 426T486 388T474 347H677Q677 370 671 391T652 428T621 454T581 464ZM425 497Q453 535 491 557T578 580Q638 580 681 559T752 499T793 409T807 295V262Q806 250 802 244T785 237H472Q478
173 513 139T613 104Q654 104 685 114T746 144Q757 150 761 150Q770 150 770 128V53Q770 42 768 38T756 27Q727 7 683 -3T595 -13Q537 -13 492 10T417 78Q402 60 381 44T334 16T282 -2T228 -9Q135 -9 85 41T34 176Q34 229 56 267T116 329T206 365T316 377Q324 377
333 377T350 376Q344 455 282 463Q277 464 268 464Q242 464 215 455T165 435T125 415T102 406Q93 406 93 426V509Q93 522 95 527T110 539Q140 554 180 567T276 580Q386 580 425 497ZM360 275Q319 275 284 271T223 255T183 224T168 175Q168 143 187 126T240 108Q294
108 326 147T360 275Z" />
<glyph unicode="&#xf0;" horiz-adv-x="606" d="M299 414Q248 414 219 380T189 270Q189 185 220 149T299 113Q327 113 347 126T381 161T401 211T408 270Q408 332 383 373T299 414ZM469 799L391 732Q446 678 476 620T519 505T535 392T538 288Q538 229 524 175T478
81T399 16T284 -8Q173 -8 114 65T55 270Q55 326 69 374T112 457T184 513T285 534Q316 534 349 519T403 482Q397 531 375 573T306 658L204 570Q200 566 195 566Q189 566 184 571L147 614Q138 624 148 634L237 711Q220 722 202 733T163 756Q149 764 149 767T153 782L189
846Q195 858 201 858Q204 858 216 853Q277 822 325 787L414 863Q418 867 424 867Q429 867 435 861L472 818Q480 809 469 799Z" />
<glyph unicode="&#xf7;" horiz-adv-x="650" d="M323 654Q359 654 382 632T405 574Q405 539 382 517T324 494Q288 494 266 516T243 574Q243 609 265 631T323 654ZM323 244Q359 244 382 222T405 165Q405 129 382 107T324 84Q288 84 266 106T243 165Q243 199 265
221T323 244ZM614 336Q614 314 590 314H60Q36 314 36 336V398Q36 421 60 421H590Q614 421 614 398V336Z" />
<glyph unicode="&#xf8;" horiz-adv-x="606" d="M306 -15Q271 -15 241 -8T184 12L160 -30Q154 -40 145 -40Q140 -40 137 -38L120 -28Q105 -20 114 -4L140 41Q87 85 64 150T40 282Q40 344 57 398T107 492T190 555T306 578Q378 578 433 549L460 596Q463 602 470 602Q476
602 479 600L498 590Q514 582 506 569L477 519Q503 498 521 471T550 412T567 347T573 282Q573 221 556 167T504 73T421 9T306 -15ZM409 401L246 119Q272 102 306 102Q342 102 367 118T408 161T431 219T439 282Q439 314 432 345T409 401ZM306 461Q271 461 246 444T205
401T181 344T173 282Q173 248 181 217T207 159L371 442Q343 461 306 461Z" />
<glyph unicode="&#xfe;" horiz-adv-x="606" d="M322 -23Q291 -23 259 -9T202 34V-137Q202 -148 199 -152T183 -157H90Q79 -157 75 -153T71 -137V811Q71 823 83 823H194Q206 823 206 811V670Q206 637 206 613T204 571T202 537T200 507H204Q226 536 261 552T333
569Q394 569 436 542T505 472T542 376T554 270Q554 216 541 164T500 70T428 3T322 -23ZM310 447Q278 447 257 429T224 385T206 328T201 272Q201 245 205 215T221 158T254 115T310 98Q361 98 391 139T421 272Q421 366 390 406T310 447Z" />
<glyph unicode="&#x2013;" horiz-adv-x="410" d="M359 313H51V425H359V313Z" />
<glyph unicode="&#x2014;" horiz-adv-x="864" d="M862 316H2V423H862V316Z" />
<glyph unicode="&#x2018;" horiz-adv-x="185" d="M96 544Q69 544 49 565T26 620Q24 655 32 681T54 730Q67 752 90 771T136 799Q148 803 151 800T154 788V735Q154 728 153 726T148 722Q140 718 130 707T114 679Q132 674 148 658T164 618Q164 584 146 564T96 544Z" />
<glyph unicode="&#x2019;" horiz-adv-x="185" d="M88 793Q115 793 135 772T158 717Q160 682 152 656T130 607Q117 585 94 566T48 538Q36 534 33 537T30 549V602Q30 609 31 611T36 615Q44 619 54 630T70 658Q52 663 36 679T20 719Q20 753 38 773T88 793Z" />
<glyph unicode="&#x201a;" horiz-adv-x="303" d="M251 59L181 -123Q178 -131 171 -134T157 -138H59Q53 -138 48 -134T45 -122L91 62Q93 67 98 73T114 80H237Q249 80 251 73T251 59Z" />
<glyph unicode="&#x201c;" horiz-adv-x="350" d="M106 544Q79 544 59 565T36 620Q34 655 42 681T64 730Q77 752 100 771T146 799Q158 803 161 800T164 788V735Q164 728 163 726T158 722Q150 718 140 707T124 679Q142 674 158 658T174 618Q174 584 156 564T106
544ZM262 544Q235 544 215 565T192 620Q190 655 198 681T220 730Q233 752 256 771T302 799Q314 803 317 800T320 788V735Q320 728 319 726T314 722Q306 718 296 707T280 679Q298 674 314 658T330 618Q330 584 312 564T262 544Z" />
<glyph unicode="&#x201d;" horiz-adv-x="350" d="M246 793Q273 793 293 772T316 717Q318 682 310 656T288 607Q275 585 252 566T206 538Q194 534 191 537T188 549V602Q188 609 189 611T194 615Q202 619 212 630T228 658Q210 663 194 679T178 719Q178 753 196 773T246
793ZM90 793Q117 793 137 772T160 717Q162 682 154 656T132 607Q119 585 96 566T50 538Q38 534 35 537T32 549V602Q32 609 33 611T38 615Q46 619 56 630T72 658Q54 663 38 679T22 719Q22 753 40 773T90 793Z" />
<glyph unicode="&#x201e;" horiz-adv-x="523" d="M251 59L181 -123Q178 -131 171 -134T157 -138H59Q53 -138 48 -134T45 -122L91 62Q93 67 98 73T114 80H237Q249 80 251 73T251 59ZM471 59L401 -123Q398 -131 391 -134T377 -138H279Q273 -138 268 -134T265 -122L311
62Q313 67 318 73T334 80H457Q469 80 471 73T471 59Z" />
<glyph unicode="&#x2022;" horiz-adv-x="940" d="M588 362Q588 338 579 317T553 280T515 255T470 246Q446 246 425 255T388 279T362 316T352 362Q352 386 361 407T387 444T425 470T470 480Q494 480 515 471T552 445T578 407T588 362Z" />
<glyph unicode="&#x2039;" horiz-adv-x="940" d="M823 -81L106 357L823 795V738L211 358Q363 264 517 169T823 -21V-81Z" />
<glyph unicode="&#x203a;" horiz-adv-x="940" d="M833 357L116 -81V-21L728 358Q576 453 422 548T116 738V795L833 357Z" />
</font>
</defs>
</svg>
