<?xml version="1.0" standalone="no"?>
<!DOCTYPE svg PUBLIC "-//W3C//DTD SVG 1.1//EN" "http://www.w3.org/Graphics/SVG/1.1/DTD/svg11.dtd">
<svg xmlns="http://www.w3.org/2000/svg">
  <defs>
    <font id="PassionOne" horiz-adv-x="369">
      <font-face font-family="Passion One" units-per-em="1000" panose-1="2 0 5 6 8 0 0 2 0 4" ascent="835" descent="-266" alphabetic="0" />
      <glyph unicode=" " glyph-name="space" horiz-adv-x="210" />
      <glyph unicode="!" glyph-name="exclam" horiz-adv-x="298" d="M91,190L80,621H250L236,190H91ZM78,68q0,40 21,59.5T166,147t67-19.5T254,66q0-77-88-77T78,68Z" />
      <glyph unicode="&quot;" glyph-name="quotedbl" horiz-adv-x="437" d="M45,562q0,79 89,79t89-90.5T97,381L38,403l62,81l-2,5q-53,11-53,73Zm200,0q0,79 89,79t89-90.5T297,381l-59,22l62,81l-2,5q-53,11-53,73Z" />
      <glyph unicode="#" glyph-name="numbersign" horiz-adv-x="496" d="M472,322H394l-8-43h65V154H370L350,0H224l18,154H213L190,0H58L81,154H24V279H98l8,43H46V445h75l22,151H273L253,445h27l20,151H430L410,445h62V322Zm-201,6H232l-9-55h39l9,55Z" />
      <glyph unicode="$" glyph-name="dollar" horiz-adv-x="459" d="M109.5,278q-32.5,21-55,61T32,443T67.5,557.5T168,624v94H300V628q50-4 112-15L392,453q-99,23-136,23q-47,0-47-38q0-15 22.5-29T286,379.5t64-37T404.5,281T427,177.5t-32.5-113T300-1V-79H168V-7Q104,0 49,19L60,168q107-31 149-31t42,37q0,19-22.5,35T174,241t-64.5,37Z" />
      <glyph unicode="%" glyph-name="percent" horiz-adv-x="811" d="M554,631L374-10H257L436,631H554ZM222,403v11q0,59-4,79.5T205.5,521T183,528t-22-7t-11-25q-5-23-5-82V403q0-67 4.5-89T162,285.5t22.5-6.5t22,6.5T218,312q4,25 4,91Zm81,175q31-53 31-171T303,235.5T183.5,182t-120,54T32,407T63,577.5T183,631t120-53ZM667,211v11q0,59-4,79.5T650.5,329T628,336t-22-7t-12-25q-4-23-4-82V211q0-67 4.5-89T607,93.5T629.5,87t22,6.5T662,120q5,25 5,91Zm81,175q31-53 31-171T748,43.5T628.5-10t-120,54T477,215t31,170.5T628,439t120-53Z" />
      <glyph unicode="&amp;" glyph-name="ampersand" horiz-adv-x="609" d="M389,25Q324-10 230.5-10T84.5,39T32,182q0,67 27,104.5T138,351Q89,412 89,488q0,156 184.5,156T458,488q0-66-25-104t-88-74l76-95h4q12,25 12,69v43H569V293q0-111-59-171v-7h82L582-10H531q-54,0-82,7T389,25ZM249,123h61v4L216,241q-25-21-25-53q0-65 58-65Zm64,336q0,37-34.5,37T244,461q0-26 33-59q16,14 21,20q15,14 15,37Z" />
      <glyph unicode="&apos;" glyph-name="quotesingle" horiz-adv-x="237" d="M45,562q0,79 89,79t89-90.5T97,381L38,403l62,81l-2,5q-53,11-53,73Z" />
      <glyph unicode="(" glyph-name="parenleft" horiz-adv-x="330" d="M190,649l124-53Q211,440 211,260T314-92L186-135Q106-47 65,41T24,255q0,236 166,394Z" />
      <glyph unicode=")" glyph-name="parenright" horiz-adv-x="330" d="M16,596l124,53Q306,491 306,255q0-126-41-214T144-135L16-92Q119,80 119,260T16,596Z" />
      <glyph unicode="*" glyph-name="asterisk" horiz-adv-x="424" d="M404,446l-97-36l72-93l-90-60l-73,84l-69-83L56,318l59,93L20,447l27,98l102-22l10,99H269l9-100l97,20l29-96Z" />
      <glyph unicode="+" glyph-name="plus" horiz-adv-x="482" d="M430,231H304V96H174V231H52V357H174V493H304V357H430V231Z" />
      <glyph unicode="," glyph-name="comma" horiz-adv-x="304" d="M166,148q93,0 93-92q0-35-20-67.5t-42-52T134-113L75-91L138-8l-2,5Q82,12 82,68q0,80 84,80Z" />
      <glyph unicode="-" glyph-name="hyphen" horiz-adv-x="403" d="M355,193H48V327H355V193Z" />
      <glyph unicode="." glyph-name="period" horiz-adv-x="296" d="M75,68q0,40 21,59.5T163,147t67-19.5T251,66q0-77-88-77T75,68Z" />
      <glyph unicode="/" glyph-name="slash" horiz-adv-x="361" d="M371,621L155-147H-10L205,621H371Z" />
      <glyph unicode="0" glyph-name="zero" horiz-adv-x="473" d="M294,306v15q0,98-5.5,114.5T277,464q-11,20-39,20t-38-20q-12-26-13-53q-2-50-2-90V306q0-109 5.5-126.5T202,150q10-22 43-22t41,37.5T294,306ZM445.5,449q8.5-55 8.5-138t-8.5-138T414,74Q369-10 238-10Q109-10 64,74q-23,44-32,99.5T23,311q0,168 44.5,244T238,631q132,0 176-83q23-44 31.5-99Z" />
      <glyph unicode="1" glyph-name="one" horiz-adv-x="320" d="M257,0H90V462H18V567l102,54H257V0Z" />
      <glyph unicode="2" glyph-name="two" horiz-adv-x="413" d="M8,579q97,52 193.5,52T348,582t50-138.5T366.5,297T251,143H400V0H33L25,102q95,101 135,153t54,86t14,63.5T213.5,450T176,466t-44-6q-29-7-92-36L8,579Z" />
      <glyph unicode="3" glyph-name="three" horiz-adv-x="428" d="M217,631q188,0 188-163q0-49-18-81t-59-58v-4q46-21 66-55.5T414,180q0-91-52-140.5T211-10q-49,0-83.5,8.5T39,30L74,170q83-30 115-30q47,0 47,52q0,56-63,56H111V379h63q28,0 39.5,12.5T225,429q0,48-47,48q-33,0-117-34L22,578q55,30 98,41.5T217,631Z" />
      <glyph unicode="4" glyph-name="four" horiz-adv-x="492" d="M491,121H421V0H254V121H27L10,240L215,621H421V256h77l-7-135ZM259,256V409h-6L171,256h88Z" />
      <glyph unicode="5" glyph-name="five" horiz-adv-x="413" d="M396,211Q396-10 200-10Q109-10 31,21L43,176q103-31 139-31q51,0 51,55.5T194,256q-19,0-29-20L32,256V621H368V472H187V383q26,14 66,14q143,0 143-186Z" />
      <glyph unicode="6" glyph-name="six" horiz-adv-x="459" d="M293,196.5q0,35.5-12.5,51.5t-39,16T191,257q-2-16-2-26q0-102 57-102q25,0 36,16t11,51.5ZM280,395q80,0 124-45.5T448,211Q448-10 244-10Q23-10 23,267q0,188 90.5,276T399,631L389,488q-85,0-130.5-22T196,388l2-5q36,12 82,12Z" />
      <glyph unicode="7" glyph-name="seven" horiz-adv-x="420" d="M404,528L233,0H45L212,462H10V621H404V528Z" />
      <glyph unicode="8" glyph-name="eight" horiz-adv-x="464" d="M27,467q0,76 53.5,120T232,631t150.5-43.5T435,466q0-55-16-83t-59-62v-4q43-25 62.5-57.5T442,176Q442-10 231-10Q135-10 78.5,35.5T22,173.5T102,310v4q-41,36-58,66T27,467ZM235,119q48,0 48,51q0,24-13,39t-46,39q-26-24-33-39.5T184,177q0-58 51-58Zm-1,376q-47,0-47-47q0-32 24-52q9-7 30-22q23,19 33.5,33T285,441q0,54-51,54Z" />
      <glyph unicode="9" glyph-name="nine" horiz-adv-x="459" d="M183,232Q12,232 12,425q0,206 203,206q116,0 167.5-63T434,370q0-193-85.5-286.5T56-10L66,132q92,0 135.5,24.5T260,237l-2,5q-38-10-75-10Zm-5,137q12-17 40-17t51,9q1,8 1,42.5t-11.5,60T212,489q-46,0-46-66q0-37 12-54Z" />
      <glyph unicode=":" glyph-name="colon" horiz-adv-x="296" d="M75,68q0,40 21,59.5T163,147t67-19.5T251,66q0-77-88-77T75,68Zm0,293q0,40 21,59.5T163,440t67-19.5T251,359q0-77-88-77T75,361Z" />
      <glyph unicode=";" glyph-name="semicolon" horiz-adv-x="304" d="M75,68q0,79 89,79t89-90.5T127-113L68-91l62,81l-2,5Q75,6 75,68Zm0,293q0,40 21,59.5T163,440t67-19.5T251,359q0-77-88-77T75,361Z" />
      <glyph unicode="&lt;" glyph-name="less" horiz-adv-x="394" d="M278,3L33,232v69L282,532l82-113L198,267L364,118L278,3Z" />
      <glyph unicode="=" glyph-name="equal" horiz-adv-x="454" d="M400,293H54V429H400V293Zm0-202H54V227H400V91Z" />
      <glyph unicode="&gt;" glyph-name="greater" horiz-adv-x="394" d="M361,232L116,3L30,118L196,267L30,419l82,113L361,301V232Z" />
      <glyph unicode="?" glyph-name="question" horiz-adv-x="387" d="M196,644q85,0 124-43t39-128T329,345.5T241,268l-10-6V201H100v95q0,32 10.5,50.5t35.5,31T182,396t21.5,19.5t10.5,35t-11,33T167,495T54,472V623q84,21 142,21ZM82,64q0,79 86,79t86-79q0-38-19.5-56.5T171-11Q82-11 82,64Z" />
      <glyph unicode="@" glyph-name="at" horiz-adv-x="886" d="M627,354l-5-203q0-36 25-36q33,0 54.5,45.5T723,279q0,118-68.5,189.5T463,540q-147,0-223.5-83.5T163,228.5t74.5-218T442-63q71,0 180,20V-160q-91-22-183-22T274.5-158T145-85.5T56,44T24,230q0,186 121,310T460,664T758,559T862,276q0-124-65-205T614-10h-9q-84,0-114,51h-5Q449-10 372-10q-59,0-90.5,38T250,132q0,83 51.5,115T464,289v24q0,28-28,28q-44,0-146-29L266,455q140,36 216.5,36T593,458t34-104ZM434,107q37,0 37,39v49q-37-5-52.5-15.5T403,144q0-37 31-37Z" />
      <glyph unicode="A" glyph-name="A" horiz-adv-x="498" d="M490,0H323L304,98H186L167,0H8L122,621H376L490,0ZM285,215L250,437h-7L208,215h77Z" />
      <glyph unicode="B" glyph-name="B" horiz-adv-x="495" d="M481,179Q481,0 289,0H44V621H284q95,0 141-38.5T471,460T402,332v-6q79-31 79-147ZM249,111q30,0 40.5,13.5t10.5,56t-11,60T249,258H217V111h32Zm1,244q23,0 32,14t9,49.5t-9.5,50T249,483H217V355h33Z" />
      <glyph unicode="C" glyph-name="C" horiz-adv-x="410" d="M198,304.5q0-88.5 17.5-126T273,141t113,19L412,19Q333-10 253-10Q133-10 78.5,69.5T24,306.5t57,241T267,631q76,0 145-32L385,444q-78,26-109,26q-44,0-61-38.5t-17-127Z" />
      <glyph unicode="D" glyph-name="D" horiz-adv-x="526" d="M506,324Q506,0 250,0H44V621H254q137,0 194.5-76.5T506,324ZM247,144q53,0 68.5,37.5t15.5,126T314.5,433T244,470H214V144h33Z" />
      <glyph unicode="E" glyph-name="E" horiz-adv-x="404" d="M380,0H44V621H390L380,468H215V375H358V243H215V140H390L380,0Z" />
      <glyph unicode="F" glyph-name="F" horiz-adv-x="385" d="M380,468H215V375H348V243H215V0H44V621H390L380,468Z" />
      <glyph unicode="G" glyph-name="G" horiz-adv-x="519" d="M418,436q-96,29-140.5,29t-61-39T200,302.5t15.5-123T279,141q14,0 54,8v76H288V343H479V0H361L345,32h-4q-17-14-27-21q-28-21-79-21Q26-10 26,306q0,158 55,241.5T266,631q104,0 179-32L418,436Z" />
      <glyph unicode="H" glyph-name="H" horiz-adv-x="543" d="M503,0H333V235H216V0H44V621H216V377H333V621H503V0Z" />
      <glyph unicode="I" glyph-name="I" horiz-adv-x="278" d="M224,0H54V621H224V0Z" />
      <glyph unicode="J" glyph-name="J" horiz-adv-x="288" d="M244,621V125q0-77-35-106T80-10H29L16,126H50q17,0 21.5,4.5T76,150V621H244Z" />
      <glyph unicode="K" glyph-name="K" horiz-adv-x="485" d="M484,0H295L220,234H210V0H44V621H210V361h10l90,260H494L373,300L484,0Z" />
      <glyph unicode="L" glyph-name="L" horiz-adv-x="362" d="M360,0H44V621H215V139H370L360,0Z" />
      <glyph unicode="M" glyph-name="M" horiz-adv-x="683" d="M645,0H488V324h-9L420,0H259L203,324H193V0H38L59,621H284l56-336h8l54,336H624L645,0Z" />
      <glyph unicode="N" glyph-name="N" horiz-adv-x="541" d="M497,0H333L204,289h-8V0H44V621H213L336,323h8V621H497V0Z" />
      <glyph unicode="O" glyph-name="O" horiz-adv-x="538" d="M81.5,556Q139,631 270,631t187.5-74T514,316.5T456,70T268-10T81,69T24,314.5T81.5,556ZM342,316q0,92-14.5,124.5t-59,32.5T211,440.5T198,317V293q0-97 14.5-127.5t59-30.5T329,164t13,120v32Z" />
      <glyph unicode="P" glyph-name="P" horiz-adv-x="464" d="M258,203H212V0H44V621H247q107,0 159-49t52-161T409,251T258,203Zm19,135q9,17 9,61t-10,62t-40,18H212V321h28q28,0 37,17Z" />
      <glyph unicode="Q" glyph-name="Q" horiz-adv-x="538" d="M81.5,556Q139,631 270,631t187.5-74T514,320q0-106-26.5-172.5T405,38V34L531,23L520-106H501q-73,0-131,34L263-10Q138-10 81,72.5T24,318T81.5,556ZM342,316q0,92-14.5,124.5t-59,32.5T211,440.5T198,317V293q0-97 14.5-127.5t59-30.5T329,164t13,120v32Z" />
      <glyph unicode="R" glyph-name="R" horiz-adv-x="494" d="M469,424q0-56-17-93t-53-67L482,0H297L235,224H212V0H44V621H276q100,0 146.5-47T469,424ZM238,329q26,0 37,15t11,54.5t-11,55T239,469H212V329h26Z" />
      <glyph unicode="S" glyph-name="S" horiz-adv-x="427" d="M16,434q0,89 52,143t142.5,54T396,613L376,453q-99,23-136,23q-47,0-47-38q0-15 22.5-29T270,379.5t64-37T388.5,281T411,189q0-95-51-147T215.5-10T33,19L44,168q107-31 149-31t42,37q0,19-22.5,35T158,241T93.5,278t-55,61T16,434Z" />
      <glyph unicode="T" glyph-name="T" horiz-adv-x="410" d="M405,470H289V0H118V470H-5L5,621H415L405,470Z" />
      <glyph unicode="U" glyph-name="U" horiz-adv-x="543" d="M219,204q0-31 13-46t42.5-15t41,14.5T327,205V621H499V195q0-107-58.5-156t-172-49T99.5,38.5T44,193V621H219V204Z" />
      <glyph unicode="V" glyph-name="V" horiz-adv-x="505" d="M493,621L388,0H124L12,621H201l54-407h17l41,407H493Z" />
      <glyph unicode="W" glyph-name="W" horiz-adv-x="681" d="M661,621L605,0H399L345,275h-8L292,0H85L20,621H184l26-329h10l42,329H429l46-329h10l18,329H661Z" />
      <glyph unicode="X" glyph-name="X" horiz-adv-x="488" d="M482,0H287L245,198h-8L190,0H6l97,322L14,621H216l34-184h8l37,184H471L390,322L482,0Z" />
      <glyph unicode="Y" glyph-name="Y" horiz-adv-x="464" d="M464,621L316,192V0H146V192L0,621H188l45-202h8l43,202H464Z" />
      <glyph unicode="Z" glyph-name="Z" horiz-adv-x="452" d="M442,0H34L30,92L213,466H20L10,621H432l5-98L263,143H442V0Z" />
      <glyph unicode="[" glyph-name="bracketleft" horiz-adv-x="316" d="M284-137H48V641H284V512H218V-9h66V-137Z" />
      <glyph unicode="\" glyph-name="backslash" horiz-adv-x="361" d="M206-147L-10,621H156L371-147H206Z" />
      <glyph unicode="]" glyph-name="bracketright" horiz-adv-x="316" d="M268-137H32V-9H98V512H32V641H268V-137Z" />
      <glyph unicode="^" glyph-name="asciicircum" horiz-adv-x="500" d="M326,655l65-135H286l-35,56l-35-56H109l66,135H326Z" />
      <glyph unicode="_" glyph-name="underscore" horiz-adv-x="402" d="M402-137H0V-33H402V-137Z" />
      <glyph unicode="`" glyph-name="grave" horiz-adv-x="500" d="M223,520L115,660H273l65-140H223Z" />
      <glyph unicode="a" glyph-name="a" horiz-adv-x="436" d="M391,354l-5-207q0-19 9.5-25.5T428,115L413-6q-58-4-64-4q-74,0-94,51h-5Q213-10 136-10Q77-10 45.5,28T14,132q0,83 51.5,115T228,289v24q0,28-28,28q-48,0-150-29L25,458q128,33 213,33t119-33t34-104ZM198,107q37,0 37,39v49q-37-5-52.5-15.5T167,144q0-37 31-37Z" />
      <glyph unicode="b" glyph-name="b" horiz-adv-x="466" d="M286,490q94,0 125-54.5t31-187T409,53T280-10q-75,0-105,39h-4L161,0H30V641H197V468h4q33,22 85,22ZM268.5,150.5Q272,168 273,185t1,64.5t-7,73T238.5,348T196,336V129q19-9 36.5-9t25,6.5t11,24Z" />
      <glyph unicode="c" glyph-name="c" horiz-adv-x="345" d="M239.5,345Q210,345 200,318.5T190,236t9.5-81t40-25T319,141L337,13Q268-10 214-10Q119-10 70.5,54T22,233T72,419.5T217,491q71,0 128-24L327,320q-58,25-87.5,25Z" />
      <glyph unicode="d" glyph-name="d" horiz-adv-x="477" d="M454-6l-67-4q-77,0-94,51h-5Q255-10 187-10Q97-10 60.5,53T24,240.5T65,428t118,63q53,0 82-25V641H432V147q0-19 8-25.5t29-6.5L454-6ZM227.5,350Q206,350 199,324.5t-7-73t1-64.5t4.5-34.5t11-24t25-6.5t36.5,9V338q-21,12-42.5,12Z" />
      <glyph unicode="e" glyph-name="e" horiz-adv-x="442" d="M230,348q-26,0-34-17.5T188,277h87v24q0,47-45,47Zm4,143q103,0 147.5-49.5T426,300q0-12-7-108H191q0-75 69-75q33,0 129,23L403,16Q319-10 235-10Q132-10 77,57.5T22,241q0,250 212,250Z" />
      <glyph unicode="f" glyph-name="f" horiz-adv-x="293" d="M188,648q62,0 130-6L304,496q-45,5-65.5,5T218,483V465h82l-8-124H220V0H53V341H9V465H53v50q0,133 135,133Z" />
      <glyph unicode="g" glyph-name="g" horiz-adv-x="450" d="M175-44H278q18,0 18,16v4q0,15-18,15H175q-16,0-16-16v-4q0-15 16-15Zm40,535H451V379H379v-5q32-28 32-73q0-160-181-160H182q-18,0-18-16.5T181,108H317Q432,108 432,8q0-82-55-118.5T225-147T78.5-126.5T29-50Q29-19 68,2V6Q19,33 19,84q0,60 77,91q-36,26-53.5,60.5T25,327q0,79 51.5,121.5T215,491Zm44-192q0,32-7.5,46.5T224,360t-27.5-14.5T189,301q0-61 36-61q34,0 34,59Z" />
      <glyph unicode="h" glyph-name="h" horiz-adv-x="467" d="M201,444q55,47 119,47t90.5-30.5T437,369V0H267V312q0,25-22,25q-28,0-47-14V0H30V641H197V444h4Z" />
      <glyph unicode="i" glyph-name="i" horiz-adv-x="232" d="M199,0H34V474H199V0ZM47,512q-21,18-21,58t21,59t69,19t69-19t21-58.5t-21-58T116,494T47,512Z" />
      <glyph unicode="j" glyph-name="j" horiz-adv-x="248" d="M209,474V-12q0-78-34.5-106.5T46-147H-4L-18-9H16Q33-9 37.5-4.5T42,15V474H209ZM54,512q-21,18-21,58t21,59t69,19t69-19t21-58.5t-21-58T123,494T54,512Z" />
      <glyph unicode="k" glyph-name="k" horiz-adv-x="442" d="M443,0H258L197,184h-4V0H30V641H195V288h4l73,191H447L346,240L443,0Z" />
      <glyph unicode="l" glyph-name="l" horiz-adv-x="233" d="M30,110V641H195V163q0-17 7.5-24t26.5-7L216-10H161Q95-10 62.5,17.5T30,110Z" />
      <glyph unicode="m" glyph-name="m" horiz-adv-x="706" d="M436,444q55,47 121,47t92.5-30.5T676,369V0H506V312q0,25-22,25q-28,0-47-14V0H267V312q0,25-22,25q-28,0-47-14V0H30V479H183l10-35h4q55,47 130.5,47T426,435l10,9Z" />
      <glyph unicode="n" glyph-name="n" horiz-adv-x="467" d="M197,444q55,47 121,47t92.5-30.5T437,369V0H267V312q0,25-22,25q-28,0-47-14V0H30V479H183l10-35h4Z" />
      <glyph unicode="o" glyph-name="o" horiz-adv-x="458" d="M22,241.5Q22,373 72.5,432t158,59T387,433t49-190.5T388,50T231-10T72,50T22,241.5ZM262.5,336Q256,356 230,356t-33-20t-7-84V228q0-71 7-92t32.5-21T262,136t7,86v29q0,65-6.5,85Z" />
      <glyph unicode="p" glyph-name="p" horiz-adv-x="466" d="M198,11V-137H30V479H168l10-30h5q28,41 110,41t115.5-57T442,246T406.5,52.5T276-11q-44,0-74,22h-4Zm70.5,139.5Q272,168 273,185t1,64.5t-7,73T238.5,348T196,336V129q19-9 36.5-9t25,6.5t11,24Z" />
      <glyph unicode="q" glyph-name="q" horiz-adv-x="466" d="M268-137V15h-4q-35-25-76-25Q98-10 61,53.5t-37,186t41,187T179,491t104-42h5l10,30H436V-137H268ZM227.5,350Q206,350 199,324.5t-7-73t1-64.5t4.5-34.5t11-24t25-6.5t36.5,9V338q-21,12-42.5,12Z" />
      <glyph unicode="r" glyph-name="r" horiz-adv-x="313" d="M196,269V0H30V479H176l10-29h4q23,26 46.5,33.5T313,491l-7-160H260q-39,0-51.5-12T196,269Z" />
      <glyph unicode="s" glyph-name="s" horiz-adv-x="342" d="M4,337.5q0,72.5 44.5,113T171,491t158-20L312,332q-102,23-137,23q-21,0-21-17q0-11 23-20q80-29 120.5-66T338,141T300,28.5T183.5-10T27,10L38,145q100-27 129.5-27T197,132t-22,22Q86,188 45,226.5T4,337.5Z" />
      <glyph unicode="t" glyph-name="t" horiz-adv-x="317" d="M300-1q-74-9-128.5-9t-85,28.5T56,117V349H8V473H64l9,92H224V473h89l-7-124H223V150q0-21 20-21q2,0 62,3L300-1Z" />
      <glyph unicode="u" glyph-name="u" horiz-adv-x="467" d="M149-10Q30-10 30,122V479H200V163q0-25 22-25q28,0 47,14V479H437V2H278V37h-4Q219-10 149-10Z" />
      <glyph unicode="v" glyph-name="v" horiz-adv-x="441" d="M441,479L339,0H103L0,479H176l43-307h13l46,307H441Z" />
      <glyph unicode="w" glyph-name="w" horiz-adv-x="578" d="M573,479L512,0H329L290,202h-7L245,0H66L5,479H159l21-242h8l34,242H361l33-242h9l22,242H573Z" />
      <glyph unicode="x" glyph-name="x" horiz-adv-x="433" d="M427,0H250L216,141h-6L178,0H6L87,233L6,479H188l29-153h6l31,153H425L345,236L427,0Z" />
      <glyph unicode="y" glyph-name="y" horiz-adv-x="445" d="M445,479L321-14q-19-74-56-103.5T144-147H44L29-18H85q34,0 34,27q0,6-4,26L0,479H178l45-299h9l49,299H445Z" />
      <glyph unicode="z" glyph-name="z" horiz-adv-x="393" d="M381,0H22L18,96L166,339H12V479H371l6-89L234,138H381V0Z" />
      <glyph unicode="{" glyph-name="braceleft" horiz-adv-x="335" d="M293-137H183q-65,0-93,30T62-8V156q0,27-9,32.5T8,194V322q36,0 45,5t9,32V504q0,76 27,106.5T183,641H293V508H225V348q0-40-11-57.5T177,260v-7q26-11 37-29.5T225,167V-10h68V-137Z" />
      <glyph unicode="|" glyph-name="bar" horiz-adv-x="337" d="M247-147H90V621H247V-147Z" />
      <glyph unicode="}" glyph-name="braceright" horiz-adv-x="335" d="M152-137H42V-10h68V167q0,38 11,56.5T158,253v7q-26,13-37,30.5T110,348V508H42V641H152q67,0 94-30.5T273,504V359q0-27 8.5-32t45.5-5V194q-35,0-44.5-5.5T273,156V-8q0-69-28-99t-93-30Z" />
      <glyph unicode="~" glyph-name="asciitilde" horiz-adv-x="500" d="M411,660v-8q0-64-18-97t-72-33q-36,0-80,16l-24,8V511H108v10q0,65 19,97.5T194,651q16,0 89-19l20-5v33H411Z" />
      <glyph unicode="&#xa0;" glyph-name="nbspace" horiz-adv-x="210" />
      <glyph unicode="&#xa1;" glyph-name="exclamdown" horiz-adv-x="298" d="M217,294l11-431H58L72,294H217Zm13,122q0-40-21-59.5T142,337T75,356.5T54,418q0,77 88,77t88-79Z" />
      <glyph unicode="&#xa2;" glyph-name="cent" horiz-adv-x="397" d="M251.5,345Q222,345 212,318.5T202,236t9.5-81t40-25T331,141L349,13Q318,2 280-5V-79H148V5Q34,53 34,231q0,87 29,150.5T148,473v95H280V487q40-4 77-20L339,320q-58,25-87.5,25Z" />
      <glyph unicode="&#xa3;" glyph-name="sterling" horiz-adv-x="563" d="M302,631q62,0 168-19L450,451q-88,19-108,19q-10,0-10-14.5T351,380h93L434,280H363V219q0-58-20-103l47-20h7v59H547q0-97-33.5-144.5T403-37q-42,0-70.5,9T262,2h-8Q206-23 146.5-23T49.5,9T12,102t33,92t75.5,31T189,213h4v67H100V380h69q-26,78-26,109q0,142 159,142ZM150.5,116Q133,116 133,96t21.5-20T191,93q-23,23-40.5,23Z" />
      <glyph unicode="&#xa4;" glyph-name="currency" horiz-adv-x="779" d="M84,76L54,126l124,72q-17,54-17,103t12,94L48,468l31,53l120-69q69,90 194.5,90T587,454l114,67l30-53L614,400q13-45 13-95T607,197l120-71L695,75L575,146Q506,72 390,72T206,148Q163,124 84,76Zm307,46q174,0 174,184q0,88-43.5,136T391,490q-172,0-172-185q0-91 45-137t127-46Z" />
      <glyph unicode="&#xa5;" glyph-name="yen" horiz-adv-x="504" d="M484,621L378,316h75V217H344l-8-25v-6H453V89H336V0H166V89H52v97H166v6l-9,25H52v99h72L20,621H208l45-202h8l43,202H484Z" />
      <glyph unicode="&#xa6;" glyph-name="brokenbar" horiz-adv-x="337" d="M247-147H90V177H247V-147Zm0,768V325H90V621H247Z" />
      <glyph unicode="&#xa7;" glyph-name="section" horiz-adv-x="440" d="M273,200q1,3 1,13.5T272,233t-8.5,18t-11,14.5t-17,15t-17.5,13t-23,15T171,324q-1-6-1-20.5t6-26.5t22-26q23-19 75-51Zm68.5,189q27.5-20 47-56.5T408,246t-10.5-82T362,96q11-28 11-66q0-84-44-130.5T200-147q-51,0-153,20L59,30Q167,1 196.5,1T226,29q0,16-20,32.5t-48.5,34t-57,39.5T52,193T32,273q0,78 47,139q-13,26-13,62q0,83 49,128.5T243,648q32,0 55-4t46-8t38-7L360,478q-91,21-116,21t-25-20q0-13 19.5-26.5T286,424t55.5-35Z" />
      <glyph unicode="&#xa8;" glyph-name="dieresis" horiz-adv-x="500" d="M170,519q-28,0-44.5,15.5t-16.5,43t16.5,43T172,636t47-15.5T236,578q0-59-66-59Zm171.5,0q-30.5,0-47,15.5t-16.5,43t17,43T342,636t46.5-15.5t16.5-43t-16.5-43t-47-15.5Z" />
      <glyph unicode="&#xa9;" glyph-name="copyright" horiz-adv-x="940" d="M466,519q-266,0-266-287T469-55q134,0 200,71.5t66,212T668,444T466,519ZM40,232q0,203 114.5,319t316,116T786,551T900,234T782-82.5T463-198T151-84.5T40,232Zm399-2.5q0-57.5 10-81T486.5,125T571,141L594,15Q517-10 465-10q-93,0-135,61T288,231.5t44,183T476,478q58,0 118-29L570,315q-63,21-87.5,21t-34-24.5t-9.5-82Z" />
      <glyph unicode="&#xaa;" glyph-name="ordfeminine" horiz-adv-x="380" d="M314,543l-4-145q0-13 7-18t23-5l-11-84q-30-3-45-3q-52,0-66,36h-3q-25-36-73-36q-92,0-92,99q0,58 36,80.5T200,497v17q0,20-20,20q-37,0-105-21L57,616q94,23 151.5,23T290,616t24-73ZM179,370q25,0 25,27v34q-25-3-36-10.5T157,396q0-26 22-26Z" />
      <glyph unicode="&#xab;" glyph-name="guillemotleft" horiz-adv-x="527" d="M24,207v62L200,477l75-60L170,242L276,67L194,4L24,207Zm210,0v62L407,477l77-60L379,242L485,67L401,4L234,207Z" />
      <glyph unicode="&#xac;" glyph-name="logicalnot" horiz-adv-x="488" d="M288,130V231H52V357H430V130H288Z" />
      <glyph unicode="&#xae;" glyph-name="registered" horiz-adv-x="940" d="M514,293q0,22-7.5,32T480,335H458V252h24q32,0 32,41Zm140,21q0-83-46-125L670,28q65,79 65,210T668,444T466,519q-266,0-266-288q0-142 67.5-214T465-55Q573-55 647,0H523L473,146h-8V0H314V467H491q163,0 163-153ZM40,232q0,203 114.5,319t316,116T786,551T900,234T782-82.5T463-198T151-84.5T40,232Z" />
      <glyph unicode="&#xaf;" glyph-name="macron" horiz-adv-x="500" d="M395,530H125V645H395V530Z" />
      <glyph unicode="&#xb0;" glyph-name="degree" horiz-adv-x="302" d="M151.5,631q60.5,0 87.5-30t27-94.5T239,412t-88-30T63,412T36,505.5T63.5,600t88,31ZM170,479.5q6,7.5 6,26.5t-5.5,27.5t-20,8.5t-20-8T125,506.5t5.5-27T150,472t20,7.5Z" />
      <glyph unicode="&#xb1;" glyph-name="plusminus" horiz-adv-x="482" d="M430,298H304V173H174V298H52V424H174V554H304V424H430V298ZM430,0H52V126H430V0Z" />
      <glyph unicode="&#xb2;" glyph-name="twosuperior" horiz-adv-x="362" d="M44,594q68,37 135,37t102.5-34.5T317,498q0-43-14-79.5T272,359t-58-70H318V189H61l-6,71q50,52 75,81t46.5,66T198,468q0,47-40,47q-28,0-92-29L44,594Z" />
      <glyph unicode="&#xb3;" glyph-name="threesuperior" horiz-adv-x="363" d="M181,631q131,0 131-114q0-63-53-98v-3q60-27 60-96q0-138-142-138q-54,0-121,28l25,98q57-21 80-21q33,0 33,36q0,40-44,40H107v91h44q35,0 35,34.5T154,523q-24,0-82-24L44,594q70,37 137,37Z" />
      <glyph unicode="&#xb4;" glyph-name="acute" horiz-adv-x="500" d="M376,660L268,520H153l63,140H376Z" />
      <glyph unicode="&#xb5;" glyph-name="mu" horiz-adv-x="519" d="M242-10q-24,0-46,10V-144H30V474H198V184q0-52 48.5-52T295,184V474H465V144q0-31 46-31L490-10H453q-69,0-104,38h-4Q307-10 242-10Z" />
      <glyph unicode="&#xb6;" glyph-name="paragraph" horiz-adv-x="576" d="M522-130H381V515H350V-130H208V193q-88,0-138,55.5t-50,161t59,165T242,634H522V-130Z" />
      <glyph unicode="&#xb7;" glyph-name="periodcentered" horiz-adv-x="346" d="M273,305.5q0-89.5-96-89.5T81,305.5T177,395t96-89.5Z" />
      <glyph unicode="&#xb8;" glyph-name="cedilla" horiz-adv-x="500" d="M304-40q16-8 32-22.5t16-42t-24.5-47t-73-19.5T163-142l34,63q41-31 57-31t16,9.5T257-84L240-74q-23,12-23,32.5T232-8h65q-9-9-9-16.5T304-40Z" />
      <glyph unicode="&#xb9;" glyph-name="onesuperior" horiz-adv-x="279" d="M211,186H94V509H44v74l71,38h96V186Z" />
      <glyph unicode="&#xba;" glyph-name="ordmasculine" horiz-adv-x="388" d="M48,464q0,92 35.5,133.5T194,639t109.5-40.5T338,465T304.5,330t-110-42T83,330T48,464Zm168.5,66Q212,544 194,544t-23-14t-5-59V455q0-50 5-65t23-15t22.5,14.5T221,450v21q0,45-4.5,59Z" />
      <glyph unicode="&#xbb;" glyph-name="guillemotright" horiz-adv-x="527" d="M503,269V207L333,4L251,67L357,242L252,417l75,60L503,269Zm-210,0V207L126,4L42,67L148,242L43,417l77,60L293,269Z" />
      <glyph unicode="&#xbc;" glyph-name="onequarter" horiz-adv-x="800" d="M493,631L313-10H196L375,631H493ZM751,85H702V0H585V85H426l-12,83L557,435H702V179h54l-5-94ZM588,179V286h-4L527,179h61Zm-377,7H94V509H44v74l71,38h96V186Z" />
      <glyph unicode="&#xbd;" glyph-name="onehalf" horiz-adv-x="776" d="M493,631L313-10H196L375,631H493ZM211,186H94V509H44v74l71,38h96V186ZM458,405q68,37 135,37t102.5-34.5T731,309q0-43-14-79.5T686,170t-58-70H732V0H475l-6,71q50,52 75,81t46.5,66T612,279q0,47-40,47q-28,0-92-29L458,405Z" />
      <glyph unicode="&#xbe;" glyph-name="threequarters" horiz-adv-x="878" d="M571,631L391-10H274L453,631H571Zm-390,0q131,0 131-114q0-63-53-98v-3q60-27 60-96q0-138-142-138q-54,0-121,28l25,98q57-21 80-21q33,0 33,36q0,40-44,40H107v91h44q35,0 35,34.5T154,523q-24,0-82-24L44,594q70,37 137,37ZM829,85H780V0H663V85H504l-12,83L635,435H780V179h54l-5-94ZM666,179V286h-4L605,179h61Z" />
      <glyph unicode="&#xbf;" glyph-name="questiondown" horiz-adv-x="387" d="M30,21q0,75 30,116t88,76l10,6v61H289V179q0-31-10-47t-35.5-28.5T207,85T185.5,65.5T175,30.5t11-33T222-14T335,9V-142q-84-21-142-21Q30-163 30,21ZM307,417q0-79-86-79t-86,79q0,38 19.5,56.5T218,492q89,0 89-75Z" />
      <glyph unicode="&#xc0;" glyph-name="Agrave" horiz-adv-x="498" d="M490,0H323L304,98H186L167,0H8L122,621H376L490,0ZM285,215L250,437h-7L208,215h77ZM215,664L112,797H262l62-133H215Z" />
      <glyph unicode="&#xc1;" glyph-name="Aacute" horiz-adv-x="498" d="M490,0H323L304,98H186L167,0H8L122,621H376L490,0ZM285,215L250,437h-7L208,215h77Zm98,582L281,664H171l60,133H383Z" />
      <glyph unicode="&#xc2;" glyph-name="Acircumflex" horiz-adv-x="498" d="M490,0H323L304,98H186L167,0H8L122,621H376L490,0ZM285,215L250,437h-7L208,215h77Zm33,577l63-128H280l-33,53l-33-53H112l63,128H318Z" />
      <glyph unicode="&#xc3;" glyph-name="Atilde" horiz-adv-x="498" d="M490,0H323L304,98H186L167,0H8L122,621H376L490,0ZM285,215L250,437h-7L208,215h77ZM386,797v-8q0-60-17-91.5T300,666q-31,0-76,15l-23,8V655H98v10q0,62 18,92.5T179,788q18,0 85-18l19-4v31H386Z" />
      <glyph unicode="&#xc4;" glyph-name="Adieresis" horiz-adv-x="498" d="M490,0H323L304,98H186L167,0H8L122,621H376L490,0ZM285,215L250,437h-7L208,215h77ZM159,663q-26,0-41.5,15T102,718.5T117.5,759T161,774t44.5-14.5T222,719q0-56-63-56Zm163.5,0Q294,663 278,678t-16,40.5T278,759t44.5,15T367,759.5T383,719t-16-41t-44.5-15Z" />
      <glyph unicode="&#xc5;" glyph-name="Aring" horiz-adv-x="498" d="M490,0H323L304,98H186L167,0H8L122,621H376L490,0ZM285,215L250,437h-7L208,215h77ZM164,731.5q0,34.5 23,55T247,807t59-19.5T328,733t-22-55.5T247,657t-60,20t-23,54.5ZM267,733q0,28-21,28t-21-28t21-28t21,28Z" />
      <glyph unicode="&#xc6;" glyph-name="AE" horiz-adv-x="698" d="M674,0H338V98H206L168,0H0L260,621H684L674,468H509V375H652V243H509V140H684L674,0ZM338,215V437h-7L250,215h88Z" />
      <glyph unicode="&#xc7;" glyph-name="Ccedilla" horiz-adv-x="466" d="M319.5-33.5Q335-41 350.5-56T366-99t-25.5-49t-76-21T171-137l36,70q35-33 63-33q8,0 8,7.5T267-79L246-67q-21,13-21,31T237-6Q142,9 83.5,89T25,312.5T100.5,550T289,644t169-59L402,435q-19,19-31,29q-33,29-75.5,29T227,442T201,313t26.5-128T298,135q59,0 105,51L459,44Q399-3 309-9q-5-7-5-12t15.5-12.5Z" />
      <glyph unicode="&#xc8;" glyph-name="Egrave" horiz-adv-x="404" d="M380,0H44V621H390L380,468H215V375H358V243H215V140H390L380,0ZM182,664L79,797H229l62-133H182Z" />
      <glyph unicode="&#xc9;" glyph-name="Eacute" horiz-adv-x="404" d="M380,0H44V621H390L380,468H215V375H358V243H215V140H390L380,0ZM360,797L258,664H148l60,133H360Z" />
      <glyph unicode="&#xca;" glyph-name="Ecircumflex" horiz-adv-x="404" d="M380,0H44V621H390L380,468H215V375H358V243H215V140H390L380,0ZM283,792l63-128H245l-33,53l-33-53H77l63,128H283Z" />
      <glyph unicode="&#xcb;" glyph-name="Edieresis" horiz-adv-x="404" d="M380,0H44V621H390L380,468H215V375H358V243H215V140H390L380,0ZM131,663q-26,0-41.5,15T74,718.5T89.5,759T133,774t44.5-14.5T194,719q0-56-63-56Zm163.5,0Q266,663 250,678t-16,40.5T250,759t44.5,15T339,759.5T355,719t-16-41t-44.5-15Z" />
      <glyph unicode="&#xcc;" glyph-name="Igrave" horiz-adv-x="272" d="M209,0H39V621H209V0ZM82,664L-21,797H129l62-133H82Z" />
      <glyph unicode="&#xcd;" glyph-name="Iacute" horiz-adv-x="272" d="M213,0H43V621H213V0Zm45,797L156,664H46l60,133H258Z" />
      <glyph unicode="&#xce;" glyph-name="Icircumflex" horiz-adv-x="272" d="M209,0H39V621H209V0ZM196,792l63-128H158l-33,53L92,664H-10L53,792H196Z" />
      <glyph unicode="&#xcf;" glyph-name="Idieresis" horiz-adv-x="272" d="M209,0H39V621H209V0ZM41,663q-26,0-41.5,15T-16,718.5T-0.5,759T43,774t44.5-14.5T104,719q0-56-63-56Zm163.5,0Q176,663 160,678t-16,40.5T160,759t44.5,15T249,759.5T265,719t-16-41t-44.5-15Z" />
      <glyph unicode="&#xd0;" glyph-name="Eth" horiz-adv-x="526" d="M506,324Q506,0 250,0H44V250H-11V368H44V621H254q137,0 194.5-76.5T506,324ZM269,250H214V144h33q53,0 68.5,37.5t15.5,126T314.5,433T244,470H214V368h55V250Z" />
      <glyph unicode="&#xd1;" glyph-name="Ntilde" horiz-adv-x="543" d="M498,0H334L205,289h-8V0H45V621H214L337,323h8V621H498V0ZM419,797v-8q0-60-17-91.5T333,666q-31,0-76,15l-23,8V655H131v10q0,62 18,92.5T212,788q18,0 85-18l19-4v31H419Z" />
      <glyph unicode="&#xd2;" glyph-name="Ograve" horiz-adv-x="538" d="M81.5,556Q139,631 270,631t187.5-74T514,316.5T456,70T268-10T81,69T24,314.5T81.5,556ZM342,316q0,92-14.5,124.5t-59,32.5T211,440.5T198,317V293q0-97 14.5-127.5t59-30.5T329,164t13,120v32ZM229,664L126,797H276l62-133H229Z" />
      <glyph unicode="&#xd3;" glyph-name="Oacute" horiz-adv-x="538" d="M81.5,556Q139,631 270,631t187.5-74T514,316.5T456,70T268-10T81,69T24,314.5T81.5,556ZM342,316q0,92-14.5,124.5t-59,32.5T211,440.5T198,317V293q0-97 14.5-127.5t59-30.5T329,164t13,120v32Zm70,481L310,664H200l60,133H412Z" />
      <glyph unicode="&#xd4;" glyph-name="Ocircumflex" horiz-adv-x="538" d="M81.5,556Q139,631 270,631t187.5-74T514,316.5T456,70T268-10T81,69T24,314.5T81.5,556ZM342,316q0,92-14.5,124.5t-59,32.5T211,440.5T198,317V293q0-97 14.5-127.5t59-30.5T329,164t13,120v32Zm-2,476l63-128H302l-33,53l-33-53H134l63,128H340Z" />
      <glyph unicode="&#xd5;" glyph-name="Otilde" horiz-adv-x="538" d="M81.5,556Q139,631 270,631t187.5-74T514,316.5T456,70T268-10T81,69T24,314.5T81.5,556ZM342,316q0,92-14.5,124.5t-59,32.5T211,440.5T198,317V293q0-97 14.5-127.5t59-30.5T329,164t13,120v32Zm64,481v-8q0-60-17-91.5T320,666q-31,0-76,15l-23,8V655H118v10q0,62 18,92.5T199,788q18,0 85-18l19-4v31H406Z" />
      <glyph unicode="&#xd6;" glyph-name="Odieresis" horiz-adv-x="538" d="M81.5,556Q139,631 270,631t187.5-74T514,316.5T456,70T268-10T81,69T24,314.5T81.5,556ZM342,316q0,92-14.5,124.5t-59,32.5T211,440.5T198,317V293q0-97 14.5-127.5t59-30.5T329,164t13,120v32ZM186,663q-26,0-41.5,15T129,718.5T144.5,759T188,774t44.5-14.5T249,719q0-56-63-56Zm163.5,0Q321,663 305,678t-16,40.5T305,759t44.5,15T394,759.5T410,719t-16-41t-44.5-15Z" />
      <glyph unicode="&#xd7;" glyph-name="multiply" horiz-adv-x="476" d="M334,110l-94,99L144,109L52,201l100,96L52,392l90,89l95-99l95,99l92-92l-99-95l98-95l-89-89Z" />
      <glyph unicode="&#xd8;" glyph-name="Oslash" horiz-adv-x="538" d="M270,631q26,0 50-3l22,55H508L458,556q56-73 56-239.5T456,70T267-10q-12,0-32,2L210-71H42L92,55Q24,132 24,306.5T81.5,556T270,631Zm72-309q0,92-14.5,124.5t-59,32.5T211,446.5T198,323V299q0-98 14.5-131T271,135t57.5,31.5T342,290v32Z" />
      <glyph unicode="&#xd9;" glyph-name="Ugrave" horiz-adv-x="543" d="M219,204q0-31 13-46t42.5-15t41,14.5T327,205V621H499V195q0-107-58.5-156t-172-49T99.5,38.5T44,193V621H219V204Zm7,460L123,797H273l62-133H226Z" />
      <glyph unicode="&#xda;" glyph-name="Uacute" horiz-adv-x="543" d="M219,204q0-31 13-46t42.5-15t41,14.5T327,205V621H499V195q0-107-58.5-156t-172-49T99.5,38.5T44,193V621H219V204ZM425,797L323,664H213l60,133H425Z" />
      <glyph unicode="&#xdb;" glyph-name="Ucircumflex" horiz-adv-x="543" d="M219,204q0-31 13-46t42.5-15t41,14.5T327,205V621H499V195q0-107-58.5-156t-172-49T99.5,38.5T44,193V621H219V204ZM345,792l63-128H307l-33,53l-33-53H139l63,128H345Z" />
      <glyph unicode="&#xdc;" glyph-name="Udieresis" horiz-adv-x="543" d="M219,204q0-31 13-46t42.5-15t41,14.5T327,205V621H499V195q0-107-58.5-156t-172-49T99.5,38.5T44,193V621H219V204ZM189,663q-26,0-41.5,15T132,718.5T147.5,759T191,774t44.5-14.5T252,719q0-56-63-56Zm163.5,0Q324,663 308,678t-16,40.5T308,759t44.5,15T397,759.5T413,719t-16-41t-44.5-15Z" />
      <glyph unicode="&#xdd;" glyph-name="Yacute" horiz-adv-x="464" d="M464,621L316,192V0H146V192L0,621H188l45-202h8l43,202H464ZM389,787L287,654H177l60,133H389Z" />
      <glyph unicode="&#xde;" glyph-name="Thorn" horiz-adv-x="462" d="M250,114H212V0H44V621H212V532h27q111,0 161-48.5T450,323T402,162.5T250,114Zm19,135q9,17 9,61t-10,62t-40,18H212V232h20q28,0 37,17Z" />
      <glyph unicode="&#xdf;" glyph-name="germandbls" horiz-adv-x="504" d="M246,135l36-3q45,0 45,59q0,70-86,70V386q34,0 49,15.5T305,449q0,59-48,59q-37,0-37-39V0H53V341H9V465H53v16q0,90 51.5,132t157,42T423,608.5t56-135T418,341v-4q82-42 82-158q0-91-43-140T328-10q-31,0-87,10l5,135Z" />
      <glyph unicode="&#xe0;" glyph-name="agrave" horiz-adv-x="436" d="M391,354l-5-207q0-19 9.5-25.5T428,115L413-6q-58-4-64-4q-74,0-94,51h-5Q213-10 136-10Q77-10 45.5,28T14,132q0,83 51.5,115T228,289v24q0,28-28,28q-48,0-150-29L25,458q128,33 213,33t119-33t34-104ZM198,107q37,0 37,39v49q-37-5-52.5-15.5T167,144q0-37 31-37ZM180,520L72,660H230l65-140H180Z" />
      <glyph unicode="&#xe1;" glyph-name="aacute" horiz-adv-x="436" d="M391,354l-5-207q0-19 9.5-25.5T428,115L413-6q-58-4-64-4q-74,0-94,51h-5Q213-10 136-10Q77-10 45.5,28T14,132q0,83 51.5,115T228,289v24q0,28-28,28q-48,0-150-29L25,458q128,33 213,33t119-33t34-104ZM198,107q37,0 37,39v49q-37-5-52.5-15.5T167,144q0-37 31-37ZM363,660L255,520H140l63,140H363Z" />
      <glyph unicode="&#xe2;" glyph-name="acircumflex" horiz-adv-x="436" d="M391,354l-5-207q0-19 9.5-25.5T428,115L413-6q-58-4-64-4q-74,0-94,51h-5Q213-10 136-10Q77-10 45.5,28T14,132q0,83 51.5,115T228,289v24q0,28-28,28q-48,0-150-29L25,458q128,33 213,33t119-33t34-104ZM198,107q37,0 37,39v49q-37-5-52.5-15.5T167,144q0-37 31-37Zm93,548l66-135H251l-35,56l-35-56H74l66,135H291Z" />
      <glyph unicode="&#xe3;" glyph-name="atilde" horiz-adv-x="436" d="M391,354l-5-207q0-19 9.5-25.5T428,115L413-6q-58-4-64-4q-74,0-94,51h-5Q213-10 136-10Q77-10 45.5,28T14,132q0,83 51.5,115T228,289v24q0,28-28,28q-48,0-150-29L25,458q128,33 213,33t119-33t34-104ZM198,107q37,0 37,39v49q-37-5-52.5-15.5T167,144q0-37 31-37ZM359,660v-8q0-64-18-97t-72-33q-36,0-80,16l-24,8V511H56v10q0,65 19,97.5T142,651q16,0 89-19l20-5v33H359Z" />
      <glyph unicode="&#xe4;" glyph-name="adieresis" horiz-adv-x="436" d="M391,354l-5-207q0-19 9.5-25.5T428,115L413-6q-58-4-64-4q-74,0-94,51h-5Q213-10 136-10Q77-10 45.5,28T14,132q0,83 51.5,115T228,289v24q0,28-28,28q-48,0-150-29L25,458q128,33 213,33t119-33t34-104ZM198,107q37,0 37,39v49q-37-5-52.5-15.5T167,144q0-37 31-37ZM124,519q-28,0-44.5,15.5T63,577.5t16.5,43T126,636t47-15.5T190,578q0-59-66-59Zm171.5,0q-30.5,0-47,15.5t-16.5,43t17,43T296,636t46.5-15.5t16.5-43t-16.5-43t-47-15.5Z" />
      <glyph unicode="&#xe5;" glyph-name="aring" horiz-adv-x="436" d="M391,354l-5-207q0-19 9.5-25.5T428,115L413-6q-58-4-64-4q-74,0-94,51h-5Q213-10 136-10Q77-10 45.5,28T14,132q0,83 51.5,115T228,289v24q0,28-28,28q-48,0-150-29L25,458q128,33 213,33t119-33t34-104ZM198,107q37,0 37,39v49q-37-5-52.5-15.5T167,144q0-37 31-37ZM125,591.5q0,36.5 24,58T212,671t62-20.5T297,593t-23-58.5T212,513t-63,21t-24,57.5Zm108,1q0,29.5-22,29.5t-22-29.5T211,563t22,29.5Z" />
      <glyph unicode="&#xe6;" glyph-name="ae" horiz-adv-x="643" d="M141-10Q81-10 47.5,27.5T14,140T65.5,247T228,289v24q0,28-28,28q-48,0-150-29L25,458q128,33 220,33q53,0 90-25q42,25 101,25q103,0 147.5-49.5T628,300q0-58-6-104H393q0-79 69-79q33,0 129,23L609,18Q518-10 429.5-10T293,52h-4Q235-10 141-10ZM432,350q-26,0-34-17.5T390,279h87v24q0,47-45,47ZM198,107q37,0 37,39v49q-37-5-52.5-15.5T167,144q0-37 31-37Z" />
      <glyph unicode="&#xe7;" glyph-name="ccedilla" horiz-adv-x="345" d="M320,324q-58,25-87.5,25T193,321t-10-84.5t9.5-81.5t43-25T318,141L336,13Q278-6 228-9q-7-9-7-16t16-15q48-24 48-58t-24.5-53.5T188-171T96-142l34,63q41-31 57-31t16,9.5T190-84L173-74q-23,12-23,31.5T165-6Q91,7 53,69T15,239.5t50,180T210,491q71,0 128-24L320,324Z" />
      <glyph unicode="&#xe8;" glyph-name="egrave" horiz-adv-x="444" d="M232,348q-26,0-34-17.5T190,277h87v24q0,47-45,47Zm4,143q103,0 147.5-49.5T428,300q0-12-7-108H193q0-75 69-75q33,0 129,23L405,16Q321-10 237-10Q134-10 79,57.5T24,241q0,250 212,250Zm-32,29L96,660H254l65-140H204Z" />
      <glyph unicode="&#xe9;" glyph-name="eacute" horiz-adv-x="444" d="M232,348q-26,0-34-17.5T190,277h87v24q0,47-45,47Zm4,143q103,0 147.5-49.5T428,300q0-12-7-108H193q0-75 69-75q33,0 129,23L405,16Q321-10 237-10Q134-10 79,57.5T24,241q0,250 212,250ZM392,660L284,520H169l63,140H392Z" />
      <glyph unicode="&#xea;" glyph-name="ecircumflex" horiz-adv-x="444" d="M232,348q-26,0-34-17.5T190,277h87v24q0,47-45,47Zm4,143q103,0 147.5-49.5T428,300q0-12-7-108H193q0-75 69-75q33,0 129,23L405,16Q321-10 237-10Q134-10 79,57.5T24,241q0,250 212,250Zm77,164l66-135H273l-35,56l-35-56H96l66,135H313Z" />
      <glyph unicode="&#xeb;" glyph-name="edieresis" horiz-adv-x="444" d="M232,348q-26,0-34-17.5T190,277h87v24q0,47-45,47Zm4,143q103,0 147.5-49.5T428,300q0-12-7-108H193q0-75 69-75q33,0 129,23L405,16Q321-10 237-10Q134-10 79,57.5T24,241q0,250 212,250Zm-91,28q-28,0-44.5,15.5T84,577.5t16.5,43T147,636t47-15.5T211,578q0-59-66-59Zm171.5,0q-30.5,0-47,15.5t-16.5,43t17,43T317,636t46.5-15.5t16.5-43t-16.5-43t-47-15.5Z" />
      <glyph unicode="&#xec;" glyph-name="igrave" horiz-adv-x="232" d="M199,0H34V474H199V0ZM83,520L-25,660H133l65-140H83Z" />
      <glyph unicode="&#xed;" glyph-name="iacute" horiz-adv-x="232" d="M198,0H33V474H198V0Zm64,660L154,520H39l63,140H262Z" />
      <glyph unicode="&#xee;" glyph-name="icircumflex" horiz-adv-x="232" d="M198,0H33V474H198V0Zm-6,655l66-135H152l-35,56L82,520H-25L41,655H192Z" />
      <glyph unicode="&#xef;" glyph-name="idieresis" horiz-adv-x="232" d="M198,0H33V474H198V0ZM29,519q-28,0-44.5,15.5t-16.5,43t16.5,43T31,636t47-15.5T95,578q0-59-66-59Zm171.5,0q-30.5,0-47,15.5t-16.5,43t17,43T201,636t46.5-15.5t16.5-43t-16.5-43t-47-15.5Z" />
      <glyph unicode="&#xf0;" glyph-name="eth" horiz-adv-x="472" d="M183,400q38,0 74-6l3,3q-13,37-40,60L114,402v92l22,12q-33,6-73,6V643q142,0 216-30l93,46V548l-16-9q94-94 94-274q0-139-53-207T228-10Q22-10 22,208q0,94 43.5,143T183,400Zm50-119q-25,0-34-21t-9-61.5t9-58.5t34.5-18T267,144t8,64q0,73-42,73Z" />
      <glyph unicode="&#xf1;" glyph-name="ntilde" horiz-adv-x="473" d="M200,444q55,47 121,47t92.5-30.5T440,369V0H270V312q0,25-22,25q-28,0-47-14V0H33V479H186l10-35h4ZM379,660v-8q0-64-18-97t-72-33q-36,0-80,16l-24,8V511H76v10q0,65 19,97.5T162,651q16,0 89-19l20-5v33H379Z" />
      <glyph unicode="&#xf2;" glyph-name="ograve" horiz-adv-x="462" d="M24,241.5Q24,373 74.5,432t158,59T389,433t49-190.5T390,50T233-10T74,50T24,241.5ZM264.5,336Q258,356 232,356t-33-20t-7-84V228q0-71 7-92t32.5-21T264,136t7,86v29q0,65-6.5,85ZM206,520L98,660H256l65-140H206Z" />
      <glyph unicode="&#xf3;" glyph-name="oacute" horiz-adv-x="462" d="M24,241.5Q24,373 74.5,432t158,59T389,433t49-190.5T390,50T233-10T74,50T24,241.5ZM264.5,336Q258,356 232,356t-33-20t-7-84V228q0-71 7-92t32.5-21T264,136t7,86v29q0,65-6.5,85ZM382,660L274,520H159l63,140H382Z" />
      <glyph unicode="&#xf4;" glyph-name="ocircumflex" horiz-adv-x="462" d="M24,241.5Q24,373 74.5,432t158,59T389,433t49-190.5T390,50T233-10T74,50T24,241.5ZM264.5,336Q258,356 232,356t-33-20t-7-84V228q0-71 7-92t32.5-21T264,136t7,86v29q0,65-6.5,85ZM308,655l66-135H268l-35,56l-35-56H91l66,135H308Z" />
      <glyph unicode="&#xf5;" glyph-name="otilde" horiz-adv-x="462" d="M24,241.5Q24,373 74.5,432t158,59T389,433t49-190.5T390,50T233-10T74,50T24,241.5ZM264.5,336Q258,356 232,356t-33-20t-7-84V228q0-71 7-92t32.5-21T264,136t7,86v29q0,65-6.5,85ZM381,660v-8q0-64-18-97t-72-33q-36,0-80,16l-24,8V511H78v10q0,65 19,97.5T164,651q16,0 89-19l20-5v33H381Z" />
      <glyph unicode="&#xf6;" glyph-name="odieresis" horiz-adv-x="462" d="M24,241.5Q24,373 74.5,432t158,59T389,433t49-190.5T390,50T233-10T74,50T24,241.5ZM264.5,336Q258,356 232,356t-33-20t-7-84V228q0-71 7-92t32.5-21T264,136t7,86v29q0,65-6.5,85ZM144,519q-28,0-44.5,15.5T83,577.5t16.5,43T146,636t47-15.5T210,578q0-59-66-59Zm171.5,0q-30.5,0-47,15.5t-16.5,43t17,43T316,636t46.5-15.5t16.5-43t-16.5-43t-47-15.5Z" />
      <glyph unicode="&#xf7;" glyph-name="divide" horiz-adv-x="482" d="M430,231H52V357H430V231ZM154,85q0,40 21,59.5T242,164t67-19.5T330,83q0-77-88-77T154,85Zm0,414q0,40 21,59.5T242,578t67-19.5T330,497q0-77-88-77t-88,79Z" />
      <glyph unicode="&#xf8;" glyph-name="oslash" horiz-adv-x="445" d="M226,491q22,0 32-1l24,60H413L371,444q60-57 60-195.5T383,50T226-10q-12,0-34,2L168-71H35L78,37Q17,95 17,234T67.5,432T226,491Zm31.5-155Q251,356 225,356t-33-20t-7-84V228q0-71 7-92t32.5-21T257,136t7,86v29q0,65-6.5,85Z" />
      <glyph unicode="&#xf9;" glyph-name="ugrave" horiz-adv-x="467" d="M149-10Q30-10 30,122V479H200V163q0-25 22-25q28,0 47,14V479H437V2H278V37h-4Q219-10 149-10Zm40,530L81,660H239l65-140H189Z" />
      <glyph unicode="&#xfa;" glyph-name="uacute" horiz-adv-x="467" d="M149-10Q30-10 30,122V479H200V163q0-25 22-25q28,0 47,14V479H437V2H278V37h-4Q219-10 149-10ZM403,660L295,520H180l63,140H403Z" />
      <glyph unicode="&#xfb;" glyph-name="ucircumflex" horiz-adv-x="467" d="M149-10Q30-10 30,122V479H200V163q0-25 22-25q28,0 47,14V479H437V2H278V37h-4Q219-10 149-10ZM311,655l66-135H271l-35,56l-35-56H94l66,135H311Z" />
      <glyph unicode="&#xfc;" glyph-name="udieresis" horiz-adv-x="467" d="M149-10Q30-10 30,122V479H200V163q0-25 22-25q28,0 47,14V479H437V2H278V37h-4Q219-10 149-10Zm-3,529q-28,0-44.5,15.5T85,577.5t16.5,43T148,636t47-15.5T212,578q0-59-66-59Zm171.5,0q-30.5,0-47,15.5t-16.5,43t17,43T318,636t46.5-15.5t16.5-43t-16.5-43t-47-15.5Z" />
      <glyph unicode="&#xfd;" glyph-name="yacute" horiz-adv-x="445" d="M445,479L321-14q-19-74-56-103.5T144-147H44L29-18H85q34,0 34,27q0,6-4,26L0,479H178l45-299h9l49,299H445ZM395,660L287,520H172l63,140H395Z" />
      <glyph unicode="&#xfe;" glyph-name="thorn" horiz-adv-x="466" d="M286,490q94,0 125-54.5t31-187t-34.5-196T276-11q-45,0-78,19V-137H30V641H197V468h4q29,22 85,22ZM268.5,150.5Q272,168 273,185t1,64.5t-7,73T238.5,348T196,336V129q19-9 36.5-9t25,6.5t11,24Z" />
      <glyph unicode="&#xff;" glyph-name="ydieresis" horiz-adv-x="445" d="M445,479L321-14q-19-74-56-103.5T144-147H44L29-18H85q34,0 34,27q0,6-4,26L0,479H178l45-299h9l49,299H445ZM127,519q-28,0-44.5,15.5T66,577.5t16.5,43T129,636t47-15.5T193,578q0-59-66-59Zm171.5,0q-30.5,0-47,15.5t-16.5,43t17,43T299,636t46.5-15.5t16.5-43t-16.5-43t-47-15.5Z" />
      <glyph unicode="&#x2013;" glyph-name="endash" horiz-adv-x="429" d="M381,186H48V320H381V186Z" />
      <glyph unicode="&#x2014;" glyph-name="emdash" horiz-adv-x="639" d="M591,186H48V320H591V186Z" />
      <glyph unicode="&#x2018;" glyph-name="quoteleft" horiz-adv-x="237" d="M192,467q0-79-89-79T14,478.5T140,648l59-22l-62-81l2-5q53-11 53-73Z" />
      <glyph unicode="&#x2019;" glyph-name="quoteright" horiz-adv-x="237" d="M45,562q0,79 89,79t89-90.5T97,381L38,403l62,81l-2,5q-53,11-53,73Z" />
      <glyph unicode="&#x201a;" glyph-name="quotesinglbase" horiz-adv-x="237" d="M45,62q0,79 89,79t89-90.5T97-119L38-97l62,81l-2,5Q45,0 45,62Z" />
      <glyph unicode="&#x201c;" glyph-name="quotedblleft" horiz-adv-x="437" d="M392,467q0-79-89-79t-89,90.5T340,648l59-22l-62-81l2-5q53-11 53-73Zm-200,0q0-79-89-79T14,478.5T140,648l59-22l-62-81l2-5q53-11 53-73Z" />
      <glyph unicode="&#x201d;" glyph-name="quotedblright" horiz-adv-x="437" d="M21,562q0,79 89,79t89-90.5T73,381L14,403l62,81l-2,5q-53,11-53,73Zm200,0q0,79 89,79t89-90.5T273,381l-59,22l62,81l-2,5q-53,11-53,73Z" />
      <glyph unicode="&#x201e;" glyph-name="quotedblbase" horiz-adv-x="437" d="M45,62q0,79 89,79t89-90.5T97-119L38-97l62,81l-2,5Q45,0 45,62Zm200,0q0,79 89,79t89-90.5T297-119L238-97l62,81l-2,5Q245,0 245,62Z" />
      <glyph unicode="&#x2022;" glyph-name="bullet" horiz-adv-x="413" d="M209,171Q82,171 82,300.5T209,430q122,0 122-129.5T209,171Z" />
      <glyph unicode="&#x2039;" glyph-name="guilsinglleft" horiz-adv-x="318" d="M24,207v62L200,477l75-60L170,242L276,67L194,4L24,207Z" />
      <glyph unicode="&#x203a;" glyph-name="guilsinglright" horiz-adv-x="317" d="M293,269V207L126,4L42,67L148,242L43,417l77,60L293,269Z" />
    </font>
</defs>
</svg>
