<?xml version="1.0" standalone="no"?>
<!DOCTYPE svg PUBLIC "-//W3C//DTD SVG 1.1//EN" "http://www.w3.org/Graphics/SVG/1.1/DTD/svg11.dtd">
<svg xmlns="http://www.w3.org/2000/svg">
  <defs>
    <font id="WorkSans" horiz-adv-x="593">
      <font-face font-family="Work Sans" units-per-em="1000" panose-1="0 0 0 0 0 0 0 0 0 0" ascent="930" descent="-243" alphabetic="0" />
      <glyph unicode=" " glyph-name="gid576" horiz-adv-x="341" />
      <glyph unicode="!" glyph-name="gid536" horiz-adv-x="272" d="M178,660V374L166,208H106L94,374V660h84ZM136,120q29,0 47-18t18-47T183,8T136-10T89,8T71,55t18,47t47,18Z" />
      <glyph unicode="&quot;" glyph-name="gid574" horiz-adv-x="403" d="M339,690L313,443H251V690h88Zm-169,0L144,443H82V690h88Z" />
      <glyph unicode="#" glyph-name="gid543" horiz-adv-x="639" d="M525,660L415,0H347L457,660h68Zm50-414V185H20v61H575ZM291,660L181,0H113L223,660h68ZM619,476V415H64v61H619Z" />
      <glyph unicode="$" glyph-name="gid586" horiz-adv-x="622" d="M317,1Q248,1 195,20T104,71T42,143l68,55q19-36 48-64t70-44t94-16q74,0 117.5,27T483,180q0,31-20.5,55.5T386,273L236,307q-60,14-96,37.5t-52,56T72,471q0,52 28.5,95t82,69T311,661q84,0 145.5-34T558,525l-65-50q-35,62-80.5,88T303,589q-52,0-85-14.5T169,536t-16-54q0-23 9-42t32.5-33.5T260,382l139-31q92-20 128.5-61.5T564,187q0-55-30.5-97t-86-65.5T317,1ZM279-100V760h69V-100H279Z" />
      <glyph unicode="%" glyph-name="gid626" horiz-adv-x="856" d="M180,0L600,660h76L256,0H180Zm19,670q49,0 84.5-22.5t55-63.5T358,488t-19.5-96t-55-63.5T199,306q-48,0-84,22.5T59.5,392T40,488t19.5,96T115,647.5T199,670Zm0-63q-28,0-48-14t-30-40.5T111,488q0-37 10-64t30-41t48-14q29,0 48.5,14T277,424t10,64q0,38-10,64.5T247.5,593T199,607ZM657,354q49,0 84.5-22.5t55-63.5T816,172T796.5,76t-55-63.5T657-10q-48,0-84,22.5T517.5,76T498,172t19.5,96T573,331.5T657,354Zm0-63q-28,0-48-14t-30-40.5T569,172q0-37 10-64t30-41t48-14q29,0 48.5,14T735,108t10,64q0,38-10,64.5T705.5,277T657,291Z" />
      <glyph unicode="&amp;" glyph-name="gid630" horiz-adv-x="623" d="M258-10q-66,0-113,23T73,76T48,168q0,32 8.5,60.5T84,283t51.5,49T216,375l42,21q38,21 63,39.5T358.5,476T371,528q0,35-21.5,54.5T291,602q-43,0-63.5-23.5T207,524q0-19 5-36.5T233.5,444T283,375t89-113q57-70 94-112.5t63-64T577.5,57T627,50L607-10q-29,0-54.5,7t-56,30t-73,69T318,219q-54,67-90,113t-57,78t-30,58.5T132,523q0,36 17.5,70T203,648.5T296,670q43,0 75-16t50.5-46T440,537q0-35-11.5-66.5t-43-62T292,345l-34-13q-52-24-81-46.5T136,237t-12-62q0-37 19-64t51-41.5T266,55q55,0 93,20t70,57l13,12q26,41 40.5,93T492,353l68-6q4-64-13.5-126T491,109L476,88q-38-45-92-71.5T258-10Z" />
      <glyph unicode="&apos;" glyph-name="gid575" horiz-adv-x="234" d="M170,690L144,443H82V690h88Z" />
      <glyph unicode="(" glyph-name="gid553" horiz-adv-x="350" d="M275,751l46-46q-66-60-105-126.5t-56-140T143,281q0-83 17-157T216-16T321-143l-46-46Q169-97 115,21.5T61,281t54,260T275,751Z" />
      <glyph unicode=")" glyph-name="gid554" horiz-adv-x="350" d="M75-189L29-143Q95-82 134-16t56,140t17,157q0,84-17,157.5t-56,140T29,705l46,46q106-91 160-210t54-260T235,21.5T75-189Z" />
      <glyph unicode="*" glyph-name="gid542" horiz-adv-x="572" d="M301,506l79-84l70-98l-52-38l-72,97L271,484l15,11l15,11Zm-30,0l15-11l15-11L246,383l-72-97l-52,38l70,98l79,84ZM72,598l116-36l104-49l-6-18l-6-18L167,499L53,537l19,61ZM319,730V609L305,495H286H267L253,609V730h66ZM500,598l19-61L405,499L292,477l-6,18l-6,18l104,49l116,36Z" />
      <glyph unicode="+" glyph-name="gid614" horiz-adv-x="604" d="M340,564V68H265V564h75ZM545,354V279H59v75H545Z" />
      <glyph unicode="," glyph-name="gid532" horiz-adv-x="266" d="M133,120q24,0 40.5-12.5t25.5-34T208,23q0-33-11.5-65T161-101T99-146L57-107q27,9 47.5,25T138-46T155-5l-4,2q-4-3-10-5t-18-2T98.5-3T77,17.5T68,53q0,18 9,33.5T100.5,111t32.5,9Z" />
      <glyph unicode="-" glyph-name="gid559" horiz-adv-x="510" d="M420,303V220H90v83H420Z" />
      <glyph unicode="." glyph-name="gid531" horiz-adv-x="266" d="M133,120q29,0 47-18t18-47T180,8T133-10T86,8T68,55t18,47t47,18Z" />
      <glyph unicode="/" glyph-name="gid544" horiz-adv-x="437" d="M409,730L103-70H28L334,730h75Z" />
      <glyph unicode="0" glyph-name="gid477" horiz-adv-x="622" d="M311-10Q199-10 132,77T65,330t67,253t179,87q113,0 179.5-87T557,330T490.5,77T311-10Zm0,72q53,0 89.5,30.5t55,90.5T474,330T455.5,477t-55,90.5T311,598t-89.5-30.5t-55-90.5T148,330t18.5-147t55-90.5T311,62Z" />
      <glyph unicode="1" glyph-name="gid478" horiz-adv-x="390" d="M208,0V484q0,17 0.5,36.5T210,561q-34-33-79-57.5T39,468L18,541q18,2 45.5,13.5t58,29T178,621t40,39h70V0H208Z" />
      <glyph unicode="2" glyph-name="gid479" horiz-adv-x="583" d="M74,0V65q99,73 165.5,128T346,293t57,85.5T420,463q0,59-37.5,95.5T280,595q-68,0-109-44.5T123,432L53,474q9,58 37.5,102t77,69T283,670q51,0 91.5-15T444,612.5T488.5,547T504,463q0-62-30-121.5T375,217T188,73V72q11,1 30.5,1.5t39,1T287,75H518V0H74Z" />
      <glyph unicode="3" glyph-name="gid480" horiz-adv-x="583" d="M290-10q-88,0-155.5,41.5T43,146l80,41q12-37 33-64.5T211.5,80T298,65q44,0 74,16t46,43.5T434,188t-13.5,60T378,283.5T302,295q-11,0-24-0.5T251,292v80q9-1 17.5-1t15.5,0q73,0 104,28.5T419,489q0,52-32,79t-91,27q-63,0-96-27.5T148,493L72,529q16,42 48,74t77.5,50T298,671q69,0 114-23.5T479.5,585T502,499q0-36-10-64.5T464.5,385T425,351.5T378,335v-2q33-1 58.5-13T480,288t27.5-45.5T517,189q0-58-28.5-103T409,15.5T290-10Z" />
      <glyph unicode="4" glyph-name="gid481" horiz-adv-x="611" d="M366,0V173H44v59L345,660H446V242H563V173H446V0H366ZM129,242H366V489q0,26 1.5,53t2.5,53h-2q-12-25-31-56t-35-54L129,242Z" />
      <glyph unicode="5" glyph-name="gid482" horiz-adv-x="582" d="M287-10q-88,0-141.5,40T63,141l78,41q16-52 49.5-84.5T289,65q46,0 78.5,17T418,130.5T436,206q0,47-16.5,78.5T372,332t-76,16q-32,0-59.5-6.5T187,321t-38-37L79,297l39,363H489V585H186L160,377l-2-9h2q24,25 61.5,40T311,423q63,0 109.5-26.5T493,322t26-112q0-51-17-92T454,48.5T380.5,5T287-10Z" />
      <glyph unicode="6" glyph-name="gid483" horiz-adv-x="608" d="M323,670q53,0 92.5-14.5t68.5-45T533,531l-74-35q-15,46-48.5,72.5T318,595q-43,0-76-21.5T186,514t-34.5-89T140,315q0-2 0-6t0-12h4q11,43 40.5,69.5t67,39T325,418q67,0 117-26t77.5-74T547,204q0-65-28-113.5T440.5,16T320-10q-83,0-140,44T94,154.5T65,330q0,111 34,186.5T191.5,631T323,670Zm-4-329q-43,0-75.5-17.5t-50.5-48T175,205q0-38 19-69.5t51.5-50T319,67q68,0 106,36.5T463,205q0,42-17,72.5t-49,47T319,341Z" />
      <glyph unicode="7" glyph-name="gid484" horiz-adv-x="561" d="M40,660H526V585q-83-88-135.5-180.5T314,212T290,0H208q0,111 27.5,217.5T319,422T458,605l13-20H40v75Z" />
      <glyph unicode="8" glyph-name="gid485" horiz-adv-x="616" d="M308,669q64,0 111-21t73-59.5T518,496q0-51-24.5-89.5T425,348v-1q56-21 89.5-64T548,178q0-58-30-100T434.5,13T308-10q-72,0-126,23T98,78T68,178q0,61 33,104.5T192,347v1q-43,19-68.5,57.5T98,496q0,54 26,92.5T197.5,648T308,669Zm0-75q-58,0-92.5-28T181,488q0-49 35-77t92-28t92,28t35,77q0,50-34,78t-93,28Zm0-529q49,0 84,14.5t54,42T465,186q0,38-19.5,65.5t-54.5,42T308,308q-47,0-82.5-14.5t-55-42T151,186q0-37 19-64.5t54.5-42T308,65Z" />
      <glyph unicode="9" glyph-name="gid486" horiz-adv-x="617" d="M297,670q83,0 140-43.5t86-120T552,330q0-111-29-186.5T437.5,29T298-10q-82,0-141,38T69,139l79,42q16-52 52.5-84T301,65q52,0 86.5,20.5t54.5,59T470.5,237T479,357q0,2 0,4.5t0,4.5h-4q-12-45-42-72.5T365.5,254T291,242q-65,0-115,25.5T98,339T70,448q0,68 27,117.5t78,77T297,670Zm1-77q-70,0-107-38.5T154,447q0-59 39-93.5T298,319q43,0 75.5,17.5t50.5,48T442,455q0,42-18,73t-50.5,48T298,593Z" />
      <glyph unicode=":" glyph-name="gid533" horiz-adv-x="296" d="M148,510q29,0 47-18t18-47t-18-47t-47-18t-47,18T83,445t18,47t47,18Zm0-390q29,0 47-18t18-47T195,8T148-10T101,8T83,55t18,47t47,18Z" />
      <glyph unicode=";" glyph-name="gid534" horiz-adv-x="296" d="M147,120q24,0 40.5-12.5t25.5-34T222,23q0-33-11.5-65T175-101t-62-45L71-107q27,9 47.5,25T152-46T169-5l-4,2q-4-3-10-5t-18-2T112.5-3T91,17.5T82,53q0,18 9,33.5T114.5,111t32.5,9Zm1,390q29,0 47-18t18-47t-18-47t-47-18t-47,18T83,445t18,47t47,18Z" />
      <glyph unicode="&lt;" glyph-name="gid620" horiz-adv-x="604" d="M547,28L71,253v93L547,571V489L135,301L547,112V28Z" />
      <glyph unicode="=" glyph-name="gid618" horiz-adv-x="604" d="M540,441V366H64v75H540Zm0-200V166H64v75H540Z" />
      <glyph unicode="&gt;" glyph-name="gid619" horiz-adv-x="604" d="M57,571L533,346V253L57,28v82L469,298L57,487v84Z" />
      <glyph unicode="?" glyph-name="gid538" horiz-adv-x="542" d="M273,670q66,0 115-21t76.5-60T492,496q0-58-25.5-96.5t-68-58.5T304,315V208H221V358q73,11 113.5,27t57,40T408,484t-15.5,60T346,582t-79,13q-66,0-107.5-36.5T110,459L39,500q11,51 42.5,89.5t80,59.5T273,670ZM261,120q29,0 47-18t18-47T308,8T261-10T214,8T196,55t18,47t47,18Z" />
      <glyph unicode="@" glyph-name="gid629" horiz-adv-x="958" d="M484-195q-94,0-171,30T181-80T96,52T66,223q0,97 32.5,177T190,538.5t139,90T505,660q94,0 167-30.5T795.5,545T872,421t26-148q0-65-16.5-117T836,67.5t-65.5-56T695-8q-54,0-79.5,28T594,91q-22-42-66-67T437-1q-52,0-91.5,25T284,93.5T262,196q0,56 17,104.5t47.5,85t72.5,57T490,463q39,0 70-13.5t52-38T641,353l24,101h71L660,128q-2-10-3.5-18.5T655,93q0-28 14.5-36.5T702,48q36,0 67,25t50.5,75.5T839,273q0,70-23,130T749.5,507.5T645,576.5T508,601q-83,0-151.5-26.5T238,498.5T160.5,379T133,223q0-84 26.5-150T234-40t112-71.5T484-136q85,0 134,21.5T700-68l35-49q-27-21-60.5-38.5T595-184T484-195ZM460,60q42,0 77,27.5t55.5,75T613,269q0,40-14.5,69.5t-41,46T495,401t-65.5-15.5t-51-43.5T345,277t-12-80q0-44 15-74.5T391.5,76T460,60Z" />
      <glyph unicode="A" glyph-name="gid1" horiz-adv-x="660" d="M634,0H549L479,183H180L110,0H26L283,660h95L634,0ZM209,258H450L329,583L209,258Z" />
      <glyph unicode="B" glyph-name="gid16" horiz-adv-x="653" d="M108,0V660H343q117,0 171-49t54-133q0-50-29-90.5T457,336v-1q59-11 93.5-53.5T585,185q0-84-63-134.5T342,0H108Zm80,75H361q71,0 105.5,29T501,185q0,53-34.5,81.5T361,295H188V75Zm0,295H344q140,0 140,108q0,107-140,107H188V370Z" />
      <glyph unicode="C" glyph-name="gid17" horiz-adv-x="686" d="M640,169q-21-56-60-96.5T488.5,11T374-10q-94,0-162.5,41.5T105.5,149T68,330t37.5,181t106,117.5T372,670q64,0 114-17.5t85.5-52T628,516l-79-37q-22,57-63.5,86.5T378,595q-67,0-118-31.5T180.5,473T152,330q0-83 27-142.5t77-91T374,65q66,0 115,33.5T560,199l80-30Z" />
      <glyph unicode="D" glyph-name="gid24" horiz-adv-x="721" d="M321,660q155,0 243.5-85.5T653,330T564.5,85.5T321,0H108V660H321Zm8-585q113,0 176.5,67.5T569,330T505.5,517.5T329,585H188V75H329Z" />
      <glyph unicode="E" glyph-name="gid34" horiz-adv-x="638" d="M108,0V660H571V585H188V372H486V297H188V75H586V0H108Z" />
      <glyph unicode="F" glyph-name="gid50" horiz-adv-x="610" d="M570,585H188V372H486V297H188V0H108V660H570V585Z" />
      <glyph unicode="G" glyph-name="gid51" horiz-adv-x="724" d="M374-10q-94,0-162.5,41.5T105.5,149T68,330t39.5,181T218,628.5T381,670q98,0 159.5-37T640,519l-73-40q-22,57-69.5,86.5T381,595q-67,0-118.5-31.5t-81-91T152,330t25.5-142.5t76-91T377,65q41,0 76.5,10.5t62,31.5T557,160t15,75v23H362v75H645V0H582l-4,123l17-3q-26-62-82-96T374-10Z" />
      <glyph unicode="H" glyph-name="gid59" horiz-adv-x="734" d="M626,660V0H546V660h80Zm-438,0V0H108V660h80ZM583,372V297H150v75H583Z" />
      <glyph unicode="I" glyph-name="gid64" horiz-adv-x="296" d="M188,660V0H108V660h80Z" />
      <glyph unicode="J" glyph-name="gid78" horiz-adv-x="566" d="M465,660V226q0-111-59.5-173.5T241-10q-74,0-122,28T52.5,97.5T47,218l74,15q-11-85 15.5-126.5T238,65q85,0 116,46.5T385,246V660h80Z" />
      <glyph unicode="K" glyph-name="gid80" horiz-adv-x="656" d="M625,660L337,365l-12-13L148,171V279L520,660H625Zm-437,0V0H108V660h80ZM345,416L628,0H532L279,371l66,45Z" />
      <glyph unicode="L" glyph-name="gid82" horiz-adv-x="598" d="M188,75H566V0H108V660h80V75Z" />
      <glyph unicode="M" glyph-name="gid92" horiz-adv-x="854" d="M746,660V0H670V415l9,174h-1L461,0H393L176,589h-1l9-174V0H108V660H231L376,259L426,94h2l51,164L623,660H746Z" />
      <glyph unicode="N" glyph-name="gid94" horiz-adv-x="734" d="M626,660V0H527L251,442L181,566h-1l4-100V0H108V660h99L482,220L553,93h1l-4,101V660h76Z" />
      <glyph unicode="O" glyph-name="gid105" horiz-adv-x="748" d="M374,670q94,0 162.5-41.5T642.5,511T680,330T642.5,149T536.5,31.5T374-10T211.5,31.5T105.5,149T68,330t37.5,181t106,117.5T374,670Zm0-75q-68,0-118-31.5t-77-91T152,330t27-142.5t77-91T374,65q69,0 118.5,31.5t76.5,91T596,330T569,472.5t-76.5,91T374,595Z" />
      <glyph unicode="P" glyph-name="gid128" horiz-adv-x="610" d="M341,660q67,0 116.5-24.5T535,566t28-107T535,352t-77.5-69.5T341,258H188V0H108V660H341ZM329,333q78,0 114,32.5T479,459q0,62-36,94T329,585H188V333H329Z" />
      <glyph unicode="Q" glyph-name="gid130" horiz-adv-x="748" d="M534-195q-51,0-96,19t-73.5,65T336,15q0,9 0.5,19.5T338,55l71-2q-1-10-1.5-18.5T407,18q0-57 18-85t47.5-37.5T536-114q37,0 68,10t50,27l26-74q-24-21-66.5-32.5T534-195ZM374,670q94,0 162.5-41.5T642.5,511T680,330T642.5,149T536.5,31.5T374-10T211.5,31.5T105.5,149T68,330t37.5,181t106,117.5T374,670Zm0-75q-68,0-118-31.5t-77-91T152,330t27-142.5t77-91T374,65q69,0 118.5,31.5t76.5,91T596,330T569,472.5t-76.5,91T374,595Z" />
      <glyph unicode="R" glyph-name="gid131" horiz-adv-x="665" d="M358,660q101,0 162-52t61-141T519.5,328.5T357,279l-7-5H188V0H108V660H358Zm-1-311q71,0 105.5,29.5T497,467t-34.5,88.5T357,585H188V349H357Zm46-16L621,0H526L336,289l67,44Z" />
      <glyph unicode="S" glyph-name="gid139" horiz-adv-x="641" d="M320,670q87,0 150-35.5T575,530l-67-52q-37,64-83.5,90.5T312,595q-53,0-87.5-15T174,540.5T158,485q0-35 22-61.5T268,382l143-32q95-21 132.5-63.5T581,181q0-56-31.5-99.5T461,14T327-10Q255-10 200.5,9.5T107,62T43,136l70,57q19-38 49-67t72.5-45T332,65q51,0 88.5,12.5t57.5,37T498,174q0,32-21,57.5T398,270L243,305q-61,14-98.5,38.5t-54,58T74,474q0,53 29.5,97.5t85,71.5T320,670Z" />
      <glyph unicode="T" glyph-name="gid152" horiz-adv-x="604" d="M572,660V585H342V0H262V585H32v75H572Z" />
      <glyph unicode="U" glyph-name="gid159" horiz-adv-x="708" d="M613,660V246q0-127-67-191.5T354-10Q230-10 162.5,54.5T95,246V660h80V266q0-103 43.5-152T354,65t135.5,49T533,266V660h80Z" />
      <glyph unicode="V" glyph-name="gid175" horiz-adv-x="648" d="M620,660L370,0H279L28,660h86L282,204L324,73l42,130L534,660h86Z" />
      <glyph unicode="W" glyph-name="gid176" horiz-adv-x="961" d="M231,0L36,660h83L282,73L437,660h91L683,71L846,660h79L731,0H632L515,428L481,577h-1L446,428L330,0H231Z" />
      <glyph unicode="X" glyph-name="gid181" horiz-adv-x="601" d="M569,0H477L298,272L118,0H25L256,336L45,660h94L306,403L475,660h87L348,340L569,0Z" />
      <glyph unicode="Y" glyph-name="gid182" horiz-adv-x="572" d="M562,660L326,258V0H246V258L10,660h95L233,434l53-94l53,94L467,660h95Z" />
      <glyph unicode="Z" glyph-name="gid192" horiz-adv-x="630" d="M128,46L114,75H575V0H56V71L490,614l14-29H66v75H562V589L128,46Z" />
      <glyph unicode="[" glyph-name="gid557" horiz-adv-x="348" d="M315,660H162V-98H315v-70H87V730H315V660Z" />
      <glyph unicode="\" glyph-name="gid545" horiz-adv-x="437" d="M28,730h75L409-70H334L28,730Z" />
      <glyph unicode="]" glyph-name="gid558" horiz-adv-x="348" d="M33-98H186V660H33v70H261V-168H33v70Z" />
      <glyph unicode="^" glyph-name="gid624" horiz-adv-x="560" d="M27,355L242,730h76L533,355H452L280,662L108,355H27Z" />
      <glyph unicode="_" glyph-name="gid563" horiz-adv-x="539" d="M539-97v-75H0v75H539Z" />
      <glyph unicode="`" glyph-name="gid676" horiz-adv-x="500" d="M256,750l76-167H267L169,750h87Z" />
      <glyph unicode="a" glyph-name="gid253" horiz-adv-x="566" d="M385,323q0,56-30,86.5T270,440q-52,0-88-22.5T129,345L64,385q20,56 74,90.5T272,510q54,0 98-18.5t69.5-56T465,339V97q0-36 38-36q19,0 37,5L536,3Q516-7 484-7Q455-7 432,4T396,37.5T383,94v10l20-3q-12-39-41-63.5t-65-36T226-10q-44,0-82,15T83.5,50.5T61,126q0,56 37.5,92.5T203,268l198,39V241L240,208q-49-10-73-28t-24-50q0-31 24.5-50.5T237,60q29,0 55.5,7.5t47.5,23t33,39T385,185V323Z" />
      <glyph unicode="b" glyph-name="gid268" horiz-adv-x="627" d="M338-10q-42,0-78,15T198,47t-39,61l11,14L163,0H93V730h80V387l-10,15q20,47 67.5,77.5T339,510q62,0 114-31t83-89t31-140q0-81-31.5-139.5T452,21T338-10Zm-8,70q74,0 115.5,52T487,250T446,388T331,440q-47,0-82.5-24T193,349T173,248q0-57 19.5-99.5t55-65.5T330,60Z" />
      <glyph unicode="c" glyph-name="gid269" horiz-adv-x="560" d="M300,510q52,0 91.5-16T460,448t47-71l-76-36q-16,48-48.5,73.5T298,440q-50,0-86-22.5t-55-65T138,250q0-59 19-102t55-65.5T298,60q39,0 67.5,12t47,35T438,163l74-26q-17-46-46.5-79t-71-50.5T300-10q-70,0-125,31T89,110.5T58,250T89,389.5T175,479t125,31Z" />
      <glyph unicode="d" glyph-name="gid276" horiz-adv-x="627" d="M288-10q-62,0-114,31T91,110.5T60,250q0,83 33,141t87,88.5T296,510t107.5-32T464,393l-10-7V730h80V0H464l-7,121l11,6q-7-44-33.5-74.5T369.5,6T288-10Zm8,70q48,0 83.5,24t55,68.5T454,257q0,57-19.5,98t-54,63T300,440q-76,0-118-52T140,250t41-138T296,60Z" />
      <glyph unicode="e" glyph-name="gid284" horiz-adv-x="577" d="M302-10q-71,0-126.5,31T89,110.5T58,250T89,389.5T174,479t123,31q70,0 119.5-30T492,398.5T518,283q0-17-1-31t-3-25H110v71H479l-41-8q0,72-39.5,111T295,440q-49,0-84.5-22.5t-55-65T136,250q0-59 20-102t56.5-65.5T300,60q55,0 89.5,21T445,138l63-37q-19-34-48.5-59t-69-38.5T302-10Z" />
      <glyph unicode="f" glyph-name="gid301" horiz-adv-x="393" d="M296,735q26,0 49-6t36-17l-21-65q-12,8-26,11.5T303,662q-43,0-67-20.5T212,576V500V474V0H132V584q0,33 10,61t30.5,48T224,724t72,11Zm83-235V431H32v69H379Z" />
      <glyph unicode="g" glyph-name="gid302" horiz-adv-x="532" d="M514,592l18-71q-1,0-3,0t-4,0q-49,0-75.5-19.5T423,439l-49,25q0,39 18,68t49,44.5T509,592q1,0 2.5,0t2.5,0ZM362,64q71,0 111-32.5T513-55q0-49-32.5-85t-87-55.5T271-215q-118,0-176.5,40T36-79Q36-39 62.5-7.5T152,28l-7-15q-34,9-57.5,30.5T64,106t30.5,70.5T185,213l53-27H228q-49-5-69.5-24.5T138,119q0-28 20.5-41.5T216,64H362ZM270-148q58,0 95.5,12T421-105t18,41q0,27-21.5,43T340-5H186q-32,0-54-16.5T110-67q0-37 42.5-59T270-148Zm-7,658q60,0 106.5-21.5T442,429t26-88q0-49-26-87.5t-72.5-60T263,172q-99,0-152,47.5T58,341q0,50 26.5,88T157,488.5T263,510Zm0-65q-52,0-87-28.5T141,341q0-46 35-75t87-29t87,29t35,75q0,47-35,75.5T263,445Z" />
      <glyph unicode="h" glyph-name="gid310" horiz-adv-x="619" d="M93,0V730h80V425q26,45 69,65t94,20q54,0 98-20.5T504.5,427T531,320V0H451V292q0,83-35.5,115.5T328,440q-36,0-72-17t-59.5-55.5T173,265V0H93Z" />
      <glyph unicode="i" glyph-name="gid315" horiz-adv-x="266" d="M133,596q-27,0-43.5,16.5T73,656t16.5,43.5T133,716t43.5-16.5T193,656t-16.5-43.5T133,596Zm40-96V0H93V500h80Z" />
      <glyph unicode="j" glyph-name="gid330" horiz-adv-x="266" d="M133,596q-27,0-43.5,16.5T73,656t16.5,43.5T133,716t43.5-16.5T193,656t-16.5-43.5T133,596Zm40-96V-51q0-62-24-98T90-200T21-215q-31,0-57,9.5T-79-182l17,76q14-13 35-22t47-9q32,0 52.5,21T93-43V500h80Z" />
      <glyph unicode="k" glyph-name="gid333" horiz-adv-x="567" d="M532,500L316,284l-19-19L133,101V201L431,500H532ZM173,730V0H93V730h80ZM323,325L544,0H447L256,280l67,45Z" />
      <glyph unicode="l" glyph-name="gid336" horiz-adv-x="306" d="M169,730V127q0-38 14-52.5T228,60q20,0 33,3t35,11L283,4Q267-3 248-6.5T209-10q-61,0-90.5,33T89,124V730h80Z" />
      <glyph unicode="m" glyph-name="gid345" horiz-adv-x="953" d="M93,0V500h70l5-78q27,46 70.5,67T328,510q53,0 100-24t72-74q16,34 45,55.5t63.5,32T674,510q48,0 91.5-20T837,428t28-108V0H785V312q0,68-34,98t-84,30q-39,0-73-19t-54.5-56T519,274V0H439V312q0,68-34,98t-84,30q-33,0-67.5-17.5T196,367T173,267V0H93Z" />
      <glyph unicode="n" glyph-name="gid347" horiz-adv-x="619" d="M93,0V500h70l7-112l-13,11q16,40 43,64.5T262.5,499T336,510q54,0 98-20.5T504.5,427T531,320V0H451V292q0,83-35.5,115.5T328,440q-36,0-72-17t-59.5-55T173,266V0H93Z" />
      <glyph unicode="o" glyph-name="gid357" horiz-adv-x="600" d="M300,510q71,0 125.5-31T511,389.5T542,250T511,110.5T425.5,21T300-10q-70,0-125,31T89,110.5T58,250T89,389.5T175,479t125,31Zm0-69q-51,0-87-23t-55.5-65.5T138,250q0-59 19.5-102T213,82t87-23t87,23t55.5,66T462,250q0,60-19.5,102.5T387,418t-87,23Z" />
      <glyph unicode="p" glyph-name="gid380" horiz-adv-x="627" d="M93-210V500h70l7-122l-11,14q13,35 39,61.5T261,495t80,15q61,0 112.5-31T536,390t31-140q0-81-31.5-139.5T452,21T338-10T229.5,20.5T163,98l10,15V-210H93ZM330,60q74,0 115.5,52T487,250T446.5,388T333,440q-48,0-84-23.5t-56-66T173,250q0-57 19.5-100t55-66.5T330,60Z" />
      <glyph unicode="q" glyph-name="gid382" horiz-adv-x="627" d="M454-210V137l14-10q-7-44-33.5-74.5T369.5,6T288-10q-62,0-114,31T91,110.5T60,250q0,83 33,141t87,88.5T296,510q42,0 78-15.5t61.5-44T469,383H457l7,117h70V-210H454ZM296,60q47,0 82.5,23.5t55.5,67T454,253q0,60-19.5,101.5T380,418t-82,22q-74,0-116-52T140,250t41-138T296,60Z" />
      <glyph unicode="r" glyph-name="gid383" horiz-adv-x="408" d="M93,0V500h65l11-82q21,46 61.5,69T329,510q13,0 28.5-2t26.5-8l-14-73q-11,4-24,6t-37,2q-31,0-62.5-18T194,362.5T173,270V0H93Z" />
      <glyph unicode="s" glyph-name="gid391" horiz-adv-x="527" d="M273-10q-73,0-134.5,31T44,109l68,49q22-46 64.5-72T279,60q53,0 83,20.5T392,134q0,21-13.5,38.5T327,198L207,223q-73,15-104.5,50T71,360q0,41 23.5,75t67,54.5T264,510q74,0 125-29t76-82l-67-44q-17,44-55,64.5T264,440q-36,0-61.5-10t-39-27.5T150,363t15-40.5T221,296l125-26q70-14 98-46t28-78q0-47-25-82.5T377,9T273-10Z" />
      <glyph unicode="t" glyph-name="gid404" horiz-adv-x="419" d="M211,642V138q0-37 21-55t54-18q29,0 50,10t38,27l28-67Q379,14 347.5,2T275-10q-38,0-71,13.5t-52.5,43T131,124V620l80,22ZM393,500V431H31v69H393Z" />
      <glyph unicode="u" glyph-name="gid412" horiz-adv-x="617" d="M274-10q-48,0-90.5,18t-69,58.5T88,172V500h80V193q0-76 33-104.5T294,60q28,0 55,9.5t48.5,30t34,52.5T444,228V500h80V0H454l-5,76q-26-45-70.5-65.5T274-10Z" />
      <glyph unicode="v" glyph-name="gid428" horiz-adv-x="520" d="M424,500h84L300,0H220L12,500h91L261,81L424,500Z" />
      <glyph unicode="w" glyph-name="gid429" horiz-adv-x="836" d="M720,500h89L635,0H555L414,398L281,0H201L27,500h89L242,93L378,500h80L594,93L720,500Z" />
      <glyph unicode="x" glyph-name="gid434" horiz-adv-x="533" d="M141,500L290,291l5-7L500,0H402L247,217l-9,11L41,500H141Zm356,0L299,233h-5L122,0H29L247,287h6L403,500h94Z" />
      <glyph unicode="y" glyph-name="gid435" horiz-adv-x="516" d="M504,500L269-84q-19-49-41.5-77.5t-50-41T114-215q-34,0-62.5,9.5T1-180l22,70q20-18 42.5-26.5T110-145q26,0 49,16t42,65L227,1L177,120L18,500h91L234,174l31-89l36,99L418,500h86Z" />
      <glyph unicode="z" glyph-name="gid445" horiz-adv-x="534" d="M57,0V61L319,368l63,65l-89-2H60v69H471V439L209,132L147,67l97,2H479V0H57Z" />
      <glyph unicode="{" glyph-name="gid555" horiz-adv-x="351" d="M304-189q-59,0-95,14.5T156.5-132T140-65V142q0,56-25.5,80T28,246v70q61,0 86.5,24T140,420V627q0,40 16.5,67.5t52.5,42T304,751V686q-49,0-69-13t-20-40V413q0-54-29-87t-85-45q56-12 85-45t29-87V-71q0-27 20-40t69-13v-65Z" />
      <glyph unicode="|" glyph-name="gid639" horiz-adv-x="243" d="M156,730V-168H87V730h69Z" />
      <glyph unicode="}" glyph-name="gid556" horiz-adv-x="351" d="M47,751q59,0 95-14.5t52.5-42T211,627V420q0-56 25.5-80T323,316V246q-61,0-86.5-24T211,142V-65q0-39-16.5-67T142-174.5T47-189v65q49,0 69,13t20,40V149q0,54 29.5,87T250,281q-55,12-84.5,45T136,413V633q0,27-20,40T47,686v65Z" />
      <glyph unicode="~" glyph-name="gid622" horiz-adv-x="540" d="M497,384q-6-73-38.5-111T367,235q-34,0-59,11t-44.5,26t-39,26T181,309q-26,0-41-20t-21-54H43q6,74 38,111.5T174,384q33,0 58-11t45-26t39.5-26T359,310q26,0 41,20t21,54h76Z" />
      <glyph unicode="&#xa0;" glyph-name="gid577" horiz-adv-x="341" />
      <glyph unicode="&#xa1;" glyph-name="gid537" horiz-adv-x="264" d="M90-160V126l12,166h60l12-166V-160H90Zm42,540q-29,0-47,18T67,445t18,47t47,18t47-18t18-47t-18-47t-47-18Z" />
      <glyph unicode="&#xa2;" glyph-name="gid583" horiz-adv-x="567" d="M310-10q-71,0-126,31T97.5,110.5T66,250T97.5,389.5T184,479t126,31q52,0 91.5-16t68-46T515,377l-76-36q-16,51-49,77.5T308,445q-72,0-119.5-51T141,250q0-62 22-105.5T222.5,78T308,55q37,0 64.5,12T419,103.5T448,163l72-25q-16-46-45-79T404.5,8T310-10Zm-40-90V600h67V-100H270Z" />
      <glyph unicode="&#xa3;" glyph-name="gid601" horiz-adv-x="620" d="M80,278v65H467V278H80ZM154-10q-51,0-80.5,24.5T44,76q0,24 14,44t41,32.5T166,165t69.5-11T289,126.5T335,93t46-28t55-11q43,0 62,23.5T518,153h65q0-53-16-89.5t-46.5-55T447-10q-37,0-67.5,11.5T321.5,30t-53,34.5T217,93.5T163,105q-24,0-35-7.5T117,76q0-16 13.5-24T164,44q41,0 60,17.5t24.5,45T254,163q0,41-14,74.5T197,319q-19,33-31,59t-17,49.5T144,475q0,60 28,104t75.5,67.5T353,670q79,0 128-38.5T552,514l-69-38q-14,57-43.5,89T351,597q-61,0-97-31.5T218,475q0-21 3-38.5T232.5,399T256,349q28-52 44-97t16-85q0-30-7.5-61t-26-57.5T232.5,6T154-10Z" />
      <glyph unicode="&#xa4;" glyph-name="gid585" horiz-adv-x="665" d="M333,539q61,0 108.5-27T516,437.5T543,329T516,220.5t-74.5-75T333,118T224.5,145.5t-75,75T122,329t27.5,108.5t75,74.5T333,539Zm0-72q-57,0-94-39t-37-99q0-61 37-100t94-39q56,0 93,39t37,100q0,60-37,99t-93,39ZM121,591L240,474l-51-50L70,540l51,51Zm66-355l50-51L121,66L70,117L187,236Zm289-3L595,117L544,66L425,182l51,51Zm68,358l51-51L479,421l-51,51L544,591Z" />
      <glyph unicode="&#xa5;" glyph-name="gid603" horiz-adv-x="620" d="M275,0V107H83v55H275v75H83v60H212l44-4L34,660h93L261,417l48-99h2l48,100L493,660h93L364,293l44,4H538V237H345V162H538V107H345V0H275Z" />
      <glyph unicode="&#xa6;" glyph-name="gid640" horiz-adv-x="243" d="M156,730V367H87V730h69Zm0-535V-168H87V195h69Z" />
      <glyph unicode="&#xa7;" glyph-name="gid632" horiz-adv-x="598" d="M417,138l-49,30q40,1 67.5,11.5t42,29.5T492,253q0,29-20,52.5T388,340L244,365q-53,10-86,30t-47.5,49.5T96,509q0,47 26.5,83.5t74.5,57T309,670q70,0 124-25t88-74l-62-48q-28,42-65.5,60T306,601q-64,0-99.5-24T171,515q0-19 7-35t26-27.5T259,435l141-24q66-11 102.5-31t51-47T568,272q0-32-15-61.5t-48.5-49T417,138ZM284-110q-88,0-143,29.5T58-8l62,51q21-38 61.5-62T289-43T393-18t37,68q0,25-17,43t-55,25L189,151q-55,11-90,30.5t-51.5,48T31,295q0,32 16,58t44.5,43T160,417l35-25q-27-7-47-18t-31-27t-11-38q0-29 23.5-53.5T212,220l157-28q73-13 104-50t31-86q0-47-26.5-85t-76-59.5T284-110Z" />
      <glyph unicode="&#xa8;" glyph-name="gid675" horiz-adv-x="500" d="M153,696q26,0 41.5-15.5T210,639q0-25-15.5-41T153,582q-25,0-41,16T96,639q0,26 16,41.5T153,696Zm194,0q26,0 41.5-15.5T404,639q0-25-15.5-41T347,582q-25,0-41,16t-16,41q0,26 16,41.5T347,696Z" />
      <glyph unicode="&#xa9;" glyph-name="gid633" horiz-adv-x="820" d="M410-10Q308-10 231,35T111,157T68,330q0,97 43,173.5T231,625t179,45t179-45T709,503.5T752,330q0-96-43-173T589,35T410-10Zm0,65q81,0 142,36.5t95,99T681,330T647,469.5t-95,99T410,605q-80,0-141.5-36.5t-95.5-99T139,330t34-139.5t95.5-99T410,55Zm7,88q-85,0-133.5,49.5T235,328t48.5,135.5T417,513q59,0 98-25.5T573,418l-58-29q-13,32-37,48t-62,16q-53,0-83.5-33T302,328t30.5-92T416,203q40,0 66.5,16.5T522,270l55-22q-19-49-59-77T417,143Z" />
      <glyph unicode="&#xaa;" glyph-name="gid475" horiz-adv-x="382" d="M139,327q-52,0-82,24.5T27,416q0,39 24.5,62T137,512l116,21V488l-94-19q-36-7-49-17.5T97,421q0-19 14-29.5T150,381q20,0 41.5,6.5t36,24T242,460v85q0,31-18.5,48.5T175,611q-31,0-57-14.5T76,547L27,576q14,38 51,63.5T172,665q65,0 101.5-29.5T310,547V407q0-18 9-24.5t22-6.5q16,0 24,4l-5-44q-8-4-18-6.5T321,327q-32,0-50.5,18.5T252,399v15l10-11q-9-21-26.5-38.5t-42-27.5T139,327ZM26,201v53H346V201H26Z" />
      <glyph unicode="&#xab;" glyph-name="gid570" horiz-adv-x="493" d="M264,461L136,265L264,69H177L51,265L177,461h87Zm177,0L313,265L441,69H354L228,265L354,461h87Z" />
      <glyph unicode="&#xac;" glyph-name="gid623" horiz-adv-x="604" d="M545,319V131H465V319h80Zm0,35V279H59v75H545Z" />
      <glyph unicode="&#xad;" glyph-name="gid560" horiz-adv-x="510" d="M420,303V220H90v83H420Z" />
      <glyph unicode="&#xae;" glyph-name="gid634" horiz-adv-x="820" d="M410-10Q308-10 231,35T111,157T68,330q0,97 43,173.5T231,625t179,45t179-44.5T709,504t43-174q0-96-43-173T589,35T410-10Zm83,153L393,293l55,23L569,143H493ZM410,55q81,0 142,36.5t95,99T681,330T647,469.5t-95,99T410,605q-80,0-141.5-36.5t-95.5-99T139,330t34-139.5t95.5-99T410,55ZM269,143V513H421q42,0 73.5-14.5t49-40.5T561,395q0-55-39-86.5T421,277H336V143H269Zm67,185h84q36,0 55,16.5T494,395t-19,50.5T420,462H336V328Z" />
      <glyph unicode="&#xaf;" glyph-name="gid683" horiz-adv-x="500" d="M414,663V596H86v67H414Z" />
      <glyph unicode="&#xb0;" glyph-name="gid636" horiz-adv-x="460" d="M230,340q-49,0-87.5,21.5T82,420T60,505t22,85.5T142.5,649T230,670q50,0 88-21t60-58.5T400,505t-22-85t-60-58.5T230,340Zm0,65q44,0 72,28.5T330,505q0,44-28,72t-72,28q-43,0-71.5-28T130,505q0-43 28.5-71.5T230,405Z" />
      <glyph unicode="&#xb1;" glyph-name="gid621" horiz-adv-x="604" d="M340,640V154H265V640h75ZM545,434V359H59v75H545Zm0-359V0H59V75H545Z" />
      <glyph unicode="&#xb2;" glyph-name="gid519" horiz-adv-x="365" d="M39,333v48q23,17 46,33t46,34q48,38 75,64.5T243.5,560T254,604q0,32-19.5,52.5T177,677q-39,0-61.5-24.5T91,584L28,606q4,61 45,95t107,34q49,0 81.5-18t49-47T327,608q0-29-15.5-58.5T264,489t-82-66q-13-9-25.5-17.5T130,388v-1q9,1 31.5,2t32.5,1H336V333H39Z" />
      <glyph unicode="&#xb3;" glyph-name="gid520" horiz-adv-x="362" d="M181,735q66,0 102-30t36-78q0-30-12.5-51t-31-31.5T240,533v-1q20,0 40.5-10.5t34-30.5T328,440q0-34-19.5-59.5t-53-39.5T178,327q-61,0-99.5,23.5T24,423l67,30q6-34 27-51t59-17q35,0 56.5,17.5T255,450q0,32-22.5,44T170,506q-4,0-8,0t-9-1v52q4-1 7.5-1t6.5,0q38,0 58,15t20,45t-18,45.5T177,677q-31,0-50.5-15T101,617L36,640q13,49 52.5,72T181,735Z" />
      <glyph unicode="&#xb4;" glyph-name="gid677" horiz-adv-x="600" d="M295,750h87L284,583H219l76,167Z" />
      <glyph unicode="&#xb5;" glyph-name="gid625" horiz-adv-x="622" d="M93-210V500h80V194q0-70 33-102t93-32q40,0 74,17.5T428,134t21,103V500h80V0H464l-7,81q-25-45-68-68T295-10q-38,0-70,12T173,41V-210H93Z" />
      <glyph unicode="&#xb6;" glyph-name="gid631" horiz-adv-x="657" d="M294-100V191q-76,0-133,29.5T72.5,303T41,425q0,71 34,124t96,82t144,29H566V-100H496V593H367V-100H294Zm0,358V593q-57,0-96.5-20.5t-60-58.5T117,425q0-52 20.5-89.5t60-57.5T294,258Z" />
      <glyph unicode="&#xb7;" glyph-name="gid540" horiz-adv-x="226" d="M113,420q29,0 47-18t18-47t-18-47t-47-18T66,308T48,355t18,47t47,18Z" />
      <glyph unicode="&#xb8;" glyph-name="gid684" horiz-adv-x="500" d="M207,4l42,25q59-19 84-51.5T358-99q0-48-34-82t-87-34q-31,0-54.5,8T142-186l19,58q14-9 29.5-16t37.5-7q28,0 46,18t18,52q0,26-19,45T207,4Z" />
      <glyph unicode="&#xb9;" glyph-name="gid518" horiz-adv-x="242" d="M127,730h62V333H119V584q0,14 0.5,33.5T121,656q-22-21-51-37T10,598v60q18,4 41.5,15T96,699t31,31Z" />
      <glyph unicode="&#xba;" glyph-name="gid476" horiz-adv-x="360" d="M180,327q-70,0-113.5,45T23,496q0,80 43.5,124.5T180,665t113.5-44.5T337,496q0-79-43.5-124T180,327ZM36,201v53H324V201H36ZM180,382q44,0 65.5,30T267,496t-21.5,84.5T180,611t-65.5-30.5T93,496t21.5-84T180,382Z" />
      <glyph unicode="&#xbb;" glyph-name="gid571" horiz-adv-x="493" d="M229,69L357,265L229,461h87L442,265L316,69H229ZM52,69L180,265L52,461h87L265,265L139,69H52Z" />
      <glyph unicode="&#xbc;" glyph-name="gid529" horiz-adv-x="788" d="M127,665h62V268H119V519q0,14 0.5,33.5T121,591q-22-21-51-37T10,533v60q18,4 41.5,15T96,634t31,31ZM88,0L565,660h79L167,0H88ZM768,145V95H697V-4H638V95H439v37L621,393h76V145h71Zm-261,0H638V259q0,19 1,38t2,38h-3q-6-11-15-26.5T606,281L507,145Z" />
      <glyph unicode="&#xbd;" glyph-name="gid528" horiz-adv-x="855" d="M127,665h62V268H119V519q0,14 0.5,33.5T121,591q-22-21-51-37T10,533v60q18,4 41.5,15T96,634t31,31ZM88,0L565,660h79L167,0H88ZM529-4V44q23,17 46,33t46,34q48,38 75,64.5T733.5,223T744,267q0,32-19.5,52.5T667,340q-39,0-61.5-24.5T581,247l-63,22q4,61 45,95t107,34q49,0 81.5-18t49-47T817,271q0-29-15.5-58.5T754,152T672,86q-13-9-25.5-17.5T620,51V50q9,1 31.5,2T684,53H826V-4H529Z" />
      <glyph unicode="&#xbe;" glyph-name="gid530" horiz-adv-x="908" d="M181,670q66,0 102-30t36-78q0-30-12.5-51t-31-31.5T240,468v-1q20,0 40.5-10.5t34-30.5T328,375q0-34-19.5-59.5t-53-39.5T178,262q-61,0-99.5,23.5T24,358l67,30q6-34 27-51t59-17q35,0 56.5,17.5T255,385q0,32-22.5,44T170,441q-4,0-8,0t-9-1v52q4-1 7.5-1t6.5,0q38,0 58,15t20,45t-18,45.5T177,612q-31,0-50.5-15T101,552L36,575q13,49 52.5,72T181,670ZM208,0L685,660h79L287,0H208ZM888,145V95H817V-4H758V95H559v37L741,393h76V145h71Zm-261,0H758V259q0,19 1,38t2,38h-3q-6-11-15-26.5T726,281L627,145Z" />
      <glyph unicode="&#xbf;" glyph-name="gid539" horiz-adv-x="537" d="M266-170q-65,0-114.5,21t-77,60T47,4q0,59 25.5,97t68,58.5T235,185V292h83V142q-73-11-113.5-27t-57-39.5T131,16q0-35 15.5-60t47-38T272-95q66,0 108,36.5T429,41L500,0q-11-51-42.5-89t-80-59.5T266-170Zm12,550q-29,0-47,18t-18,47t18,47t47,18t47-18t18-47t-18-47t-47-18Z" />
      <glyph unicode="&#xc0;" glyph-name="gid7" horiz-adv-x="660" d="M634,0H549L479,183H180L110,0H26L283,660h95L634,0ZM209,258H450L329,583L209,258Zm93,644l66-159H304L218,902h84Z" />
      <glyph unicode="&#xc1;" glyph-name="gid2" horiz-adv-x="660" d="M634,0H549L479,183H180L110,0H26L283,660h95L634,0ZM209,258H450L329,583L209,258ZM353,902h84L351,743H287l66,159Z" />
      <glyph unicode="&#xc2;" glyph-name="gid4" horiz-adv-x="660" d="M634,0H549L479,183H180L110,0H26L283,660h95L634,0ZM209,258H450L329,583L209,258ZM484,743H410L330,850L250,743H176L286,902h88L484,743Z" />
      <glyph unicode="&#xc3;" glyph-name="gid13" horiz-adv-x="660" d="M634,0H549L479,183H180L110,0H26L283,660h95L634,0ZM209,258H450L329,583L209,258ZM510,877q-3-44-16.5-74t-37-45T398,743q-28,0-47.5,10.5T317,777t-27.5,23.5T260,811q-22,0-33-18.5T211,742H148q5,66 32.5,100T261,876q27,0 46.5-10.5t34-23.5T369,818.5T397,808q23,0 34,18.5T447,877h63Z" />
      <glyph unicode="&#xc4;" glyph-name="gid6" horiz-adv-x="660" d="M634,0H549L479,183H180L110,0H26L283,660h95L634,0ZM209,258H450L329,583L209,258Zm24,598q26,0 41.5-15.5T290,799q0-25-15.5-41T233,742q-25,0-41,16t-16,41q0,26 16,41.5T233,856Zm194,0q26,0 41.5-15.5T484,799q0-25-15.5-41T427,742q-25,0-41,16t-16,41q0,26 16,41.5T427,856Z" />
      <glyph unicode="&#xc5;" glyph-name="gid11" horiz-adv-x="660" d="M634,0H549L479,183H180L110,0H26L283,660h95L634,0ZM209,258H450L329,583L209,258ZM328,847q56,0 90.5-32.5T453,729t-34.5-86T328,610t-91,33t-35,86t35,85.5T328,847Zm0-49q-31,0-51-19.5T257,729t20-49.5T328,660t51,19.5T399,729t-20,49.5T328,798Z" />
      <glyph unicode="&#xc6;" glyph-name="gid14" horiz-adv-x="954" d="M531,75H902V0H451V213H215L92,0H6L392,660H887V585H531V372H802V297H531V75ZM259,288H451V585H431L259,288Z" />
      <glyph unicode="&#xc7;" glyph-name="gid20" horiz-adv-x="686" d="M640,169q-21-56-60-96.5T488.5,11T374-10q-94,0-162.5,41.5T105.5,149T68,330t37.5,181t106,117.5T372,670q64,0 114-17.5t85.5-52T628,516l-79-37q-22,57-63.5,86.5T378,595q-67,0-118-31.5T180.5,473T152,330q0-83 27-142.5t77-91T374,65q66,0 115,33.5T560,199l80-30ZM317,4l42,25q59-19 84-51.5T468-99q0-48-34-82t-87-34q-31,0-54.5,8T252-186l19,58q14-9 29.5-16t37.5-7q28,0 46,18t18,52q0,26-19,45T317,4Z" />
      <glyph unicode="&#xc8;" glyph-name="gid43" horiz-adv-x="638" d="M108,0V660H571V585H188V372H486V297H188V75H586V0H108ZM317,902l66-159H319L233,902h84Z" />
      <glyph unicode="&#xc9;" glyph-name="gid35" horiz-adv-x="638" d="M108,0V660H571V585H188V372H486V297H188V75H586V0H108ZM363,902h84L361,743H297l66,159Z" />
      <glyph unicode="&#xca;" glyph-name="gid39" horiz-adv-x="638" d="M108,0V660H571V585H188V372H486V297H188V75H586V0H108ZM494,743H420L340,850L260,743H186L296,902h88L494,743Z" />
      <glyph unicode="&#xcb;" glyph-name="gid41" horiz-adv-x="638" d="M108,0V660H571V585H188V372H486V297H188V75H586V0H108ZM243,856q26,0 41.5-15.5T300,799q0-25-15.5-41T243,742q-25,0-41,16t-16,41q0,26 16,41.5T243,856Zm194,0q26,0 41.5-15.5T494,799q0-25-15.5-41T437,742q-25,0-41,16t-16,41q0,26 16,41.5T437,856Z" />
      <glyph unicode="&#xcc;" glyph-name="gid73" horiz-adv-x="296" d="M188,660V0H108V660h80ZM115,902l66-159H117L31,902h84Z" />
      <glyph unicode="&#xcd;" glyph-name="gid66" horiz-adv-x="296" d="M188,660V0H108V660h80Zm-7,242h84L179,743H115l66,159Z" />
      <glyph unicode="&#xce;" glyph-name="gid68" horiz-adv-x="296" d="M188,660V0H108V660h80Zm114,83H228L148,850L68,743H-6L104,902h88L302,743Z" />
      <glyph unicode="&#xcf;" glyph-name="gid70" horiz-adv-x="296" d="M62,856q26,0 41.5-15.5T119,799q0-25-15.5-41T62,742q-25,0-41,16T5,799q0,26 16,41.5T62,856Zm172,0q26,0 41.5-15.5T291,799q0-25-15.5-41T234,742q-25,0-41,16t-16,41q0,26 16,41.5T234,856ZM188,660V0H108V660h80Z" />
      <glyph unicode="&#xd0;" glyph-name="gid27" horiz-adv-x="737" d="M26,296v75H401V296H26ZM337,660q155,0 243.5-85.5T669,330T580.5,85.5T337,0H124V660H337Zm8-585q113,0 176.5,67.5T585,330T521.5,517.5T345,585H204V75H345Z" />
      <glyph unicode="&#xd1;" glyph-name="gid104" horiz-adv-x="734" d="M626,660V0H527L251,442L181,566h-1l4-100V0H108V660h99L482,220L553,93h1l-4,101V660h76ZM551,877q-3-44-16.5-74t-37-45T439,743q-28,0-47.5,10.5T358,777t-27.5,23.5T301,811q-22,0-33-18.5T252,742H189q5,66 32.5,100T302,876q27,0 46.5-10.5t34-23.5T410,818.5T438,808q23,0 34,18.5T488,877h63Z" />
      <glyph unicode="&#xd2;" glyph-name="gid113" horiz-adv-x="748" d="M374,670q94,0 162.5-41.5T642.5,511T680,330T642.5,149T536.5,31.5T374-10T211.5,31.5T105.5,149T68,330t37.5,181t106,117.5T374,670Zm0-75q-68,0-118-31.5t-77-91T152,330t27-142.5t77-91T374,65q69,0 118.5,31.5t76.5,91T596,330T569,472.5t-76.5,91T374,595ZM341,902l66-159H343L257,902h84Z" />
      <glyph unicode="&#xd3;" glyph-name="gid106" horiz-adv-x="748" d="M374,670q94,0 162.5-41.5T642.5,511T680,330T642.5,149T536.5,31.5T374-10T211.5,31.5T105.5,149T68,330t37.5,181t106,117.5T374,670Zm0-75q-68,0-118-31.5t-77-91T152,330t27-142.5t77-91T374,65q69,0 118.5,31.5t76.5,91T596,330T569,472.5t-76.5,91T374,595Zm23,307h84L395,743H331l66,159Z" />
      <glyph unicode="&#xd4;" glyph-name="gid108" horiz-adv-x="748" d="M374,670q94,0 162.5-41.5T642.5,511T680,330T642.5,149T536.5,31.5T374-10T211.5,31.5T105.5,149T68,330t37.5,181t106,117.5T374,670Zm0-75q-68,0-118-31.5t-77-91T152,330t27-142.5t77-91T374,65q69,0 118.5,31.5t76.5,91T596,330T569,472.5t-76.5,91T374,595ZM528,743H454L374,850L294,743H220L330,902h88L528,743Z" />
      <glyph unicode="&#xd5;" glyph-name="gid123" horiz-adv-x="748" d="M374,670q94,0 162.5-41.5T642.5,511T680,330T642.5,149T536.5,31.5T374-10T211.5,31.5T105.5,149T68,330t37.5,181t106,117.5T374,670Zm0-75q-68,0-118-31.5t-77-91T152,330t27-142.5t77-91T374,65q69,0 118.5,31.5t76.5,91T596,330T569,472.5t-76.5,91T374,595ZM554,877q-3-44-16.5-74t-37-45T442,743q-28,0-47.5,10.5T361,777t-27.5,23.5T304,811q-22,0-33-18.5T255,742H192q5,66 32.5,100T305,876q27,0 46.5-10.5t34-23.5T413,818.5T441,808q23,0 34,18.5T491,877h63Z" />
      <glyph unicode="&#xd6;" glyph-name="gid110" horiz-adv-x="748" d="M374,670q94,0 162.5-41.5T642.5,511T680,330T642.5,149T536.5,31.5T374-10T211.5,31.5T105.5,149T68,330t37.5,181t106,117.5T374,670Zm0-75q-68,0-118-31.5t-77-91T152,330t27-142.5t77-91T374,65q69,0 118.5,31.5t76.5,91T596,330T569,472.5t-76.5,91T374,595ZM277,856q26,0 41.5-15.5T334,799q0-25-15.5-41T277,742q-25,0-41,16t-16,41q0,26 16,41.5T277,856Zm194,0q26,0 41.5-15.5T528,799q0-25-15.5-41T471,742q-25,0-41,16t-16,41q0,26 16,41.5T471,856Z" />
      <glyph unicode="&#xd7;" glyph-name="gid616" horiz-adv-x="604" d="M469,97l53,53L134,538L81,485L469,97ZM134,97L522,485l-53,53L81,150l53-53Z" />
      <glyph unicode="&#xd8;" glyph-name="gid121" horiz-adv-x="748" d="M229,63l-46,37L518,580l46-36L229,63ZM88-37l95,137l46-37L159-37H88ZM564,544l-46,36l72,103h71L564,544ZM374,670q94,0 162.5-41.5T642.5,511T680,330T642.5,149T536.5,31.5T374-10T211.5,31.5T105.5,149T68,330t37.5,181t106,117.5T374,670Zm0-75q-68,0-118-31.5t-77-91T152,330t27-142.5t77-91T374,65q69,0 118.5,31.5t76.5,91T596,330T569,472.5t-76.5,91T374,595Z" />
      <glyph unicode="&#xd9;" glyph-name="gid165" horiz-adv-x="708" d="M613,660V246q0-127-67-191.5T354-10Q230-10 162.5,54.5T95,246V660h80V266q0-103 43.5-152T354,65t135.5,49T533,266V660h80ZM331,877l66-159H333L247,877h84Z" />
      <glyph unicode="&#xda;" glyph-name="gid160" horiz-adv-x="708" d="M613,660V246q0-127-67-191.5T354-10Q230-10 162.5,54.5T95,246V660h80V266q0-103 43.5-152T354,65t135.5,49T533,266V660h80ZM377,877h84L375,718H311l66,159Z" />
      <glyph unicode="&#xdb;" glyph-name="gid162" horiz-adv-x="708" d="M613,660V246q0-127-67-191.5T354-10Q230-10 162.5,54.5T95,246V660h80V266q0-103 43.5-152T354,65t135.5,49T533,266V660h80ZM508,718H434L354,825L274,718H200L310,877h88L508,718Z" />
      <glyph unicode="&#xdc;" glyph-name="gid164" horiz-adv-x="708" d="M613,660V246q0-127-67-191.5T354-10Q230-10 162.5,54.5T95,246V660h80V266q0-103 43.5-152T354,65t135.5,49T533,266V660h80ZM257,831q26,0 41.5-15.5T314,774q0-25-15.5-41T257,717q-25,0-41,16t-16,41q0,26 16,41.5T257,831Zm194,0q26,0 41.5-15.5T508,774q0-25-15.5-41T451,717q-25,0-41,16t-16,41q0,26 16,41.5T451,831Z" />
      <glyph unicode="&#xdd;" glyph-name="gid183" horiz-adv-x="572" d="M562,660L326,258V0H246V258L10,660h95L233,434l53-94l53,94L467,660h95ZM309,882h84L307,723H243l66,159Z" />
      <glyph unicode="&#xde;" glyph-name="gid129" horiz-adv-x="627" d="M327,542q123,0 184.5-53T573,337q0-98-61.5-151.5T327,132H148v75H335q154,0 154,130q0,66-38,98T335,467H148v75H327ZM188,660V0H108V660h80Z" />
      <glyph unicode="&#xdf;" glyph-name="gid402" horiz-adv-x="617" d="M383,387q65,0 103.5-27t56-69T560,204q0-58-21.5-106.5t-65-78T363-10q-48,0-81.5,11T234,23l23,68q18-11 41-19.5T361,63q57,0 89.5,40.5T483,206q0,70-38.5,106.5T329,349H270v71h49q65,0 99,37t34,89q0,59-37.5,86.5T320,660q-84,0-115.5-47.5T173,473V0H93V497q0,69 21.5,122.5t73,84.5T328,735q70,0 115.5-25t68-64.5T534,562q0-39-16.5-77.5t-50-65T383,389v-2Z" />
      <glyph unicode="&#xe0;" glyph-name="gid259" horiz-adv-x="566" d="M385,323q0,56-30,86.5T270,440q-52,0-88-22.5T129,345L64,385q20,56 74,90.5T272,510q54,0 98-18.5t69.5-56T465,339V97q0-36 38-36q19,0 37,5L536,3Q516-7 484-7Q455-7 432,4T396,37.5T383,94v10l20-3q-12-39-41-63.5t-65-36T226-10q-44,0-82,15T83.5,50.5T61,126q0,56 37.5,92.5T203,268l198,39V241L240,208q-49-10-73-28t-24-50q0-31 24.5-50.5T237,60q29,0 55.5,7.5t47.5,23t33,39T385,185V323ZM242,750l76-167H253L155,750h87Z" />
      <glyph unicode="&#xe1;" glyph-name="gid254" horiz-adv-x="566" d="M385,323q0,56-30,86.5T270,440q-52,0-88-22.5T129,345L64,385q20,56 74,90.5T272,510q54,0 98-18.5t69.5-56T465,339V97q0-36 38-36q19,0 37,5L536,3Q516-7 484-7Q455-7 432,4T396,37.5T383,94v10l20-3q-12-39-41-63.5t-65-36T226-10q-44,0-82,15T83.5,50.5T61,126q0,56 37.5,92.5T203,268l198,39V241L240,208q-49-10-73-28t-24-50q0-31 24.5-50.5T237,60q29,0 55.5,7.5t47.5,23t33,39T385,185V323ZM303,750h87L292,583H227l76,167Z" />
      <glyph unicode="&#xe2;" glyph-name="gid256" horiz-adv-x="566" d="M385,323q0,56-30,86.5T270,440q-52,0-88-22.5T129,345L64,385q20,56 74,90.5T272,510q54,0 98-18.5t69.5-56T465,339V97q0-36 38-36q19,0 37,5L536,3Q516-7 484-7Q455-7 432,4T396,37.5T383,94v10l20-3q-12-39-41-63.5t-65-36T226-10q-44,0-82,15T83.5,50.5T61,126q0,56 37.5,92.5T203,268l198,39V241L240,208q-49-10-73-28t-24-50q0-31 24.5-50.5T237,60q29,0 55.5,7.5t47.5,23t33,39T385,185V323Zm50,253H362L276,691L190,576H117L231,743h90L435,576Z" />
      <glyph unicode="&#xe3;" glyph-name="gid265" horiz-adv-x="566" d="M385,323q0,56-30,86.5T270,440q-52,0-88-22.5T129,345L64,385q20,56 74,90.5T272,510q54,0 98-18.5t69.5-56T465,339V97q0-36 38-36q19,0 37,5L536,3Q516-7 484-7Q455-7 432,4T396,37.5T383,94v10l20-3q-12-39-41-63.5t-65-36T226-10q-44,0-82,15T83.5,50.5T61,126q0,56 37.5,92.5T203,268l198,39V241L240,208q-49-10-73-28t-24-50q0-31 24.5-50.5T237,60q29,0 55.5,7.5t47.5,23t33,39T385,185V323Zm71,394q-3-44-16.5-74t-37-45T344,583q-28,0-47.5,10.5T263,617t-27.5,23.5T206,651q-22,0-33-18.5T157,582H94q5,66 32.5,100T207,716q27,0 46.5-10.5t34-23.5T315,658.5T343,648q23,0 34,18.5T393,717h63Z" />
      <glyph unicode="&#xe4;" glyph-name="gid258" horiz-adv-x="566" d="M385,323q0,56-30,86.5T270,440q-52,0-88-22.5T129,345L64,385q20,56 74,90.5T272,510q54,0 98-18.5t69.5-56T465,339V97q0-36 38-36q19,0 37,5L536,3Q516-7 484-7Q455-7 432,4T396,37.5T383,94v10l20-3q-12-39-41-63.5t-65-36T226-10q-44,0-82,15T83.5,50.5T61,126q0,56 37.5,92.5T203,268l198,39V241L240,208q-49-10-73-28t-24-50q0-31 24.5-50.5T237,60q29,0 55.5,7.5t47.5,23t33,39T385,185V323ZM179,696q26,0 41.5-15.5T236,639q0-25-15.5-41T179,582q-25,0-41,16t-16,41q0,26 16,41.5T179,696Zm194,0q26,0 41.5-15.5T430,639q0-25-15.5-41T373,582q-25,0-41,16t-16,41q0,26 16,41.5T373,696Z" />
      <glyph unicode="&#xe5;" glyph-name="gid263" horiz-adv-x="566" d="M385,323q0,56-30,86.5T270,440q-52,0-88-22.5T129,345L64,385q20,56 74,90.5T272,510q54,0 98-18.5t69.5-56T465,339V97q0-36 38-36q19,0 37,5L536,3Q516-7 484-7Q455-7 432,4T396,37.5T383,94v10l20-3q-12-39-41-63.5t-65-36T226-10q-44,0-82,15T83.5,50.5T61,126q0,56 37.5,92.5T203,268l198,39V241L240,208q-49-10-73-28t-24-50q0-31 24.5-50.5T237,60q29,0 55.5,7.5t47.5,23t33,39T385,185V323ZM273,812q56,0 90.5-32.5T398,694t-34.5-86T273,575t-91,33t-35,86t35,85.5T273,812Zm0-49q-31,0-51-19.5T202,694t20-49.5T273,625t51,19.5T344,694t-20,49.5T273,763Z" />
      <glyph unicode="&#xe6;" glyph-name="gid266" horiz-adv-x="895" d="M230-10q-46,0-84.5,15T84,50.5T61,126q0,56 36.5,92T199,267l186,37v19q0,56-32.5,86.5T269,440q-47,0-83.5-22.5T129,345L64,385q16,38 44.5,66t69,43.5T267,510q66,0 115-27.5T449,394l-24,3q19,36 48.5,61T541,496.5T622,510q67,0 114.5-30T810,398.5T836,283q0-17-1-31t-3-25H466q5-79 49-123T625,60q50,0 83.5,21T763,138l63-37q-19-34-48.5-59T710,3.5T627-10q-75,0-131.5,35.5T413,130l25,7q-4-34-23.5-61t-49-46.5T301,0T230-10Zm7,70q29,0 55.5,7.5t47.5,23t33,39T385,185v52L240,208q-49-10-73-28t-24-50q0-31 24.5-50.5T237,60ZM469,298H756q-1,46-19,77.5t-48,48T620,440q-61,0-100.5-37T469,298Z" />
      <glyph unicode="&#xe7;" glyph-name="gid272" horiz-adv-x="560" d="M300,510q52,0 91.5-16T460,448t47-71l-76-36q-16,48-48.5,73.5T298,440q-50,0-86-22.5t-55-65T138,250q0-59 19-102t55-65.5T298,60q39,0 67.5,12t47,35T438,163l74-26q-17-46-46.5-79t-71-50.5T300-10q-70,0-125,31T89,110.5T58,250T89,389.5T175,479t125,31ZM244,4l42,25q59-19 84-51.5T395-99q0-48-34-82t-87-34q-31,0-54.5,8T179-186l19,58q14-9 29.5-16t37.5-7q28,0 46,18t18,52q0,26-19,45T244,4Z" />
      <glyph unicode="&#xe8;" glyph-name="gid293" horiz-adv-x="577" d="M302-10q-71,0-126.5,31T89,110.5T58,250T89,389.5T174,479t123,31q70,0 119.5-30T492,398.5T518,283q0-17-1-31t-3-25H110v71H479l-41-8q0,72-39.5,111T295,440q-49,0-84.5-22.5t-55-65T136,250q0-59 20-102t56.5-65.5T300,60q55,0 89.5,21T445,138l63-37q-19-34-48.5-59t-69-38.5T302-10ZM257,750l76-167H268L170,750h87Z" />
      <glyph unicode="&#xe9;" glyph-name="gid285" horiz-adv-x="577" d="M302-10q-71,0-126.5,31T89,110.5T58,250T89,389.5T174,479t123,31q70,0 119.5-30T492,398.5T518,283q0-17-1-31t-3-25H110v71H479l-41-8q0,72-39.5,111T295,440q-49,0-84.5-22.5t-55-65T136,250q0-59 20-102t56.5-65.5T300,60q55,0 89.5,21T445,138l63-37q-19-34-48.5-59t-69-38.5T302-10Zm16,760h87L307,583H242l76,167Z" />
      <glyph unicode="&#xea;" glyph-name="gid289" horiz-adv-x="577" d="M302-10q-71,0-126.5,31T89,110.5T58,250T89,389.5T174,479t123,31q70,0 119.5-30T492,398.5T518,283q0-17-1-31t-3-25H110v71H479l-41-8q0,72-39.5,111T295,440q-49,0-84.5-22.5t-55-65T136,250q0-59 20-102t56.5-65.5T300,60q55,0 89.5,21T445,138l63-37q-19-34-48.5-59t-69-38.5T302-10ZM450,576H377L291,691L205,576H132L246,743h90L450,576Z" />
      <glyph unicode="&#xeb;" glyph-name="gid291" horiz-adv-x="577" d="M302-10q-71,0-126.5,31T89,110.5T58,250T89,389.5T174,479t123,31q70,0 119.5-30T492,398.5T518,283q0-17-1-31t-3-25H110v71H479l-41-8q0,72-39.5,111T295,440q-49,0-84.5-22.5t-55-65T136,250q0-59 20-102t56.5-65.5T300,60q55,0 89.5,21T445,138l63-37q-19-34-48.5-59t-69-38.5T302-10ZM194,696q26,0 41.5-15.5T251,639q0-25-15.5-41T194,582q-25,0-41,16t-16,41q0,26 16,41.5T194,696Zm194,0q26,0 41.5-15.5T445,639q0-25-15.5-41T388,582q-25,0-41,16t-16,41q0,26 16,41.5T388,696Z" />
      <glyph unicode="&#xec;" glyph-name="gid324" horiz-adv-x="266" d="M173,500V0H93V500h80ZM99,750l76-167H110L12,750H99Z" />
      <glyph unicode="&#xed;" glyph-name="gid317" horiz-adv-x="266" d="M173,500V0H93V500h80ZM160,750h87L149,583H84l76,167Z" />
      <glyph unicode="&#xee;" glyph-name="gid319" horiz-adv-x="266" d="M173,500V0H93V500h80Zm119,76H219L133,691L47,576H-26L88,743h90L292,576Z" />
      <glyph unicode="&#xef;" glyph-name="gid321" horiz-adv-x="266" d="M213,582q-26,0-42,16t-16,41q0,26 16,41.5T213,696t41.5-15.5T270,639q0-25-15.5-41T213,582ZM53,582q-25,0-41,16T-4,639q0,26 16,41.5T53,696q26,0 42-15.5T111,639q0-25-16-41T53,582Zm120-82V0H93V500h80Z" />
      <glyph unicode="&#xf0;" glyph-name="gid277" horiz-adv-x="620" d="M298-10q-72,0-125,29.5T91,105T62,238T93,370.5t84,85T296,485q62,0 106-21t71-59l-8-7q-12,55-33,102t-52,87.5t-74.5,76T205,730H316q59-34 102-79t71.5-100.5t42.5-121T546,288q0-87-27-154.5T437.5,28T298-10Zm4,70q53,0 90,25t56.5,65.5T468,238q0,55-19.5,94.5t-55.5,61T307,415t-86.5-21.5t-56-61T145,238q0-84 42.5-131T302,60ZM207,533l-15,61l200,44l36-48L207,533Zm221,57l-36,48l143,40l17-59L428,590Z" />
      <glyph unicode="&#xf1;" glyph-name="gid356" horiz-adv-x="619" d="M93,0V500h70l7-112l-13,11q16,40 43,64.5T262.5,499T336,510q54,0 98-20.5T504.5,427T531,320V0H451V292q0,83-35.5,115.5T328,440q-36,0-72-17t-59.5-55T173,266V0H93ZM498,717q-3-44-16.5-74t-37-45T386,583q-28,0-47.5,10.5T305,617t-27.5,23.5T248,651q-22,0-33-18.5T199,582H136q5,66 32.5,100T249,716q27,0 46.5-10.5t34-23.5T357,658.5T385,648q23,0 34,18.5T435,717h63Z" />
      <glyph unicode="&#xf2;" glyph-name="gid365" horiz-adv-x="600" d="M300,510q71,0 125.5-31T511,389.5T542,250T511,110.5T425.5,21T300-10q-70,0-125,31T89,110.5T58,250T89,389.5T175,479t125,31Zm0-69q-51,0-87-23t-55.5-65.5T138,250q0-59 19.5-102T213,82t87-23t87,23t55.5,66T462,250q0,60-19.5,102.5T387,418t-87,23ZM266,750l76-167H277L179,750h87Z" />
      <glyph unicode="&#xf3;" glyph-name="gid358" horiz-adv-x="600" d="M300,510q71,0 125.5-31T511,389.5T542,250T511,110.5T425.5,21T300-10q-70,0-125,31T89,110.5T58,250T89,389.5T175,479t125,31Zm0-69q-51,0-87-23t-55.5-65.5T138,250q0-59 19.5-102T213,82t87-23t87,23t55.5,66T462,250q0,60-19.5,102.5T387,418t-87,23Zm27,309h87L316,583H251l76,167Z" />
      <glyph unicode="&#xf4;" glyph-name="gid360" horiz-adv-x="600" d="M300,510q71,0 125.5-31T511,389.5T542,250T511,110.5T425.5,21T300-10q-70,0-125,31T89,110.5T58,250T89,389.5T175,479t125,31Zm0-69q-51,0-87-23t-55.5-65.5T138,250q0-59 19.5-102T213,82t87-23t87,23t55.5,66T462,250q0,60-19.5,102.5T387,418t-87,23ZM459,576H386L300,691L214,576H141L255,743h90L459,576Z" />
      <glyph unicode="&#xf5;" glyph-name="gid375" horiz-adv-x="600" d="M300,510q71,0 125.5-31T511,389.5T542,250T511,110.5T425.5,21T300-10q-70,0-125,31T89,110.5T58,250T89,389.5T175,479t125,31Zm0-69q-51,0-87-23t-55.5-65.5T138,250q0-59 19.5-102T213,82t87-23t87,23t55.5,66T462,250q0,60-19.5,102.5T387,418t-87,23ZM480,717q-3-44-16.5-74t-37-45T368,583q-28,0-47.5,10.5T287,617t-27.5,23.5T230,651q-22,0-33-18.5T181,582H118q5,66 32.5,100T231,716q27,0 46.5-10.5t34-23.5T339,658.5T367,648q23,0 34,18.5T417,717h63Z" />
      <glyph unicode="&#xf6;" glyph-name="gid362" horiz-adv-x="600" d="M300,510q71,0 125.5-31T511,389.5T542,250T511,110.5T425.5,21T300-10q-70,0-125,31T89,110.5T58,250T89,389.5T175,479t125,31Zm0-69q-51,0-87-23t-55.5-65.5T138,250q0-59 19.5-102T213,82t87-23t87,23t55.5,66T462,250q0,60-19.5,102.5T387,418t-87,23ZM203,696q26,0 41.5-15.5T260,639q0-25-15.5-41T203,582q-25,0-41,16t-16,41q0,26 16,41.5T203,696Zm194,0q26,0 41.5-15.5T454,639q0-25-15.5-41T397,582q-25,0-41,16t-16,41q0,26 16,41.5T397,696Z" />
      <glyph unicode="&#xf7;" glyph-name="gid617" horiz-adv-x="604" d="M545,354V279H59v75H545ZM302,185q29,0 47-18t18-47T349,73T302,55T255,73t-18,47t18,47t47,18Zm0,391q29,0 47-18t18-47t-18-47t-47-18t-47,18t-18,47t18,47t47,18Z" />
      <glyph unicode="&#xf8;" glyph-name="gid373" horiz-adv-x="600" d="M300,510q71,0 125.5-31T511,389.5T542,250T511,110.5T425.5,21T300-10q-70,0-125,31T89,110.5T58,250T89,389.5T175,479t125,31Zm0-69q-51,0-87-23t-55.5-65.5T138,250q0-59 19.5-102T213,82t87-23t87,23t55.5,66T462,250q0,60-19.5,102.5T387,418t-87,23ZM55-30L478,530h67L122-30H55Z" />
      <glyph unicode="&#xf9;" glyph-name="gid418" horiz-adv-x="617" d="M274-10q-48,0-90.5,18t-69,58.5T88,172V500h80V193q0-76 33-104.5T294,60q28,0 55,9.5t48.5,30t34,52.5T444,228V500h80V0H454l-5,76q-26-45-70.5-65.5T274-10Zm-2,750l76-167H283L185,740h87Z" />
      <glyph unicode="&#xfa;" glyph-name="gid413" horiz-adv-x="617" d="M274-10q-48,0-90.5,18t-69,58.5T88,172V500h80V193q0-76 33-104.5T294,60q28,0 55,9.5t48.5,30t34,52.5T444,228V500h80V0H454l-5,76q-26-45-70.5-65.5T274-10Zm59,750h87L322,573H257l76,167Z" />
      <glyph unicode="&#xfb;" glyph-name="gid415" horiz-adv-x="617" d="M274-10q-48,0-90.5,18t-69,58.5T88,172V500h80V193q0-76 33-104.5T294,60q28,0 55,9.5t48.5,30t34,52.5T444,228V500h80V0H454l-5,76q-26-45-70.5-65.5T274-10ZM465,566H392L306,681L220,566H147L261,733h90L465,566Z" />
      <glyph unicode="&#xfc;" glyph-name="gid417" horiz-adv-x="617" d="M274-10q-48,0-90.5,18t-69,58.5T88,172V500h80V193q0-76 33-104.5T294,60q28,0 55,9.5t48.5,30t34,52.5T444,228V500h80V0H454l-5,76q-26-45-70.5-65.5T274-10ZM209,686q26,0 41.5-15.5T266,629q0-25-15.5-41T209,572q-25,0-41,16t-16,41q0,26 16,41.5T209,686Zm194,0q26,0 41.5-15.5T460,629q0-25-15.5-41T403,572q-25,0-41,16t-16,41q0,26 16,41.5T403,686Z" />
      <glyph unicode="&#xfd;" glyph-name="gid436" horiz-adv-x="516" d="M504,500L269-84q-19-49-41.5-77.5t-50-41T114-215q-34,0-62.5,9.5T1-180l22,70q20-18 42.5-26.5T110-145q26,0 49,16t42,65L227,1L177,120L18,500h91L234,174l31-89l36,99L418,500h86ZM286,740h87L275,573H210l76,167Z" />
      <glyph unicode="&#xfe;" glyph-name="gid381" horiz-adv-x="627" d="M93-210V730h80V378l-10,24q20,47 67.5,77.5T339,510q62,0 114-31t83-89t31-140q0-81-31.5-139.5T452,21T338-10T229.5,20.5T163,98l10,15V-210H93ZM330,60q74,0 115.5,52T487,250T446.5,388T333,440q-48,0-84-23.5t-56-66T173,250q0-57 19.5-100t55-66.5T330,60Z" />
      <glyph unicode="&#xff;" glyph-name="gid438" horiz-adv-x="516" d="M504,500L269-84q-19-49-41.5-77.5t-50-41T114-215q-34,0-62.5,9.5T1-180l22,70q20-18 42.5-26.5T110-145q26,0 49,16t42,65L227,1L177,120L18,500h91L234,174l31-89l36,99L418,500h86ZM162,686q26,0 41.5-15.5T219,629q0-25-15.5-41T162,572q-25,0-41,16t-16,41q0,26 16,41.5T162,686Zm194,0q26,0 41.5-15.5T413,629q0-25-15.5-41T356,572q-25,0-41,16t-16,41q0,26 16,41.5T356,686Z" />
      <glyph unicode="&#x2013;" glyph-name="gid561" horiz-adv-x="664" d="M582,299V224H82v75H582Z" />
      <glyph unicode="&#x2014;" glyph-name="gid562" horiz-adv-x="1014" d="M932,299V224H82v75H932Z" />
      <glyph unicode="&#x2018;" glyph-name="gid568" horiz-adv-x="255" d="M128,434q-23,0-40,12.5T62,481t-9,50q0,34 11.5,65.5T100,655t62,45l42-39q-27-9-47.5-25t-33-36T106,559l4-2q4,3 10,5t18,2t25-7t21.5-20.5T193,501q0-18-8.5-33T161,443.5T128,434Z" />
      <glyph unicode="&#x2019;" glyph-name="gid569" horiz-adv-x="255" d="M131,700q24,0 40.5-12.5t25.5-34t9-50.5q0-33-11.5-65T159,479T97,434L55,473q27,9 47.5,25T136,534t17,41l-4,2q-4-3-10-5t-18-2t-24.5,7T75,597.5T66,633q0,18 9,33.5T98.5,691t32.5,9Z" />
      <glyph unicode="&#x201a;" glyph-name="gid564" horiz-adv-x="255" d="M131,120q24,0 40.5-12.5t25.5-34T206,23q0-33-11.5-65T159-101T97-146L55-107q27,9 47.5,25T136-46T153-5l-4,2q-4-3-10-5t-18-2T96.5-3T75,17.5T66,53q0,18 9,33.5T98.5,111t32.5,9Z" />
      <glyph unicode="&#x201c;" glyph-name="gid566" horiz-adv-x="443" d="M128,434q-23,0-40,12.5T62,481t-9,50q0,34 11.5,65.5T100,655t62,45l42-39q-27-9-47.5-25t-33-36T106,559l4-2q4,3 10,5t18,2t25-7t21.5-20.5T193,501q0-18-8.5-33T161,443.5T128,434Zm188,0q-23,0-40,12.5T250,481t-9,50q0,34 11.5,65.5T288,655t62,45l42-39q-27-9-47.5-25t-33-36T294,559l4-2q4,3 10,5t18,2t25-7t21.5-20.5T381,501q0-18-8.5-33T349,443.5T316,434Z" />
      <glyph unicode="&#x201d;" glyph-name="gid567" horiz-adv-x="443" d="M131,700q24,0 40.5-12.5t25.5-34t9-50.5q0-33-11.5-65T159,479T97,434L55,473q27,9 47.5,25T136,534t17,41l-4,2q-4-3-10-5t-18-2t-24.5,7T75,597.5T66,633q0,18 9,33.5T98.5,691t32.5,9Zm188,0q24,0 40.5-12.5t25.5-34t9-50.5q0-33-11.5-65T347,479t-62-45l-42,39q27,9 47.5,25T324,534t17,41l-4,2q-4-3-10-5t-18-2t-24.5,7T263,597.5T254,633q0,18 9,33.5T286.5,691t32.5,9Z" />
      <glyph unicode="&#x201e;" glyph-name="gid565" horiz-adv-x="443" d="M131,120q24,0 40.5-12.5t25.5-34T206,23q0-33-11.5-65T159-101T97-146L55-107q27,9 47.5,25T136-46T153-5l-4,2q-4-3-10-5t-18-2T96.5-3T75,17.5T66,53q0,18 9,33.5T98.5,111t32.5,9Zm188,0q24,0 40.5-12.5t25.5-34T394,23q0-33-11.5-65T347-101t-62-45l-42,39q27,9 47.5,25T324-46T341-5l-4,2q-4-3-10-5t-18-2T284.5-3T263,17.5T254,53q0,18 9,33.5T286.5,111t32.5,9Z" />
      <glyph unicode="&#x2022;" glyph-name="gid541" horiz-adv-x="430" d="M215,216q-54,0-89.5,34.5T90,337q0,53 35.5,87T215,458q55,0 90-34t35-87q0-52-35-86.5T215,216Z" />
      <glyph unicode="&#x2039;" glyph-name="gid572" horiz-adv-x="316" d="M264,461L136,265L264,69H177L51,265L177,461h87Z" />
      <glyph unicode="&#x203a;" glyph-name="gid573" horiz-adv-x="316" d="M52,69L180,265L52,461h87L265,265L139,69H52Z" />
    </font>
</defs>
</svg>
