<?xml version="1.0" standalone="no"?>
<!DOCTYPE svg PUBLIC "-//W3C//DTD SVG 1.1//EN" "http://www.w3.org/Graphics/SVG/1.1/DTD/svg11.dtd">
<svg xmlns="http://www.w3.org/2000/svg">
  <defs>
    <font id="Lato" horiz-adv-x="1042">
      <font-face font-family="Lato" units-per-em="2000" panose-1="2 15 5 2 2 2 4 3 2 3" ascent="1974" descent="-426" alphabetic="0" />
      <glyph unicode=" " glyph-name="space" horiz-adv-x="386" />
      <glyph unicode="!" glyph-name="exclam" horiz-adv-x="686" d="M430,1433V861q0-45-1.5-88T424,686.5t-7.5-89T406,500H285q-6,52-10.5,97.5t-7.5,89T262.5,773T261,861v572H430ZM218,110q0,26 9.5,49t26,40T293,226t49,10t49-10t40-27t26.5-40t9.5-49q0-27-9.5-49.5T431,21T391-5.5T342-15T293-5.5T253.5,21t-26,39.5T218,110Z" />
      <glyph unicode="&quot;" glyph-name="quotedbl" horiz-adv-x="794" d="M307,1433V1143L291,988q-3-32-17-49.5T229,921q-26,0-40.5,17.5T168,988l-16,155v290H307Zm333,0V1143L624,988q-3-32-17-49.5T562,921q-26,0-40.5,17.5T501,988l-16,155v290H640Z" />
      <glyph unicode="#" glyph-name="numbersign" horiz-adv-x="1160" d="M790,423L706,0H625q-23,0-39,17T570,61q0,4 0.5,7.5T572,77l71,346H396L325,68q-8-37-30.5-52.5T243,0H164l85,423H103q-23,0-36,11.5T54,474q0,5 0.5,11T56,497l8,57H268l65,326H101l13,74q5,29 23,43t57,14H352l72,358q6,30 27.5,47t51.5,17h80l-84-422H746l84,422h79q25,0 41.5-15t16.5-39q0-8-1-13l-73-355h212l-13-75q-5-29-23.5-42.5T1012,880H874L809,554H988q24,0 37-11.5t13-40.5q0-5-0.5-10.5T1036,480l-9-57H790ZM415,554H662l65,326H480L415,554Z" />
      <glyph unicode="$" glyph-name="dollar" horiz-adv-x="1160" d="M498-12Q377-1 277.5,47.5T106,171l53,82q7,11 20,18t27,7q19,0 43-19t59-43.5T391.5,168T508,137l37,531q-70,21-137.5,47.5t-121,69t-86,107T168,1053q0,73 28.5,142.5t83,123.5T414,1407.5T598,1446l10,144q2,19 15,34t35,15h66l-14-198q105-13 181-54t136-99l-43-66q-20-30-46-30q-14,0-34.5,12.5t-49.5,29t-67,33T700,1290L667,806q72-22 142-48t126-67t90.5-102.5T1060,435q0-90-30-169T942.5,127t-141-97.5T611-14L599-190q-2-19-15.5-33.5T549-238H483L498-12ZM891,407q0,50-18.5,86T822,555t-75,45t-92,35L621,137q65,6 115.5,28.5t85,57.5t52,81.5T891,407ZM336,1071q0-48 17-83.5T400,925t70-47t87-36l30,451q-65-6-112.5-26t-78-50T351,1149.5T336,1071Z" />
      <glyph unicode="%" glyph-name="percent" horiz-adv-x="1572" d="M707,1087q0-84-26-150.5t-69.5-112T510,755T389,731q-68,0-125.5,24T163,824.5t-67,112T72,1087q0,86 24,153t67,113t100.5,70T389,1447q67,0 125.5-24t101-70t67-113T707,1087Zm-139,0q0,66-14,112t-38.5,75.5t-57,42.5T389,1330t-69.5-13T263,1274.5T225.5,1199T212,1087q0-65 13.5-110.5t37.5-74t56.5-41T389,849t69.5,12.5t57,41t38.5,74T568,1087Zm640,310q13,17 27.5,26.5t38.5,9.5h128L355,29Q345,16 331,8T298,0H166L1208,1397ZM1499,338q0-84-26-150T1403.5,76.5T1302.5,7T1182-17q-68,0-125.5,24T956,76.5T889,188T865,338q0,86 24,153.5T956,605t100.5,70T1182,699q67,0 125-24t101-70t67-113.5T1499,338Zm-138,0q0,66-14,112.5T1308.5,526t-57,42T1182,581t-69.5-13T1056,526t-37.5-75.5T1005,338q0-65 13.5-110t37.5-73.5t56.5-41T1182,101t69.5,12.5t57,41T1347,228t14,110Z" />
      <glyph unicode="&amp;" glyph-name="ampersand" horiz-adv-x="1406" d="M660,1449q79,0 144-25.5T916.5,1356t75-97.5T1023,1143l-111-22q-5-1-9-1q-13,0-24.5,7T862,1152q-7,26-22.5,54t-40,51t-59,38T660,1310q-50,0-90-16t-68.5-44.5t-44-67T442,1099q0-35 8.5-67T476,967.5t44-67T585,828L997,409q38,67 60.5,140.5T1088,697q2,19 12,30t28,11h110q-2-115-37-226T1100,304L1400,0H1228q-29,0-47,7t-40,29L997,181Q903,90 780.5,37T511-16q-80,0-157,27T216.5,89.5T119,215T82,382q0,70 23.5,132.5t65,115.5T269,725t125,72q-61,77-90,150t-29,151q0,73 26.5,137T378,1346.5t121.5,75T660,1449ZM263,396q0-65 24-114.5T350,198t89-51.5T541,129q112,0 201,41T899,279L476,706Q370,649 316.5,569.5T263,396Z" />
      <glyph unicode="&apos;" glyph-name="quotesingle" horiz-adv-x="460" d="M307,1433V1143L291,988q-3-32-17-49.5T229,921q-26,0-40.5,17.5T168,988l-16,155v290H307Z" />
      <glyph unicode="(" glyph-name="parenleft" horiz-adv-x="600" d="M289,629q0-214 55-415.5T503-171q6-11 8-19t2-16q0-14-7-23t-18-16l-79-48Q334-178 281.5-65t-85,227T149,391.5T134,629q0,121 15,237t47.5,229.5t85,226.5T409,1551l79-49q11-7 18-16t7-23q0-15-10-34q-105-182-159.5-384T289,629Z" />
      <glyph unicode=")" glyph-name="parenright" horiz-adv-x="600" d="M298,629q0,214-54.5,416T84,1429q-10,19-10,34q0,14 7,23t18,16l79,49q75-116 127.5-229t85-226.5T438,866t15-237q0-122-15-237.5T390.5,162t-85-227T178-293L99-245q-11,7-18,16t-7,23q0,8 2,16t8,19Q188,12 243,213.5T298,629Z" />
      <glyph unicode="*" glyph-name="asterisk" horiz-adv-x="800" d="M354,863v197q0,19 2.5,36t9.5,33q-20-25-53-45L141,985l-44,75l172,100q36,21 73,24q-20,2-37.5,7.5T269,1209L96,1310l44,75l173-100q35-20 57-52q-9,18-12.5,36.5T354,1308v198h88V1309q0-41-14-72q11,15 24.5,26t30.5,22l172,99l44-75L527,1209q-17-11-33.5-17t-34.5-8q18-2 34.5-7.5T527,1160l173-101l-44-75L483,1084q-18,11-32,22t-25,27q16-33 16-72V863H354Z" />
      <glyph unicode="+" glyph-name="plus" horiz-adv-x="1160" d="M651,1166V739h407V604H651V174H505V604H100V739H505v427H651Z" />
      <glyph unicode="," glyph-name="comma" horiz-adv-x="424" d="M94,123q0,23 8.5,43.5t24,36T164,227t48,9q30,0 53.5-11t39-30.5t23.5-45T336,94q0-45-13-93.5t-37-96T226.5-188T146-271l-30,29q-13,12-13,28q0,13 14,27q10,11 25.5,29.5T174-115t29.5,53T223,0H210q-26,0-47,9T126.5,34.5t-24,39T94,123Z" />
      <glyph unicode="-" glyph-name="hyphen" horiz-adv-x="694" d="M100,675H594V524H100V675Z" />
      <glyph unicode="." glyph-name="period" horiz-adv-x="424" d="M88,110q0,26 9.5,49t26,40T163,226t49,10t49-10t40-27t26.5-40t9.5-49q0-27-9.5-49.5T301,21T261-5.5T212-15T163-5.5T123.5,21t-26,39.5T88,110Z" />
      <glyph unicode="/" glyph-name="slash" horiz-adv-x="746" d="M161-21q-14-35-41.5-52T63-90H-12L589,1407q13,32 37,49t57,17h75L161-21Z" />
      <glyph unicode="0" glyph-name="zero" horiz-adv-x="1160" d="M1100,716q0-188-40.5-325.5T949,163T783.5,29T579-15Q469-15 374.5,29T210,163T100,390.5T60,716t40,326t110,228.5T374.5,1405T579,1449q109,0 204.5-44T949,1270.5T1059.5,1042T1100,716Zm-185,0q0,164-27.5,275.5t-74,179.5T706,1268.5T579,1298t-127-29.5T345,1171T271.5,991.5T244,716t27.5-275T345,262t107-97.5T579,135t127,29.5T813.5,262t74,179T915,716Z" />
      <glyph unicode="1" glyph-name="one" horiz-adv-x="1160" d="M287,136H595v977q0,44 3,89L342,983q-10-8-20-11.5T303,968q-15,0-27,6.5T258,990l-56,77l426,369H773V136h282V0H287V136Z" />
      <glyph unicode="2" glyph-name="two" horiz-adv-x="1160" d="M601,1449q91,0 170-27t136.5-78.5T998,1218t33-168q0-80-24-148T942,771.5t-94.5-121T734,531L357,145q40,11 81,17.5t79,6.5H997q29,0 46-17t17-44V0H104V61q0,19 7.5,39T136,137L595,598q57,58 104,111.5T779.5,817T831,926.5T849,1045t-20,110.5T774,1234t-82,46.5T591,1296t-100-16t-81.5-44.5t-60-67.5T315,1082q-8-29-24-42t-42-13q-5,0-10.5,0.5T226,1029l-93,16q14,98 54,173.5T288.5,1345t141,77.5T601,1449Z" />
      <glyph unicode="3" glyph-name="three" horiz-adv-x="1160" d="M620,1449q91,0 168-26t132.5-74t86.5-116t31-151q0-68-17.5-121.5t-50-94T892,798T789,753q140-37 210.5-124T1070,411q0-99-37.5-178T930,98.5t-151.5-85T593-16Q479-16 398,12.5T261,91T169,209.5T108,358l76,32q21,9 42,9q20,0 35.5-8.5T285,364q2-4 4-8.5t4-9.5q14-29 34-65.5T381,212t84.5-54T591,136t131.5,24.5t94,63.5T873,311t19,95q0,58-15.5,106t-56,83t-112,55T525,670V799q91,1 155.5,20T786,871t59.5,79T864,1052q0,62-19.5,108T791,1236t-80.5,45T610,1296t-100-16t-81.5-44.5t-59.5-68T333,1082q-8-29-24-42t-41-13q-5,0-10.5,0.5T245,1029l-93,16q14,98 54,173.5T307.5,1345t141,77.5T620,1449Z" />
      <glyph unicode="4" glyph-name="four" horiz-adv-x="1160" d="M903,517h217V415q0-16-9.5-27T1081,377H903V0H746V377H111q-20,0-34.5,11.5T58,417L40,508l697,925H903V517ZM746,1108q0,26 1.5,56t6.5,62L233,517H746v591Z" />
      <glyph unicode="5" glyph-name="five" horiz-adv-x="1160" d="M978,1355q0-38-24-62.5T873,1268H423L357,892q112,24 207,24q112,0 197.5-33T905,792t87.5-137T1022,483q0-114-40-206T872.5,119.5T709,19T506-16Q443-16 385-3.5T277,30T184,78t-76,57l54,76q18,26 48,26q19,0 44.5-15.5T316,187t84.5-34.5T516,137q75,0 135,24t102.5,68.5T819,336t23,139q0,67-19.5,121t-59,92T665,747T527,768q-54,0-112-9T295,730L183,763l116,670H978v-78Z" />
      <glyph unicode="6" glyph-name="six" horiz-adv-x="1160" d="M650,878q86,0 163-28.5t135-83t92-134T1074,451q0-99-36-184T937.5,119T782,20T582-16Q474-16 386.5,18.5T237,116.5t-95.5,154T108,473q0,94 42,200T283,901l363,489q14,18 39,30.5t57,12.5H900L403,804q51,35 113,54.5T650,878ZM280,442q0-69 20-126t58.5-98t94-63.5T579,132q72,0 130,23t99.5,64t64,97T895,438q0,70-22,126.5t-62,96T715,721T592,742q-72,0-130-24.5t-98.5-66t-62-96T280,442Z" />
      <glyph unicode="7" glyph-name="seven" horiz-adv-x="1160" d="M1084,1433v-80q0-34-7.5-56t-15.5-37L468,63q-13-26-36-44.5T370,0H243L845,1182q13,25 26.5,46t30.5,40H154q-17,0-30.5,13.5T110,1312v121h974Z" />
      <glyph unicode="8" glyph-name="eight" horiz-adv-x="1160" d="M579-16Q472-16 383,12.5T230,94T131,222.5T96,392q0,138 72,227.5T374,747Q261,789 203.5,872.5T146,1072q0,79 31,148t88,120t136.5,80T579,1449q97,0 177-29t137-80t88-120t31-148q0-116-58-199.5T784,747q134-38 206-127.5T1062,392q0-94-35.5-169.5T927.5,94T775,12.5T579-16Zm0,142q70,0 125.5,19.5t94,55t59,85T878,395q0,74-24.5,126.5t-66,85.5T692,655.5T579,671T466,655.5T370.5,607t-66-85.5T280,395q0-60 20.5-109.5t59-85t94-55T579,126Zm0,688q70,0 119.5,21.5t80.5,57T824,974t14,95q0,50-16.5,94t-49,77t-81,52T579,1311t-112.5-19t-81-52t-49-77T320,1069q0-49 14-95t45-81.5t80.5-57T579,814Z" />
      <glyph unicode="9" glyph-name="nine" horiz-adv-x="1160" d="M549,588q-81,0-153.5,27T268,694.5t-87.5,129T148,999q0,94 35,176t98,143t150,96t191,35q103,0 187-34t144-95t92.5-146T1078,986q0-62-11.5-117.5T1033,760T980.5,654.5T911,546L562,42q-13-19-37-30.5T470,0H306L742,571q22,29 41,55t36,52q-55-44-124-67T549,588Zm358,419q0,67-21.5,121.5T826,1221t-90.5,58.5T620,1300q-66,0-120.5-21.5t-93-59.5T347,1128t-21-116q0-68 19.5-121.5t56-90.5t89-56T608,725q72,0 127.5,23.5T829,811t58,90t20,106Z" />
      <glyph unicode=":" glyph-name="colon" horiz-adv-x="504" d="M128,110q0,26 9.5,49t26,40T203,226t49,10t49-10t40-27t26.5-40t9.5-49q0-27-9.5-49.5T341,21T301-5.5T252-15T203-5.5T163.5,21t-26,39.5T128,110Zm0,750q0,26 9.5,49t26,40T203,976t49,10t49-10t40-27t26.5-40t9.5-49q0-27-9.5-49.5T341,771t-40-26.5T252,735t-49,9.5T163.5,771t-26,39.5T128,860Z" />
      <glyph unicode=";" glyph-name="semicolon" horiz-adv-x="504" d="M134,123q0,23 8.5,43.5t24,36T204,227t48,9q30,0 53.5-11t39-30.5t23.5-45T376,94q0-45-13-93.5t-37-96T266.5-188T186-271l-30,29q-13,12-13,28q0,13 14,27q10,11 25.5,29.5T214-115t29.5,53T263,0H250q-26,0-47,9T166.5,34.5t-24,39T134,123Zm-6,737q0,26 9.5,49t26,40T203,976t49,10t49-10t40-27t26.5-40t9.5-49q0-27-9.5-49.5T341,771t-40-26.5T252,735t-49,9.5T163.5,771t-26,39.5T128,860Z" />
      <glyph unicode="&lt;" glyph-name="less" horiz-adv-x="1160" d="M148,710l774,401V984q0-17-8-29.5T886,932L437,704q-20-11-42.5-18.5T347,672q25-5 47.5-13T437,641L886,414q20-10 28-23t8-29V234L148,636v74Z" />
      <glyph unicode="=" glyph-name="equal" horiz-adv-x="1160" d="M150,574h859V439H150V574Zm0,335h859V774H150V909Z" />
      <glyph unicode="&gt;" glyph-name="greater" horiz-adv-x="1160" d="M238,234V362q0,16 8,29t28,23L723,641q20,10 41.5,18T811,672q-25,6-46.5,13.5T723,704L274,932q-20,10-28,22.5T238,984v127l773-401V636L238,234Z" />
      <glyph unicode="?" glyph-name="question" horiz-adv-x="796" d="M34,1305q31,29 68.5,55t82,46t96,31.5T392,1449q79,0 146.5-23T655,1361t77-102t28-135q0-76-22.5-131t-57-96.5t-75.5-72T528.5,767t-61-54T438,653L420,500H298L286,666v11q0,42 22.5,74.5t57,61t74,57t74,63t57,78.5T593,1115q0,43-17,78t-46,59.5T461.5,1290T377,1303q-61,0-104.5-15T199,1255t-48.5-33T120,1207q-25,0-39,23l-47,75ZM230,110q0,26 9.5,49t26,40T305,226t49,10t49-10t40-27t26.5-40t9.5-49q0-27-9.5-49.5T443,21T403-5.5T354-15T305-5.5T265.5,21t-26,39.5T230,110Z" />
      <glyph unicode="@" glyph-name="at" horiz-adv-x="1644" d="M1167,186q-78,0-127,37.5T978,339q-58-81-126-116T706,188q-60,0-104,20.5t-73.5,57t-44,86.5T470,460q0,85 32.5,171.5t96.5,156T758.5,901T979,945q67,0 117.5-10.5T1192,904l-93-361q-19-75-19-124q0-36 9-59.5t24.5-37t36-18.5t43.5-5q49,0 93,28t77.5,79t53,122.5T1436,687q0,138-44.5,242t-122,173.5t-183,104T859,1241q-134,0-251-51T404,1049T267,836T217,568q0-170 53.5-298.5T416.5,54t217-131T901-121q152,0 268.5,33T1371-4q15,9 27,9q21,0 31-24l25-66q-107-72-243.5-113T901-239T579-184T320.5-25.5T148.5,228T86,568q0,109 27.5,210T191,966.5t120,160t156,124t185,80T859,1359q92,0 180-20t166.5-59t144.5-96.5t113.5-132t74-166T1564,687q0-108-30.5-199.5t-84-158.5t-126-105T1167,186ZM741,306q31,0 62.5,10t61,35t54,68T960,527l76,295q-39,9-85,9q-75,0-137.5-31.5T706,717T635.5,600T610,465q0-72 33-115.5T741,306Z" />
      <glyph unicode="A" glyph-name="A" horiz-adv-x="1360" d="M1353,0H1203q-26,0-42,13t-24,33L1003,392H360L226,46q-7-18-24-32T160,0H10L583,1433H780L1353,0ZM414,532H949L724,1115q-22,54-43,135q-11-41-21.5-75.5T639,1114L414,532Z" />
      <glyph unicode="B" glyph-name="B" horiz-adv-x="1294" d="M174,0V1433H631q132,0 227.5-26t157-74t91-117.5T1136,1059q0-53-16.5-102t-50-91t-84-75T867,737q157-31 237-113t80-216q0-91-33.5-166t-98-129t-158-83.5T681,0H174ZM368,653V154H678q83,0 142.5,19t98,53.5t56.5,82T993,413q0,111-78.5,175.5T677,653H368Zm0,138H624q82,0 142,18t99.5,50T924,936.5t19,99.5q0,126-76,185t-236,59H368V791Z" />
      <glyph unicode="C" glyph-name="C" horiz-adv-x="1370" d="M1184,296q16,0 29-13l76-83Q1201,98 1075.5,41T773-16Q618-16 492,37.5t-215,150T139,419T90,716t52.5,297T290,1245t227.5,150.5T810,1449q158,0 272.5-49T1286,1267l-63-89q-7-10-16-16.5t-26-6.5q-13,0-27.5,9.5T1119,1188t-47,30t-64,30t-86,23.5T809,1281q-115,0-210.5-39.5T434,1129T326.5,951T288,716q0-134 38.5-239t105-177.5T589,189t196-38q64,0 115,7.5T994.5,182t81,40.5T1151,281q17,15 33,15Z" />
      <glyph unicode="D" glyph-name="D" horiz-adv-x="1506" d="M1416,716q0-161-51-293T1221,197T998,51.5T710,0H174V1433H710q158,0 288-51.5t223-146T1365,1009t51-293Zm-199,0q0,132-36,236t-102,176T919,1238t-209,38H369V157H710q115,0 209,38t160,109.5T1181,480t36,236Z" />
      <glyph unicode="E" glyph-name="E" horiz-adv-x="1162" d="M1057,1433V1275H369V799H926V647H369V158h688V0H174V1433h883Z" />
      <glyph unicode="F" glyph-name="F" horiz-adv-x="1132" d="M1057,1433V1275H369V774H957V616H369V0H174V1433h883Z" />
      <glyph unicode="G" glyph-name="G" horiz-adv-x="1468" d="M813,141q58,0 106.5,5.5T1011,163t81,26.5t76,35.5V541H946q-19,0-30.5,11T904,579V689h440V139q-54-39-112.5-68t-125-48.5T964-6.5T799-16Q643-16 513,37.5t-224,150T142.5,419T90,716q0,164 51.5,299t147,231.5t231,149.5T823,1449q85,0 158-12.5t135.5-36t115.5-57t99-75.5l-55-88q-17-27-44-27q-16,0-35,11q-25,14-56,34t-75.5,38.5t-105,31.5T817,1281q-121,0-219-39.5t-167-113t-106-178T288,716q0-136 38.5-242.5T435,293T601,180t212-39Z" />
      <glyph unicode="H" glyph-name="H" horiz-adv-x="1512" d="M1336,0H1141V652H369V0H174V1433H369V794h772v639h195V0Z" />
      <glyph unicode="I" glyph-name="I" horiz-adv-x="614" d="M404,0H210V1433H404V0Z" />
      <glyph unicode="J" glyph-name="J" horiz-adv-x="888" d="M713,495q0-120-29.5-215t-87-160.5T455,19T262-16Q165-16 60,12q2,29 5,57.5T71,126q2,17 12.5,27.5T115,164q18,0 48-9t80-9q66,0 117.5,20t87,62t54,107.5T520,491v942H713V495Z" />
      <glyph unicode="K" glyph-name="K" horiz-adv-x="1362" d="M387,805h73q38,0 60.5,9.5T563,847l477,540q22,25 42.5,35.5T1135,1433h165L754,816q-21-23-39.5-39T675,751q28-9 49-27t44-45L1338,0H1170q-19,0-32,3t-22.5,8T1098,24t-16,17L587,610q-11,12-20.5,20.5t-22,14.5t-29,8.5T475,656H387V0H194V1433H387V805Z" />
      <glyph unicode="L" glyph-name="L" horiz-adv-x="1028" d="M368,163H988V0H174V1433H368V163Z" />
      <glyph unicode="M" glyph-name="M" horiz-adv-x="1840" d="M879,518q14-24 24.5-50.5T924,414q10,28 21,53.5T970,519l485,881q13,23 27,28t40,5h143V0H1495V1053q0,21 1,45t3,49L1008,251q-25-45-70-45H910q-45,0-70,45L338,1150q3-26 4.5-51t1.5-46V0H174V1433H317q26,0 40-5t27-28L879,518Z" />
      <glyph unicode="N" glyph-name="N" horiz-adv-x="1512" d="M274,1433q26,0 38.5-6.5T341,1400L1171,320q-3,26-4,50.5t-1,47.5V1433h170V0h-98q-23,0-38.5,8T1169,35L340,1114q2-25 3-49t1-44V0H174V1433H274Z" />
      <glyph unicode="O" glyph-name="O" horiz-adv-x="1596" d="M1505,716q0-161-51-295.5T1310,189T1086.5,38.5T798-15T510,38.5T287,189T143,420.5T92,716t51,295.5t144,232T510,1395t288,54t288.5-54T1310,1243.5t144-232T1505,716Zm-199,0q0,132-36,237t-102,177.5T1008,1242t-210,39q-115,0-209-39T428.5,1130.5T326,953T290,716t36-236.5t102.5-177T589,191.5T798,153q116,0 210,38.5t160,111t102,177T1306,716Z" />
      <glyph unicode="P" glyph-name="P" horiz-adv-x="1222" d="M387,536V0H194V1433H617q136,0 236.5-31.5T1020,1312t98.5-140T1151,989q0-100-35-183T1013.5,663T846,569.5T617,536H387Zm0,154H617q83,0 146.5,22T870,773.5T935,868t22,121q0,137-84.5,214T617,1280H387V690Z" />
      <glyph unicode="Q" glyph-name="Q" horiz-adv-x="1596" d="M1505,716q0-101-20.5-192T1425,354.5T1330,212T1204,101l368-397H1412q-36,0-64,10t-51,35L1045,23Q988,5 926.5-5T798-15Q640-15 510,38.5T287,189T143,420.5T92,716t51,295.5t144,232T510,1395t288,54t288.5-54T1310,1243.5t144-232T1505,716Zm-199,0q0,132-36,237t-102,177.5T1008,1242t-210,39q-115,0-209-39T428.5,1130.5T326,953T290,716t36-236.5t102.5-177T589,191.5T798,153q116,0 210,38.5t160,111t102,177T1306,716Z" />
      <glyph unicode="R" glyph-name="R" horiz-adv-x="1288" d="M387,598V0H194V1433H599q136,0 235-27.5T997.5,1326t95.5-125.5t31-164.5q0-76-24-142t-69.5-118.5T919.5,686T771,630q36-21 64-61L1253,0H1081q-53,0-78,41L631,553q-17,24-37,34.5T534,598H387Zm0,141H590q85,0 149.5,20.5t108,58T913,907t22,115q0,128-84.5,193T599,1280H387V739Z" />
      <glyph unicode="S" glyph-name="S" horiz-adv-x="1060" d="M908,1209q-9-15-19-22.5t-26-7.5q-17,0-39.5,17t-57,37.5t-83,37.5T566,1288q-65,0-115-17.5T367.5,1223T317,1152.5T300,1065q0-60 29.5-99.5t78-67.5t110-48.5t126-42.5t126-49.5t110-69.5t78-103T987,435q0-94-32-176.5T861.5,115t-151-96T507-16Q368-16 253.5,34.5T58,171l56,92q8,11 19.5,18.5T159,289q21,0 48-22.5T274.5,217t98-49.5T513,145q69,0 123,19t91.5,53.5T785,300t20,107q0,65-29.5,106.5T698,583T588.5,630.5t-126,40T336.5,718T227,788T149.5,895.5T120,1055q0,76 29.5,147T235,1328t138.5,88T563,1449q120,0 219-38t173-110l-47-92Z" />
      <glyph unicode="T" glyph-name="T" horiz-adv-x="1180" d="M1150,1433V1270H687V0H493V1270H28v163H1150Z" />
      <glyph unicode="U" glyph-name="U" horiz-adv-x="1460" d="M731,154q89,0 159,30t118.5,84t74,129T1108,562v871h193V562q0-124-39.5-230t-113-183.5T969,27T731-17T493,27T313,148.5T199.5,332T160,562v871H353V563q0-90 25.5-165t74-129t119-84.5T731,154Z" />
      <glyph unicode="V" glyph-name="V" horiz-adv-x="1360" d="M8,1433H163q26,0 42-13t24-33L634,376q14-34 25.5-74T682,219q9,43 19.5,83T726,376l403,1011q7,17 24,31.5t42,14.5h156L767,0H592L8,1433Z" />
      <glyph unicode="W" glyph-name="W" horiz-adv-x="2038" d="M14,1433H175q26,0 43-13t23-33L537,391q8-27 14.5-58T564,268q7,34 14,65.5T594,391l337,996q6,17 23.5,31.5T997,1433h56q26,0 42.5-13t23.5-33l335-996q18-52 32-119q6,33 11,63t13,56l297,996q5,18 22.5,32t42.5,14h151L1576,0H1402L1039,1093q-11,31-20,72q-5-20-9.5-38.5T1000,1093L635,0H461L14,1433Z" />
      <glyph unicode="X" glyph-name="X" horiz-adv-x="1286" d="M507,736L34,1433H227q21,0 31-7t18-20L650,832q7,21 21,46l353,524q9,14 19.5,22.5t25.5,8.5h185L779,745L1270,0H1078q-22,0-34.5,11.5T1023,37L639,638q-7-21-18-40L247,37q-9-14-20.5-25.5T194,0H14L507,736Z" />
      <glyph unicode="Y" glyph-name="Y" horiz-adv-x="1258" d="M726,570V0H533V570L8,1433H178q26,0 41-13t26-32L573,831q20-35 33.5-66T631,704q11,31 24,62t33,65l327,557q9,16 24.5,30.5T1080,1433h172L726,570Z" />
      <glyph unicode="Z" glyph-name="Z" horiz-adv-x="1248" d="M1172,1433v-72q0-34-21-64L340,158h818V0H86V76q0,30 19,57L917,1275H124v158H1172Z" />
      <glyph unicode="[" glyph-name="bracketleft" horiz-adv-x="600" d="M142-289V1533H510v-70q0-22-13.5-34.5T461,1416H292V-171H461q22,0 35.5-12.5T510-219v-70H142Z" />
      <glyph unicode="\" glyph-name="backslash" horiz-adv-x="750" d="M-20,1473H56q33,0 57-17t37-49L751-90H676q-29,0-57,17T578-21L-20,1473Z" />
      <glyph unicode="]" glyph-name="bracketright" horiz-adv-x="600" d="M90-219q0,20 13.5,34T139-171H308V1416H139q-22,0-35.5,13.5T90,1463v70H458V-289H90v70Z" />
      <glyph unicode="^" glyph-name="asciicircum" horiz-adv-x="1160" d="M516,1433H631L989,787H860q-17,0-29,10t-20,24L615,1173q-13,23-22.5,44.5T576,1260q-14-44-37-87L345,821q-8-14-19.5-24T294,787H158l358,646Z" />
      <glyph unicode="_" glyph-name="underscore" horiz-adv-x="788" d="M788-165V-285H0v120H788Z" />
      <glyph unicode="`" glyph-name="grave" horiz-adv-x="614" d="M207,1449q33,0 49-10.5t30-33.5l149-242H333q-21,0-34,6.5T272,1191L38,1449H207Z" />
      <glyph unicode="a" glyph-name="a" horiz-adv-x="1014" d="M890,0H811q-26,0-42,8T748,42l-20,94q-40-36-78-64.5t-80-48T480.5-6T375-16Q316-16 264.5,0.5T175,50t-60.5,83.5T92,253q0,60 33,115.5T231.5,467T424,537.5T715,569v79q0,118-50.5,178.5T515,887q-65,0-109.5-16.5t-77-37t-56-37T226,780q-18,0-31.5,9.5T173,813l-32,57q84,81 181,121t215,40q85,0 151-28t111-78t68-121t23-156V0ZM428,109q47,0 86,9.5t73.5,27t66,42.5T715,245V456q-123-4-209-19.5T366,396t-78.5-59T263,261q0-40 13-69t35-47.5t52-27t65-8.5Z" />
      <glyph unicode="b" glyph-name="b" horiz-adv-x="1118" d="M152,0V1473H331V867q63,73 144.5,117.5T662,1029q88,0 159-33t121-98.5t77-162T1046,513q0-112-30-208.5t-86.5-167t-138-111T608-14q-98,0-166.5,38T322,130l-9-92Q305,0 267,0H152ZM604,887q-87,0-152.5-40T331,734V244q48-66 106.5-93T568,124q142,0 218,101t76,288q0,99-17.5,170T794,799.5T713,866T604,887Z" />
      <glyph unicode="c" glyph-name="c" horiz-adv-x="934" d="M837,833q-8-11-16-17t-23-6t-32.5,12.5T721,850t-65.5,27.5T561,890q-74,0-131-26.5T334.5,787t-58-121T257,507q0-92 21-163.5t59-120t92.5-74T552,124q65,0 107,15.5T729,174t46,34.5T811,224q23,0 34-17l50-65Q829,61 730,23.5T521-14q-95,0-176.5,35T203,122.5T108.5,286T74,507q0,113 31.5,209t92,165.5T347,990t204,39q106,0 188-34.5T884,897l-47-64Z" />
      <glyph unicode="d" glyph-name="d" horiz-adv-x="1118" d="M859,0q-38,0-48,37L795,160Q730,81 646.5,33.5T455-14q-87,0-158,33.5T176,118T99,280T72,503q0,112 30,208.5T188.5,879T326,990.5T510,1031q93,0 159-31.5T787,911v562H965V0H859ZM514,130q87,0 152.5,40T787,283V773q-49,66-107.5,92.5T550,892q-142,0-218-101T256,503q0-99 17-169.5t50-116T404,151t110-21Z" />
      <glyph unicode="e" glyph-name="e" horiz-adv-x="1048" d="M547,1029q91,0 168-30.5t133-88t87.5-142T967,576q0-42-9-56t-34-14H250q2-96 26-167t66-118.5t100-71T572,126q67,0 115.5,15.5T771,175t58.5,33.5T870,224q22,0 34-17l50-65q-33-40-79-69.5T776.5,24T668-4.5T557-14Q452-14 363.5,21.5t-153,104T110,295T74,527q0,106 32.5,198T200,884.5t149,106T547,1029Zm4-131q-129,0-203-74.5T256,617H807q0,62-17,113.5t-50,89t-80.5,58T551,898Z" />
      <glyph unicode="f" glyph-name="f" horiz-adv-x="674" d="M186,0V861L74,874q-21,5-34.5,15.5T26,920v73H186v98q0,87 24.5,154.5t70,114T390,1430t144,24q68,0 126-20l-4-89q-1-20-17-24t-45-4H563q-46,0-83.5-12T415,1266t-41.5-71T359,1086V993H652V864H365V0H186Z" />
      <glyph unicode="g" glyph-name="g" horiz-adv-x="1022" d="M487,1030q66,0 123.5-14.5T715,973H990V907q0-33-42-42L833,849q34-65 34-145q0-74-28.5-134.5T759.5,466t-120-66T487,377q-71,0-134,17q-32-20-48.5-43T288,306q0-36 29-54.5T394,225t109-10t124.5-6.5T752,193t109-36t77-69T967-26q0-65-32.5-126T841-260.5t-149-76T493-365T298.5-343T160-284T77.5-198.5T50-97Q50-22 97.5,30.5T228,114q-43,20-68.5,53.5T134,257q0,22 8,45.5T166.5,349T207,393t56,37q-75,42-117.5,111.5T103,704q0,74 28.5,134.5t79.5,103T332.5,1007T487,1030ZM803-55q0,38-21,61T725,41.5T642,60t-99,8.5T437,74T334,85q-57-27-92.5-66T206-74q0-34 17.5-63.5t53.5-51t90.5-34T496-235q72,0 129,13t96.5,37T782-128t21,73ZM487,495q54,0 95.5,15T652,552t42,64.5T708,699q0,93-56.5,148T487,902q-107,0-163.5-55T267,699q0-45 14.5-82.5T324,552t69-42t94-15Z" />
      <glyph unicode="h" glyph-name="h" horiz-adv-x="1112" d="M146,0V1473H324V877q65,69 144,110.5T650,1029q83,0 146.5-27.5t106-78T967,802t22-157V0H811V645q0,115-52.5,178.5T598,887q-79,0-147.5-38T324,746V0H146Z" />
      <glyph unicode="i" glyph-name="i" horiz-adv-x="512" d="M344,1013V0H166V1013H344Zm40,318q0-26-10.5-48.5t-28-40T305,1215t-49-10t-48.5,10t-40,27.5t-27.5,40T130,1331t10,49.5t27.5,41t40,27.5t48.5,10t49-10t40.5-27.5t28-41T384,1331Z" />
      <glyph unicode="j" glyph-name="j" horiz-adv-x="508" d="M344,1013V-75q0-61-16-113.5T277.5-280t-89-61.5T58-364q-33,0-60,5t-54,15l8,96q2,13 9,16.5t22,3.5q8,0 17-0.5T22-229q78,0 111,36.5T166-75V1013H344Zm40,318q0-26-10.5-48.5t-28-40T305,1215t-49-10t-48.5,10t-40,27.5t-27.5,40T130,1331t10,49.5t27.5,41t40,27.5t48.5,10t49-10t40.5-27.5t28-41T384,1331Z" />
      <glyph unicode="k" glyph-name="k" horiz-adv-x="1048" d="M331,1473V606h46q20,0 33,5.5T439,634L759,977q15,16 30,26t40,10H991L618,616q-14-17-27.5-30T560,563q18-12 32.5-27.5T620,500L1016,0H856q-22,0-37.5,8.5T789,35L456,450q-15,21-30,27.5T381,484H331V0H152V1473H331Z" />
      <glyph unicode="l" glyph-name="l" horiz-adv-x="512" d="M344,1473V0H166V1473H344Z" />
      <glyph unicode="m" glyph-name="m" horiz-adv-x="1642" d="M146,0V1013H252q38,0 48-37l13-104q56,69 125.5,113T600,1029q103,0 166.5-57T858,818q21,55 55.5,95T991,979t91.5,38t98.5,12q80,0 142.5-25.5t106-74.5T1496,808.5T1519,645V0H1341V645q0,119-52,180.5T1138,887q-44,0-83.5-15.5T985,826t-47.5-75.5T920,645V0H742V645q0,122-49,182T550,887q-66,0-122.5-35.5T324,755V0H146Z" />
      <glyph unicode="n" glyph-name="n" horiz-adv-x="1112" d="M146,0V1013H252q38,0 48-37l14-110q66,73 147.5,118T650,1029q83,0 146.5-27.5t106-78T967,802t22-157V0H811V645q0,115-52.5,178.5T598,887q-79,0-147.5-38T324,746V0H146Z" />
      <glyph unicode="o" glyph-name="o" horiz-adv-x="1112" d="M556,1029q111,0 200.5-37t152-105t96-164.5T1038,507q0-120-33.5-216t-96-164T756.5,22.5T556-14T355.5,22.5T203,127T106,291T72,507q0,119 34,215.5T203,887T355.5,992T556,1029Zm0-904q150,0 224,100.5T854,506q0,181-74,282T556,889q-76,0-132-26t-93.5-75t-56-120.5T256,506t18.5-161t56-119.5T424,151t132-26Z" />
      <glyph unicode="p" glyph-name="p" horiz-adv-x="1104" d="M146-343V1013H252q38,0 48-37l15-120q65,79 148.5,127T656,1031q87,0 158-33.5t121-99T1012,736t27-223q0-112-30-208.5t-86-167T785.5,26.5T602-14q-94,0-160.5,31T324,105V-343H146ZM597,887q-87,0-152.5-40T324,734V244q49-66 107.5-93T562,124q141,0 217,101t76,288q0,99-17.5,170T787,799.5T706,866T597,887Z" />
      <glyph unicode="q" glyph-name="q" horiz-adv-x="1118" d="M965,1013V-343H787V150Q723,76 641.5,31T455-14q-87,0-158,33.5T176,118T99,280T72,503q0,112 30,208.5T188.5,879T326,990.5T510,1031q98,0 166.5-35T799,897l12,79q10,37 48,37H965ZM514,130q87,0 152.5,40T787,283V773q-48,64-107,91.5T550,892q-142,0-218-101T256,503q0-99 17-169.5t50-116T404,151t110-21Z" />
      <glyph unicode="r" glyph-name="r" horiz-adv-x="806" d="M146,0V1013H248q29,0 40-11t15-38l12-158q52,106 128.5,165.5T623,1031q42,0 76-9.5T762,995L739,862q-7-25-31-25q-14,0-43,9.5T584,856q-93,0-155.5-54T324,645V0H146Z" />
      <glyph unicode="s" glyph-name="s" horiz-adv-x="868" d="M726,846q-12-22-37-22q-15,0-34,11t-46.5,24.5t-65.5,25T453,896q-45,0-81-11.5T310.5,853t-39-46.5T258,749q0-39 22.5-65T340,639t84-33.5t96.5-31T617,538t84-50t59.5-73.5T783,310q0-70-25-129.5t-74-103T564,9T400-16Q294-16 208,18.5T62,107l42,68q8,13 19,20t29,7t38-14t48.5-31t69-31T409,112q52,0 91,13.5T565,162t38.5,53T616,279q0,42-22.5,69.5t-59.5,47t-84.5,34t-97,30.5t-97,36.5T171,548t-59.5,76.5T89,735q0,58 24,111.5t70,94T296,1005t153,24q100,0 179.5-31.5T766,911l-40-65Z" />
      <glyph unicode="t" glyph-name="t" horiz-adv-x="746" d="M453-16Q333-16 268.5,51T204,244V864H82q-16,0-27,9.5T44,903v71l166,21l41,313q2,15 13,24.5t28,9.5h90V993H672V864H382V256q0-64 31-95t80-31q28,0 48.5,7.5T577,154t25.5,16.5T621,178q14,0 25-17l52-85Q652,33 587,8.5T453-16Z" />
      <glyph unicode="u" glyph-name="u" horiz-adv-x="1112" d="M300,1013V367q0-115 53-178t160-63q78,0 147,37T787,266v747H965V0H859q-38,0-48,37L797,146Q731,73 649,28.5T461-16q-83,0-146.5,27.5T208,89T143.5,210T122,367v646H300Z" />
      <glyph unicode="v" glyph-name="v" horiz-adv-x="1024" d="M18,1013H164q21,0 35-11t20-26L476,324q14-36 22-72t15-71q8,35 17,71t23,72L813,976q6,16 19.5,26.5T866,1013h139L592,0H431L18,1013Z" />
      <glyph unicode="w" glyph-name="w" horiz-adv-x="1532" d="M14,1013H154q22,0 36-11t19-26L403,324q8-36 15-69.5T430,187q8,34 18,67.5T469,324L683,980q5,15 17.5,25t31.5,10h77q20,0 33-10t18-25l209-656q11-35 19.5-69t16.5-67q5,33 13,69t17,67l198,652q5,16 19,26.5t33,10.5h134L1191,0H1050q-26,0-36,34L790,721q-8,23-13,46.5T767,814q-5-23-10-47t-13-47L517,34Q506,0 476,0H342L14,1013Z" />
      <glyph unicode="x" glyph-name="x" horiz-adv-x="1008" d="M383,519L42,1013H213q22,0 32-7t18-20L511,606q9,28 26,56L755,982q10,14 20,22.5t25,8.5H964L623,529L978,0H807q-22,0-34.5,11.5T752,37L497,434q-7-29-21-52L240,37q-10-14-21.5-25.5T187,0H28L383,519Z" />
      <glyph unicode="y" glyph-name="y" horiz-adv-x="1024" d="M443-299q-9-20-22.5-32T379-343H247L432,59L14,1013H168q23,0 36-11.5T223,976L494,338q9-22 15.5-44T521,249q7,23 14,45t16,45L814,976q6,16 20.5,26.5T866,1013h142L443-299Z" />
      <glyph unicode="z" glyph-name="z" horiz-adv-x="924" d="M853,937q0-19-7-36.5T828,869L280,139H833V0H70V74q0,13 6.5,30.5T95,138L646,873H101v140H853V937Z" />
      <glyph unicode="{" glyph-name="braceleft" horiz-adv-x="600" d="M181,425q0,63-35,103.5T44,569V676q67,0 102,40t35,104q0,50-8,99t-17.5,98T138,1116t-8,102q0,69 20.5,127t62,100t103,65T459,1533h53v-79q0-20-14-29t-26-9H452q-77,0-121.5-50.5T286,1229q0-56 7-108t16-101.5T325,921t7-99q0-38-11-70.5t-31.5-58t-48-44T181,622q33-9 60.5-27.5t48-44.5T321,492t11-69q0-50-7-99t-16-98.5T293,124T286,16q0-87 44.5-137T452-171h20q12,0 26-9t14-29v-80H459q-82,0-143.5,23.5T212.5-200t-62,100T130,27q0,52 8,101.5t17.5,99T173,326t8,99Z" />
      <glyph unicode="|" glyph-name="bar" horiz-adv-x="600" d="M230,1533H368V-343H230V1533Z" />
      <glyph unicode="}" glyph-name="braceright" horiz-adv-x="600" d="M419,425q0-50 8-99t17.5-98.5t17.5-99T470,27q0-69-21-127T387-200T284.5-265.5T141-289H88v80q0,20 14,29t26,9h20q77,0 121.5,50T314,16q0,56-7,108T291,225.5T275,324t-7,99q0,37 11,69t31.5,58t48,44.5T419,622q-33,9-60.5,27.5t-48,44t-31.5,58T268,822q0,50 7,99t16,98.5T307,1121t7,108q0,86-44.5,136.5T148,1416H128q-12,0-26,9t-14,29v79h53q82,0 143.5-23T387,1445t62-100t21-127q0-52-8-102t-17.5-99T427,919t-8-99q0-64 35-104t102-40V569q-67,0-102-40.5T419,425Z" />
      <glyph unicode="~" glyph-name="asciitilde" horiz-adv-x="1160" d="M759,613q65,0 101.5,42.5T898,768h144q0-67-18.5-123t-53-96T885,487T770,465q-52,0-103,16t-98.5,35.5t-90.5,36T399,569q-65,0-101.5-42T260,414H116q0,67 18.5,123t53,96t85,62.5T388,718q52,0 103-16.5t98.5-36t90.5-36T759,613Z" />
      <glyph unicode="&#xa0;" glyph-name="uni00A0" horiz-adv-x="386" />
      <glyph unicode="&#xa1;" glyph-name="exclamdown" horiz-adv-x="686" d="M262-343V198q0,45 1.5,87.5t4.5,86t7.5,89.5T286,559H407q6-52 10.5-98t7.5-89.5t4.5-86T431,198V-343H262ZM218,904q0,27 9.5,49.5T254,993t39.5,26.5T343,1029q26,0 48.5-9.5T431,993t27-39.5T468,904q0-26-10-49t-27-40t-39.5-27T343,778q-27,0-49.5,10T254,815t-26.5,40T218,904Z" />
      <glyph unicode="&#xa2;" glyph-name="cent" horiz-adv-x="1160" d="M561-11Q469-1 391.5,38.5T257.5,144t-88,157T138,506q0,111 33,204.5T267,873T422,982.5T633,1026l12,179q2,20 15.5,34.5T695,1254h66l-16-233q82-12 148-43.5T1013,897l-46-62q-8-11-15.5-16.5T930,813q-12,0-28.5,8.5t-39,20.5t-54,24T735,885L683,123q63,4 105.5,19.5t72,32.5T909,206t35,14q11,0 20-4.5T978,204l48-63Q966,69 873.5,32T674-12L662-187q-2-19-15.5-33.5T612-235H546L561-11ZM315,506q0-162 67.5-258T571,129l52,760q-76-6-133.5-34.5t-96.5-78T334.5,659T315,506Z" />
      <glyph unicode="&#xa3;" glyph-name="sterling" horiz-adv-x="1160" d="M52,672q0,26 16,44t45,18H247V995q0,94 27,176.5t82,144t137,97T685,1448q78,0 138.5-19.5T931,1375t81.5-79t58.5-97l-72-46q-10-6-20.5-8.5T958,1142q-14,0-26.5,5.5T908,1167q-20,25-40.5,48.5t-46,41t-58.5,28T685,1295q-63,0-111-21t-80-60t-48-94T430,997V734H871V662q0-18-15-33t-37-15H430V371q0-75-28.5-129.5T323,142q29,5 57.5,8.5T439,154h676V78q0-14-5.5-27.5t-15.5-25T1070,7t-32-7H74V115q34,10 65,27t55,42.5t38.5,60T247,325V614H52v58Z" />
      <glyph unicode="&#xa4;" glyph-name="currency" horiz-adv-x="1160" d="M223,672q0,57 16.5,107.5T285,874L132,1027l91,90L374,965q44,31 96,48t110,17q57,0 108-16.5T782,967l153,153l89-91L873,877q31-44 48-95.5T938,672q0-57-16.5-108T876,470l152-151l-91-92L785,379q-44-30-96-47T580,315T472.5,331.5T378,377L225,224l-89,91L287,467q-30,44-47,95.5T223,672Zm132,0q0-46 17.5-86.5t48.5-71T492.5,466T580,448t88.5,18t72,48.5t48.5,71T807,672q0,47-18,88t-48.5,72t-72,48.5T580,898t-87.5-17.5T421,832t-48.5-72T355,672Z" />
      <glyph unicode="&#xa5;" glyph-name="yen" horiz-adv-x="1160" d="M146,625H452L44,1433H193q26,0 41.5-12.5T260,1388L536,822q14-35 24-64t17-58q7,29 16,58.5T616,822l275,566q8,17 24.5,31t41.5,14h150L698,625h307V523H665V418h340V315H665V0H486V315H146V418H486V523H146V625Z" />
      <glyph unicode="&#xa6;" glyph-name="brokenbar" horiz-adv-x="600" d="M230,1533H368V739H230v794Zm0-1081H368V-343H230V452Z" />
      <glyph unicode="&#xa7;" glyph-name="section" horiz-adv-x="1006" d="M817,1265q-12-22-37-22q-15,0-34,11t-46.5,24.5t-65.5,25T544,1315q-48,0-86.5-12.5t-65-33.5T352,1220t-14-59q0-38 24.5-66.5t64-52t90.5-45T620.5,953T724,902.5t90.5-63t64-81.5T903,651q0-81-39-144.5T741,405q49-37 80-86t31-118q0-70-25-129.5t-73.5-103T633.5-100T470-125q-106,0-192,34.5T132-2l41,68q8,13 19.5,20T221,93q18,0 38-14t49-31.5T379.5,16T485,2q50,0 89.5,12.5t66.5,35T682,103t14,69q0,45-25,78t-66,58.5T512,355T405,398T298,445.5T205,506t-66,81.5T114,698q0,78 43,140.5T293,936q-50,38-81.5,90.5T180,1154q0,58 24,111.5t70,93.5t113,64t153,24q100,0 179.5-31T857,1330l-40-65ZM272,726q0-51 35-86.5t89.5-64t120.5-55T645,463q54,26 78,63.5T747,611q0,36-15,64t-41,51t-61,42t-74.5,36.5t-81.5,35T392,877q-66-30-93-66.5T272,726Z" />
      <glyph unicode="&#xa8;" glyph-name="dieresis" horiz-adv-x="614" d="M239,1289q0-23-9-43t-25-35t-36.5-24t-43.5-9q-22,0-42,9t-35.5,24T23,1246t-9,43t9,44t24.5,36.5T83,1394t42,9q23,0 43.5-9t36.5-24.5t25-36.5t9-44Zm359,0q0-23-9-43t-24.5-35t-36-24t-43.5-9t-43.5,9T406,1211t-24,35t-9,43t9,44t24,36.5t35.5,24.5t43.5,9t43.5-9t36-24.5T589,1333t9-44Z" />
      <glyph unicode="&#xa9;" glyph-name="copyright" horiz-adv-x="1596" d="M1030,463q8,5 13.5,8.5T1055,475q11,0 15-3t10-9l61-64q-57-66-140-102.5T802,260q-98,0-178.5,34t-138,95t-89,145T365,718q0,101 34.5,185.5t95.5,145t144.5,94T821,1176q108,0 184-34t133-89l-46-65q-5-6-13-12t-20-6q-14,0-29.5,11T989,1005.5t-63,25T829,1042q-70,0-126.5-22.5t-96-64.5t-61-102T524,718q0-77 21.5-137.5T605,479t91-62.5T811,395q48,0 81,6t57,16t42.5,22t38.5,24ZM68,716q0,101 26,194.5t73.5,175t114.5,148T430,1348t174,74t194,26t194.5-26t174.5-74t148-114.5t114.5-148t73.5-175T1529,716q0-100-26-193.5T1429.5,348T1315,200.5T1167,86T992.5,12T798-14T604,12T430,86T282,200.5T167.5,348T94,522T68,716Zm100,0q0-89 22-171t63-153.5T351,262t127-99.5t151-64T798,76q132,0 247.5,50t201,136.5t135,203T1431,716q0,89-22.5,172T1345,1042.5T1246.5,1173T1119,1273.5T967.5,1338T798,1361q-132,0-247-50.5t-200-138t-134-205T168,716Z" />
      <glyph unicode="&#xaa;" glyph-name="ordfeminine" horiz-adv-x="684" d="M596,840H536q-18,0-27,5.5T492,869l-12,49q-24-21-47-37t-48-27.5t-53-17T270,831q-38,0-70.5,10T143,871.5T105.5,922T92,993q0,34 19,67.5t63,60t116.5,44T470,1184v37q0,63-29,93t-86,30q-38,0-63-9t-43.5-19.5t-33-19T185,1288q-14,0-24,7.5T146,1313l-22,42q52,49 112.5,72T370,1450q54,0 96-17t71-47t44-72t15-93V840ZM309,923q51,0 88,19t73,54v105q-70-2-118.5-10.5t-78.5-22t-43-31T217,999q0-42 26-59t66-17Z" />
      <glyph unicode="&#xab;" glyph-name="guillemotleft" horiz-adv-x="926" d="M138,518v23L387,930l58-28q14-7 21-18t7-24q0-17-10-33L304,566q-14-24-28-37q15-14 28-36L463,232q5-8 7.5-17t2.5-17q0-28-28-41l-58-28L138,518Zm296,0v23L683,930l58-28q14-7 21-18t7-24q0-17-10-33L600,566q-14-24-28-37q15-14 28-36L759,232q5-8 7.5-17t2.5-17q0-28-28-41l-58-28L434,518Z" />
      <glyph unicode="&#xac;" glyph-name="logicalnot" horiz-adv-x="1160" d="M148,739h860V315H857V604H148V739Z" />
      <glyph unicode="&#xad;" glyph-name="uni00AD" horiz-adv-x="694" d="M100,675H594V524H100V675Z" />
      <glyph unicode="&#xae;" glyph-name="registered" horiz-adv-x="1596" d="M68,716q0,101 26,194.5t73.5,175t114.5,148T430,1348t174,74t194,26t194.5-26t174.5-74t148-114.5t114.5-148t73.5-175T1529,716q0-100-26-193.5T1429.5,348T1315,200.5T1167,86T992.5,12T798-14T604,12T430,86T282,200.5T167.5,348T94,522T68,716Zm100,0q0-89 22-171t63-153.5T351,262t127-99.5t151-64T798,76q132,0 247.5,50t201,136.5t135,203T1431,716q0,89-22.5,172T1345,1042.5T1246.5,1173T1119,1273.5T967.5,1338T798,1361q-132,0-247-50.5t-200-138t-134-205T168,716Zm486-90V272H498v892H786q172,0 255-62.5T1124,917q0-94-53.5-160T911,666q17-10 29.5-25T964,606l228-334H1044q-33,0-49,25L794,599q-9,13-21.5,20T734,626H654Zm0,114H770q55,0 93.5,10.5t62,30.5t34,49T970,897q0,37-9.5,65t-31,46T873,1035t-87,9H654V740Z" />
      <glyph unicode="&#xaf;" glyph-name="macron" horiz-adv-x="614" d="M20,1348H594V1231H20v117Z" />
      <glyph unicode="&#xb0;" glyph-name="degree" horiz-adv-x="794" d="M70,1128q0,67 25,126t69,102.5T267.5,1425T396,1450t128.5-25T628,1356.5T697,1254t25-126q0-66-25-124.5t-69-102t-103.5-69T396,807T267.5,832.5T164,901.5t-69,102T70,1128Zm127-1q0-42 15-78.5T254,985t63.5-42.5T396,927t78,15.5T537,985t42,63.5t15,78.5t-15,79t-42,64.5t-63,43T396,1329t-78.5-15.5t-63.5-43T212,1206t-15-79Z" />
      <glyph unicode="&#xb1;" glyph-name="plusminus" horiz-adv-x="1160" d="M651,1202V826h407V690H651V322H505V690H100V826H505v376H651ZM100,215h958V80H100V215Z" />
      <glyph unicode="&#xb2;" glyph-name="twosuperior" horiz-adv-x="664" d="M346,1637q52,0 94.5-15t72.5-42t46.5-65.5T576,1429q0-40-12.5-74.5T530,1289t-48-60t-57-59L263,1005q23,6 46.5,10t44.5,4H549q21,0 32.5-11T593,977V900H82v43q0,13 5,27t17,26l221,219q25,25 47,51t38,52.5t25.5,53T445,1425q0,51-30,78.5T340,1531q-46,0-74.5-24T223,1441q-8-14-17.5-22t-26.5-8q-4,0-8.5,0.5T161,1413l-71,12q15,106 84,159t172,53Z" />
      <glyph unicode="&#xb3;" glyph-name="threesuperior" horiz-adv-x="664" d="M354,1637q51,0 92-14.5t70.5-40T562,1523t16-74q0-128-119-173q66-19 100.5-58T594,1117q0-55-21-97t-55.5-70.5t-80-43T344,892q-57,0-99,12.5t-72.5,37t-52,60.5T84,1085l55,24q15,6 29,6q29,0 40-23q6-13 15-29t24-30t36.5-23.5T337,1000q31,0 54.5,10t39.5,25.5t24,35.5t8,41q0,30-8.5,51.5t-28,35.5t-52,21t-79.5,7v87q87,1 122.5,31t35.5,82q0,50-29,76t-77,26t-76.5-23.5T230,1442q-8-16-16.5-23.5T190,1411q-4,0-8.5,0.5T172,1413l-67,12q7,53 29,92.5t54.5,66t74.5,40t91,13.5Z" />
      <glyph unicode="&#xb4;" glyph-name="acute" horiz-adv-x="614" d="M597,1449L364,1191q-14-15-27.5-21.5T302,1163H196l148,242q14,23 30.5,33.5T423,1449H597Z" />
      <glyph unicode="&#xb5;" glyph-name="mu" horiz-adv-x="1112" d="M300,1013V355q0-109 54-169t159-60q78,0 147,37T787,266v747H965V0H859q-38,0-48,37L797,146Q730,74 659.5,40T502,6Q428,6 372,31.5T277,103q7-42 10-85.5T290-64V-343H201q-38,0-58.5,20T122-267V1013H300Z" />
      <glyph unicode="&#xb6;" glyph-name="paragraph" horiz-adv-x="1338" d="M1302,1433V1280H1083V-201H926V1280H649V-201H492V660q-104,0-187,30.5t-141.5,83T73.5,897T42,1049q0,86 31.5,156.5t90,121T305,1405t187,28h810Z" />
      <glyph unicode="&#xb7;" glyph-name="periodcentered" horiz-adv-x="546" d="M124,593q0,31 11.5,59t32,48T215,732t57,12q31,0 59-12t48-32t32-48t12-59q0-30-12-57t-32-47.5t-48-32T272,445q-30,0-57,11.5t-47.5,32t-32,47.5T124,593Z" />
      <glyph unicode="&#xb8;" glyph-name="cedilla" horiz-adv-x="614" d="M172-247q6,0 14-3.5t19-8t27-8t37-3.5q42,0 63.5,16.5T354-211q0,19-11,32t-31.5,22T261-142t-68,11L236,10H348L324-70q90-20 130.5-54.5T495-213q0-32-16-57.5T434.5-314T366-341.5T278-351q-41,0-78,8.5T132-320l17,55q6,18 23,18Z" />
      <glyph unicode="&#xb9;" glyph-name="onesuperior" horiz-adv-x="664" d="M173,985H320v440l4,43l-107-88q-12-9-26-9q-23,0-32,14l-39,56l222,190H450V985H580V900H173v85Z" />
      <glyph unicode="&#xba;" glyph-name="ordmasculine" horiz-adv-x="762" d="M382,1449q70,0 126.5-21.5T605,1366t62-97.5T689,1140q0-72-22-130t-62-98.5t-96.5-62T382,828q-71,0-128,21.5t-97.5,62T94,1010T72,1140q0,71 22,128.5t62.5,97.5t97.5,61.5T382,1449Zm0-515q84,0 125.5,52.5T549,1139t-41.5,152T382,1343q-87,0-128.5-52T212,1139t41.5-152.5T382,934Z" />
      <glyph unicode="&#xbb;" glyph-name="guillemotright" horiz-adv-x="926" d="M236,129l-58,28q-28,13-28,41q0,17 10,34L319,493q13,24 27,36q-12,11-27,37L160,827q-10,17-10,34q0,28 28,41l58,28L485,541V518L236,129ZM781,541V518L532,129l-58,28q-28,13-28,41q0,17 10,34L615,493q13,24 27,36q-12,11-27,37L456,827q-10,17-10,34q0,28 28,41l58,28L781,541Z" />
      <glyph unicode="&#xbc;" glyph-name="onequarter" horiz-adv-x="1424" d="M1295,267h109V202q0-11-7-18.5t-20-7.5h-82V0H1186V176H880q-18,0-28.5,8T839,204l-10,57l342,468h124V267ZM155,788H302v440l4,43l-107-88q-12-9-26-9q-23,0-32,14l-39,56l222,190H432V788H562V703H155v85ZM1186,508q0,19 1,41t4,45L950,267h236V508ZM434,53q-19-31-41-42T342,0H266l818,1372q18,29 41,45t55,16h77L434,53Z" />
      <glyph unicode="&#xbd;" glyph-name="onehalf" horiz-adv-x="1424" d="M1126,737q52,0 94.5-15t72.5-42t46.5-65.5T1356,529q0-40-12.5-74.5T1310,389t-48-60t-57-59L1043,105q23,6 46.5,10t44.5,4h195q21,0 32.5-11T1373,77V0H862V43q0,13 5,27t17,26l221,219q25,25 47,51t38,52.5t25.5,53T1225,525q0,51-30,78.5T1120,631q-46,0-74.5-24T1003,541q-8-14-17.5-22T959,511q-4,0-8.5,0.5T941,513l-71,12q15,106 84,159t172,53ZM155,788H302v440l4,43l-107-88q-12-9-26-9q-23,0-32,14l-39,56l222,190H432V788H562V703H155v85ZM390,53q-19-31-41-42T298,0H222l818,1372q18,29 41,45t55,16h77L390,53Z" />
      <glyph unicode="&#xbe;" glyph-name="threequarters" horiz-adv-x="1426" d="M1296,267h109V202q0-11-7-18.5t-20-7.5h-82V0H1187V176H881q-18,0-28.5,8T840,204l-10,57l342,468h124V267ZM338,1440q51,0 92-14.5t70.5-40T546,1326t16-74q0-128-119-173q66-19 100.5-58T578,920q0-55-21-97t-55.5-70.5t-80-43T328,695q-57,0-99,12.5t-72.5,37t-52,60.5T68,888l55,24q15,6 29,6q29,0 40-23q6-13 15-29t24-30t36.5-23.5T321,803q31,0 54.5,10T415,838.5T439,874t8,41q0,30-8.5,51.5t-28,35.5t-52,21t-79.5,7v87q87,1 122.5,31t35.5,82q0,50-29,76t-77,26t-76.5-23.5T214,1245q-8-16-16.5-23.5T174,1214q-4,0-8.5,0.5T156,1216l-67,12q7,53 29,92.5t54.5,66t74.5,40t91,13.5Zm849-932q0,19 1,41t4,45L951,267h236V508ZM439,53q-19-31-41-42T347,0H271l818,1372q18,29 41,45t55,16h77L439,53Z" />
      <glyph unicode="&#xbf;" glyph-name="questiondown" horiz-adv-x="796" d="M770-212q-31-29-68.5-55T620-313t-96-31.5T412-356q-79,0-146.5,22T149-271T72-171T44-37Q44,39 66.5,92t57,91T199,248t76.5,51t61,48.5T366,405l18,154H506l12-167V380q0-44-22.5-75t-57-56t-74-48.5t-74-53.5t-57-70T211-22q0-44 17-78.5t46-59T342.5-197T427-210q61,0 104.5,15T605-162t49,33t31,15q14,0 22.5-6T723-137l47-75ZM324,903q0,26 9.5,49t26,40t39.5,27t49,10t49-10t40-27t26.5-40t9.5-49q0-27-9.5-49.5T537,814t-40-26.5T448,778t-49,9.5T359.5,814t-26,39.5T324,903Z" />
      <glyph unicode="&#xc0;" glyph-name="Agrave" horiz-adv-x="1360" d="M1353,0H1203q-26,0-42,13t-24,33L1003,392H360L226,46q-7-18-24-32T160,0H10L583,1433H780L1353,0ZM414,532H949L724,1115q-22,54-43,135q-11-41-21.5-75.5T639,1114L414,532ZM520,1782q32,0 48-6.5t36-26.5l211-203H676q-21,0-33,3.5T614,1565L319,1782H520Z" />
      <glyph unicode="&#xc1;" glyph-name="Aacute" horiz-adv-x="1360" d="M1353,0H1203q-26,0-42,13t-24,33L1003,392H360L226,46q-7-18-24-32T160,0H10L583,1433H780L1353,0ZM414,532H949L724,1115q-22,54-43,135q-11-41-21.5-75.5T639,1114L414,532Zm607,1250L727,1566q-17-12-30-16t-34-4H525l211,203q10,10 18.5,16t17.5,10t20,5.5t28,1.5h201Z" />
      <glyph unicode="&#xc2;" glyph-name="Acircumflex" horiz-adv-x="1360" d="M1353,0H1203q-26,0-42,13t-24,33L1003,392H360L226,46q-7-18-24-32T160,0H10L583,1433H780L1353,0ZM414,532H949L724,1115q-22,54-43,135q-11-41-21.5-75.5T639,1114L414,532Zm592,1014H871q-12,0-26,3.5t-23,9.5l-130,95q-8,4-12,8q-8-6-12-8l-130-95q-9-6-23-9.5t-26-3.5H354l238,210H768l238-210Z" />
      <glyph unicode="&#xc3;" glyph-name="Atilde" horiz-adv-x="1360" d="M1353,0H1203q-26,0-42,13t-24,33L1003,392H360L226,46q-7-18-24-32T160,0H10L583,1433H780L1353,0ZM414,532H949L724,1115q-22,54-43,135q-11-41-21.5-75.5T639,1114L414,532ZM801,1663q35,0 53.5,20.5T874,1741h98q0-43-11-79t-32-62.5t-52-41T806,1544q-35,0-67,13t-61.5,28.5T622,1614t-50,13q-34,0-52.5-21.5T500,1548H400q0,43 11.5,79.5t33,62.5t53,41t70.5,15q35,0 67-13t61-28.5t55-28.5t50-13Z" />
      <glyph unicode="&#xc4;" glyph-name="Adieresis" horiz-adv-x="1360" d="M1353,0H1203q-26,0-42,13t-24,33L1003,392H360L226,46q-7-18-24-32T160,0H10L583,1433H780L1353,0ZM414,532H949L724,1115q-22,54-43,135q-11-41-21.5-75.5T639,1114L414,532ZM578,1666q0-22-9-41.5T545,1590t-35.5-23.5T466,1558q-21,0-40.5,8.5T391,1590t-24,34.5t-9,41.5q0,23 9,43.5t24,35.5t34.5,24t40.5,9q23,0 43.5-9t35.5-24t24-35.5t9-43.5Zm426,0q0-22-9-41.5T971,1590t-35-23.5t-42-8.5q-23,0-43,8.5T816,1590t-23.5,34.5T784,1666q0,23 8.5,43.5T816,1745t35,24t43,9q22,0 42-9t35-24t24-35.5t9-43.5Z" />
      <glyph unicode="&#xc5;" glyph-name="Aring" horiz-adv-x="1360" d="M1353,0H1203q-26,0-42,13t-24,33L1003,392H360L226,46q-7-18-24-32T160,0H10L583,1433H780L1353,0ZM414,532H949L724,1115q-22,54-43,135q-11-41-21.5-75.5T639,1114L414,532Zm75,1127q0,39 15.5,72t41,56.5T605,1824t72,13q39,0 73.5-13t61-36.5T853,1731t15-72q0-38-15-70t-41.5-55t-61-36T677,1485q-38,0-72,13t-59.5,36t-41,55T489,1659Zm89,0q0-43 27-71.5t74-28.5q45,0 72.5,28.5T779,1659q0,45-27.5,73T679,1760q-47,0-74-28t-27-73Z" />
      <glyph unicode="&#xc6;" glyph-name="AE" horiz-adv-x="1858" d="M733,1433H1754V1275H1005l60-476h559V647H1084l61-489h609V0H982L933,392H377L198,45q-11-20-29.5-32.5T124,0H-24L733,1433ZM450,532H915l-94,753q-12-41-26.5-75.5T766,1144L450,532Z" />
      <glyph unicode="&#xc7;" glyph-name="Ccedilla" horiz-adv-x="1370" d="M643-247q6,0 14-3.5t19-8t27-8t37-3.5q42,0 63.5,16.5T825-211q0,19-11,32t-31.5,22T732-142t-68,11L700-13Q561-1 448,57.5t-192.5,154T133,435T90,716q0,162 52.5,297T290,1245t227.5,150.5T810,1449q158,0 272.5-49T1286,1267l-63-89q-7-10-16-16.5t-26-6.5q-13,0-27.5,9.5T1119,1188t-47,30t-64,30t-86,23.5T809,1281q-115,0-210.5-39.5T434,1129T326.5,951T288,716q0-134 38.5-239t105-177.5T589,189t196-38q64,0 115,7.5T994.5,182t81,40.5T1151,281q17,15 33,15t29-13l76-83q-83-97-199.5-153T811-15L795-70q90-20 130.5-54.5T966-213q0-32-16-57.5T905.5-314T837-341.5T749-351q-41,0-78,8.5T603-320l17,55q6,18 23,18Z" />
      <glyph unicode="&#xc8;" glyph-name="Egrave" horiz-adv-x="1162" d="M1057,1433V1275H369V799H926V647H369V158h688V0H174V1433h883ZM468,1782q32,0 48-6.5t36-26.5l211-203H624q-21,0-33,3.5T562,1565L267,1782H468Z" />
      <glyph unicode="&#xc9;" glyph-name="Eacute" horiz-adv-x="1162" d="M1057,1433V1275H369V799H926V647H369V158h688V0H174V1433h883Zm-88,349L675,1566q-17-12-30-16t-34-4H473l211,203q10,10 18.5,16t17.5,10t20,5.5t28,1.5H969Z" />
      <glyph unicode="&#xca;" glyph-name="Ecircumflex" horiz-adv-x="1162" d="M1057,1433V1275H369V799H926V647H369V158h688V0H174V1433h883ZM954,1546H819q-12,0-26,3.5t-23,9.5l-130,95q-8,4-12,8q-8-6-12-8l-130-95q-9-6-23-9.5t-26-3.5H302l238,210H716l238-210Z" />
      <glyph unicode="&#xcb;" glyph-name="Edieresis" horiz-adv-x="1162" d="M1057,1433V1275H369V799H926V647H369V158h688V0H174V1433h883ZM526,1666q0-22-9-41.5T493,1590t-35.5-23.5T414,1558q-21,0-40.5,8.5T339,1590t-24,34.5t-9,41.5q0,23 9,43.5t24,35.5t34.5,24t40.5,9q23,0 43.5-9t35.5-24t24-35.5t9-43.5Zm426,0q0-22-9-41.5T919,1590t-35-23.5t-42-8.5q-23,0-43,8.5T764,1590t-23.5,34.5T732,1666q0,23 8.5,43.5T764,1745t35,24t43,9q22,0 42-9t35-24t24-35.5t9-43.5Z" />
      <glyph unicode="&#xcc;" glyph-name="Igrave" horiz-adv-x="614" d="M404,0H210V1433H404V0ZM149,1782q32,0 48-6.5t36-26.5l211-203H305q-21,0-33,3.5T243,1565L-52,1782H149Z" />
      <glyph unicode="&#xcd;" glyph-name="Iacute" horiz-adv-x="614" d="M404,0H210V1433H404V0ZM650,1782L356,1566q-17-12-30-16t-34-4H154l211,203q10,10 18.5,16t17.5,10t20,5.5t28,1.5H650Z" />
      <glyph unicode="&#xce;" glyph-name="Icircumflex" horiz-adv-x="614" d="M404,0H210V1433H404V0ZM635,1546H500q-12,0-26,3.5t-23,9.5l-130,95q-8,4-12,8q-8-6-12-8l-130-95q-9-6-23-9.5t-26-3.5H-17l238,210H397l238-210Z" />
      <glyph unicode="&#xcf;" glyph-name="Idieresis" horiz-adv-x="614" d="M404,0H210V1433H404V0ZM206,1666q0-22-9-41.5T173,1590t-35.5-23.5T94,1558q-21,0-40.5,8.5T19,1590t-24,34.5t-9,41.5q0,23 9,43.5T19,1745t34.5,24t40.5,9q23,0 43.5-9t35.5-24t24-35.5t9-43.5Zm426,0q0-22-9-41.5T599,1590t-35-23.5t-42-8.5q-23,0-43,8.5T444,1590t-23.5,34.5T412,1666q0,23 8.5,43.5T444,1745t35,24t43,9q22,0 42-9t35-24t24-35.5t9-43.5Z" />
      <glyph unicode="&#xd0;" glyph-name="Eth" horiz-adv-x="1578" d="M50,780H247v653H782q158,0 288.5-51.5t223.5-146T1438,1009t51-293t-51-293T1294,197T1070.5,51.5T782,0H247V666H50V780Zm1240-64q0,132-36,236t-102,176T992,1238t-210,38H441V780H822V666H441V157H782q116,0 210,38t160,109.5T1254,480t36,236Z" />
      <glyph unicode="&#xd1;" glyph-name="Ntilde" horiz-adv-x="1512" d="M274,1433q26,0 38.5-6.5T341,1400L1171,320q-3,26-4,50.5t-1,47.5V1433h170V0h-98q-23,0-38.5,8T1169,35L340,1114q2-25 3-49t1-44V0H174V1433H274Zm627,230q35,0 53.5,20.5T974,1741h98q0-43-11-79t-32-62.5t-52-41T906,1544q-35,0-67,13t-61.5,28.5T722,1614t-50,13q-34,0-52.5-21.5T600,1548H500q0,43 11.5,79.5t33,62.5t53,41t70.5,15q35,0 67-13t61-28.5t55-28.5t50-13Z" />
      <glyph unicode="&#xd2;" glyph-name="Ograve" horiz-adv-x="1596" d="M1505,716q0-161-51-295.5T1310,189T1086.5,38.5T798-15T510,38.5T287,189T143,420.5T92,716t51,295.5t144,232T510,1395t288,54t288.5-54T1310,1243.5t144-232T1505,716Zm-199,0q0,132-36,237t-102,177.5T1008,1242t-210,39q-115,0-209-39T428.5,1130.5T326,953T290,716t36-236.5t102.5-177T589,191.5T798,153q116,0 210,38.5t160,111t102,177T1306,716ZM640,1782q32,0 48-6.5t36-26.5l211-203H796q-21,0-33,3.5T734,1565L439,1782H640Z" />
      <glyph unicode="&#xd3;" glyph-name="Oacute" horiz-adv-x="1596" d="M1505,716q0-161-51-295.5T1310,189T1086.5,38.5T798-15T510,38.5T287,189T143,420.5T92,716t51,295.5t144,232T510,1395t288,54t288.5-54T1310,1243.5t144-232T1505,716Zm-199,0q0,132-36,237t-102,177.5T1008,1242t-210,39q-115,0-209-39T428.5,1130.5T326,953T290,716t36-236.5t102.5-177T589,191.5T798,153q116,0 210,38.5t160,111t102,177T1306,716ZM1141,1782L847,1566q-17-12-30-16t-34-4H645l211,203q10,10 18.5,16t17.5,10t20,5.5t28,1.5h201Z" />
      <glyph unicode="&#xd4;" glyph-name="Ocircumflex" horiz-adv-x="1596" d="M1505,716q0-161-51-295.5T1310,189T1086.5,38.5T798-15T510,38.5T287,189T143,420.5T92,716t51,295.5t144,232T510,1395t288,54t288.5-54T1310,1243.5t144-232T1505,716Zm-199,0q0,132-36,237t-102,177.5T1008,1242t-210,39q-115,0-209-39T428.5,1130.5T326,953T290,716t36-236.5t102.5-177T589,191.5T798,153q116,0 210,38.5t160,111t102,177T1306,716Zm-180,830H991q-12,0-26,3.5t-23,9.5l-130,95q-8,4-12,8q-8-6-12-8l-130-95q-9-6-23-9.5t-26-3.5H474l238,210H888l238-210Z" />
      <glyph unicode="&#xd5;" glyph-name="Otilde" horiz-adv-x="1596" d="M1505,716q0-161-51-295.5T1310,189T1086.5,38.5T798-15T510,38.5T287,189T143,420.5T92,716t51,295.5t144,232T510,1395t288,54t288.5-54T1310,1243.5t144-232T1505,716Zm-199,0q0,132-36,237t-102,177.5T1008,1242t-210,39q-115,0-209-39T428.5,1130.5T326,953T290,716t36-236.5t102.5-177T589,191.5T798,153q116,0 210,38.5t160,111t102,177T1306,716ZM921,1663q35,0 53.5,20.5T994,1741h98q0-43-11-79t-32-62.5t-52-41T926,1544q-35,0-67,13t-61.5,28.5T742,1614t-50,13q-34,0-52.5-21.5T620,1548H520q0,43 11.5,79.5t33,62.5t53,41t70.5,15q35,0 67-13t61-28.5t55-28.5t50-13Z" />
      <glyph unicode="&#xd6;" glyph-name="Odieresis" horiz-adv-x="1596" d="M1505,716q0-161-51-295.5T1310,189T1086.5,38.5T798-15T510,38.5T287,189T143,420.5T92,716t51,295.5t144,232T510,1395t288,54t288.5-54T1310,1243.5t144-232T1505,716Zm-199,0q0,132-36,237t-102,177.5T1008,1242t-210,39q-115,0-209-39T428.5,1130.5T326,953T290,716t36-236.5t102.5-177T589,191.5T798,153q116,0 210,38.5t160,111t102,177T1306,716ZM698,1666q0-22-9-41.5T665,1590t-35.5-23.5T586,1558q-21,0-40.5,8.5T511,1590t-24,34.5t-9,41.5q0,23 9,43.5t24,35.5t34.5,24t40.5,9q23,0 43.5-9t35.5-24t24-35.5t9-43.5Zm426,0q0-22-9-41.5t-24-34.5t-35-23.5t-42-8.5q-23,0-43,8.5T936,1590t-23.5,34.5T904,1666q0,23 8.5,43.5T936,1745t35,24t43,9q22,0 42-9t35-24t24-35.5t9-43.5Z" />
      <glyph unicode="&#xd7;" glyph-name="multiply" horiz-adv-x="1160" d="M1017,1014L673,670l354-353l-95-96L578,575L221,219l-95,96L482,671L137,1016l95,96L577,766l344,344l96-96Z" />
      <glyph unicode="&#xd8;" glyph-name="Oslash" horiz-adv-x="1596" d="M1505,716q0-161-51-295.5T1310,189T1086.5,38.5T798-15Q690-15 596,9.5T423,82L323-54q-22-29-51-42t-58-13H136L327,151Q215,249 153.5,393T92,716q0,161 51,295.5t144,232T510,1395t288,54q115,0 215-29t183-83l82,111q20,27 36,38.5t48,11.5h100l-172-235q103-98 159-237t56-310ZM290,716q0-135 37.5-240.5T434,297l659,899q-60,42-134,63.5T798,1281q-115,0-209-39T428.5,1130.5T326,953T290,716Zm1016,0q0,126-32.5,226.5T1181,1115L526,223q116-70 272-70q116,0 210,38.5t160,111t102,177T1306,716Z" />
      <glyph unicode="&#xd9;" glyph-name="Ugrave" horiz-adv-x="1460" d="M731,154q89,0 159,30t118.5,84t74,129T1108,562v871h193V562q0-124-39.5-230t-113-183.5T969,27T731-17T493,27T313,148.5T199.5,332T160,562v871H353V563q0-90 25.5-165t74-129t119-84.5T731,154ZM570,1782q32,0 48-6.5t36-26.5l211-203H726q-21,0-33,3.5T664,1565L369,1782H570Z" />
      <glyph unicode="&#xda;" glyph-name="Uacute" horiz-adv-x="1460" d="M731,154q89,0 159,30t118.5,84t74,129T1108,562v871h193V562q0-124-39.5-230t-113-183.5T969,27T731-17T493,27T313,148.5T199.5,332T160,562v871H353V563q0-90 25.5-165t74-129t119-84.5T731,154Zm340,1628L777,1566q-17-12-30-16t-34-4H575l211,203q10,10 18.5,16t17.5,10t20,5.5t28,1.5h201Z" />
      <glyph unicode="&#xdb;" glyph-name="Ucircumflex" horiz-adv-x="1460" d="M731,154q89,0 159,30t118.5,84t74,129T1108,562v871h193V562q0-124-39.5-230t-113-183.5T969,27T731-17T493,27T313,148.5T199.5,332T160,562v871H353V563q0-90 25.5-165t74-129t119-84.5T731,154Zm325,1392H921q-12,0-26,3.5t-23,9.5l-130,95q-8,4-12,8q-8-6-12-8l-130-95q-9-6-23-9.5t-26-3.5H404l238,210H818l238-210Z" />
      <glyph unicode="&#xdc;" glyph-name="Udieresis" horiz-adv-x="1460" d="M731,154q89,0 159,30t118.5,84t74,129T1108,562v871h193V562q0-124-39.5-230t-113-183.5T969,27T731-17T493,27T313,148.5T199.5,332T160,562v871H353V563q0-90 25.5-165t74-129t119-84.5T731,154ZM628,1666q0-22-9-41.5T595,1590t-35.5-23.5T516,1558q-21,0-40.5,8.5T441,1590t-24,34.5t-9,41.5q0,23 9,43.5t24,35.5t34.5,24t40.5,9q23,0 43.5-9t35.5-24t24-35.5t9-43.5Zm426,0q0-22-9-41.5t-24-34.5t-35-23.5t-42-8.5q-23,0-43,8.5T866,1590t-23.5,34.5T834,1666q0,23 8.5,43.5T866,1745t35,24t43,9q22,0 42-9t35-24t24-35.5t9-43.5Z" />
      <glyph unicode="&#xdd;" glyph-name="Yacute" horiz-adv-x="1258" d="M726,570V0H533V570L8,1433H178q26,0 41-13t26-32L573,831q20-35 33.5-66T631,704q11,31 24,62t33,65l327,557q9,16 24.5,30.5T1080,1433h172L726,570ZM971,1782L677,1566q-17-12-30-16t-34-4H475l211,203q10,10 18.5,16t17.5,10t20,5.5t28,1.5H971Z" />
      <glyph unicode="&#xde;" glyph-name="Thorn" horiz-adv-x="1222" d="M387,272V0H194V1433H387V1169H617q136,0 236.5-31.5T1020,1048t98.5-140T1151,725q0-100-35-183T1013.5,399T846,305.5T617,272H387Zm0,154H617q83,0 146.5,22T870,509.5T935,604t22,121q0,137-84.5,214T617,1016H387V426Z" />
      <glyph unicode="&#xdf;" glyph-name="germandbls" horiz-adv-x="1218" d="M673,1454q103,0 178.5-30T976,1347.5t72.5-101.5t23.5-106q0-60-21.5-103T997,961t-69.5-58T858,854t-53.5-49.5T783,747q0-39 26.5-65T876,633.5t86.5-46T1049,529t66.5-86T1142,314t-28.5-139T1035,71.5T917.5,6.5T771-16q-97,0-176,34.5T456,107l41,68q8,13 19.5,20t28.5,7q18,0 38-14t47.5-31t65-31T786,112q44,0 79,13.5T924.5,162T962,217t13,69q0,56-28,91t-70,60.5T786,484t-91,50t-70,70.5T597,712q0,53 22.5,92.5t56,71T748,934t72.5,57t56,65.5T899,1140q0,32-12.5,64.5T846,1263t-72.5,42.5T666,1322q-68,0-123.5-21t-95-63t-61-105T365,986V0H186V992q0,104 34.5,189T319,1327t154,94t200,33Z" />
      <glyph unicode="&#xe0;" glyph-name="agrave" horiz-adv-x="1014" d="M890,0H811q-26,0-42,8T748,42l-20,94q-40-36-78-64.5t-80-48T480.5-6T375-16Q316-16 264.5,0.5T175,50t-60.5,83.5T92,253q0,60 33,115.5T231.5,467T424,537.5T715,569v79q0,118-50.5,178.5T515,887q-65,0-109.5-16.5t-77-37t-56-37T226,780q-18,0-31.5,9.5T173,813l-32,57q84,81 181,121t215,40q85,0 151-28t111-78t68-121t23-156V0ZM428,109q47,0 86,9.5t73.5,27t66,42.5T715,245V456q-123-4-209-19.5T366,396t-78.5-59T263,261q0-40 13-69t35-47.5t52-27t65-8.5Zm0,1340q33,0 49-10.5t30-33.5l149-242H554q-21,0-34,6.5T493,1191L259,1449H428Z" />
      <glyph unicode="&#xe1;" glyph-name="aacute" horiz-adv-x="1014" d="M890,0H811q-26,0-42,8T748,42l-20,94q-40-36-78-64.5t-80-48T480.5-6T375-16Q316-16 264.5,0.5T175,50t-60.5,83.5T92,253q0,60 33,115.5T231.5,467T424,537.5T715,569v79q0,118-50.5,178.5T515,887q-65,0-109.5-16.5t-77-37t-56-37T226,780q-18,0-31.5,9.5T173,813l-32,57q84,81 181,121t215,40q85,0 151-28t111-78t68-121t23-156V0ZM428,109q47,0 86,9.5t73.5,27t66,42.5T715,245V456q-123-4-209-19.5T366,396t-78.5-59T263,261q0-40 13-69t35-47.5t52-27t65-8.5ZM818,1449L585,1191q-14-15-27.5-21.5T523,1163H417l148,242q14,23 30.5,33.5T644,1449H818Z" />
      <glyph unicode="&#xe2;" glyph-name="acircumflex" horiz-adv-x="1014" d="M890,0H811q-26,0-42,8T748,42l-20,94q-40-36-78-64.5t-80-48T480.5-6T375-16Q316-16 264.5,0.5T175,50t-60.5,83.5T92,253q0,60 33,115.5T231.5,467T424,537.5T715,569v79q0,118-50.5,178.5T515,887q-65,0-109.5-16.5t-77-37t-56-37T226,780q-18,0-31.5,9.5T173,813l-32,57q84,81 181,121t215,40q85,0 151-28t111-78t68-121t23-156V0ZM428,109q47,0 86,9.5t73.5,27t66,42.5T715,245V456q-123-4-209-19.5T366,396t-78.5-59T263,261q0-40 13-69t35-47.5t52-27t65-8.5ZM833,1169H714q-21,0-40,14L546,1309l-17,17l-16-17L384,1183q-6-5-17-9.5t-23-4.5H221l223,264H610l223-264Z" />
      <glyph unicode="&#xe3;" glyph-name="atilde" horiz-adv-x="1014" d="M890,0H811q-26,0-42,8T748,42l-20,94q-40-36-78-64.5t-80-48T480.5-6T375-16Q316-16 264.5,0.5T175,50t-60.5,83.5T92,253q0,60 33,115.5T231.5,467T424,537.5T715,569v79q0,118-50.5,178.5T515,887q-65,0-109.5-16.5t-77-37t-56-37T226,780q-18,0-31.5,9.5T173,813l-32,57q84,81 181,121t215,40q85,0 151-28t111-78t68-121t23-156V0ZM428,109q47,0 86,9.5t73.5,27t66,42.5T715,245V456q-123-4-209-19.5T366,396t-78.5-59T263,261q0-40 13-69t35-47.5t52-27t65-8.5ZM638,1325q36,0 55.5,21t20.5,65H822q0-47-12.5-86.5t-36-67.5t-56-43.5T645,1198q-35,0-65.5,14.5T522,1244t-51,31.5T424,1290q-72,0-74-88H239q0,48 13,87.5t37,68t57,44t72,15.5q35,0 65.5-14.5T541,1371t50.5-31.5T638,1325Z" />
      <glyph unicode="&#xe4;" glyph-name="adieresis" horiz-adv-x="1014" d="M890,0H811q-26,0-42,8T748,42l-20,94q-40-36-78-64.5t-80-48T480.5-6T375-16Q316-16 264.5,0.5T175,50t-60.5,83.5T92,253q0,60 33,115.5T231.5,467T424,537.5T715,569v79q0,118-50.5,178.5T515,887q-65,0-109.5-16.5t-77-37t-56-37T226,780q-18,0-31.5,9.5T173,813l-32,57q84,81 181,121t215,40q85,0 151-28t111-78t68-121t23-156V0ZM428,109q47,0 86,9.5t73.5,27t66,42.5T715,245V456q-123-4-209-19.5T366,396t-78.5-59T263,261q0-40 13-69t35-47.5t52-27t65-8.5Zm32,1180q0-23-9-43t-25-35t-36.5-24t-43.5-9q-22,0-42,9t-35.5,24T244,1246t-9,43t9,44t24.5,36.5T304,1394t42,9q23,0 43.5-9t36.5-24.5t25-36.5t9-44Zm359,0q0-23-9-43t-24.5-35t-36-24t-43.5-9t-43.5,9T627,1211t-24,35t-9,43t9,44t24,36.5t35.5,24.5t43.5,9t43.5-9t36-24.5T810,1333t9-44Z" />
      <glyph unicode="&#xe5;" glyph-name="aring" horiz-adv-x="1014" d="M890,0H811q-26,0-42,8T748,42l-20,94q-40-36-78-64.5t-80-48T480.5-6T375-16Q316-16 264.5,0.5T175,50t-60.5,83.5T92,253q0,60 33,115.5T231.5,467T424,537.5T715,569v79q0,118-50.5,178.5T515,887q-65,0-109.5-16.5t-77-37t-56-37T226,780q-18,0-31.5,9.5T173,813l-32,57q84,81 181,121t215,40q85,0 151-28t111-78t68-121t23-156V0ZM428,109q47,0 86,9.5t73.5,27t66,42.5T715,245V456q-123-4-209-19.5T366,396t-78.5-59T263,261q0-40 13-69t35-47.5t52-27t65-8.5ZM328,1315q0,42 16,76t43.5,59t63.5,38.5t76,13.5q41,0 77.5-13.5T669,1450t44-59t16-76q0-41-16-75t-44-58t-64.5-37.5T527,1131q-40,0-76,13.5T387.5,1182T344,1240t-16,75Zm100,0q0-44 27-72t74-28q45,0 72.5,28t27.5,72q0,45-27.5,73T529,1416q-47,0-74-28t-27-73Z" />
      <glyph unicode="&#xe6;" glyph-name="ae" horiz-adv-x="1632" d="M1166,1029q82,0 152.5-32t122-93t81-148.5T1551,556q0-41-8-55.5T1510,486H883q4-91 27-158.5T971.5,215t91-67T1180,126q69,0 115,14.5t76.5,32.5t49.5,32.5t35,14.5q14,0 23-4.5t15-12.5l47-61q-33-40-76.5-69.5t-93-48.5T1269-4.5T1164-14q-117,0-212.5,56.5T801,215q-27-62-70.5-106T634,37T521.5-3.5T403-16Q334-16 277,1.5T178.5,54t-64,88T92,267q0,60 33,118T231.5,489T424,564.5T715,598v50q0,118-50.5,181T515,892q-65,0-109.5-17.5t-77-38.5t-56-38.5T226,780q-18,0-31.5,9.5T173,813l-32,57q84,81 174.5,121T519,1031q120,0 193-51T818,838q54,88 140.5,139.5T1166,1029ZM715,486q-123-5-209-22.5T366,418t-78.5-64T263,276q0-87 50-127t131-40q57,0 106.5,18t86,55T694,274t21,129v83Zm444,412q-61,0-109-20.5T967.5,818t-55-95T885,597h508q0,65-15.5,120.5T1332,813t-73.5,62.5T1159,898Z" />
      <glyph unicode="&#xe7;" glyph-name="ccedilla" horiz-adv-x="934" d="M400-247q6,0 14-3.5t19-8t27-8t37-3.5q42,0 63.5,16.5T582-211q0,19-11,32t-31.5,22T489-142t-68,11L458-10Q375,1 304.5,40.5T183,146T103,303T74,507t31.5,209t92,165.5T347,990t204,39q106,0 188-34.5T884,897l-47-64q-8-11-16-17t-23-6t-32.5,12.5T721,850t-65.5,27.5T561,890q-74,0-131-26.5T334.5,787t-58-121T257,507q0-92 21-163.5t59-120t92.5-74T552,124q65,0 107,15.5T729,174t46,34.5T811,224q11,0 19.5-4.5T845,207l50-65Q836,70 751,33T569-12L552-70q90-20 130.5-54.5T723-213q0-32-16-57.5T662.5-314T594-341.5T506-351q-41,0-78,8.5T360-320l17,55q6,18 23,18Z" />
      <glyph unicode="&#xe8;" glyph-name="egrave" horiz-adv-x="1048" d="M547,1029q91,0 168-30.5t133-88t87.5-142T967,576q0-42-9-56t-34-14H250q2-96 26-167t66-118.5t100-71T572,126q67,0 115.5,15.5T771,175t58.5,33.5T870,224q22,0 34-17l50-65q-33-40-79-69.5T776.5,24T668-4.5T557-14Q452-14 363.5,21.5t-153,104T110,295T74,527q0,106 32.5,198T200,884.5t149,106T547,1029Zm4-131q-129,0-203-74.5T256,617H807q0,62-17,113.5t-50,89t-80.5,58T551,898ZM451,1449q33,0 49-10.5t30-33.5l149-242H577q-21,0-34,6.5T516,1191L282,1449H451Z" />
      <glyph unicode="&#xe9;" glyph-name="eacute" horiz-adv-x="1048" d="M547,1029q91,0 168-30.5t133-88t87.5-142T967,576q0-42-9-56t-34-14H250q2-96 26-167t66-118.5t100-71T572,126q67,0 115.5,15.5T771,175t58.5,33.5T870,224q22,0 34-17l50-65q-33-40-79-69.5T776.5,24T668-4.5T557-14Q452-14 363.5,21.5t-153,104T110,295T74,527q0,106 32.5,198T200,884.5t149,106T547,1029Zm4-131q-129,0-203-74.5T256,617H807q0,62-17,113.5t-50,89t-80.5,58T551,898Zm290,551L608,1191q-14-15-27.5-21.5T546,1163H440l148,242q14,23 30.5,33.5T667,1449H841Z" />
      <glyph unicode="&#xea;" glyph-name="ecircumflex" horiz-adv-x="1048" d="M547,1029q91,0 168-30.5t133-88t87.5-142T967,576q0-42-9-56t-34-14H250q2-96 26-167t66-118.5t100-71T572,126q67,0 115.5,15.5T771,175t58.5,33.5T870,224q22,0 34-17l50-65q-33-40-79-69.5T776.5,24T668-4.5T557-14Q452-14 363.5,21.5t-153,104T110,295T74,527q0,106 32.5,198T200,884.5t149,106T547,1029Zm4-131q-129,0-203-74.5T256,617H807q0,62-17,113.5t-50,89t-80.5,58T551,898Zm305,271H737q-21,0-40,14L569,1309l-17,17l-16-17L407,1183q-6-5-17-9.5t-23-4.5H244l223,264H633l223-264Z" />
      <glyph unicode="&#xeb;" glyph-name="edieresis" horiz-adv-x="1048" d="M547,1029q91,0 168-30.5t133-88t87.5-142T967,576q0-42-9-56t-34-14H250q2-96 26-167t66-118.5t100-71T572,126q67,0 115.5,15.5T771,175t58.5,33.5T870,224q22,0 34-17l50-65q-33-40-79-69.5T776.5,24T668-4.5T557-14Q452-14 363.5,21.5t-153,104T110,295T74,527q0,106 32.5,198T200,884.5t149,106T547,1029Zm4-131q-129,0-203-74.5T256,617H807q0,62-17,113.5t-50,89t-80.5,58T551,898Zm-68,391q0-23-9-43t-25-35t-36.5-24t-43.5-9q-22,0-42,9t-35.5,24T267,1246t-9,43t9,44t24.5,36.5T327,1394t42,9q23,0 43.5-9t36.5-24.5t25-36.5t9-44Zm359,0q0-23-9-43t-24.5-35t-36-24t-43.5-9t-43.5,9T650,1211t-24,35t-9,43t9,44t24,36.5t35.5,24.5t43.5,9t43.5-9t36-24.5T833,1333t9-44Z" />
      <glyph unicode="&#xec;" glyph-name="igrave" horiz-adv-x="512" d="M344,1013V0H166V1013H344ZM162,1449q33,0 49-10.5t30-33.5l149-242H288q-21,0-34,6.5T227,1191L-7,1449H162Z" />
      <glyph unicode="&#xed;" glyph-name="iacute" horiz-adv-x="512" d="M344,1013V0H166V1013H344Zm208,436L319,1191q-14-15-27.5-21.5T257,1163H151l148,242q14,23 30.5,33.5T378,1449H552Z" />
      <glyph unicode="&#xee;" glyph-name="icircumflex" horiz-adv-x="512" d="M344,1013V0H166V1013H344Zm222,156H447q-21,0-40,14L279,1309l-17,17l-16-17L117,1183q-6-5-17-9.5T77,1169H-46l223,264H343l223-264Z" />
      <glyph unicode="&#xef;" glyph-name="idieresis" horiz-adv-x="512" d="M344,1013V0H166V1013H344ZM194,1289q0-23-9-43t-25-35t-36.5-24T80,1178q-22,0-42,9T2.5,1211T-22,1246t-9,43t9,44t24.5,36.5T38,1394t42,9q23,0 43.5-9t36.5-24.5t25-36.5t9-44Zm359,0q0-23-9-43t-24.5-35t-36-24t-43.5-9t-43.5,9T361,1211t-24,35t-9,43t9,44t24,36.5t35.5,24.5t43.5,9t43.5-9t36-24.5T544,1333t9-44Z" />
      <glyph unicode="&#xf0;" glyph-name="eth" horiz-adv-x="1106" d="M417,1065q-4,7-6.5,13.5T408,1091q0,22 23,37l103,72q-45,20-95.5,37T331,1268q-18,5-30.5,18.5T288,1323q0,15 5,29l20,62q96-16 186-46t171-78l167,122l35-57q8-13 8-24q0-21-22-37l-97-67q60-49 109.5-111T955,976.5t54.5-170T1029,604q0-143-31-257T905.5,153T752.5,30T541-13q-98,0-183,33T210.5,114.5T112,265T76,466q0,94 31,177.5T196,790T336.5,890T523,927q100,0 188.5-43T865,754q-20,136-78.5,231T634,1144L450,1009l-33,56ZM545,125q71,0 128.5,27t98,81.5t63.5,137T861,564q-16,43-42,83.5t-63.5,72t-87,50T557,788q-75,0-131.5-25T331,694.5t-57.5-103T254,464q0-81 23-144.5T340,213t92.5-65.5T545,125Z" />
      <glyph unicode="&#xf1;" glyph-name="ntilde" horiz-adv-x="1112" d="M146,0V1013H252q38,0 48-37l14-110q66,73 147.5,118T650,1029q83,0 146.5-27.5t106-78T967,802t22-157V0H811V645q0,115-52.5,178.5T598,887q-79,0-147.5-38T324,746V0H146ZM675,1325q36,0 55.5,21t20.5,65H859q0-47-12.5-86.5t-36-67.5t-56-43.5T682,1198q-35,0-65.5,14.5T559,1244t-51,31.5T461,1290q-72,0-74-88H276q0,48 13,87.5t37,68t57,44t72,15.5q35,0 65.5-14.5T578,1371t50.5-31.5T675,1325Z" />
      <glyph unicode="&#xf2;" glyph-name="ograve" horiz-adv-x="1112" d="M556,1029q111,0 200.5-37t152-105t96-164.5T1038,507q0-120-33.5-216t-96-164T756.5,22.5T556-14T355.5,22.5T203,127T106,291T72,507q0,119 34,215.5T203,887T355.5,992T556,1029Zm0-904q150,0 224,100.5T854,506q0,181-74,282T556,889q-76,0-132-26t-93.5-75t-56-120.5T256,506t18.5-161t56-119.5T424,151t132-26ZM458,1449q33,0 49-10.5t30-33.5l149-242H584q-21,0-34,6.5T523,1191L289,1449H458Z" />
      <glyph unicode="&#xf3;" glyph-name="oacute" horiz-adv-x="1112" d="M556,1029q111,0 200.5-37t152-105t96-164.5T1038,507q0-120-33.5-216t-96-164T756.5,22.5T556-14T355.5,22.5T203,127T106,291T72,507q0,119 34,215.5T203,887T355.5,992T556,1029Zm0-904q150,0 224,100.5T854,506q0,181-74,282T556,889q-76,0-132-26t-93.5-75t-56-120.5T256,506t18.5-161t56-119.5T424,151t132-26ZM848,1449L615,1191q-14-15-27.5-21.5T553,1163H447l148,242q14,23 30.5,33.5T674,1449H848Z" />
      <glyph unicode="&#xf4;" glyph-name="ocircumflex" horiz-adv-x="1112" d="M556,1029q111,0 200.5-37t152-105t96-164.5T1038,507q0-120-33.5-216t-96-164T756.5,22.5T556-14T355.5,22.5T203,127T106,291T72,507q0,119 34,215.5T203,887T355.5,992T556,1029Zm0-904q150,0 224,100.5T854,506q0,181-74,282T556,889q-76,0-132-26t-93.5-75t-56-120.5T256,506t18.5-161t56-119.5T424,151t132-26ZM863,1169H744q-21,0-40,14L576,1309l-17,17l-16-17L414,1183q-6-5-17-9.5t-23-4.5H251l223,264H640l223-264Z" />
      <glyph unicode="&#xf5;" glyph-name="otilde" horiz-adv-x="1112" d="M556,1029q111,0 200.5-37t152-105t96-164.5T1038,507q0-120-33.5-216t-96-164T756.5,22.5T556-14T355.5,22.5T203,127T106,291T72,507q0,119 34,215.5T203,887T355.5,992T556,1029Zm0-904q150,0 224,100.5T854,506q0,181-74,282T556,889q-76,0-132-26t-93.5-75t-56-120.5T256,506t18.5-161t56-119.5T424,151t132-26ZM668,1325q36,0 55.5,21t20.5,65H852q0-47-12.5-86.5t-36-67.5t-56-43.5T675,1198q-35,0-65.5,14.5T552,1244t-51,31.5T454,1290q-72,0-74-88H269q0,48 13,87.5t37,68t57,44t72,15.5q35,0 65.5-14.5T571,1371t50.5-31.5T668,1325Z" />
      <glyph unicode="&#xf6;" glyph-name="odieresis" horiz-adv-x="1112" d="M556,1029q111,0 200.5-37t152-105t96-164.5T1038,507q0-120-33.5-216t-96-164T756.5,22.5T556-14T355.5,22.5T203,127T106,291T72,507q0,119 34,215.5T203,887T355.5,992T556,1029Zm0-904q150,0 224,100.5T854,506q0,181-74,282T556,889q-76,0-132-26t-93.5-75t-56-120.5T256,506t18.5-161t56-119.5T424,151t132-26ZM490,1289q0-23-9-43t-25-35t-36.5-24t-43.5-9q-22,0-42,9t-35.5,24T274,1246t-9,43t9,44t24.5,36.5T334,1394t42,9q23,0 43.5-9t36.5-24.5t25-36.5t9-44Zm359,0q0-23-9-43t-24.5-35t-36-24t-43.5-9t-43.5,9T657,1211t-24,35t-9,43t9,44t24,36.5t35.5,24.5t43.5,9t43.5-9t36-24.5T840,1333t9-44Z" />
      <glyph unicode="&#xf7;" glyph-name="divide" horiz-adv-x="1160" d="M100,739h958V604H100V739Zm354,287q0,26 9.5,49t26,40t39,27t49.5,10q26,0 48.5-10t39.5-27t27-40t10-49q0-27-10-49.5T666,937t-39.5-26.5T578,901q-27,0-49.5,9.5t-39,26.5t-26,39.5T454,1026Zm0-712q0,26 9.5,49t26,40t39,27T578,440q26,0 48.5-10T666,403t27-40t10-49q0-27-10-49.5T666,225t-39.5-26.5T578,189q-27,0-49.5,9.5t-39,26.5t-26,39.5T454,314Z" />
      <glyph unicode="&#xf8;" glyph-name="oslash" horiz-adv-x="1112" d="M912,884q61-68 94-163.5T1039,507q0-120-33.5-216t-96-164T757.5,22.5T557-14Q481-14 415.5,3T296,52L241-22q-22-29-51.5-41.5T131-76H64L209,120q-66,69-101,166T73,507q0,119 34,215.5T204,887T356.5,992T557,1029q79,0 146.5-19T827,956l68,91q20,27 36,38.5t48,11.5h90L912,884ZM246,506q0-160 59-257L741,839q-73,56-184,56q-76,0-134-27t-97.5-77T266,668.5T246,506ZM557,120q75,0 132.5,26.5t97,76.5T846,344.5T866,506q0,151-52,247L381,168q70-48 176-48Z" />
      <glyph unicode="&#xf9;" glyph-name="ugrave" horiz-adv-x="1112" d="M300,1013V367q0-115 53-178t160-63q78,0 147,37T787,266v747H965V0H859q-38,0-48,37L797,146Q731,73 649,28.5T461-16q-83,0-146.5,27.5T208,89T143.5,210T122,367v646H300Zm152,436q33,0 49-10.5t30-33.5l149-242H578q-21,0-34,6.5T517,1191L283,1449H452Z" />
      <glyph unicode="&#xfa;" glyph-name="uacute" horiz-adv-x="1112" d="M300,1013V367q0-115 53-178t160-63q78,0 147,37T787,266v747H965V0H859q-38,0-48,37L797,146Q731,73 649,28.5T461-16q-83,0-146.5,27.5T208,89T143.5,210T122,367v646H300Zm542,436L609,1191q-14-15-27.5-21.5T547,1163H441l148,242q14,23 30.5,33.5T668,1449H842Z" />
      <glyph unicode="&#xfb;" glyph-name="ucircumflex" horiz-adv-x="1112" d="M300,1013V367q0-115 53-178t160-63q78,0 147,37T787,266v747H965V0H859q-38,0-48,37L797,146Q731,73 649,28.5T461-16q-83,0-146.5,27.5T208,89T143.5,210T122,367v646H300Zm557,156H738q-21,0-40,14L570,1309l-17,17l-16-17L408,1183q-6-5-17-9.5t-23-4.5H245l223,264H634l223-264Z" />
      <glyph unicode="&#xfc;" glyph-name="udieresis" horiz-adv-x="1112" d="M300,1013V367q0-115 53-178t160-63q78,0 147,37T787,266v747H965V0H859q-38,0-48,37L797,146Q731,73 649,28.5T461-16q-83,0-146.5,27.5T208,89T143.5,210T122,367v646H300Zm184,276q0-23-9-43t-25-35t-36.5-24t-43.5-9q-22,0-42,9t-35.5,24T268,1246t-9,43t9,44t24.5,36.5T328,1394t42,9q23,0 43.5-9t36.5-24.5t25-36.5t9-44Zm359,0q0-23-9-43t-24.5-35t-36-24t-43.5-9t-43.5,9T651,1211t-24,35t-9,43t9,44t24,36.5t35.5,24.5t43.5,9t43.5-9t36-24.5T834,1333t9-44Z" />
      <glyph unicode="&#xfd;" glyph-name="yacute" horiz-adv-x="1024" d="M443-299q-9-20-22.5-32T379-343H247L432,59L14,1013H168q23,0 36-11.5T223,976L494,338q9-22 15.5-44T521,249q7,23 14,45t16,45L814,976q6,16 20.5,26.5T866,1013h142L443-299ZM825,1449L592,1191q-14-15-27.5-21.5T530,1163H424l148,242q14,23 30.5,33.5T651,1449H825Z" />
      <glyph unicode="&#xfe;" glyph-name="thorn" horiz-adv-x="1104" d="M146-343V1473H324V866q63,74 145,118.5T656,1029q87,0 158-33t121-98.5t77-162T1039,513q0-112-30-208.5t-86-167T785.5,26.5T602-14q-95,0-161,34.5T324,118V-343H146ZM597,887q-87,0-152.5-40T324,734V244q49-66 107.5-93T562,124q141,0 217,101t76,288q0,99-17.5,170T787,799.5T706,866T597,887Z" />
      <glyph unicode="&#xff;" glyph-name="ydieresis" horiz-adv-x="1024" d="M443-299q-9-20-22.5-32T379-343H247L432,59L14,1013H168q23,0 36-11.5T223,976L494,338q9-22 15.5-44T521,249q7,23 14,45t16,45L814,976q6,16 20.5,26.5T866,1013h142L443-299Zm24,1588q0-23-9-43t-25-35t-36.5-24t-43.5-9q-22,0-42,9t-35.5,24T251,1246t-9,43t9,44t24.5,36.5T311,1394t42,9q23,0 43.5-9t36.5-24.5t25-36.5t9-44Zm359,0q0-23-9-43t-24.5-35t-36-24t-43.5-9t-43.5,9T634,1211t-24,35t-9,43t9,44t24,36.5t35.5,24.5t43.5,9t43.5-9t36-24.5T817,1333t9-44Z" />
      <glyph unicode="&#x2013;" glyph-name="endash" horiz-adv-x="1112" d="M156,655H956V525H156V655Z" />
      <glyph unicode="&#x2014;" glyph-name="emdash" horiz-adv-x="1642" d="M156,655H1486V525H156V655Z" />
      <glyph unicode="&#x2018;" glyph-name="quoteleft" horiz-adv-x="424" d="M114,1012q-29,48-42.5,96.5T58,1205q0,90 44.5,172.5T227,1529l55-34q8-5 10.5-11t2.5-12q0-14-10-24q-16-20-31-42t-27-46.5T208,1308t-7-57q0-32 9.5-66t32.5-72q7-11 7-23q0-24-27-34l-109-44Z" />
      <glyph unicode="&#x2019;" glyph-name="quoteright" horiz-adv-x="424" d="M271,1508q29-48 42-96t13-96q0-91-44.5-173.5T158,991l-55,34q-8,5-10.5,11T90,1048q0,14 10,24q16,19 31,41.5t27,47t19,51.5t7,57q0,32-9.5,66T142,1407q-7,11-7,22q0,24 27,35l109,44Z" />
      <glyph unicode="&#x201a;" glyph-name="quotesinglbase" horiz-adv-x="424" d="M271,241q29-48 42-96t13-96q0-91-44.5-173.5T158-276l-55,34q-8,5-10.5,11T90-219q0,14 10,24q16,19 31,41.5t27,47T177-55t7,57q0,32-9.5,66T142,140q-7,11-7,22q0,24 27,35l109,44Z" />
      <glyph unicode="&#x201c;" glyph-name="quotedblleft" horiz-adv-x="728" d="M114,1012q-29,48-42.5,96.5T58,1205q0,90 44.5,172.5T227,1529l55-34q8-5 10.5-11t2.5-12q0-14-10-24q-16-20-31-42t-27-46.5T208,1308t-7-57q0-32 9.5-66t32.5-72q7-11 7-23q0-24-27-34l-109-44Zm304,0q-29,48-42.5,96.5T362,1205q0,90 44.5,172.5T531,1529l55-34q8-5 10.5-11t2.5-12q0-14-10-24q-16-20-31-42t-27-46.5T512,1308t-7-57q0-32 9.5-66t32.5-72q7-11 7-23q0-24-27-34l-109-44Z" />
      <glyph unicode="&#x201d;" glyph-name="quotedblright" horiz-adv-x="728" d="M271,1508q29-48 42-96t13-96q0-91-44.5-173.5T158,991l-55,34q-8,5-10.5,11T90,1048q0,14 10,24q16,19 31,41.5t27,47t19,51.5t7,57q0,32-9.5,66T142,1407q-7,11-7,22q0,24 27,35l109,44Zm304,0q29-48 42-96t13-96q0-91-44.5-173.5T462,991l-55,34q-8,5-10.5,11t-2.5,12q0,14 10,24q16,19 31,41.5t27,47t19,51.5t7,57q0,32-9.5,66T446,1407q-7,11-7,22q0,24 27,35l109,44Z" />
      <glyph unicode="&#x201e;" glyph-name="quotedblbase" horiz-adv-x="728" d="M271,241q29-48 42-96t13-96q0-91-44.5-173.5T158-276l-55,34q-8,5-10.5,11T90-219q0,14 10,24q16,19 31,41.5t27,47T177-55t7,57q0,32-9.5,66T142,140q-7,11-7,22q0,24 27,35l109,44Zm304,0q29-48 42-96t13-96q0-91-44.5-173.5T462-276l-55,34q-8,5-10.5,11T394-219q0,14 10,24q16,19 31,41.5t27,47T481-55t7,57q0,32-9.5,66T446,140q-7,11-7,22q0,24 27,35l109,44Z" />
      <glyph unicode="&#x2022;" glyph-name="bullet" horiz-adv-x="1160" d="M208,595q0,77 29.5,145T317,858.5t117.5,80T578,968q77,0 145-29.5t118.5-80t80-118.5T951,595T921.5,450.5T841.5,333T723,253.5T578,224q-76,0-143.5,29.5T317,333T237.5,450.5T208,595Z" />
      <glyph unicode="&#x2039;" glyph-name="guilsinglleft" horiz-adv-x="632" d="M138,518v23L387,930l58-28q14-7 21-18t7-24q0-17-10-33L304,566q-14-24-28-37q15-14 28-36L463,232q5-8 7.5-17t2.5-17q0-28-28-41l-58-28L138,518Z" />
      <glyph unicode="&#x203a;" glyph-name="guilsinglright" horiz-adv-x="632" d="M485,541V518L236,129l-58,28q-28,13-28,41q0,17 10,34L319,493q13,24 27,36q-12,11-27,37L160,827q-10,17-10,34q0,28 28,41l58,28L485,541Z" />
    </font>
</defs>
</svg>
