<?xml version="1.0" standalone="no"?>
<!DOCTYPE svg PUBLIC "-//W3C//DTD SVG 1.1//EN" "http://www.w3.org/Graphics/SVG/1.1/DTD/svg11.dtd">
<svg xmlns="http://www.w3.org/2000/svg">
  <defs>
    <font id="Cairo" horiz-adv-x="611">
      <font-face font-family="Cairo" units-per-em="1000" panose-1="0 0 0 0 0 0 0 0 0 0" ascent="1303" descent="-571" alphabetic="0" />
      <glyph unicode=" " glyph-name="space" horiz-adv-x="220" />
      <glyph unicode="!" glyph-name="exclam" horiz-adv-x="249" d="M89,230L83,691h83l-6-461H89ZM82,0V115h85V0H82Z" />
      <glyph unicode="&quot;" glyph-name="quotedbl" horiz-adv-x="375" d="M235,468l-3,223h78l-5-223H235ZM70,468L66,691h78l-5-223H70Z" />
      <glyph unicode="#" glyph-name="numbersign" horiz-adv-x="560" d="M134,0V172H24v67H134V422H24v66H134V666h70V488H356V666h70V488H536V422H426V239H536V172H426V0H356V172H204V0H134Zm70,239H356V422H204V239Z" />
      <glyph unicode="$" glyph-name="dollar" horiz-adv-x="560" d="M202-124l57,446l51-9L254-124H202ZM316,359l-51,8l56,432h51L316,359ZM282-9q-28,0-66,3.5T140,3T74,12l7,63q28-3 64.5-7T218,61.5T279,59q46,0 76.5,14t46,42.5T417,189q0,36-14,57.5t-46,34T272,304q-69,15-114,34.5T90.5,394T68,492q0,64 26.5,103.5t74,57.5T281,671q28,0 65-3.5t72.5-8T480,651l-7-64q-28,3-64,7t-69.5,6.5T286,603q-46,0-77.5-11.5t-47.5-35T145,497q0-42 16-64t51-34.5T304,373q50-11 86-24.5t59-33T483,267t11-72q0-73-26-118T394.5,11.5T282-9Z" />
      <glyph unicode="%" glyph-name="percent" horiz-adv-x="560" d="M203-19L153-4L360,682l50-16L203-19ZM138,390q-34,0-58.5,15.5t-38,47T28,532t13.5,78.5t38,45T138,670t58.5-14.5t38-45T248,532t-13.5-79.5t-38-47T138,390Zm0,53q18,0 28.5,10t15,30t4.5,49t-4.5,48t-15,28.5T138,618t-28.5-9.5T94.5,580T90,532t4.5-49t15-30T138,443ZM423-10q-34,0-59,15.5t-38.5,47T312,132t13.5,78.5t38.5,45T423,270t58.5-14.5t38-45T533,131q0-48-13.5-79.5T481.5,5T423-10Zm0,52q18,0 28.5,10t15,30t4.5,49q0,30-4.5,49t-15,28T423,217t-28.5-9T379,180t-5-48t5-49.5T394.5,52T423,42Z" />
      <glyph unicode="&amp;" glyph-name="ampersand" horiz-adv-x="689" d="M289-10q-94,0-148,26T64.5,89.5T42,203q0,59 16.5,97.5t51,63T196,405q-25,29-37.5,52T142,503t-4,52q0,44 20.5,77t60,51.5T314,702q59,0 98-18.5t58-53T489,549q0-36-9-63t-27.5-48.5T405,397t-69-38L484,212q6,16 12,45t11,60.5t6,54.5l75-1q-3-35-10.5-74.5T561,222t-19-59L670,43L624-9L503,102q-34-55-88.5-83.5T289-10Zm-7,70q56,0 99.5,21.5T449,148L240,356q-42-13-68.5-31.5t-39-46.5T120,208q0-72 37.5-110T282,60Zm8,346q43,19 69.5,37.5t38.5,42T410,544q0,44-22.5,67T314,634q-46,0-71.5-22.5T217,542q0-18 2.5-32.5t9.5-29t22-32T290,406Z" />
      <glyph unicode="&apos;" glyph-name="quotesingle" horiz-adv-x="209" d="M69,468L66,691h79l-6-223H69Z" />
      <glyph unicode="(" glyph-name="parenleft" horiz-adv-x="266" d="M155-125q-17,34-35.5,82T85.5,62.5T60,181T50,301T60,423.5t25.5,124t34,113T155,750h75q-15-41-32-96T167,537.5T144,415t-9-114q0-52 9-111T167,73T198-36t32-89H155Z" />
      <glyph unicode=")" glyph-name="parenright" horiz-adv-x="266" d="M111-125H36Q51-87 68-36T99,73t23,117t9,111q0,53-9,114T99,537.5T68,654T36,750h75q17-37 35.5-89.5t34-113t25.5-124T216,301T206,181T180.5,62.5T146.5-43T111-125Z" />
      <glyph unicode="*" glyph-name="asterisk" horiz-adv-x="420" d="M233,370L192,496L85,417L54,458l107,79L56,614l31,43l106-78l41,126l50-17L244,562H374V510H243l40-125l-50-15Z" />
      <glyph unicode="+" glyph-name="plus" horiz-adv-x="560" d="M243,20V215H55v72H243V480h72V287H505V215H315V20H243Z" />
      <glyph unicode="," glyph-name="comma" horiz-adv-x="225" d="M34-123L79,109h87L98-123H34Z" />
      <glyph unicode="-" glyph-name="hyphen" horiz-adv-x="436" d="M67,239v72H370V239H67Z" />
      <glyph unicode="." glyph-name="period" horiz-adv-x="218" d="M67,0V117h85V0H67Z" />
      <glyph unicode="/" glyph-name="slash" horiz-adv-x="415" d="M102-15L32,10L314,709l70-26L102-15Z" />
      <glyph unicode="0" glyph-name="zero" horiz-adv-x="560" d="M280-10Q223-10 178.5,6t-76,53.5T54.5,161T38,320q0,101 16,169t47.5,108t76,57T279,671q59,0 104-17t75.5-57T505,489.5T521,320q0-126-29-198T409.5,20T280-10Zm0,71q39,0 68.5,12T398,114t30,79.5T438,320q0,83-9.5,137t-29,85.5t-49,44.5T280,600q-40,0-70-13t-49.5-44T131,457.5T121,319q0-76 10.5-126.5t31-79t50-40.5T280,61Z" />
      <glyph unicode="1" glyph-name="one" horiz-adv-x="560" d="M310,0V571L142,459l-37,61L315,660h75V0H310Z" />
      <glyph unicode="2" glyph-name="two" horiz-adv-x="560" d="M69,0V68L259,267q41,43 71,77.5t46,68T392,484q0,65-35.5,89.5T250,598q-26,0-58-3.5t-61.5-8T80,577l-6,66q21,6 52,12t67.5,10.5T265,670q105,0 157.5-42T475,493q0-49-15.5-88t-46-76.5T336,245L163,70H491V0H69Z" />
      <glyph unicode="3" glyph-name="three" horiz-adv-x="560" d="M278-10q-38,0-79,4.5T122,5T62,17l7,65q23-4 57-9t72-8.5T270,61q72,0 106.5,31.5T411,186q0,45-18,71t-48.5,38T277,308H144v69H277q25,0 52.5,14T376,431.5T395,495q0,56-30.5,80.5T262,600q-33,0-67.5-3.5t-65-8T79,579l-7,64q20,6 51.5,12.5t68.5,11t73,4.5q79,0 125.5-18.5t67-56.5T478,499q0-38-12-64.5t-29-44T404,363t-24-15q34-12 59.5-28.5t40-47T494,189q0-67-22.5-111T401,12T278-10Z" />
      <glyph unicode="4" glyph-name="four" horiz-adv-x="560" d="M358,0V128H40v62L227,660h88L124,199H358V403h80V199h83V128H438V0H358Z" />
      <glyph unicode="5" glyph-name="five" horiz-adv-x="560" d="M282-9q-37,0-78,5T125.5,7.5T63,20l9,64q25-4 60-9.5t72.5-9T274,62q68,0 107.5,39T421,214q0,50-17,78.5T356,333t-72,12q-30,0-60-6t-55-15t-41-18L74,317L92,660H477V588H158L140,377q17,8 42,17t54,15.5t57,6.5q65,0 112-19.5t73-62T504,221q0-76-26.5-127t-76-77T282-9Z" />
      <glyph unicode="6" glyph-name="six" horiz-adv-x="560" d="M286-10q-82,0-134.5,41T74,149T49,333q0,90 18,154t52,104.5T201,651t107,19q31,0 65-3t65-7t52-8l-8-64q-19,2-48.5,4.5t-62,4.5T308,599q-85,0-130-58T132,375q9,2 26.5,8t41,13T248,408t48,5q109,0 165-50t56-155q0-70-27-119T411.5,15T286-10Zm0,71q72,0 110.5,38T435,208q0,68-38.5,101T290,342q-27,0-57-6t-57-14.5T131,305q1-69 16-124.5T196,93t90-32Z" />
      <glyph unicode="7" glyph-name="seven" horiz-adv-x="560" d="M234-10L159,13L406,561v27H77v72H488V556L234-10Z" />
      <glyph unicode="8" glyph-name="eight" horiz-adv-x="560" d="M278-10q-50,0-94.5,8.5t-79,29t-54,55T31,168t14.5,83t40,53.5T144,345q-34,18-56.5,38t-34,48.5T42,500q0,57 29,95t82,57t125,19q71,0 125-19t84.5-57T518,499q0-42-11.5-70T471,381.5T409,345q35-16 62-37t42-51.5T528,179q0-54-19.5-90.5t-54-58t-80-31T278-10Zm0,73q48,0 85,11t58,38.5T442,187q0,38-15,60.5t-40.5,36T328,306H223q-50-14-78-42t-28-82q0-44 21-70.5T195.5,74T278,63ZM223,376H328q50,17 77,42.5T432,489q0,59-40.5,84T279,598q-70,0-110.5-24.5T128,490q0-45 24-71t71-43Z" />
      <glyph unicode="9" glyph-name="nine" horiz-adv-x="560" d="M247-10q-30,0-64,3T118,0T65,8l8,65q20-2 49-5t62-5t63-2q89,0 133.5,55.5T426,287q-25-9-55-18t-59.5-14.5T257,249q-104,0-160,49T41,451q0,68 28,117t79.5,75.5T270,670q84,0 136.5-41.5T484,510t25-182q0-96-18-161T439.5,63t-82-56T247-10Zm17,330q25,0 55,6t59,14.5T427,356q-1,71-16.5,125.5t-49.5,86T270,599q-68,0-107.5-40T123,451t36-99.5T264,320Z" />
      <glyph unicode=":" glyph-name="colon" horiz-adv-x="219" d="M67,320V437h85V320H67ZM67,0V117h85V0H67Z" />
      <glyph unicode=";" glyph-name="semicolon" horiz-adv-x="250" d="M47-123L92,109h88L111-123H47ZM87,320V437h84V320H87Z" />
      <glyph unicode="&lt;" glyph-name="less" horiz-adv-x="560" d="M477,13L61,217v68L477,487V406L142,252L477,95V13Z" />
      <glyph unicode="=" glyph-name="equal" horiz-adv-x="560" d="M64,308v72H496V308H64Zm0-186v72H496V122H64Z" />
      <glyph unicode="&gt;" glyph-name="greater" horiz-adv-x="560" d="M82,13V95L417,252L82,406v81L498,285V217L82,13Z" />
      <glyph unicode="?" glyph-name="question" horiz-adv-x="446" d="M160,202q-4,11-9,27t-5,35q0,24 12,45.5T191,352t47,44q36,31 55,51.5t26,40t7,47.5q0,52-31.5,74T196,631q-20,0-48.5-3.5t-56.5-9T42,608l-6,63q22,7 52,14t61,12t55,5q67,0 112-16t67.5-51.5T406,541q0-43-7-71t-27-52.5T313,360q-44-37-66-63.5T225,237V202H160ZM149,1V116h84V1H149Z" />
      <glyph unicode="@" glyph-name="at" horiz-adv-x="976" d="M504-203q-111,0-195.5,22t-142,74.5T80,36T51,261q0,123 30,211t88.5,143.5T312,697t192,26q150,0 245-46T888.5,538T933,305V292q0-76-8-129T902,77T865.5,26t-49-25T757-6Q721-6 696,4T657,28T639,54q-20-12-50-26T527,4.5T467-5q-26,0-52,5.5T366.5,21T327,64t-27,72.5T290,246q0,84 18,142t62,87.5T492,505q26,0 59.5-8.5T606,479v16h78V304q0-83 2-132t9-73t22.5-31.5T759,60q22,0 39.5,7t30,29.5t19,69.5T854,292v14q0,91-19.5,156.5T773,570.5t-108.5,63T504,654T339.5,631.5T222,561T152,439T129,261q0-110 22-185.5t67.5-122t116.5-67T504-134q16,0 41.5,1.5t53,3.5t48.5,4l3-69q-20-2-47-4t-53.5-3.5T504-203ZM471,64q21,0 47.5,7t52,17.5T615,109q-2,21-4.5,49T607,217t-1,61V416q-19,7-48.5,13.5T505,436q-56,0-85.5-21.5t-40.5-64T368,245q0-57 9-92.5t24-55T434,71t37-7Z" />
      <glyph unicode="A" glyph-name="A" horiz-adv-x="596" d="M23,0L212,691H385L573,0H493L444,175H152L103,0H23ZM169,246H427L324,623H272L169,246Z" />
      <glyph unicode="B" glyph-name="B" horiz-adv-x="615" d="M84,0V691H336q68,0 113.5-18t69-57T542,515q0-44-10.5-74.5T502,390t-47-34q30-10 54.5-29t39-51T563,194q0-54-15-91.5t-43.5-60T436.5,10T348,0H84Zm80,70H345q42,0 72.5,11T465,119.5T482,197q0,39-14.5,63T431,296t-46,16t-44,4H164V70Zm0,316H340q43,0 69.5,13.5t39,40.5T461,508q0,59-31.5,86T333,621H164V386Z" />
      <glyph unicode="C" glyph-name="C" horiz-adv-x="544" d="M312-10q-78,0-127.5,23T107,81T68.5,192T58,344q0,88 10.5,155T107,611t77.5,68T312,702q36,0 71.5-3.5t66.5-9T503,679l-3-67q-22,4-54,8t-65,7t-60,3q-57,0-92.5-17T174,560.5t-26-89T141,344q0-72 7-125.5t25.5-88T228,79t94-17q42,0 92.5,5.5T500,79l3-68Q479,6 447,1T380-7t-68-3Z" />
      <glyph unicode="D" glyph-name="D" horiz-adv-x="644" d="M84,0V691H331q76,0 126-24.5t79-69t41-106T589,356q0-75-11.5-139.5T537,103T458,27T331,0H84Zm80,71H331q54,0 88,23t53,63t26.5,91T506,356q0,56-7.5,104T472,544t-53,56t-88,20H164V71Z" />
      <glyph unicode="E" glyph-name="E" horiz-adv-x="553" d="M84,0V691H507V620H164V386H447V316H164V71H507V0H84Z" />
      <glyph unicode="F" glyph-name="F" horiz-adv-x="526" d="M84,0V691H499V620H164V354H447V283H164V0H84Z" />
      <glyph unicode="G" glyph-name="G" horiz-adv-x="616" d="M325-10q-80,0-132,23.5t-82,69T68.5,194T56,344q0,87 12.5,153.5t43,112t82,69T323,702q39,0 81.5-4t81-10.5T550,675l-3-66q-26,5-64,9.5t-77.5,8T333,630q-59,0-97-17t-59-52.5t-29.5-89T139,344q0-96 15-159t56.5-93.5T331,61q23,0 49,2t50.5,5T471,74V283H359v71H550V14q-17-3-45-7T445-1T381.5-7.5T325-10Z" />
      <glyph unicode="H" glyph-name="H" horiz-adv-x="675" d="M84,0V691h80V383H511V691h80V0H511V312H164V0H84Z" />
      <glyph unicode="I" glyph-name="I" horiz-adv-x="248" d="M84,0V691h80V0H84Z" />
      <glyph unicode="J" glyph-name="J" horiz-adv-x="289" d="M18-72V-1Q51-1 73,2t34,13.5T124,48t5,59V691h80V96q0-56-11-89.5T163.5-44T104-66.5T18-72Z" />
      <glyph unicode="K" glyph-name="K" horiz-adv-x="570" d="M84,0V691h80V371l113,4L451,691h92L348,344L554,0H459L278,304l-114-4V0H84Z" />
      <glyph unicode="L" glyph-name="L" horiz-adv-x="478" d="M84,0V691h80V72H466V0H84Z" />
      <glyph unicode="M" glyph-name="M" horiz-adv-x="841" d="M84,0V691H229L420,111L612,691H757V0H677V606H662L465,25H376L179,606H164V0H84Z" />
      <glyph unicode="N" glyph-name="N" horiz-adv-x="677" d="M84,0V691H233L493,71h20V691h80V0H447L183,620H164V0H84Z" />
      <glyph unicode="O" glyph-name="O" horiz-adv-x="660" d="M330-10Q222-10 162.5,30t-83,118.5T56,342T80,537t83.5,122.5T330,702t166.5-42T580,537.5T604,342q0-118-23.5-196.5t-83-117T330-10Zm0,71q79,0 120,30t56,92.5T521,342q0,93-15.5,157.5t-56.5,98T330,631T211,597.5T154.5,500T139,342q0-93 15-155.5t56-94T330,61Z" />
      <glyph unicode="P" glyph-name="P" horiz-adv-x="592" d="M84,0V691H337q76,0 125-24.5t73-74T559,467q0-75-24-127.5t-73-80T337,232H164V0H84Zm80,302H337q74,0 107,43t33,122q0,80-33,117T337,621H164V302Z" />
      <glyph unicode="Q" glyph-name="Q" horiz-adv-x="660" d="M500-146L412-1q-16-4-37.5-6.5T330-10Q222-10 162.5,29.5t-83,118T56,342q0,115 24,195t83.5,122.5T330,702t166.5-42T580,537.5T604,342q0-121-24.5-199T490,27l85-138l-75-35ZM330,61q79,0 120,30t56,92.5T521,342q0,93-15.5,157.5t-56.5,98T330,631T211,597.5T154.5,500T139,342t15-156.5T210,92T330,61Z" />
      <glyph unicode="R" glyph-name="R" horiz-adv-x="616" d="M84,0V691H341q73,0 122.5-22T538,600.5T563,481q0-76-30.5-128T437,280L569,0H480L358,263H164V0H84Zm80,333H342q51,0 81.5,19T467,404.5T480,480q0,71-34,106T341,621H164V333Z" />
      <glyph unicode="S" glyph-name="S" horiz-adv-x="542" d="M273-9q-30,0-70,3.5t-79.5,9T54,13l8,66q29-3 67.5-7t76-7T269,62q49,0 81,14.5T398,121t16,77q0,38-14.5,60.5t-48,36T262,319q-54,11-94,25t-67,35.5T61,434T48,516q0,67 27.5,108t78,60T271,703q30,0 68.5-3.5t76-8T480,682l-7-67q-29,4-67,7.5T333,629t-56,3q-48,0-81-12t-50-36.5T129,521q0-44 16.5-67T199,418t97-27q52-12 89.5-26t62-34.5t36-51T495,204q0-76-27-123T391,12.5T273-9Z" />
      <glyph unicode="T" glyph-name="T" horiz-adv-x="526" d="M224,0V619H13v72H513V619H304V0H224Z" />
      <glyph unicode="U" glyph-name="U" horiz-adv-x="645" d="M320-10q-76,0-130,22T107.5,82.5T79,211V691h80V209q0-79 42.5-113.5T320,61q80,0 123,34.5T486,209V691h80V211q0-79-28.5-128T454,12T320-10Z" />
      <glyph unicode="V" glyph-name="V" horiz-adv-x="583" d="M204,0L24,691h83L264,71h55L476,691h83L380,0H204Z" />
      <glyph unicode="W" glyph-name="W" horiz-adv-x="888" d="M169,0L30,691h83L229,70h28L397,686h94L631,70h28L775,691h83L718,0H574L437,622h14L314,0H169Z" />
      <glyph unicode="X" glyph-name="X" horiz-adv-x="559" d="M18,0L231,338L18,691h91L281,398L455,691h86L329,341L541,0H450L279,284L104,0H18Z" />
      <glyph unicode="Y" glyph-name="Y" horiz-adv-x="539" d="M230,0V290L10,691h90L269,370L439,691h90L310,290V0H230Z" />
      <glyph unicode="Z" glyph-name="Z" horiz-adv-x="536" d="M43-1V90L400,599v21H43v71H493V600L135,91V71H493V-1H43Z" />
      <glyph unicode="[" glyph-name="bracketleft" horiz-adv-x="330" d="M78-123V749H290V679H157V-53H290v-70H78Z" />
      <glyph unicode="\" glyph-name="backslash" horiz-adv-x="439" d="M339-16L30,677l69,30L409,14L339-16Z" />
      <glyph unicode="]" glyph-name="bracketright" horiz-adv-x="330" d="M252-123H40v70H173V679H40v70H252V-123Z" />
      <glyph unicode="^" glyph-name="asciicircum" horiz-adv-x="560" d="M56,319L242,660h69L503,319H419L277,583L139,319H56Z" />
      <glyph unicode="_" glyph-name="underscore" horiz-adv-x="631" d="M102-159v68H530v-68H102Z" />
      <glyph unicode="`" glyph-name="grave" horiz-adv-x="238" d="M221,590L-2,674l27,67l218-99l-22-52Z" />
      <glyph unicode="a" glyph-name="a" horiz-adv-x="502" d="M181-10Q112-10 76,29T40,143q0,49 17,80t51.5,47.5T194,291l154,15v43q0,51-22.5,72T259,442q-25,0-59.5-2T131,435t-60-6l-4,59q24,5 58,10t71,8.5t68,3.5q57,0 93-17.5t52.5-53T426,349V96q2-22 17.5-32T483,51l-3-61q-14,0-27,1T428.5-5.5T406,0q-13,5-24.5,12T359,29q-19-8-48.5-17t-63-15.5T181-10Zm13,65q27,0 56,5t55,12t43,13V248L203,234q-45-4-64.5-26T119,145q0-42 19-66t56-24Z" />
      <glyph unicode="b" glyph-name="b" horiz-adv-x="527" d="M240-10q-22,0-52.5,1.5T126-4T71,1V717h78V476q16,8 40,15.5t51.5,13T293,510q68,0 108.5-25.5t58-81T477,258q0-100-21.5-158.5t-73-84T240-10Zm-1,70q68,0 101.5,20.5t45,64.5T397,258q0,64-10,104t-34.5,59T285,440q-24,0-50-4.5t-48.5-11T149,412V65q21-2 48.5-3.5T239,60Z" />
      <glyph unicode="c" glyph-name="c" horiz-adv-x="436" d="M257-10q-79,0-124,26.5T69.5,102T51,258q0,91 20.5,146.5T138,485t120,25q17,0 41.5-2.5t50.5-6t45-6.5l-3-64q-17,2-39,4t-43,3.5T275,440q-57,0-88.5-18t-44-57.5T130,258q0-73 11-116.5T183,79t92-19q14,0 35.5,1.5t44,3.5T394,68l2-64q-20-3-46-6T299-7.5T257-10Z" />
      <glyph unicode="d" glyph-name="d" horiz-adv-x="530" d="M230-10q-30,0-57,6.5T123.5,19T84,63.5T58,137T49,246q0,89 21,147.5T137,481t122,29q19,0 42-2t44.5-5t34.5-6V717h78V0H381V33q-16-9-41.5-19t-54-17T230-10Zm10,70q26,0 52.5,6T342,80.5T380,96V431q-12,2-33,4.5T303.5,440T263,442q-51,0-80-22t-41.5-65.5T129,246q0-60 9-96.5t24.5-56T198,67t42-7Z" />
      <glyph unicode="e" glyph-name="e" horiz-adv-x="505" d="M249-10q-75,0-118.5,29T68,105T49,247q0,95 26,152.5t73,84T259,510q100,0 151-55.5T461,276l-4-59H128q1-78 29-118T258,59q28,0 61.5,1.5T386,64t56,4l2-61q-24-4-58.5-8T315-7.5T249-10ZM128,280H383q0,92-29.5,128.5T259,445q-42,0-71-16.5T143.5,376T128,280Z" />
      <glyph unicode="f" glyph-name="f" horiz-adv-x="332" d="M93,0V433H30v67H93v44q0,72 13,112t43,55.5T228,727q12,0 33-1t41-2.5t28-3.5l-1-65q-18,1-43.5,1.5T244,657q-28,0-44-9.5T177.5,613T171,543V500H315V433H171V0H93Z" />
      <glyph unicode="g" glyph-name="g" horiz-adv-x="515" d="M265-235q-78,0-125.5,13.5T70.5-175T49-85q0,29 9,49.5t26.5,38T128,39q-13,10-20.5,28.5T100,109q0,7 5.5,21T119,159.5T134,188q-21,10-38.5,27.5T67,263T56,339q0,62 23.5,99.5t66,54.5T243,510q27,0 57-4t47-9l149,4V435l-94,2q14-14 23.5-37t9.5-61q0-65-22-102t-65-52T240,170q-7,0-23.5,1.5T192,174q-6-14-12-32t-6-25q0-15 3.5-23.5t15-13.5T228,73.5T294,72q72,0 115-12t61.5-43.5T489-75q0-85-59-122.5T265-235Zm1,66q74,0 109,21t35,69q0,37-11.5,54.5T360-1.5T288,4q-9,0-25,0.5t-33,1T199.5,7T181,8Q161-7 148.5-19.5T131-45.5T126-78q0-33 12-53t42.5-29t85.5-9ZM243,232q62,0 88,24.5T357,339t-26,83t-88,25q-58,0-83.5-25T134,339t25.5-82.5T243,232Z" />
      <glyph unicode="h" glyph-name="h" horiz-adv-x="538" d="M72,0V717h77V473q18,8 43.5,16.5T247,504t55,6q52,0 85-13.5t51.5-43t25.5-76T471,265V0H393V262q0,65-7.5,104T356,422.5T288,440q-25,0-51.5-4.5T187,424t-38-13V0H72Z" />
      <glyph unicode="i" glyph-name="i" horiz-adv-x="221" d="M72,0V500h77V0H72Zm0,610v90h77V610H72Z" />
      <glyph unicode="j" glyph-name="j" horiz-adv-x="221" d="M-17-223l-31,60q38,22 61.5,39.5T49.5-88T67-46t5,60V500h78V13q0-46-7.5-79.5t-26-59.5t-51-48.5T-17-223ZM72,610v90h78V610H72Z" />
      <glyph unicode="k" glyph-name="k" horiz-adv-x="481" d="M72,0V717h77V295l77,3L366,500h89L294,269L463,0H374L228,230l-79-4V0H72Z" />
      <glyph unicode="l" glyph-name="l" horiz-adv-x="233" d="M78,0V717h77V0H78Z" />
      <glyph unicode="m" glyph-name="m" horiz-adv-x="836" d="M72,0V500h77V465q16,10 40,20t51.5,17.5T293,510q50,0 80.5-12T423,459q20,11 49,23t62.5,20t65.5,8q51,0 84-13t51.5-42t26-75.5T769,265V0H692V262q0,65-7.5,104T655,422.5T588,440q-26,0-52.5-5.5t-49-14T450,404q7-26 9.5-64.5T462,260V0H385V258q0,68-7,107.5t-29.5,57T281,440q-25,0-50.5-5.5t-46.5-14T149,404V0H72Z" />
      <glyph unicode="n" glyph-name="n" horiz-adv-x="538" d="M72,0V500h77V465q17,10 42.5,20T246,502.5t56,7.5q52,0 85-13.5t51.5-43t26-76T472,265V0H394V262q0,65-7.5,104t-30,56.5T288,440q-25,0-51.5-5.5t-49.5-14T149,404V0H72Z" />
      <glyph unicode="o" glyph-name="o" horiz-adv-x="529" d="M264-10q-84,0-130.5,29t-65,88T50,256q0,86 20.5,142T138,482t126,28q80,0 127-28t67.5-84T479,256q0-90-18.5-149t-65-88T264-10Zm0,67q58,0 87,20.5T389.5,142T399,256q0,69-12,110t-41,59t-82,18q-52,0-81.5-18T141,366T129,256q0-70 9.5-114T177,77.5T264,57Z" />
      <glyph unicode="p" glyph-name="p" horiz-adv-x="528" d="M72-221V500h77V464q16,10 40.5,20.5t52.5,18t54,7.5q64,0 104-26.5T459.5,401T479,256q0-98-22.5-156.5t-71-84T260-10q-31,0-62.5,4T149,1V-221H72ZM256,58q54,0 85.5,20T386,141.5T399,256q0,101-30,142.5T285,440q-24,0-49.5-6T187,419.5T149,402V68q16-2 47-6t60-4Z" />
      <glyph unicode="q" glyph-name="q" horiz-adv-x="527" d="M377-221V23Q355,13 315.5,1.5T238-10q-68,0-109.5,26T68,98T49,242q0,99 22.5,158T146,484.5T286,510q19,0 49-1.5t62.5-4T455,500V-221H377ZM246,60q38,0 74.5,9.5T377,88V437q-19,2-46,3.5T287,442q-64,0-98.5-21.5T141,355T128,242q0-92 27-137t91-45Z" />
      <glyph unicode="r" glyph-name="r" horiz-adv-x="347" d="M72,0V500h77V433q19,13 48,28.5T261,491t70,20V432q-34-7-69-18.5T197.5,389T149,366V0H72Z" />
      <glyph unicode="s" glyph-name="s" horiz-adv-x="466" d="M228-10q-23,0-55.5,3T108,0.5T51,9l4,67q25-3 56.5-7T173,62.5T221,60q41,0 68,7.5T330,93t14,51q0,25-10.5,39t-39,23T212,223q-56,9-93.5,22.5T63,286T45,363q0,56 26,88t67.5,45.5T225,510q28,0 61.5-3t65.5-7.5t55-8.5l-2-67q-24,4-56,7.5t-64,6T229,440q-30,0-54-6.5T137,411t-14-45q0-22 10-35.5T171,308t81-18q62-10 99.5-25T406,223t17-76q0-58-23.5-92.5T332.5,5T228-10Z" />
      <glyph unicode="t" glyph-name="t" horiz-adv-x="351" d="M236-11q-52,0-82.5,16T110,60.5T97,172V433H26v67H97V653h77V500H331V433H174V195q0-53 4.5-82.5T198,71t47-12q10,0 26,1t32.5,2.5T333,65l5-65q-14-2-33-4.5T267.5-9T236-11Z" />
      <glyph unicode="u" glyph-name="u" horiz-adv-x="532" d="M224-10q-64,0-98,26T79.5,97T67,239V500h77V239q0-66 6.5-105T179,77.5T245,60t80,12t58,24V500h77V0H383V35Q351,17 313.5,3.5T224-10Z" />
      <glyph unicode="v" glyph-name="v" horiz-adv-x="482" d="M164,0L24,500h84L222,67h38L378,500h80L318,0H164Z" />
      <glyph unicode="w" glyph-name="w" horiz-adv-x="763" d="M149,0L31,500h78L207,67h17L341,490h81L539,67h17l98,433h78L614,0H485L381,387L278,0H149Z" />
      <glyph unicode="x" glyph-name="x" horiz-adv-x="453" d="M22,0L177,250L22,500h85L226,306L346,500h85L274,252L431,0H346L226,193L107,0H22Z" />
      <glyph unicode="y" glyph-name="y" horiz-adv-x="484" d="M176-221L241,0H166L25,500h78L225,67h34L382,500h78L254-221H176Z" />
      <glyph unicode="z" glyph-name="z" horiz-adv-x="455" d="M42,0V70L318,430H42v70H413V430L137,70H413V0H42Z" />
      <glyph unicode="{" glyph-name="braceleft" horiz-adv-x="352" d="M311-128q-51,2-87,13T166-83T134-30T124,47q0,17 1.5,36t2.5,37q2,15 2.5,28t0.5,21q0,42-25.5,68.5T23,280v63q58,14 83,40t25,69q0,10-1,24.5T128,507q-1,19-2.5,38T124,579q0,46 10,78.5T166.5,711T225,742.5T312,755l1-67q-45-2-69.5-16t-34-38.5T200,575q0-13 1.5-30t2.5-35q1-16 2-31.5t1-26.5q0-42-9-68.5t-31.5-43T102,312q42-12 64.5-29T198,239t9-69q0-10-1-22.5T204,122q-1-18-2.5-35T200,54q0-33 9-58t33.5-39.5T312-61l-1-67Z" />
      <glyph unicode="|" glyph-name="bar" horiz-adv-x="232" d="M77-221V717h78V-221H77Z" />
      <glyph unicode="}" glyph-name="braceright" horiz-adv-x="352" d="M41-128L40-61q46,3 70,17.5T143-4t9,58q0,16-1,33t-3,35q-1,13-2,25.5T145,170q0,42 9,69t32,44t64,29q-41,12-64,28.5t-32,43T145,452q0,11 1,26.5t2,31.5q2,18 3,35t1,30q0,34-9.5,58.5T109,672T39,688l1,67q51-2 87-12.5T185.5,711T218,657.5T228,579q0-15-1-34t-3-38q-1-16-2-30.5T221,452q0-43 25-69t83-40V280q-57-16-82.5-42.5T221,169q0-8 1-21t2-28q2-18 3-37t1-36q0-45-10-77T186-83t-58-32T41-128Z" />
      <glyph unicode="~" glyph-name="asciitilde" horiz-adv-x="560" d="M382,194q-19,0-47.5,9t-58,21t-55,21T182,254q-15,0-34.5-7.5t-38-18T77,208L67,272q14,12 33.5,24T142,316.5t41,8.5q20,0 47.5-9t56-21t54-21t42.5-9q14,0 32.5,7.5t37,18.5T485,311l10-64q-13-11-32-23.5t-40-21T382,194Z" />
      <glyph unicode="&#xa0;" glyph-name="uni00A0" horiz-adv-x="220" />
      <glyph unicode="&#xa1;" glyph-name="exclamdown" horiz-adv-x="230" d="M150,270l6-461H73l6,461h71Zm7,230V385H72V500h85Z" />
      <glyph unicode="&#xa2;" glyph-name="cent" horiz-adv-x="560" d="M278-81V36q-59,3-99,23t-59.5,65.5T100,248q0,74 20,121t59.5,70T277,465V582h68V463q23-1 52-5t48-8l-3-62q-14,2-38.5,3.5t-49,2.5T313,395q-73,0-102.5-33.5T181,248q0-53 12-84.5t42.5-45T319,105q18,0 41,1t45,3t38,3l3-63q-19-3-48.5-6.5T345,38V-81H278Z" />
      <glyph unicode="&#xa3;" glyph-name="sterling" horiz-adv-x="560" d="M80,0V69h84V350H97v68h67v55q0,60 9,98.5t27,60t46,30t67,8.5q20,0 45-3t49-6.5t41-7.5l-2-63q-17,2-39.5,4.5t-45.5,4T321,600q-31,0-48.5-11.5t-24.5-40T241,468V418H410V350H241V69H393l76,16l13-67L401,0H80Z" />
      <glyph unicode="&#xa4;" glyph-name="currency" horiz-adv-x="560" d="M280,70q-50,1-91.5,25.5t-66,65.5T98,252t24.5,91.5t66,66T280,434t91.5-24.5t66-66T462,252t-24.5-91t-66-65.5T280,70ZM111,29L57,83L158,184l54-54L111,29ZM280,139q31,0 56.5,15.5t41,41T393,252t-15.5,56.5t-41,41T280,365t-56.5-15.5t-41-41T167,252t15.5-56.5t41-41T280,139ZM158,320L57,421l54,54L212,374l-54-54ZM449,29L348,130l54,54L503,83L449,29ZM402,320l-54,54L449,475l54-54L402,320Z" />
      <glyph unicode="&#xa5;" glyph-name="yen" horiz-adv-x="560" d="M241,0V161H58v68H241v66l-7,19H57v67H194L22,660h89L281,393L448,660h90L368,381H502V314H329l-8-19V229H503V161H321V0H241Z" />
      <glyph unicode="&#xa6;" glyph-name="brokenbar" horiz-adv-x="236" d="M79,343V717h78V343H79Zm0-564V156h78V-221H79Z" />
      <glyph unicode="&#xa7;" glyph-name="section" horiz-adv-x="500" d="M245-152q-23,0-55,3t-64,7t-56,7l7,65q14-2 31-4t35.5-3.5t36-3T213-83t28-1q59,0 90,23.5T362,12q0,32-15,48T300.5,85T219,104q-56,11-93.5,26.5T69.5,175T51,253q0,37 19.5,73T110,379q-14,11-24,25.5T71,440t-5,50q0,55 22.5,90.5t66,53T259,651q24,0 54-3t59.5-7t50.5-8l-3-65q-24,3-54,6.5T308.5,580T263,582q-64,0-92.5-21.5T142,492q0-33 15-51t46.5-27.5T284,394q55-10 90-25t52.5-42.5T444,249q0-34-13.5-71T401,117q12-10 20-23t12-31.5T437,17q0-43-12-75t-36-52.5t-60-31T245-152Zm96,298q9,14 17,41t8,52q0,31-12.5,48T316,313t-64,16q-28,5-52,10.5T162,351q-11-13-22-38t-11-48q0-45 26-63t84-28q21-4 39.5-8.5t34.5-9T341,146Z" />
      <glyph unicode="&#xa8;" glyph-name="dieresis" horiz-adv-x="296" d="M211,620v92h75V620H211ZM10,620v92H85V620H10Z" />
      <glyph unicode="&#xa9;" glyph-name="copyright" horiz-adv-x="645" d="M322,161q-76,0-135.5,36.5T93,296T59,434q0,77 34,139t94,98.5T323,708q78,0 137.5-37t93-99.5T587,434q0-76-33.5-138t-93-98.5T322,161Zm4,115q-44,0-69.5,17T220,345.5T209,436q0,52 11,86.5t37,52T328,592q23,0 44.5-3.5T404,581l-3-55q-13,2-33.5,4.5T330,533q-25,0-38-10.5t-17-32T271,436q0-49 12-75t47-26q17,0 37.5,2.5T401,342l3-54q-11-4-33-8t-45-4Zm-4-71q64,0 113.5,31t78,83T542,434q0,47-16.5,89T479,596.5T409,646t-87,18q-63,0-112.5-31t-78-83.5T103,434t28.5-115t78-83T322,205Z" />
      <glyph unicode="&#xaa;" glyph-name="ordfeminine" horiz-adv-x="388" d="M329,354q-26,2-45,7t-30.5,15T238,404V562q0,23-11.5,31.5T189,601q-19,0-53.5-2.5T75,594l-4,49q28,7 61.5,11.5T195,659q56,0 83-22t27-78V422q5-7 13-10.5t16-5.5l-5-52Zm-191,1q-38,0-61.5,25.5T53,447q0,42 24.5,63.5T151,535l106,6l1-47l-97-7q-22-1-31-9.5T121,449q0-19 9-29t26-10q25,0 54.5,7.5T261,433l1-41q-23-16-57-26.5T138,355Z" />
      <glyph unicode="&#xab;" glyph-name="guillemotleft" horiz-adv-x="542" d="M475,65L284,217v62L475,423V342L352,250L475,146V65ZM236,65L45,217v62L236,423V342L112,250L236,146V65Z" />
      <glyph unicode="&#xac;" glyph-name="logicalnot" horiz-adv-x="560" d="M421,117V272H65v71H493V117H421Z" />
      <glyph unicode="&#xad;" glyph-name="uni00AD" horiz-adv-x="437" d="M67,239v72H370V239H67Z" />
      <glyph unicode="&#xae;" glyph-name="registered" horiz-adv-x="645" d="M322,161q-76,0-135.5,36.5T93,296T59,434q0,77 34,139t93.5,98.5T322,708q79,0 138.5-37t93-99.5T587,434q0-76-33.5-138t-93-98.5T322,161Zm0,44q64,0 113.5,31t78,83T542,434q0,47-16.5,89T479,596.5T409,646t-87,18t-87-18t-69.5-49.5t-46-73.5T103,434t16.5-88.5t46-73T235,223t87-18ZM212,282V585H324q53,0 83-21t30-75q0-37-10.5-58.5T387,397l55-115H379L329,388H272V282H212Zm60,154h57q26,0 38,12t12,38q0,27-14.5,39T318,537H272V436Z" />
      <glyph unicode="&#xaf;" glyph-name="macron" horiz-adv-x="238" d="M-14,623v61H262V623H-14Z" />
      <glyph unicode="&#xb0;" glyph-name="degree" horiz-adv-x="560" d="M280,419q-63,0-102.5,38.5T138,560q0,63 39.5,102.5T280,702t102.5-39.5T422,560q0-64-39.5-102.5T280,419Zm0,49q41,0 66.5,25.5T372,560t-25.5,66.5T280,652t-65.5-25.5T190,560t24.5-66.5T280,468Z" />
      <glyph unicode="&#xb1;" glyph-name="plusminus" horiz-adv-x="560" d="M243,167V292H55v71H243V488h72V363H505V292H315V167H243ZM55,37v71H505V37H55Z" />
      <glyph unicode="&#xb2;" glyph-name="uni00B2" horiz-adv-x="280" d="M30,478v56l87,87q23,22 36.5,40.5T167,702q0,19-13,27.5T119,738q-16,0-41-3t-43-6l-3,60q20,4 50,7.5t54,3.5q53,0 76.5-22.5T236,708q0-23-6.5-41t-20-34.5T175,597l-62-59H239V478H30Z" />
      <glyph unicode="&#xb3;" glyph-name="uni00B3" horiz-adv-x="280" d="M139,468q-23,0-56,3.5T30,478l4,58q18-3 47.5-5.5T128,528q29,0 41.5,9.5T182,569q0,23-12.5,32T137,610H71v55h65q14,0 25.5,12T173,709q0,17-11.5,24T124,740q-18,0-44-2.5T38,733l-4,59q21,3 49.5,5.5T134,800q55,0 81.5-19.5T242,717q0-31-11.5-49T203,643q23-7 34.5-23T249,569q0-52-27-76.5T139,468Z" />
      <glyph unicode="&#xb4;" glyph-name="acute" horiz-adv-x="268" d="M46,590L25,642l218,99l26-67L46,590Z" />
      <glyph unicode="&#xb5;" glyph-name="uni03BC" horiz-adv-x="525" d="M224-10q-64,0-98,26T79.5,97T67,239V500h77V239q0-66 6.5-105T179,77.5T245,60t80,12t58,24V500h77V0H383V35Q351,17 313.5,3.5T224-10ZM67-185V315h77V-185H67Z" />
      <glyph unicode="&#xb6;" glyph-name="paragraph" horiz-adv-x="593" d="M228,0V322h-7q-53,0-95.5,23.5T59,410.5T35,506q0,55 24.5,96.5t66.5,65T222,691H551V623H480V0H411V623H297V0H228Z" />
      <glyph unicode="&#xb7;" glyph-name="periodcentered" horiz-adv-x="219" d="M68,226V343h85V226H68Z" />
      <glyph unicode="&#xb8;" glyph-name="cedilla" horiz-adv-x="263" d="M128-218q-24,0-48.5,2T41-211l3,49q9-1 31-1.5t34-0.5q21,0 32.5,8.5T153-127q0,19-11.5,26T109-94H68V1h42V-48q37,0 62-6.5T209.5-78T222-127q0-48-26-69.5T128-218Z" />
      <glyph unicode="&#xb9;" glyph-name="uni00B9" horiz-adv-x="280" d="M128,478V717L61,672L30,720l102,70h62V478H128Z" />
      <glyph unicode="&#xba;" glyph-name="ordmasculine" horiz-adv-x="382" d="M192,355q-69,0-104,37.5T53,509q0,78 35,114t104,36q68,0 102.5-36T329,509q0-79-34.5-116.5T192,355Zm0,63q37,0 51,21.5T257,508q0,48-14,68t-51,20t-52.5-20T124,508q0-47 15.5-68.5T192,418Z" />
      <glyph unicode="&#xbb;" glyph-name="guillemotright" horiz-adv-x="543" d="M306,65v81L430,250L306,342v81L497,279V217L306,65ZM66,65v81L190,250L66,342v81L258,279V217L66,65Z" />
      <glyph unicode="&#xbc;" glyph-name="onequarter" horiz-adv-x="564" d="M128,478V717L61,672L30,720l102,70h62V478H128ZM96,3L56,28L448,660l40-26L96,3ZM426-122v48H286v55l67,209h73L354-15h72l6,89h59V-15h26V-74H491v-48H426Z" />
      <glyph unicode="&#xbd;" glyph-name="onehalf" horiz-adv-x="564" d="M128,478V717L61,672L30,720l102,70h62V478H128ZM96,3L56,28L448,660l40-26L96,3ZM314-122v56l87,87q23,22 36.5,40.5T451,102q0,19-13,27.5T403,138q-16,0-41-3t-43-6l-3,60q20,4 50,7.5t54,3.5q53,0 76.5-22.5T520,108q0-23-6.5-41t-20-34.5T459-3L397-62H523v-60H314Z" />
      <glyph unicode="&#xbe;" glyph-name="threequarters" horiz-adv-x="564" d="M139,468q-23,0-56,3.5T30,478l4,58q18-3 47.5-5.5T128,528q29,0 41.5,9.5T182,569q0,23-12.5,32T137,610H71v55h65q14,0 25.5,12T173,709q0,17-11.5,24T124,740q-18,0-44-2.5T38,733l-4,59q21,3 49.5,5.5T134,800q55,0 81.5-19.5T242,717q0-31-11.5-49T203,643q23-7 34.5-23T249,569q0-52-27-76.5T139,468ZM96,3L56,28L448,660l40-26L96,3ZM426-122v48H286v55l67,209h73L354-15h72l6,89h59V-15h26V-74H491v-48H426Z" />
      <glyph unicode="&#xbf;" glyph-name="questiondown" horiz-adv-x="441" d="M283,299q5-10 9.5-26t4.5-36q0-24-12-45.5T252.5,149T205,105q-36-31-55-51.5t-26-40T117-34q0-52 31.5-74T247-130q21,0 49,3.5t56,9T401-107l6-63q-22-7-52-14t-60.5-12T239-201q-67,0-112,16T59.5-133.5T37-40q0,43 7,71T71,84t59,57q44,37 66,63.5T218,264v35h65Zm11,201V385H210V500h84Z" />
      <glyph unicode="&#xc0;" glyph-name="Agrave" horiz-adv-x="596" d="M23,0L212,691H385L573,0H493L444,175H152L103,0H23ZM169,246H427L324,623H272L169,246ZM383,776L162,863l26,69L406,832l-23-56Z" />
      <glyph unicode="&#xc1;" glyph-name="Aacute" horiz-adv-x="596" d="M23,0L212,691H385L573,0H493L444,175H152L103,0H23ZM169,246H427L324,623H272L169,246Zm39,530l-23,56L403,932l26-69L208,776Z" />
      <glyph unicode="&#xc2;" glyph-name="Acircumflex" horiz-adv-x="596" d="M23,0L212,691H385L573,0H493L444,175H152L103,0H23ZM169,246H427L324,623H272L169,246ZM129,790L263,925h68L465,790H378l-80,79l-81-79H129Z" />
      <glyph unicode="&#xc3;" glyph-name="Atilde" horiz-adv-x="596" d="M23,0L212,691H385L573,0H493L444,175H152L103,0H23ZM169,246H427L324,623H272L169,246ZM378,801q-18,0-41,8t-47,19t-44,19t-31,8q-13,0-35-16.5T142,807l-18,58q11,13 26,26t32,22.5t32,9.5q19,0 42.5-8T303,896.5T345.5,878t31.5-8q11,0 32,15t37,30l18-58q-9-12-23.5-25t-31-22T378,801Z" />
      <glyph unicode="&#xc4;" glyph-name="Adieresis" horiz-adv-x="596" d="M23,0L212,691H385L573,0H493L444,175H152L103,0H23ZM169,246H427L324,623H272L169,246ZM362,806v92h75V806H362Zm-204,0v92h75V806H158Z" />
      <glyph unicode="&#xc5;" glyph-name="Aring" horiz-adv-x="596" d="M23,0L212,691H385L573,0H493L444,175H152L103,0H23ZM169,246H427L324,623H272L169,246ZM298,636q-52,0-86,28t-34,78q0,34 15.5,58t43,36.5T298,849q50,0 84.5-28T417,742q0-50-34.5-78T298,636Zm0,53q19,0 32.5,6.5t21,18.5t7.5,28q0,26-16,39.5T298,795q-19,0-33-6t-21.5-18T236,742q0-25 16.5-39T298,689Z" />
      <glyph unicode="&#xc6;" glyph-name="AE" horiz-adv-x="876" d="M19,0L241,696H829V619H486V394H769V318H486V76H829V0H407V172H159L102,0H19ZM180,249H407l1,370H299L180,249Z" />
      <glyph unicode="&#xc7;" glyph-name="Ccedilla" horiz-adv-x="544" d="M312-10q-78,0-127.5,23T107,81T68.5,192T58,344q0,88 10.5,155T107,611t77.5,68T312,702q36,0 71.5-3.5t66.5-9T503,679l-3-67q-22,4-54,8t-65,7t-60,3q-57,0-92.5-17T174,560.5t-26-89T141,344q0-72 7-125.5t25.5-88T228,79t94-17q42,0 92.5,5.5T500,79l3-68Q479,6 447,1T380-7t-68-3Zm28-208q-24,0-48.5,2T253-211l3,49q9-1 31-1.5t34-0.5q21,0 32.5,8.5T365-127q0,19-11.5,26T321-94H280V1h42V-48q37,0 62-6.5T421.5-78T434-127q0-48-26-69.5T340-218Z" />
      <glyph unicode="&#xc8;" glyph-name="Egrave" horiz-adv-x="553" d="M84,0V691H507V620H164V386H447V316H164V71H507V0H84ZM389,776L168,863l26,69L412,832l-23-56Z" />
      <glyph unicode="&#xc9;" glyph-name="Eacute" horiz-adv-x="553" d="M84,0V691H507V620H164V386H447V316H164V71H507V0H84ZM199,776l-23,56L394,932l26-69L199,776Z" />
      <glyph unicode="&#xca;" glyph-name="Ecircumflex" horiz-adv-x="553" d="M84,0V691H507V620H164V386H447V316H164V71H507V0H84Zm42,790L260,925h68L462,790H375l-80,79l-81-79H126Z" />
      <glyph unicode="&#xcb;" glyph-name="Edieresis" horiz-adv-x="553" d="M84,0V691H507V620H164V386H447V316H164V71H507V0H84ZM359,806v92h75V806H359Zm-204,0v92h75V806H155Z" />
      <glyph unicode="&#xcc;" glyph-name="Igrave" horiz-adv-x="248" d="M84,0V691h80V0H84ZM201,776L-20,863L6,932L224,832l-23-56Z" />
      <glyph unicode="&#xcd;" glyph-name="Iacute" horiz-adv-x="248" d="M84,0V691h80V0H84ZM36,776L13,832L231,932l26-69L36,776Z" />
      <glyph unicode="&#xce;" glyph-name="Icircumflex" horiz-adv-x="248" d="M84,0V691h80V0H84ZM-48,790L86,925h68L288,790H201l-80,79L40,790H-48Z" />
      <glyph unicode="&#xcf;" glyph-name="Idieresis" horiz-adv-x="248" d="M84,0V691h80V0H84ZM188,806v92h75V806H188Zm-204,0v92H59V806H-16Z" />
      <glyph unicode="&#xd0;" glyph-name="Eth" horiz-adv-x="647" d="M20,309v77H323V309H20ZM87,0V691H334q76,0 126-24.5t79-69t41-106T592,356q0-75-11.5-139.5T540,103T461,27T334,0H87Zm80,71H334q54,0 88,23t53,63t26.5,91T509,356q0,56-7.5,104T475,544t-53,56t-88,20H167V71Z" />
      <glyph unicode="&#xd1;" glyph-name="Ntilde" horiz-adv-x="677" d="M84,0V691H233L493,71h20V691h80V0H447L183,620H164V0H84ZM420,801q-18,0-41,8t-47,19t-44,19t-31,8q-13,0-35-16.5T184,807l-18,58q11,13 26,26t32,22.5t32,9.5q19,0 42.5-8T345,896.5T387.5,878t31.5-8q11,0 32,15t37,30l18-58q-9-12-23.5-25t-31-22T420,801Z" />
      <glyph unicode="&#xd2;" glyph-name="Ograve" horiz-adv-x="660" d="M330-10Q222-10 162.5,30t-83,118.5T56,342T80,537t83.5,122.5T330,702t166.5-42T580,537.5T604,342q0-118-23.5-196.5t-83-117T330-10Zm0,71q79,0 120,30t56,92.5T521,342q0,93-15.5,157.5t-56.5,98T330,631T211,597.5T154.5,500T139,342q0-93 15-155.5t56-94T330,61Zm90,715L199,863l26,69L443,832l-23-56Z" />
      <glyph unicode="&#xd3;" glyph-name="Oacute" horiz-adv-x="660" d="M330-10Q222-10 162.5,30t-83,118.5T56,342T80,537t83.5,122.5T330,702t166.5-42T580,537.5T604,342q0-118-23.5-196.5t-83-117T330-10Zm0,71q79,0 120,30t56,92.5T521,342q0,93-15.5,157.5t-56.5,98T330,631T211,597.5T154.5,500T139,342q0-93 15-155.5t56-94T330,61ZM220,776l-23,56L415,932l26-69L220,776Z" />
      <glyph unicode="&#xd4;" glyph-name="Ocircumflex" horiz-adv-x="660" d="M330-10Q222-10 162.5,30t-83,118.5T56,342T80,537t83.5,122.5T330,702t166.5-42T580,537.5T604,342q0-118-23.5-196.5t-83-117T330-10Zm0,71q79,0 120,30t56,92.5T521,342q0,93-15.5,157.5t-56.5,98T330,631T211,597.5T154.5,500T139,342q0-93 15-155.5t56-94T330,61ZM162,790L296,925h68L498,790H411l-80,79l-81-79H162Z" />
      <glyph unicode="&#xd5;" glyph-name="Otilde" horiz-adv-x="660" d="M330-10Q222-10 162.5,30t-83,118.5T56,342T80,537t83.5,122.5T330,702t166.5-42T580,537.5T604,342q0-118-23.5-196.5t-83-117T330-10Zm0,71q79,0 120,30t56,92.5T521,342q0,93-15.5,157.5t-56.5,98T330,631T211,597.5T154.5,500T139,342q0-93 15-155.5t56-94T330,61Zm81,740q-18,0-41,8t-47,19t-44,19t-31,8q-13,0-35-16.5T175,807l-18,58q11,13 26,26t32,22.5t32,9.5q19,0 42.5-8T336,896.5T378.5,878t31.5-8q11,0 32,15t37,30l18-58q-9-12-23.5-25t-31-22T411,801Z" />
      <glyph unicode="&#xd6;" glyph-name="Odieresis" horiz-adv-x="660" d="M330-10Q222-10 162.5,30t-83,118.5T56,342T80,537t83.5,122.5T330,702t166.5-42T580,537.5T604,342q0-118-23.5-196.5t-83-117T330-10Zm0,71q79,0 120,30t56,92.5T521,342q0,93-15.5,157.5t-56.5,98T330,631T211,597.5T154.5,500T139,342q0-93 15-155.5t56-94T330,61Zm64,745v92h75V806H394Zm-204,0v92h75V806H190Z" />
      <glyph unicode="&#xd7;" glyph-name="multiply" horiz-adv-x="560" d="M121,41L70,91L232,251L71,410l50,50L280,299L440,461l50-51L328,251L490,91L439,41L280,202L121,41Z" />
      <glyph unicode="&#xd8;" glyph-name="Oslash" horiz-adv-x="660" d="M305,206l-59,28L511,800l60-26L305,206ZM154-117L95-89L303,356l60-26L154-117ZM330-10Q222-10 162.5,30t-83,118.5T56,342T80,537t83.5,122.5T330,702t166.5-42T580,537.5T604,342q0-118-23.5-196.5t-83-117T330-10Zm0,71q79,0 120,30t56,92.5T521,342q0,93-15.5,157.5t-56.5,98T330,631T211,597.5T154.5,500T139,342q0-93 15-155.5t56-94T330,61Z" />
      <glyph unicode="&#xd9;" glyph-name="Ugrave" horiz-adv-x="645" d="M320-10q-76,0-130,22T107.5,82.5T79,211V691h80V209q0-79 42.5-113.5T320,61q80,0 123,34.5T486,209V691h80V211q0-79-28.5-128T454,12T320-10Zm96,786L195,863l26,69L439,832l-23-56Z" />
      <glyph unicode="&#xda;" glyph-name="Uacute" horiz-adv-x="645" d="M320-10q-76,0-130,22T107.5,82.5T79,211V691h80V209q0-79 42.5-113.5T320,61q80,0 123,34.5T486,209V691h80V211q0-79-28.5-128T454,12T320-10ZM221,776l-23,56L416,932l26-69L221,776Z" />
      <glyph unicode="&#xdb;" glyph-name="Ucircumflex" horiz-adv-x="645" d="M320-10q-76,0-130,22T107.5,82.5T79,211V691h80V209q0-79 42.5-113.5T320,61q80,0 123,34.5T486,209V691h80V211q0-79-28.5-128T454,12T320-10ZM154,790L288,925h68L490,790H403l-80,79l-81-79H154Z" />
      <glyph unicode="&#xdc;" glyph-name="Udieresis" horiz-adv-x="645" d="M320-10q-76,0-130,22T107.5,82.5T79,211V691h80V209q0-79 42.5-113.5T320,61q80,0 123,34.5T486,209V691h80V211q0-79-28.5-128T454,12T320-10Zm67,816v92h75V806H387Zm-204,0v92h75V806H183Z" />
      <glyph unicode="&#xdd;" glyph-name="Yacute" horiz-adv-x="539" d="M230,0V290L10,691h90L269,370L439,691h90L310,290V0H230ZM189,776l-23,56L384,932l26-69L189,776Z" />
      <glyph unicode="&#xde;" glyph-name="Thorn" horiz-adv-x="599" d="M84,0V696h80V584H337q76,0 125.5-24.5T536,486t24-125T536,231t-73.5-83T337,119H164V0H84Zm80,197H337q74,0 107.5,44T478,361T444.5,472.5T337,508H164V197Z" />
      <glyph unicode="&#xdf;" glyph-name="germandbls" horiz-adv-x="576" d="M341-10q-19,0-43.5,2.5t-48,6T209,5l3,65q18-2 41.5-4.5t45.5-4T334,60q74,0 100,27t26,78q0,27-8.5,45t-32,33.5T352,280q-42,20-65.5,36.5t-33.5,36T243,399q0,25 8.5,42.5t26,30T320,495q26,11 40,22.5t19,26t5,34.5q0,44-25,61.5T269,657q-43,0-69.5-10.5T161,610t-12-75V0H72V544q0,51 11.5,86.5t35,56.5t61,30.5T269,727q69,0 112.5-15T445,665.5T465,582q0-36-9-60t-27-39.5T383,454q-24-11-37-18.5T328,421t-5-17t7-18.5t26.5-20T412,336q47-23 75.5-44t41-47.5T541,177q0-68-20-109T457.5,8.5T341-10Z" />
      <glyph unicode="&#xe0;" glyph-name="agrave" horiz-adv-x="502" d="M181-10Q112-10 76,29T40,143q0,49 17,80t51.5,47.5T194,291l154,15v43q0,51-22.5,72T259,442q-25,0-59.5-2T131,435t-60-6l-4,59q24,5 58,10t71,8.5t68,3.5q57,0 93-17.5t52.5-53T426,349V96q2-22 17.5-32T483,51l-3-61q-14,0-27,1T428.5-5.5T406,0q-13,5-24.5,12T359,29q-19-8-48.5-17t-63-15.5T181-10Zm13,65q27,0 56,5t55,12t43,13V248L203,234q-45-4-64.5-26T119,145q0-42 19-66t56-24ZM343,590L120,674l27,67l218-99l-22-52Z" />
      <glyph unicode="&#xe1;" glyph-name="aacute" horiz-adv-x="502" d="M181-10Q112-10 76,29T40,143q0,49 17,80t51.5,47.5T194,291l154,15v43q0,51-22.5,72T259,442q-25,0-59.5-2T131,435t-60-6l-4,59q24,5 58,10t71,8.5t68,3.5q57,0 93-17.5t52.5-53T426,349V96q2-22 17.5-32T483,51l-3-61q-14,0-27,1T428.5-5.5T406,0q-13,5-24.5,12T359,29q-19-8-48.5-17t-63-15.5T181-10Zm13,65q27,0 56,5t55,12t43,13V248L203,234q-45-4-64.5-26T119,145q0-42 19-66t56-24ZM138,590l-21,52l218,99l26-67L138,590Z" />
      <glyph unicode="&#xe2;" glyph-name="acircumflex" horiz-adv-x="502" d="M181-10Q112-10 76,29T40,143q0,49 17,80t51.5,47.5T194,291l154,15v43q0,51-22.5,72T259,442q-25,0-59.5-2T131,435t-60-6l-4,59q24,5 58,10t71,8.5t68,3.5q57,0 93-17.5t52.5-53T426,349V96q2-22 17.5-32T483,51l-3-61q-14,0-27,1T428.5-5.5T406,0q-13,5-24.5,12T359,29q-19-8-48.5-17t-63-15.5T181-10Zm13,65q27,0 56,5t55,12t43,13V248L203,234q-45-4-64.5-26T119,145q0-42 19-66t56-24ZM94,591L217,732h52L394,591H317l-73,86l-72-86H94Z" />
      <glyph unicode="&#xe3;" glyph-name="atilde" horiz-adv-x="502" d="M181-10Q112-10 76,29T40,143q0,49 17,80t51.5,47.5T194,291l154,15v43q0,51-22.5,72T259,442q-25,0-59.5-2T131,435t-60-6l-4,59q24,5 58,10t71,8.5t68,3.5q57,0 93-17.5t52.5-53T426,349V96q2-22 17.5-32T483,51l-3-61q-14,0-27,1T428.5-5.5T406,0q-13,5-24.5,12T359,29q-19-8-48.5-17t-63-15.5T181-10Zm13,65q27,0 56,5t55,12t43,13V248L203,234q-45-4-64.5-26T119,145q0-42 19-66t56-24ZM306,611q-15,0-34,7t-38.5,16t-37,16T167,657q-13,0-35-13.5T94,618L76,667q11,11 26.5,23T135,710.5t32,8.5q16,0 35-7t38.5-15.5T277,681t28-7q12,0 33.5,12.5T375,712l18-50q-10-11-24.5-23t-31-20T306,611Z" />
      <glyph unicode="&#xe4;" glyph-name="adieresis" horiz-adv-x="502" d="M181-10Q112-10 76,29T40,143q0,49 17,80t51.5,47.5T194,291l154,15v43q0,51-22.5,72T259,442q-25,0-59.5-2T131,435t-60-6l-4,59q24,5 58,10t71,8.5t68,3.5q57,0 93-17.5t52.5-53T426,349V96q2-22 17.5-32T483,51l-3-61q-14,0-27,1T428.5-5.5T406,0q-13,5-24.5,12T359,29q-19-8-48.5-17t-63-15.5T181-10Zm13,65q27,0 56,5t55,12t43,13V248L203,234q-45-4-64.5-26T119,145q0-42 19-66t56-24ZM327,620v92h75V620H327Zm-201,0v92h75V620H126Z" />
      <glyph unicode="&#xe5;" glyph-name="aring" horiz-adv-x="502" d="M181-10Q112-10 76,29T40,143q0,49 17,80t51.5,47.5T194,291l154,15v43q0,51-22.5,72T259,442q-25,0-59.5-2T131,435t-60-6l-4,59q24,5 58,10t71,8.5t68,3.5q57,0 93-17.5t52.5-53T426,349V96q2-22 17.5-32T483,51l-3-61q-14,0-27,1T428.5-5.5T406,0q-13,5-24.5,12T359,29q-19-8-48.5-17t-63-15.5T181-10Zm13,65q27,0 56,5t55,12t43,13V248L203,234q-45-4-64.5-26T119,145q0-42 19-66t56-24Zm62,485q-45,0-75,30t-30,75q0,29 14,52.5T202.5,735T256,749q44,0 74-30t30-74q0-45-30-75t-74-30Zm0,49q16,0 28,7.5t19,20t7,28.5q0,23-15.5,39T256,700q-15,0-27.5-7.5t-20-20T201,645q0-24 16-40t39-16Z" />
      <glyph unicode="&#xe6;" glyph-name="ae" horiz-adv-x="803" d="M176-10Q109-10 74.5,30T40,143q0,56 19.5,86.5t59.5,45T220,295l128,11v41q0,46-22,67t-63,21q-27,0-62-1.5T132,430t-59-5l-3,70q26,3 61,6.5t71.5,6T267,510q51,0 84.5-17.5T401,439q27,38 67,54.5T557,510q100,0 151-55.5T759,276l-5-59H426q0-77 28.5-116.5T556,61q28,0 61.5,1.5t66,3.5T739,70l2-63q-24-4-58-8T612.5-7.5T546-10q-52,0-88,14T399,43q-36-16-71-28T256-3.5T176-10Zm13,68q24,0 51.5,4.5T293,73t44,11.5T364,93q-10,26-14,69t-4,81L203,231q-43-3-63.5-23T119,145t18.5-65T189,58ZM426,280H681q0,88-29.5,124T557,440q-64,0-97.5-37T426,280Z" />
      <glyph unicode="&#xe7;" glyph-name="ccedilla" horiz-adv-x="436" d="M257-10q-79,0-124,26.5T69.5,102T51,258q0,91 20.5,146.5T138,485t120,25q17,0 41.5-2.5t50.5-6t45-6.5l-3-64q-17,2-39,4t-43,3.5T275,440q-57,0-88.5-18t-44-57.5T130,258q0-73 11-116.5T183,79t92-19q14,0 35.5,1.5t44,3.5T394,68l2-64q-20-3-46-6T299-7.5T257-10Zm10-208q-24,0-48.5,2T180-211l3,49q9-1 31-1.5t34-0.5q21,0 32.5,8.5T292-127q0,19-11.5,26T248-94H207V1h42V-48q37,0 62-6.5T348.5-78T361-127q0-48-26-69.5T267-218Z" />
      <glyph unicode="&#xe8;" glyph-name="egrave" horiz-adv-x="505" d="M249-10q-75,0-118.5,29T68,105T49,247q0,95 26,152.5t73,84T259,510q100,0 151-55.5T461,276l-4-59H128q1-78 29-118T258,59q28,0 61.5,1.5T386,64t56,4l2-61q-24-4-58.5-8T315-7.5T249-10ZM128,280H383q0,92-29.5,128.5T259,445q-42,0-71-16.5T143.5,376T128,280ZM343,591L120,675l27,67l218-99l-22-52Z" />
      <glyph unicode="&#xe9;" glyph-name="eacute" horiz-adv-x="505" d="M249-10q-75,0-118.5,29T68,105T49,247q0,95 26,152.5t73,84T259,510q100,0 151-55.5T461,276l-4-59H128q1-78 29-118T258,59q28,0 61.5,1.5T386,64t56,4l2-61q-24-4-58.5-8T315-7.5T249-10ZM128,280H383q0,92-29.5,128.5T259,445q-42,0-71-16.5T143.5,376T128,280Zm36,310l-21,52l218,99l26-67L164,590Z" />
      <glyph unicode="&#xea;" glyph-name="ecircumflex" horiz-adv-x="505" d="M249-10q-75,0-118.5,29T68,105T49,247q0,95 26,152.5t73,84T259,510q100,0 151-55.5T461,276l-4-59H128q1-78 29-118T258,59q28,0 61.5,1.5T386,64t56,4l2-61q-24-4-58.5-8T315-7.5T249-10ZM128,280H383q0,92-29.5,128.5T259,445q-42,0-71-16.5T143.5,376T128,280ZM111,591L234,732h52L411,591H334l-73,86l-72-86H111Z" />
      <glyph unicode="&#xeb;" glyph-name="edieresis" horiz-adv-x="505" d="M249-10q-75,0-118.5,29T68,105T49,247q0,95 26,152.5t73,84T259,510q100,0 151-55.5T461,276l-4-59H128q1-78 29-118T258,59q28,0 61.5,1.5T386,64t56,4l2-61q-24-4-58.5-8T315-7.5T249-10ZM128,280H383q0,92-29.5,128.5T259,445q-42,0-71-16.5T143.5,376T128,280ZM342,620v92h75V620H342Zm-201,0v92h75V620H141Z" />
      <glyph unicode="&#xec;" glyph-name="igrave" horiz-adv-x="221" d="M72,0V500h77V0H72Zm91,590L-60,674l27,67l218-99l-22-52Z" />
      <glyph unicode="&#xed;" glyph-name="iacute" horiz-adv-x="221" d="M72,0V500h77V0H72ZM59,590L38,642l218,99l26-67L59,590Z" />
      <glyph unicode="&#xee;" glyph-name="icircumflex" horiz-adv-x="221" d="M72,0V500h77V0H72ZM-42,591L81,732h52L258,591H181l-73,86L36,591H-42Z" />
      <glyph unicode="&#xef;" glyph-name="idieresis" horiz-adv-x="221" d="M72,0V500h77V0H72ZM192,620v92h75V620H192ZM-9,620v92H66V620H-9Z" />
      <glyph unicode="&#xf0;" glyph-name="eth" horiz-adv-x="549" d="M266-9Q160-9 101,48T42,215q0,65 24,113.5T137,404t115,27q27,0 57.5-6t59-14T416,395q-3,44-20.5,84.5t-54.5,75T244,618T95,669l15,58q126-24 212.5-71.5t131-122T498,352q0-129-23.5-208.5T400,27.5T266-9Zm0,71q53,0 85.5,24.5t48.5,82T416,325q-18,8-45.5,16t-57,13.5T257,360q-43,0-73-19.5t-45-52T124,215q0-73 35.5-113T266,62ZM159,518l-35,48L386,742l35-49L159,518Z" />
      <glyph unicode="&#xf1;" glyph-name="ntilde" horiz-adv-x="538" d="M72,0V500h77V465q17,10 42.5,20T246,502.5t56,7.5q52,0 85-13.5t51.5-43t26-76T472,265V0H394V262q0,65-7.5,104t-30,56.5T288,440q-25,0-51.5-5.5t-49.5-14T149,404V0H72ZM349,611q-15,0-34,7t-38.5,16t-37,16T210,657q-13,0-35-13.5T137,618l-18,49q11,11 26.5,23T178,710.5t32,8.5q16,0 35-7t38.5-15.5T320,681t28-7q12,0 33.5,12.5T418,712l18-50q-10-11-24.5-23t-31-20T349,611Z" />
      <glyph unicode="&#xf2;" glyph-name="ograve" horiz-adv-x="529" d="M264-10q-84,0-130.5,29t-65,88T50,256q0,86 20.5,142T138,482t126,28q80,0 127-28t67.5-84T479,256q0-90-18.5-149t-65-88T264-10Zm0,67q58,0 87,20.5T389.5,142T399,256q0,69-12,110t-41,59t-82,18q-52,0-81.5-18T141,366T129,256q0-70 9.5-114T177,77.5T264,57Zm99,533L140,674l27,67l218-99l-22-52Z" />
      <glyph unicode="&#xf3;" glyph-name="oacute" horiz-adv-x="529" d="M264-10q-84,0-130.5,29t-65,88T50,256q0,86 20.5,142T138,482t126,28q80,0 127-28t67.5-84T479,256q0-90-18.5-149t-65-88T264-10Zm0,67q58,0 87,20.5T389.5,142T399,256q0,69-12,110t-41,59t-82,18q-52,0-81.5-18T141,366T129,256q0-70 9.5-114T177,77.5T264,57ZM173,590l-21,52l218,99l26-67L173,590Z" />
      <glyph unicode="&#xf4;" glyph-name="ocircumflex" horiz-adv-x="529" d="M264-10q-84,0-130.5,29t-65,88T50,256q0,86 20.5,142T138,482t126,28q80,0 127-28t67.5-84T479,256q0-90-18.5-149t-65-88T264-10Zm0,67q58,0 87,20.5T389.5,142T399,256q0,69-12,110t-41,59t-82,18q-52,0-81.5-18T141,366T129,256q0-70 9.5-114T177,77.5T264,57ZM112,591L235,732h52L412,591H335l-73,86l-72-86H112Z" />
      <glyph unicode="&#xf5;" glyph-name="otilde" horiz-adv-x="529" d="M264-10q-84,0-130.5,29t-65,88T50,256q0,86 20.5,142T138,482t126,28q80,0 127-28t67.5-84T479,256q0-90-18.5-149t-65-88T264-10Zm0,67q58,0 87,20.5T389.5,142T399,256q0,69-12,110t-41,59t-82,18q-52,0-81.5-18T141,366T129,256q0-70 9.5-114T177,77.5T264,57Zm70,554q-15,0-34,7t-38.5,16t-37,16T195,657q-13,0-35-13.5T122,618l-18,49q11,11 26.5,23T163,710.5t32,8.5q16,0 35-7t38.5-15.5T305,681t28-7q12,0 33.5,12.5T403,712l18-50q-10-11-24.5-23t-31-20T334,611Z" />
      <glyph unicode="&#xf6;" glyph-name="odieresis" horiz-adv-x="529" d="M264-10q-84,0-130.5,29t-65,88T50,256q0,86 20.5,142T138,482t126,28q80,0 127-28t67.5-84T479,256q0-90-18.5-149t-65-88T264-10Zm0,67q58,0 87,20.5T389.5,142T399,256q0,69-12,110t-41,59t-82,18q-52,0-81.5-18T141,366T129,256q0-70 9.5-114T177,77.5T264,57Zm83,563v92h75V620H347Zm-201,0v92h75V620H146Z" />
      <glyph unicode="&#xf7;" glyph-name="divide" horiz-adv-x="560" d="M55,215v72H505V215H55ZM240,30V132h79V30H240Zm0,340V472h79V370H240Z" />
      <glyph unicode="&#xf8;" glyph-name="oslash" horiz-adv-x="529" d="M146-111L94-92L380,606l52-19L146-111Zm0,0L94-92L380,606l52-19L146-111ZM264-10q-84,0-130.5,29t-65,88T50,256q0,86 20.5,142T138,482t126,28q80,0 127-28t67.5-84T479,256q0-90-18.5-149t-65-88T264-10Zm0,67q58,0 87,20.5T389.5,142T399,256q0,69-12,110t-41,59t-82,18q-52,0-81.5-18T141,366T129,256q0-70 9.5-114T177,77.5T264,57Z" />
      <glyph unicode="&#xf9;" glyph-name="ugrave" horiz-adv-x="532" d="M224-10q-64,0-98,26T79.5,97T67,239V500h77V239q0-66 6.5-105T179,77.5T245,60t80,12t58,24V500h77V0H383V35Q351,17 313.5,3.5T224-10ZM336,590L113,674l27,67l218-99l-22-52Z" />
      <glyph unicode="&#xfa;" glyph-name="uacute" horiz-adv-x="532" d="M224-10q-64,0-98,26T79.5,97T67,239V500h77V239q0-66 6.5-105T179,77.5T245,60t80,12t58,24V500h77V0H383V35Q351,17 313.5,3.5T224-10ZM175,590l-21,52l218,99l26-67L175,590Z" />
      <glyph unicode="&#xfb;" glyph-name="ucircumflex" horiz-adv-x="532" d="M224-10q-64,0-98,26T79.5,97T67,239V500h77V239q0-66 6.5-105T179,77.5T245,60t80,12t58,24V500h77V0H383V35Q351,17 313.5,3.5T224-10ZM104,591L227,732h52L404,591H327l-73,86l-72-86H104Z" />
      <glyph unicode="&#xfc;" glyph-name="udieresis" horiz-adv-x="532" d="M224-10q-64,0-98,26T79.5,97T67,239V500h77V239q0-66 6.5-105T179,77.5T245,60t80,12t58,24V500h77V0H383V35Q351,17 313.5,3.5T224-10ZM354,620v92h75V620H354Zm-201,0v92h75V620H153Z" />
      <glyph unicode="&#xfd;" glyph-name="yacute" horiz-adv-x="484" d="M176-221L241,0H166L25,500h78L225,67h34L382,500h78L254-221H176Zm-3,811l-21,52l218,99l26-67L173,590Z" />
      <glyph unicode="&#xfe;" glyph-name="thorn" horiz-adv-x="528" d="M72-221V717h77V476q17,8 41,15.5t51.5,13T294,510q68,0 108.5-25t58-80.5T478,258q0-99-21-157.5T386,16T250-10q-22,0-51.5,2.5T149-3V-221H72ZM245,58q65,0 98,21.5T387,145t11,112q0,65-10,105t-34.5,59T286,440q-24,0-50-4.5t-49-11T149,412V64q21-2 50-4t46-2Z" />
      <glyph unicode="&#xff;" glyph-name="ydieresis" horiz-adv-x="484" d="M176-221L241,0H166L25,500h78L225,67h34L382,500h78L254-221H176ZM327,620v92h75V620H327Zm-201,0v92h75V620H126Z" />
      <glyph unicode="&#x2013;" glyph-name="endash" horiz-adv-x="630" d="M66,233v69H566V233H66Z" />
      <glyph unicode="&#x2014;" glyph-name="emdash" horiz-adv-x="1130" d="M66,233v69H1066V233H66Z" />
      <glyph unicode="&#x2018;" glyph-name="quoteleft" horiz-adv-x="221" d="M176,706L133,485H50l65,221h61Z" />
      <glyph unicode="&#x2019;" glyph-name="quoteright" horiz-adv-x="218" d="M53,486L96,707h83L114,486H53Z" />
      <glyph unicode="&#x201a;" glyph-name="quotesinglbase" horiz-adv-x="220" d="M183,150L133-110H35l76,260h72Z" />
      <glyph unicode="&#x201c;" glyph-name="quotedblleft" horiz-adv-x="376" d="M331,706L288,485H205l65,221h61Zm-155,0L133,485H50l65,221h61Z" />
      <glyph unicode="&#x201d;" glyph-name="quotedblright" horiz-adv-x="380" d="M53,487L96,708h83L114,487H53Zm162,0l43,221h83L276,487H215Z" />
      <glyph unicode="&#x201e;" glyph-name="quotedblbase" horiz-adv-x="362" d="M146,112L103-109H20L85,112h61Zm155,0L258-109H175l65,221h61Z" />
      <glyph unicode="&#x2022;" glyph-name="bullet" horiz-adv-x="472" d="M111,106V391H361V106H111Z" />
      <glyph unicode="&#x2039;" glyph-name="guilsinglleft" horiz-adv-x="302" d="M236,65L45,217v62L236,423V342L112,250L236,146V65Z" />
      <glyph unicode="&#x203a;" glyph-name="guilsinglright" horiz-adv-x="302" d="M66,69v81L190,254L66,347v80L257,283V221L66,69Z" />
    </font>
</defs>
</svg>
