<?xml version="1.0" standalone="no"?>
<!DOCTYPE svg PUBLIC "-//W3C//DTD SVG 1.1//EN" "http://www.w3.org/Graphics/SVG/1.1/DTD/svg11.dtd">
<svg xmlns="http://www.w3.org/2000/svg">
<defs >
<font id="Cairo" horiz-adv-x="462" ><font-face
    font-family="Cairo"
    units-per-em="1000"
    panose-1="0 0 0 0 0 0 0 0 0 0"
    ascent="1303"
    descent="-571"
    alphabetic="0" />
<glyph unicode=" " horiz-adv-x="220" />
<glyph unicode="!" horiz-adv-x="249" d="M89 230L83 691H166L160 230H89ZM82 0V115H167V0H82Z" />
<glyph unicode="&quot;" horiz-adv-x="375" d="M235 468L232 691H310L305 468H235ZM70 468L66 691H144L139 468H70Z" />
<glyph unicode="#" horiz-adv-x="560" d="M134 0V172H24V239H134V422H24V488H134V666H204V488H356V666H426V488H536V422H426V239H536V172H426V0H356V172H204V0H134ZM204 239H356V422H204V239Z" />
<glyph unicode="$" horiz-adv-x="560" d="M202 -124L259 322L310 313L254 -124H202ZM316 359L265 367L321 799H372L316 359ZM282 -9Q254 -9 216 -6T140 3T74 12L81 75Q109 72 145 68T218 62T279 59Q325 59 355 73T401 115T417 189Q417 225 403 246T357 280T272
304Q203 319 158 338T91 394T68 492Q68 556 94 595T168 653T281 671Q309 671 346 668T418 660T480 651L473 587Q445 590 409 594T340 600T286 603Q240 603 209 592T161 557T145 497Q145 455 161 433T212 399T304 373Q354 362 390 349T449 316T483 267T494 195Q494
122 468 77T395 12T282 -9Z" />
<glyph unicode="%" horiz-adv-x="560" d="M203 -19L153 -4L360 682L410 666L203 -19ZM138 390Q104 390 80 405T42 452T28 532Q28 580 41 610T79 655T138 670Q172 670 196 656T234 611T248 532Q248 484 235 453T197 406T138 390ZM138 443Q156 443 166 453T181 483T186
532Q186 561 182 580T167 608T138 618Q120 618 110 609T95 580T90 532Q90 503 94 483T109 453T138 443ZM423 -10Q389 -10 364 5T326 52T312 132Q312 180 325 210T364 255T423 270Q457 270 481 256T519 211T533 131Q533 83 520 52T482 5T423 -10ZM423 42Q441 42
451 52T466 82T471 131Q471 161 467 180T452 208T423 217Q405 217 395 208T379 180T374 132Q374 103 379 83T394 52T423 42Z" />
<glyph unicode="&amp;" horiz-adv-x="689" d="M289 -10Q195 -10 141 16T65 89T42 203Q42 262 58 300T109 363T196 405Q171 434 159 457T142 503T138 555Q138 599 158 632T218 683T314 702Q373 702 412 684T470 631T489 549Q489 513 480 486T453 438T405 397T336
359L484 212Q490 228 496 257T507 317T513 372L588 371Q585 336 578 297T561 222T542 163L670 43L624 -9L503 102Q469 47 415 19T289 -10ZM282 60Q338 60 381 81T449 148L240 356Q198 343 172 325T133 278T120 208Q120 136 157 98T282 60ZM290 406Q333 425 359
443T398 485T410 544Q410 588 388 611T314 634Q268 634 243 612T217 542Q217 524 219 510T229 481T251 449T290 406Z" />
<glyph unicode="&apos;" horiz-adv-x="209" d="M69 468L66 691H145L139 468H69Z" />
<glyph unicode="(" horiz-adv-x="266" d="M155 -125Q138 -91 120 -43T86 62T60 181T50 301Q50 360 60 423T85 547T119 660T155 750H230Q215 709 198 654T167 538T144 415T135 301Q135 249 144 190T167 73T198 -36T230 -125H155Z" />
<glyph unicode=")" horiz-adv-x="266" d="M111 -125H36Q51 -87 68 -36T99 73T122 190T131 301Q131 354 122 415T99 537T68 654T36 750H111Q128 713 146 661T180 548T206 424T216 301Q216 242 206 181T181 63T147 -43T111 -125Z" />
<glyph unicode="*" horiz-adv-x="420" d="M233 370L192 496L85 417L54 458L161 537L56 614L87 657L193 579L234 705L284 688L244 562H374V510H243L283 385L233 370Z" />
<glyph unicode="+" horiz-adv-x="560" d="M243 20V215H55V287H243V480H315V287H505V215H315V20H243Z" />
<glyph unicode="," horiz-adv-x="225" d="M34 -123L79 109H166L98 -123H34Z" />
<glyph unicode="-" horiz-adv-x="436" d="M67 239V311H370V239H67Z" />
<glyph unicode="." horiz-adv-x="218" d="M67 0V117H152V0H67Z" />
<glyph unicode="/" horiz-adv-x="415" d="M102 -15L32 10L314 709L384 683L102 -15Z" />
<glyph unicode="0" horiz-adv-x="560" d="M280 -10Q223 -10 179 6T103 59T55 161T38 320Q38 421 54 489T101 597T177 654T279 671Q338 671 383 654T458 597T505 490T521 320Q521 194 492 122T410 20T280 -10ZM280 61Q319 61 348 73T398 114T428 193T438 320Q438
403 429 457T400 542T351 587T280 600Q240 600 210 587T161 543T131 458T121 319Q121 243 131 193T162 114T212 73T280 61Z" />
<glyph unicode="1" horiz-adv-x="560" d="M310 0V571L142 459L105 520L315 660H390V0H310Z" />
<glyph unicode="2" horiz-adv-x="560" d="M69 0V68L259 267Q300 310 330 344T376 412T392 484Q392 549 357 573T250 598Q224 598 192 595T131 587T80 577L74 643Q95 649 126 655T193 665T265 670Q370 670 422 628T475 493Q475 444 460 405T414 329T336 245L163
70H491V0H69Z" />
<glyph unicode="3" horiz-adv-x="560" d="M278 -10Q240 -10 199 -6T122 5T62 17L69 82Q92 78 126 73T198 65T270 61Q342 61 376 92T411 186Q411 231 393 257T345 295T277 308H144V377H277Q302 377 329 391T376 431T395 495Q395 551 365 575T262 600Q229 600 195
597T130 589T79 579L72 643Q92 649 123 655T192 666T265 671Q344 671 390 653T457 596T478 499Q478 461 466 435T437 391T404 363T380 348Q414 336 439 320T479 273T494 189Q494 122 472 78T401 12T278 -10Z" />
<glyph unicode="4" horiz-adv-x="560" d="M358 0V128H40V190L227 660H315L124 199H358V403H438V199H521V128H438V0H358Z" />
<glyph unicode="5" horiz-adv-x="560" d="M282 -9Q245 -9 204 -4T126 7T63 20L72 84Q97 80 132 75T204 66T274 62Q342 62 381 101T421 214Q421 264 404 292T356 333T284 345Q254 345 224 339T169 324T128 306L74 317L92 660H477V588H158L140 377Q157 385 182 394T236
409T293 416Q358 416 405 397T478 335T504 221Q504 145 478 94T402 17T282 -9Z" />
<glyph unicode="6" horiz-adv-x="560" d="M286 -10Q204 -10 152 31T74 149T49 333Q49 423 67 487T119 591T201 651T308 670Q339 670 373 667T438 660T490 652L482 588Q463 590 434 592T372 597T308 599Q223 599 178 541T132 375Q141 377 158 383T199 396T248 408T296
413Q405 413 461 363T517 208Q517 138 490 89T412 15T286 -10ZM286 61Q358 61 396 99T435 208Q435 276 397 309T290 342Q263 342 233 336T176 322T131 305Q132 236 147 181T196 93T286 61Z" />
<glyph unicode="7" horiz-adv-x="560" d="M234 -10L159 13L406 561V588H77V660H488V556L234 -10Z" />
<glyph unicode="8" horiz-adv-x="560" d="M278 -10Q228 -10 184 -2T105 27T51 82T31 168Q31 219 45 251T85 304T144 345Q110 363 88 383T54 431T42 500Q42 557 71 595T153 652T278 671Q349 671 403 652T487 595T518 499Q518 457 507 429T471 382T409 345Q444 329
471 308T513 257T528 179Q528 125 509 89T455 31T375 0T278 -10ZM278 63Q326 63 363 74T421 112T442 187Q442 225 427 247T387 283T328 306H223Q173 292 145 264T117 182Q117 138 138 112T195 74T278 63ZM223 376H328Q378 393 405 418T432 489Q432 548 392 573T279
598Q209 598 169 574T128 490Q128 445 152 419T223 376Z" />
<glyph unicode="9" horiz-adv-x="560" d="M247 -10Q217 -10 183 -7T118 0T65 8L73 73Q93 71 122 68T184 63T247 61Q336 61 380 116T426 287Q401 278 371 269T312 255T257 249Q153 249 97 298T41 451Q41 519 69 568T148 643T270 670Q354 670 406 629T484 510T509
328Q509 232 491 167T440 63T358 7T247 -10ZM264 320Q289 320 319 326T378 340T427 356Q426 427 411 481T361 567T270 599Q202 599 163 559T123 451Q123 383 159 352T264 320Z" />
<glyph unicode=":" horiz-adv-x="219" d="M67 320V437H152V320H67ZM67 0V117H152V0H67Z" />
<glyph unicode=";" horiz-adv-x="250" d="M47 -123L92 109H180L111 -123H47ZM87 320V437H171V320H87Z" />
<glyph unicode="&lt;" horiz-adv-x="560" d="M477 13L61 217V285L477 487V406L142 252L477 95V13Z" />
<glyph unicode="=" horiz-adv-x="560" d="M64 308V380H496V308H64ZM64 122V194H496V122H64Z" />
<glyph unicode="&gt;" horiz-adv-x="560" d="M82 13V95L417 252L82 406V487L498 285V217L82 13Z" />
<glyph unicode="?" horiz-adv-x="446" d="M160 202Q156 213 151 229T146 264Q146 288 158 309T191 352T238 396Q274 427 293 447T319 487T326 535Q326 587 295 609T196 631Q176 631 148 628T91 619T42 608L36 671Q58 678 88 685T149 697T204 702Q271 702 316 686T383
635T406 541Q406 498 399 470T372 418T313 360Q269 323 247 297T225 237V202H160ZM149 1V116H233V1H149Z" />
<glyph unicode="@" horiz-adv-x="976" d="M504 -203Q393 -203 309 -181T167 -107T80 36T51 261Q51 384 81 472T169 615T312 697T504 723Q654 723 749 677T888 538T933 305V292Q933 216 925 163T902 77T866 26T817 1T757 -6Q721 -6 696 4T657 28T639 54Q619 42
589 28T527 5T467 -5Q441 -5 415 0T367 21T327 64T300 136T290 246Q290 330 308 388T370 475T492 505Q518 505 551 497T606 479V495H684V304Q684 221 686 172T695 99T717 68T759 60Q781 60 798 67T828 96T847 166T854 292V306Q854 397 835 462T773 570T665 633T504
654Q410 654 340 632T222 561T152 439T129 261Q129 151 151 76T218 -46T335 -113T504 -134Q520 -134 545 -133T598 -129T647 -125L650 -194Q630 -196 603 -198T550 -201T504 -203ZM471 64Q492 64 518 71T570 88T615 109Q613 130 611 158T607 217T606 278V416Q587
423 558 429T505 436Q449 436 420 415T379 351T368 245Q368 188 377 153T401 98T434 71T471 64Z" />
<glyph unicode="A" horiz-adv-x="596" d="M23 0L212 691H385L573 0H493L444 175H152L103 0H23ZM169 246H427L324 623H272L169 246Z" />
<glyph unicode="B" horiz-adv-x="615" d="M84 0V691H336Q404 691 449 673T518 616T542 515Q542 471 532 441T502 390T455 356Q485 346 509 327T548 276T563 194Q563 140 548 103T505 43T437 10T348 0H84ZM164 70H345Q387 70 417 81T465 119T482 197Q482 236 468
260T431 296T385 312T341 316H164V70ZM164 386H340Q383 386 409 399T448 440T461 508Q461 567 430 594T333 621H164V386Z" />
<glyph unicode="C" horiz-adv-x="544" d="M312 -10Q234 -10 185 13T107 81T69 192T58 344Q58 432 68 499T107 611T184 679T312 702Q348 702 383 699T450 690T503 679L500 612Q478 616 446 620T381 627T321 630Q264 630 229 613T174 561T148 472T141 344Q141 272
148 219T173 131T228 79T322 62Q364 62 414 67T500 79L503 11Q479 6 447 1T380 -7T312 -10Z" />
<glyph unicode="D" horiz-adv-x="644" d="M84 0V691H331Q407 691 457 667T536 598T577 492T589 356Q589 281 578 217T537 103T458 27T331 0H84ZM164 71H331Q385 71 419 94T472 157T498 248T506 356Q506 412 499 460T472 544T419 600T331 620H164V71Z" />
<glyph unicode="E" horiz-adv-x="553" d="M84 0V691H507V620H164V386H447V316H164V71H507V0H84Z" />
<glyph unicode="F" horiz-adv-x="526" d="M84 0V691H499V620H164V354H447V283H164V0H84Z" />
<glyph unicode="G" horiz-adv-x="616" d="M325 -10Q245 -10 193 13T111 82T69 194T56 344Q56 431 68 497T111 609T193 678T323 702Q362 702 404 698T485 688T550 675L547 609Q521 614 483 618T406 626T333 630Q274 630 236 613T177 561T148 472T139 344Q139 248
154 185T210 92T331 61Q354 61 380 63T430 68T471 74V283H359V354H550V14Q533 11 505 7T445 -1T382 -7T325 -10Z" />
<glyph unicode="H" horiz-adv-x="675" d="M84 0V691H164V383H511V691H591V0H511V312H164V0H84Z" />
<glyph unicode="I" horiz-adv-x="248" d="M84 0V691H164V0H84Z" />
<glyph unicode="J" horiz-adv-x="289" d="M18 -72V-1Q51 -1 73 2T107 15T124 48T129 107V691H209V96Q209 40 198 7T164 -44T104 -66T18 -72Z" />
<glyph unicode="K" horiz-adv-x="570" d="M84 0V691H164V371L277 375L451 691H543L348 344L554 0H459L278 304L164 300V0H84Z" />
<glyph unicode="L" horiz-adv-x="478" d="M84 0V691H164V72H466V0H84Z" />
<glyph unicode="M" horiz-adv-x="841" d="M84 0V691H229L420 111L612 691H757V0H677V606H662L465 25H376L179 606H164V0H84Z" />
<glyph unicode="N" horiz-adv-x="677" d="M84 0V691H233L493 71H513V691H593V0H447L183 620H164V0H84Z" />
<glyph unicode="O" horiz-adv-x="660" d="M330 -10Q222 -10 163 30T80 148T56 342Q56 457 80 537T163 659T330 702Q437 702 496 660T580 538T604 342Q604 224 581 146T498 29T330 -10ZM330 61Q409 61 450 91T506 183T521 342Q521 435 506 499T449 597T330 631Q252
631 211 598T155 500T139 342Q139 249 154 187T210 93T330 61Z" />
<glyph unicode="P" horiz-adv-x="592" d="M84 0V691H337Q413 691 462 667T535 593T559 467Q559 392 535 340T462 260T337 232H164V0H84ZM164 302H337Q411 302 444 345T477 467Q477 547 444 584T337 621H164V302Z" />
<glyph unicode="Q" horiz-adv-x="660" d="M500 -146L412 -1Q396 -5 375 -7T330 -10Q222 -10 163 29T80 147T56 342Q56 457 80 537T163 659T330 702Q437 702 496 660T580 538T604 342Q604 221 580 143T490 27L575 -111L500 -146ZM330 61Q409 61 450 91T506 183T521
342Q521 435 506 499T449 597T330 631Q252 631 211 598T155 500T139 342Q139 248 154 186T210 92T330 61Z" />
<glyph unicode="R" horiz-adv-x="616" d="M84 0V691H341Q414 691 463 669T538 601T563 481Q563 405 533 353T437 280L569 0H480L358 263H164V0H84ZM164 333H342Q393 333 423 352T467 404T480 480Q480 551 446 586T341 621H164V333Z" />
<glyph unicode="S" horiz-adv-x="542" d="M273 -9Q243 -9 203 -6T124 3T54 13L62 79Q91 76 129 72T205 65T269 62Q318 62 350 76T398 121T414 198Q414 236 400 258T352 294T262 319Q208 330 168 344T101 379T61 434T48 516Q48 583 75 624T153 684T271 703Q301
703 339 700T415 692T480 682L473 615Q444 619 406 622T333 629T277 632Q229 632 196 620T146 584T129 521Q129 477 145 454T199 418T296 391Q348 379 385 365T447 331T483 280T495 204Q495 128 468 81T391 13T273 -9Z" />
<glyph unicode="T" horiz-adv-x="526" d="M224 0V619H13V691H513V619H304V0H224Z" />
<glyph unicode="U" horiz-adv-x="645" d="M320 -10Q244 -10 190 12T108 82T79 211V691H159V209Q159 130 201 96T320 61Q400 61 443 95T486 209V691H566V211Q566 132 538 83T454 12T320 -10Z" />
<glyph unicode="V" horiz-adv-x="583" d="M204 0L24 691H107L264 71H319L476 691H559L380 0H204Z" />
<glyph unicode="W" horiz-adv-x="888" d="M169 0L30 691H113L229 70H257L397 686H491L631 70H659L775 691H858L718 0H574L437 622H451L314 0H169Z" />
<glyph unicode="X" horiz-adv-x="559" d="M18 0L231 338L18 691H109L281 398L455 691H541L329 341L541 0H450L279 284L104 0H18Z" />
<glyph unicode="Y" horiz-adv-x="539" d="M230 0V290L10 691H100L269 370L439 691H529L310 290V0H230Z" />
<glyph unicode="Z" horiz-adv-x="536" d="M43 -1V90L400 599V620H43V691H493V600L135 91V71H493V-1H43Z" />
<glyph unicode="[" horiz-adv-x="330" d="M78 -123V749H290V679H157V-53H290V-123H78Z" />
<glyph unicode="\" horiz-adv-x="439" d="M339 -16L30 677L99 707L409 14L339 -16Z" />
<glyph unicode="]" horiz-adv-x="330" d="M252 -123H40V-53H173V679H40V749H252V-123Z" />
<glyph unicode="^" horiz-adv-x="560" d="M56 319L242 660H311L503 319H419L277 583L139 319H56Z" />
<glyph unicode="_" horiz-adv-x="631" d="M102 -159V-91H530V-159H102Z" />
<glyph unicode="`" horiz-adv-x="238" d="M221 590L-2 674L25 741L243 642L221 590Z" />
<glyph unicode="a" horiz-adv-x="502" d="M181 -10Q112 -10 76 29T40 143Q40 192 57 223T108 270T194 291L348 306V349Q348 400 326 421T259 442Q234 442 200 440T131 435T71 429L67 488Q91 493 125 498T196 506T264 510Q321 510 357 493T409 440T426 349V96Q428
74 443 64T483 51L480 -10Q466 -10 453 -9T429 -6T406 0Q393 5 382 12T359 29Q340 21 311 12T248 -3T181 -10ZM194 55Q221 55 250 60T305 72T348 85V248L203 234Q158 230 139 208T119 145Q119 103 138 79T194 55Z" />
<glyph unicode="b" horiz-adv-x="527" d="M240 -10Q218 -10 188 -9T126 -4T71 1V717H149V476Q165 484 189 491T240 504T293 510Q361 510 401 485T459 404T477 258Q477 158 456 100T383 16T240 -10ZM239 60Q307 60 340 80T385 145T397 258Q397 322 387 362T353
421T285 440Q261 440 235 436T187 425T149 412V65Q170 63 197 62T239 60Z" />
<glyph unicode="c" horiz-adv-x="436" d="M257 -10Q178 -10 133 16T70 102T51 258Q51 349 71 404T138 485T258 510Q275 510 299 508T350 502T395 495L392 431Q375 433 353 435T310 438T275 440Q218 440 187 422T143 365T130 258Q130 185 141 142T183 79T275 60Q289
60 310 61T354 65T394 68L396 4Q376 1 350 -2T299 -7T257 -10Z" />
<glyph unicode="d" horiz-adv-x="530" d="M230 -10Q200 -10 173 -4T124 19T84 63T58 137T49 246Q49 335 70 393T137 481T259 510Q278 510 301 508T345 503T380 497V717H458V0H381V33Q365 24 340 14T286 -3T230 -10ZM240 60Q266 60 292 66T342 80T380 96V431Q368
433 347 435T304 440T263 442Q212 442 183 420T142 355T129 246Q129 186 138 150T162 94T198 67T240 60Z" />
<glyph unicode="e" horiz-adv-x="505" d="M249 -10Q174 -10 131 19T68 105T49 247Q49 342 75 399T148 483T259 510Q359 510 410 455T461 276L457 217H128Q129 139 157 99T258 59Q286 59 319 60T386 64T442 68L444 7Q420 3 386 -1T315 -7T249 -10ZM128 280H383Q383
372 354 408T259 445Q217 445 188 429T144 376T128 280Z" />
<glyph unicode="f" horiz-adv-x="332" d="M93 0V433H30V500H93V544Q93 616 106 656T149 711T228 727Q240 727 261 726T302 724T330 720L329 655Q311 656 286 656T244 657Q216 657 200 648T178 613T171 543V500H315V433H171V0H93Z" />
<glyph unicode="g" horiz-adv-x="515" d="M265 -235Q187 -235 140 -222T71 -175T49 -85Q49 -56 58 -36T84 2T128 39Q115 49 108 67T100 109Q100 116 105 130T119 159T134 188Q113 198 96 215T67 263T56 339Q56 401 79 438T145 493T243 510Q270 510 300 506T347
497L496 501V435L402 437Q416 423 425 400T435 339Q435 274 413 237T348 185T240 170Q233 170 217 171T192 174Q186 160 180 142T174 117Q174 102 177 94T192 80T228 74T294 72Q366 72 409 60T470 17T489 -75Q489 -160 430 -197T265 -235ZM266 -169Q340 -169 375
-148T410 -79Q410 -42 399 -25T360 -2T288 4Q279 4 263 4T230 5T200 7T181 8Q161 -7 149 -19T131 -45T126 -78Q126 -111 138 -131T180 -160T266 -169ZM243 232Q305 232 331 256T357 339Q357 397 331 422T243 447Q185 447 160 422T134 339Q134 281 159 257T243 232Z"
/>
<glyph unicode="h" horiz-adv-x="538" d="M72 0V717H149V473Q167 481 192 489T247 504T302 510Q354 510 387 497T438 454T464 378T471 265V0H393V262Q393 327 386 366T356 422T288 440Q263 440 237 436T187 424T149 411V0H72Z" />
<glyph unicode="i" horiz-adv-x="221" d="M72 0V500H149V0H72ZM72 610V700H149V610H72Z" />
<glyph unicode="j" horiz-adv-x="221" d="M-17 -223L-48 -163Q-10 -141 13 -124T49 -88T67 -46T72 14V500H150V13Q150 -33 143 -66T117 -126T66 -174T-17 -223ZM72 610V700H150V610H72Z" />
<glyph unicode="k" horiz-adv-x="481" d="M72 0V717H149V295L226 298L366 500H455L294 269L463 0H374L228 230L149 226V0H72Z" />
<glyph unicode="l" horiz-adv-x="233" d="M78 0V717H155V0H78Z" />
<glyph unicode="m" horiz-adv-x="836" d="M72 0V500H149V465Q165 475 189 485T240 502T293 510Q343 510 373 498T423 459Q443 470 472 482T534 502T600 510Q651 510 684 497T735 455T761 380T769 265V0H692V262Q692 327 685 366T655 422T588 440Q562 440 536 435T487
421T450 404Q457 378 459 340T462 260V0H385V258Q385 326 378 365T349 422T281 440Q256 440 231 435T184 421T149 404V0H72Z" />
<glyph unicode="n" horiz-adv-x="538" d="M72 0V500H149V465Q166 475 191 485T246 502T302 510Q354 510 387 497T438 454T464 378T472 265V0H394V262Q394 327 387 366T357 422T288 440Q263 440 237 435T187 421T149 404V0H72Z" />
<glyph unicode="o" horiz-adv-x="529" d="M264 -10Q180 -10 134 19T69 107T50 256Q50 342 70 398T138 482T264 510Q344 510 391 482T458 398T479 256Q479 166 461 107T396 19T264 -10ZM264 57Q322 57 351 77T389 142T399 256Q399 325 387 366T346 425T264 443Q212
443 183 425T141 366T129 256Q129 186 138 142T177 78T264 57Z" />
<glyph unicode="p" horiz-adv-x="528" d="M72 -221V500H149V464Q165 474 189 484T242 502T296 510Q360 510 400 484T459 401T479 256Q479 158 457 100T386 16T260 -10Q229 -10 198 -6T149 1V-221H72ZM256 58Q310 58 341 78T386 141T399 256Q399 357 369 398T285
440Q261 440 236 434T187 420T149 402V68Q165 66 196 62T256 58Z" />
<glyph unicode="q" horiz-adv-x="527" d="M377 -221V23Q355 13 316 2T238 -10Q170 -10 129 16T68 98T49 242Q49 341 71 400T146 484T286 510Q305 510 335 509T397 505T455 500V-221H377ZM246 60Q284 60 320 69T377 88V437Q358 439 331 440T287 442Q223 442 189
421T141 355T128 242Q128 150 155 105T246 60Z" />
<glyph unicode="r" horiz-adv-x="347" d="M72 0V500H149V433Q168 446 197 461T261 491T331 511V432Q297 425 262 414T198 389T149 366V0H72Z" />
<glyph unicode="s" horiz-adv-x="466" d="M228 -10Q205 -10 173 -7T108 0T51 9L55 76Q80 73 111 69T173 63T221 60Q262 60 289 67T330 93T344 144Q344 169 334 183T295 206T212 223Q156 232 119 245T63 286T45 363Q45 419 71 451T138 496T225 510Q253 510 286
507T352 500T407 491L405 424Q381 428 349 431T285 437T229 440Q199 440 175 434T137 411T123 366Q123 344 133 331T171 308T252 290Q314 280 351 265T406 223T423 147Q423 89 400 55T333 5T228 -10Z" />
<glyph unicode="t" horiz-adv-x="351" d="M236 -11Q184 -11 154 5T110 60T97 172V433H26V500H97V653H174V500H331V433H174V195Q174 142 178 113T198 71T245 59Q255 59 271 60T303 62T333 65L338 0Q324 -2 305 -4T268 -9T236 -11Z" />
<glyph unicode="u" horiz-adv-x="532" d="M224 -10Q160 -10 126 16T80 97T67 239V500H144V239Q144 173 150 134T179 78T245 60Q289 60 325 72T383 96V500H460V0H383V35Q351 17 314 4T224 -10Z" />
<glyph unicode="v" horiz-adv-x="482" d="M164 0L24 500H108L222 67H260L378 500H458L318 0H164Z" />
<glyph unicode="w" horiz-adv-x="763" d="M149 0L31 500H109L207 67H224L341 490H422L539 67H556L654 500H732L614 0H485L381 387L278 0H149Z" />
<glyph unicode="x" horiz-adv-x="453" d="M22 0L177 250L22 500H107L226 306L346 500H431L274 252L431 0H346L226 193L107 0H22Z" />
<glyph unicode="y" horiz-adv-x="484" d="M176 -221L241 0H166L25 500H103L225 67H259L382 500H460L254 -221H176Z" />
<glyph unicode="z" horiz-adv-x="455" d="M42 0V70L318 430H42V500H413V430L137 70H413V0H42Z" />
<glyph unicode="{" horiz-adv-x="352" d="M311 -128Q260 -126 224 -115T166 -83T134 -30T124 47Q124 64 125 83T128 120Q130 135 130 148T131 169Q131 211 106 237T23 280V343Q81 357 106 383T131 452Q131 462 130 476T128 507Q127 526 126 545T124 579Q124 625
134 657T166 711T225 742T312 755L313 688Q268 686 244 672T210 634T200 575Q200 562 201 545T204 510Q205 494 206 479T207 452Q207 410 198 384T167 341T102 312Q144 300 166 283T198 239T207 170Q207 160 206 148T204 122Q203 104 202 87T200 54Q200 21 209
-4T242 -43T312 -61L311 -128Z" />
<glyph unicode="|" horiz-adv-x="232" d="M77 -221V717H155V-221H77Z" />
<glyph unicode="}" horiz-adv-x="352" d="M41 -128L40 -61Q86 -58 110 -44T143 -4T152 54Q152 70 151 87T148 122Q147 135 146 147T145 170Q145 212 154 239T186 283T250 312Q209 324 186 340T154 383T145 452Q145 463 146 478T148 510Q150 528 151 545T152 575Q152
609 143 633T109 672T39 688L40 755Q91 753 127 743T185 711T218 658T228 579Q228 564 227 545T224 507Q223 491 222 477T221 452Q221 409 246 383T329 343V280Q272 264 247 238T221 169Q221 161 222 148T224 120Q226 102 227 83T228 47Q228 2 218 -30T186 -83T128
-115T41 -128Z" />
<glyph unicode="~" horiz-adv-x="560" d="M382 194Q363 194 335 203T277 224T222 245T182 254Q167 254 148 247T110 229T77 208L67 272Q81 284 100 296T142 316T183 325Q203 325 230 316T286 295T340 274T383 265Q397 265 415 272T452 291T485 311L495 247Q482
236 463 224T423 203T382 194Z" />
<glyph unicode="&#xa0;" horiz-adv-x="220" />
<glyph unicode="&#xa1;" horiz-adv-x="230" d="M150 270L156 -191H73L79 270H150ZM157 500V385H72V500H157Z" />
<glyph unicode="&#xa2;" horiz-adv-x="560" d="M278 -81V36Q219 39 179 59T120 124T100 248Q100 322 120 369T179 439T277 465V582H345V463Q368 462 397 458T445 450L442 388Q428 390 404 391T355 394T313 395Q240 395 211 362T181 248Q181 195 193 164T235 119T319
105Q337 105 360 106T405 109T443 112L446 49Q427 46 398 43T345 38V-81H278Z" />
<glyph unicode="&#xa3;" horiz-adv-x="560" d="M80 0V69H164V350H97V418H164V473Q164 533 173 571T200 631T246 661T313 670Q333 670 358 667T407 661T448 653L446 590Q429 592 407 594T361 598T321 600Q290 600 273 589T248 549T241 468V418H410V350H241V69H393L469
85L482 18L401 0H80Z" />
<glyph unicode="&#xa4;" horiz-adv-x="560" d="M280 70Q230 71 189 95T123 161T98 252Q98 302 122 343T188 409T280 434Q330 434 371 410T437 344T462 252Q462 202 438 161T372 96T280 70ZM111 29L57 83L158 184L212 130L111 29ZM280 139Q311 139 336 154T377
195T393 252Q393 283 378 308T337 349T280 365Q249 365 224 350T183 309T167 252Q167 221 182 196T223 155T280 139ZM158 320L57 421L111 475L212 374L158 320ZM449 29L348 130L402 184L503 83L449 29ZM402 320L348 374L449 475L503 421L402 320Z" />
<glyph unicode="&#xa5;" horiz-adv-x="560" d="M241 0V161H58V229H241V295L234 314H57V381H194L22 660H111L281 393L448 660H538L368 381H502V314H329L321 295V229H503V161H321V0H241Z" />
<glyph unicode="&#xa6;" horiz-adv-x="236" d="M79 343V717H157V343H79ZM79 -221V156H157V-221H79Z" />
<glyph unicode="&#xa7;" horiz-adv-x="500" d="M245 -152Q222 -152 190 -149T126 -142T70 -135L77 -70Q91 -72 108 -74T143 -77T179 -80T213 -83T241 -84Q300 -84 331 -61T362 12Q362 44 347 60T301 85T219 104Q163 115 126 130T70 175T51 253Q51 290 70 326T110
379Q96 390 86 404T71 440T66 490Q66 545 88 580T154 633T259 651Q283 651 313 648T372 641T423 633L420 568Q396 571 366 574T309 580T263 582Q199 582 171 561T142 492Q142 459 157 441T203 414T284 394Q339 384 374 369T426 327T444 249Q444 215 431 178T401
117Q413 107 421 94T433 63T437 17Q437 -26 425 -58T389 -110T329 -141T245 -152ZM341 146Q350 160 358 187T366 239Q366 270 354 287T316 313T252 329Q224 334 200 339T162 351Q151 338 140 313T129 265Q129 220 155 202T239 174Q260 170 278 166T313 157T341
146Z" />
<glyph unicode="&#xa8;" horiz-adv-x="296" d="M211 620V712H286V620H211ZM10 620V712H85V620H10Z" />
<glyph unicode="&#xa9;" horiz-adv-x="645" d="M322 161Q246 161 187 197T93 296T59 434Q59 511 93 573T187 671T323 708Q401 708 460 671T553 572T587 434Q587 358 554 296T461 198T322 161ZM326 276Q282 276 257 293T220 345T209 436Q209 488 220 522T257 574T328
592Q351 592 372 589T404 581L401 526Q388 528 368 530T330 533Q305 533 292 523T275 491T271 436Q271 387 283 361T330 335Q347 335 367 337T401 342L404 288Q393 284 371 280T326 276ZM322 205Q386 205 435 236T513 319T542 434Q542 481 526 523T479 596T409
646T322 664Q259 664 210 633T132 550T103 434Q103 371 131 319T209 236T322 205Z" />
<glyph unicode="&#xaa;" horiz-adv-x="388" d="M329 354Q303 356 284 361T254 376T238 404V562Q238 585 227 593T189 601Q170 601 136 599T75 594L71 643Q99 650 132 654T195 659Q251 659 278 637T305 559V422Q310 415 318 412T334 406L329 354ZM138 355Q100 355
77 380T53 447Q53 489 77 510T151 535L257 541L258 494L161 487Q139 486 130 478T121 449Q121 430 130 420T156 410Q181 410 210 417T261 433L262 392Q239 376 205 366T138 355Z" />
<glyph unicode="&#xab;" horiz-adv-x="542" d="M475 65L284 217V279L475 423V342L352 250L475 146V65ZM236 65L45 217V279L236 423V342L112 250L236 146V65Z" />
<glyph unicode="&#xac;" horiz-adv-x="560" d="M421 117V272H65V343H493V117H421Z" />
<glyph unicode="&#xad;" horiz-adv-x="437" d="M67 239V311H370V239H67Z" />
<glyph unicode="&#xae;" horiz-adv-x="645" d="M322 161Q246 161 187 197T93 296T59 434Q59 511 93 573T186 671T322 708Q401 708 460 671T553 572T587 434Q587 358 554 296T461 198T322 161ZM322 205Q386 205 435 236T513 319T542 434Q542 481 526 523T479 596T409
646T322 664Q275 664 235 646T166 597T120 523T103 434Q103 387 119 346T165 273T235 223T322 205ZM212 282V585H324Q377 585 407 564T437 489Q437 452 427 431T387 397L442 282H379L329 388H272V282H212ZM272 436H329Q355 436 367 448T379 486Q379 513 365 525T318
537H272V436Z" />
<glyph unicode="&#xaf;" horiz-adv-x="238" d="M-14 623V684H262V623H-14Z" />
<glyph unicode="&#xb0;" horiz-adv-x="560" d="M280 419Q217 419 178 457T138 560Q138 623 177 662T280 702Q343 702 382 663T422 560Q422 496 383 458T280 419ZM280 468Q321 468 346 493T372 560Q372 601 347 626T280 652Q239 652 215 627T190 560Q190 519 214
494T280 468Z" />
<glyph unicode="&#xb1;" horiz-adv-x="560" d="M243 167V292H55V363H243V488H315V363H505V292H315V167H243ZM55 37V108H505V37H55Z" />
<glyph unicode="&#xb2;" horiz-adv-x="280" d="M30 478V534L117 621Q140 643 153 661T167 702Q167 721 154 729T119 738Q103 738 78 735T35 729L32 789Q52 793 82 796T136 800Q189 800 212 778T236 708Q236 685 230 667T210 633T175 597L113 538H239V478H30Z" />
<glyph unicode="&#xb3;" horiz-adv-x="280" d="M139 468Q116 468 83 471T30 478L34 536Q52 533 81 531T128 528Q157 528 169 537T182 569Q182 592 170 601T137 610H71V665H136Q150 665 161 677T173 709Q173 726 162 733T124 740Q106 740 80 738T38 733L34 792Q55
795 83 797T134 800Q189 800 215 781T242 717Q242 686 231 668T203 643Q226 636 237 620T249 569Q249 517 222 493T139 468Z" />
<glyph unicode="&#xb4;" horiz-adv-x="268" d="M46 590L25 642L243 741L269 674L46 590Z" />
<glyph unicode="&#xb5;" horiz-adv-x="525" d="M224 -10Q160 -10 126 16T80 97T67 239V500H144V239Q144 173 150 134T179 78T245 60Q289 60 325 72T383 96V500H460V0H383V35Q351 17 314 4T224 -10ZM67 -185V315H144V-185H67Z" />
<glyph unicode="&#xb6;" horiz-adv-x="593" d="M228 0V322H221Q168 322 126 345T59 410T35 506Q35 561 59 602T126 667T222 691H551V623H480V0H411V623H297V0H228Z" />
<glyph unicode="&#xb7;" horiz-adv-x="219" d="M68 226V343H153V226H68Z" />
<glyph unicode="&#xb8;" horiz-adv-x="263" d="M128 -218Q104 -218 80 -216T41 -211L44 -162Q53 -163 75 -163T109 -164Q130 -164 141 -156T153 -127Q153 -108 142 -101T109 -94H68V1H110V-48Q147 -48 172 -54T209 -78T222 -127Q222 -175 196 -196T128 -218Z" />
<glyph unicode="&#xb9;" horiz-adv-x="280" d="M128 478V717L61 672L30 720L132 790H194V478H128Z" />
<glyph unicode="&#xba;" horiz-adv-x="382" d="M192 355Q123 355 88 392T53 509Q53 587 88 623T192 659Q260 659 294 623T329 509Q329 430 295 393T192 355ZM192 418Q229 418 243 439T257 508Q257 556 243 576T192 596Q155 596 140 576T124 508Q124 461 139 440T192 418Z" />
<glyph unicode="&#xbb;" horiz-adv-x="543" d="M306 65V146L430 250L306 342V423L497 279V217L306 65ZM66 65V146L190 250L66 342V423L258 279V217L66 65Z" />
<glyph unicode="&#xbc;" horiz-adv-x="564" d="M128 478V717L61 672L30 720L132 790H194V478H128ZM96 3L56 28L448 660L488 634L96 3ZM426 -122V-74H286V-19L353 190H426L354 -15H426L432 74H491V-15H517V-74H491V-122H426Z" />
<glyph unicode="&#xbd;" horiz-adv-x="564" d="M128 478V717L61 672L30 720L132 790H194V478H128ZM96 3L56 28L448 660L488 634L96 3ZM314 -122V-66L401 21Q424 43 437 61T451 102Q451 121 438 129T403 138Q387 138 362 135T319 129L316 189Q336 193 366 196T420
200Q473 200 496 178T520 108Q520 85 514 67T494 33T459 -3L397 -62H523V-122H314Z" />
<glyph unicode="&#xbe;" horiz-adv-x="564" d="M139 468Q116 468 83 471T30 478L34 536Q52 533 81 531T128 528Q157 528 169 537T182 569Q182 592 170 601T137 610H71V665H136Q150 665 161 677T173 709Q173 726 162 733T124 740Q106 740 80 738T38 733L34 792Q55
795 83 797T134 800Q189 800 215 781T242 717Q242 686 231 668T203 643Q226 636 237 620T249 569Q249 517 222 493T139 468ZM96 3L56 28L448 660L488 634L96 3ZM426 -122V-74H286V-19L353 190H426L354 -15H426L432 74H491V-15H517V-74H491V-122H426Z" />
<glyph unicode="&#xbf;" horiz-adv-x="441" d="M283 299Q288 289 292 273T297 237Q297 213 285 192T253 149T205 105Q169 74 150 54T124 14T117 -34Q117 -86 148 -108T247 -130Q268 -130 296 -127T352 -118T401 -107L407 -170Q385 -177 355 -184T295 -196T239
-201Q172 -201 127 -185T60 -134T37 -40Q37 3 44 31T71 84T130 141Q174 178 196 204T218 264V299H283ZM294 500V385H210V500H294Z" />
<glyph unicode="&#xc0;" horiz-adv-x="596" d="M23 0L212 691H385L573 0H493L444 175H152L103 0H23ZM169 246H427L324 623H272L169 246ZM383 776L162 863L188 932L406 832L383 776Z" />
<glyph unicode="&#xc1;" horiz-adv-x="596" d="M23 0L212 691H385L573 0H493L444 175H152L103 0H23ZM169 246H427L324 623H272L169 246ZM208 776L185 832L403 932L429 863L208 776Z" />
<glyph unicode="&#xc2;" horiz-adv-x="596" d="M23 0L212 691H385L573 0H493L444 175H152L103 0H23ZM169 246H427L324 623H272L169 246ZM129 790L263 925H331L465 790H378L298 869L217 790H129Z" />
<glyph unicode="&#xc3;" horiz-adv-x="596" d="M23 0L212 691H385L573 0H493L444 175H152L103 0H23ZM169 246H427L324 623H272L169 246ZM378 801Q360 801 337 809T290 828T246 847T215 855Q202 855 180 839T142 807L124 865Q135 878 150 891T182 913T214 923Q233
923 256 915T303 897T345 878T377 870Q388 870 409 885T446 915L464 857Q455 845 441 832T410 810T378 801Z" />
<glyph unicode="&#xc4;" horiz-adv-x="596" d="M23 0L212 691H385L573 0H493L444 175H152L103 0H23ZM169 246H427L324 623H272L169 246ZM362 806V898H437V806H362ZM158 806V898H233V806H158Z" />
<glyph unicode="&#xc5;" horiz-adv-x="596" d="M23 0L212 691H385L573 0H493L444 175H152L103 0H23ZM169 246H427L324 623H272L169 246ZM298 636Q246 636 212 664T178 742Q178 776 193 800T236 836T298 849Q348 849 382 821T417 742Q417 692 383 664T298 636ZM298
689Q317 689 330 695T351 714T359 742Q359 768 343 781T298 795Q279 795 265 789T244 771T236 742Q236 717 252 703T298 689Z" />
<glyph unicode="&#xc6;" horiz-adv-x="876" d="M19 0L241 696H829V619H486V394H769V318H486V76H829V0H407V172H159L102 0H19ZM180 249H407L408 619H299L180 249Z" />
<glyph unicode="&#xc7;" horiz-adv-x="544" d="M312 -10Q234 -10 185 13T107 81T69 192T58 344Q58 432 68 499T107 611T184 679T312 702Q348 702 383 699T450 690T503 679L500 612Q478 616 446 620T381 627T321 630Q264 630 229 613T174 561T148 472T141 344Q141
272 148 219T173 131T228 79T322 62Q364 62 414 67T500 79L503 11Q479 6 447 1T380 -7T312 -10ZM340 -218Q316 -218 292 -216T253 -211L256 -162Q265 -163 287 -163T321 -164Q342 -164 353 -156T365 -127Q365 -108 354 -101T321 -94H280V1H322V-48Q359 -48 384
-54T421 -78T434 -127Q434 -175 408 -196T340 -218Z" />
<glyph unicode="&#xc8;" horiz-adv-x="553" d="M84 0V691H507V620H164V386H447V316H164V71H507V0H84ZM389 776L168 863L194 932L412 832L389 776Z" />
<glyph unicode="&#xc9;" horiz-adv-x="553" d="M84 0V691H507V620H164V386H447V316H164V71H507V0H84ZM199 776L176 832L394 932L420 863L199 776Z" />
<glyph unicode="&#xca;" horiz-adv-x="553" d="M84 0V691H507V620H164V386H447V316H164V71H507V0H84ZM126 790L260 925H328L462 790H375L295 869L214 790H126Z" />
<glyph unicode="&#xcb;" horiz-adv-x="553" d="M84 0V691H507V620H164V386H447V316H164V71H507V0H84ZM359 806V898H434V806H359ZM155 806V898H230V806H155Z" />
<glyph unicode="&#xcc;" horiz-adv-x="248" d="M84 0V691H164V0H84ZM457 776L236 863L262 932L480 832L457 776Z" />
<glyph unicode="&#xcd;" horiz-adv-x="248" d="M84 0V691H164V0H84ZM36 776L13 832L231 932L257 863L36 776Z" />
<glyph unicode="&#xce;" horiz-adv-x="248" d="M84 0V691H164V0H84ZM208 790L342 925H410L544 790H457L377 869L296 790H208Z" />
<glyph unicode="&#xcf;" horiz-adv-x="248" d="M84 0V691H164V0H84ZM188 806V898H263V806H188ZM-16 806V898H59V806H-16Z" />
<glyph unicode="&#xd0;" horiz-adv-x="647" d="M20 309V386H323V309H20ZM87 0V691H334Q410 691 460 667T539 598T580 492T592 356Q592 281 581 217T540 103T461 27T334 0H87ZM167 71H334Q388 71 422 94T475 157T501 248T509 356Q509 412 502 460T475 544T422 600T334
620H167V71Z" />
<glyph unicode="&#xd1;" horiz-adv-x="677" d="M84 0V691H233L493 71H513V691H593V0H447L183 620H164V0H84ZM420 801Q402 801 379 809T332 828T288 847T257 855Q244 855 222 839T184 807L166 865Q177 878 192 891T224 913T256 923Q275 923 298 915T345 897T387
878T419 870Q430 870 451 885T488 915L506 857Q497 845 483 832T452 810T420 801Z" />
<glyph unicode="&#xd2;" horiz-adv-x="660" d="M330 -10Q222 -10 163 30T80 148T56 342Q56 457 80 537T163 659T330 702Q437 702 496 660T580 538T604 342Q604 224 581 146T498 29T330 -10ZM330 61Q409 61 450 91T506 183T521 342Q521 435 506 499T449 597T330
631Q252 631 211 598T155 500T139 342Q139 249 154 187T210 93T330 61ZM420 776L199 863L225 932L443 832L420 776Z" />
<glyph unicode="&#xd3;" horiz-adv-x="660" d="M330 -10Q222 -10 163 30T80 148T56 342Q56 457 80 537T163 659T330 702Q437 702 496 660T580 538T604 342Q604 224 581 146T498 29T330 -10ZM330 61Q409 61 450 91T506 183T521 342Q521 435 506 499T449 597T330
631Q252 631 211 598T155 500T139 342Q139 249 154 187T210 93T330 61ZM220 776L197 832L415 932L441 863L220 776Z" />
<glyph unicode="&#xd4;" horiz-adv-x="660" d="M330 -10Q222 -10 163 30T80 148T56 342Q56 457 80 537T163 659T330 702Q437 702 496 660T580 538T604 342Q604 224 581 146T498 29T330 -10ZM330 61Q409 61 450 91T506 183T521 342Q521 435 506 499T449 597T330
631Q252 631 211 598T155 500T139 342Q139 249 154 187T210 93T330 61ZM162 790L296 925H364L498 790H411L331 869L250 790H162Z" />
<glyph unicode="&#xd5;" horiz-adv-x="660" d="M330 -10Q222 -10 163 30T80 148T56 342Q56 457 80 537T163 659T330 702Q437 702 496 660T580 538T604 342Q604 224 581 146T498 29T330 -10ZM330 61Q409 61 450 91T506 183T521 342Q521 435 506 499T449 597T330
631Q252 631 211 598T155 500T139 342Q139 249 154 187T210 93T330 61ZM411 801Q393 801 370 809T323 828T279 847T248 855Q235 855 213 839T175 807L157 865Q168 878 183 891T215 913T247 923Q266 923 289 915T336 897T378 878T410 870Q421 870 442 885T479 915L497
857Q488 845 474 832T443 810T411 801Z" />
<glyph unicode="&#xd6;" horiz-adv-x="660" d="M330 -10Q222 -10 163 30T80 148T56 342Q56 457 80 537T163 659T330 702Q437 702 496 660T580 538T604 342Q604 224 581 146T498 29T330 -10ZM330 61Q409 61 450 91T506 183T521 342Q521 435 506 499T449 597T330
631Q252 631 211 598T155 500T139 342Q139 249 154 187T210 93T330 61ZM394 806V898H469V806H394ZM190 806V898H265V806H190Z" />
<glyph unicode="&#xd7;" horiz-adv-x="560" d="M121 41L70 91L232 251L71 410L121 460L280 299L440 461L490 410L328 251L490 91L439 41L280 202L121 41Z" />
<glyph unicode="&#xd8;" horiz-adv-x="660" d="M305 206L246 234L511 800L571 774L305 206ZM154 -117L95 -89L303 356L363 330L154 -117ZM330 -10Q222 -10 163 30T80 148T56 342Q56 457 80 537T163 659T330 702Q437 702 496 660T580 538T604 342Q604 224 581 146T498
29T330 -10ZM330 61Q409 61 450 91T506 183T521 342Q521 435 506 499T449 597T330 631Q252 631 211 598T155 500T139 342Q139 249 154 187T210 93T330 61Z" />
<glyph unicode="&#xd9;" horiz-adv-x="645" d="M320 -10Q244 -10 190 12T108 82T79 211V691H159V209Q159 130 201 96T320 61Q400 61 443 95T486 209V691H566V211Q566 132 538 83T454 12T320 -10ZM416 776L195 863L221 932L439 832L416 776Z" />
<glyph unicode="&#xda;" horiz-adv-x="645" d="M320 -10Q244 -10 190 12T108 82T79 211V691H159V209Q159 130 201 96T320 61Q400 61 443 95T486 209V691H566V211Q566 132 538 83T454 12T320 -10ZM221 776L198 832L416 932L442 863L221 776Z" />
<glyph unicode="&#xdb;" horiz-adv-x="645" d="M320 -10Q244 -10 190 12T108 82T79 211V691H159V209Q159 130 201 96T320 61Q400 61 443 95T486 209V691H566V211Q566 132 538 83T454 12T320 -10ZM154 790L288 925H356L490 790H403L323 869L242 790H154Z" />
<glyph unicode="&#xdc;" horiz-adv-x="645" d="M320 -10Q244 -10 190 12T108 82T79 211V691H159V209Q159 130 201 96T320 61Q400 61 443 95T486 209V691H566V211Q566 132 538 83T454 12T320 -10ZM387 806V898H462V806H387ZM183 806V898H258V806H183Z" />
<glyph unicode="&#xdd;" horiz-adv-x="539" d="M230 0V290L10 691H100L269 370L439 691H529L310 290V0H230ZM189 776L166 832L384 932L410 863L189 776Z" />
<glyph unicode="&#xde;" horiz-adv-x="599" d="M84 0V696H164V584H337Q413 584 462 560T536 486T560 361Q560 285 536 231T463 148T337 119H164V0H84ZM164 197H337Q411 197 444 241T478 361Q478 437 445 472T337 508H164V197Z" />
<glyph unicode="&#xdf;" horiz-adv-x="576" d="M341 -10Q322 -10 298 -8T250 -2T209 5L212 70Q230 68 253 66T299 62T334 60Q408 60 434 87T460 165Q460 192 452 210T420 243T352 280Q310 300 287 316T253 352T243 399Q243 424 251 441T277 471T320 495Q346 506
360 517T379 543T384 578Q384 622 359 639T269 657Q226 657 200 647T161 610T149 535V0H72V544Q72 595 83 630T118 687T179 717T269 727Q338 727 381 712T445 666T465 582Q465 546 456 522T429 483T383 454Q359 443 346 436T328 421T323 404Q323 394 330 386T356
366T412 336Q459 313 487 292T528 245T541 177Q541 109 521 68T458 9T341 -10Z" />
<glyph unicode="&#xe0;" horiz-adv-x="502" d="M181 -10Q112 -10 76 29T40 143Q40 192 57 223T108 270T194 291L348 306V349Q348 400 326 421T259 442Q234 442 200 440T131 435T71 429L67 488Q91 493 125 498T196 506T264 510Q321 510 357 493T409 440T426 349V96Q428
74 443 64T483 51L480 -10Q466 -10 453 -9T429 -6T406 0Q393 5 382 12T359 29Q340 21 311 12T248 -3T181 -10ZM194 55Q221 55 250 60T305 72T348 85V248L203 234Q158 230 139 208T119 145Q119 103 138 79T194 55ZM343 590L120 674L147 741L365 642L343 590Z" />
<glyph unicode="&#xe1;" horiz-adv-x="502" d="M181 -10Q112 -10 76 29T40 143Q40 192 57 223T108 270T194 291L348 306V349Q348 400 326 421T259 442Q234 442 200 440T131 435T71 429L67 488Q91 493 125 498T196 506T264 510Q321 510 357 493T409 440T426 349V96Q428
74 443 64T483 51L480 -10Q466 -10 453 -9T429 -6T406 0Q393 5 382 12T359 29Q340 21 311 12T248 -3T181 -10ZM194 55Q221 55 250 60T305 72T348 85V248L203 234Q158 230 139 208T119 145Q119 103 138 79T194 55ZM138 590L117 642L335 741L361 674L138 590Z" />
<glyph unicode="&#xe2;" horiz-adv-x="502" d="M181 -10Q112 -10 76 29T40 143Q40 192 57 223T108 270T194 291L348 306V349Q348 400 326 421T259 442Q234 442 200 440T131 435T71 429L67 488Q91 493 125 498T196 506T264 510Q321 510 357 493T409 440T426 349V96Q428
74 443 64T483 51L480 -10Q466 -10 453 -9T429 -6T406 0Q393 5 382 12T359 29Q340 21 311 12T248 -3T181 -10ZM194 55Q221 55 250 60T305 72T348 85V248L203 234Q158 230 139 208T119 145Q119 103 138 79T194 55ZM94 591L217 732H269L394 591H317L244 677L172 591H94Z"
/>
<glyph unicode="&#xe3;" horiz-adv-x="502" d="M181 -10Q112 -10 76 29T40 143Q40 192 57 223T108 270T194 291L348 306V349Q348 400 326 421T259 442Q234 442 200 440T131 435T71 429L67 488Q91 493 125 498T196 506T264 510Q321 510 357 493T409 440T426 349V96Q428
74 443 64T483 51L480 -10Q466 -10 453 -9T429 -6T406 0Q393 5 382 12T359 29Q340 21 311 12T248 -3T181 -10ZM194 55Q221 55 250 60T305 72T348 85V248L203 234Q158 230 139 208T119 145Q119 103 138 79T194 55ZM306 611Q291 611 272 618T234 634T197 650T167
657Q154 657 132 644T94 618L76 667Q87 678 102 690T135 710T167 719Q183 719 202 712T240 697T277 681T305 674Q317 674 338 686T375 712L393 662Q383 651 369 639T338 619T306 611Z" />
<glyph unicode="&#xe4;" horiz-adv-x="502" d="M181 -10Q112 -10 76 29T40 143Q40 192 57 223T108 270T194 291L348 306V349Q348 400 326 421T259 442Q234 442 200 440T131 435T71 429L67 488Q91 493 125 498T196 506T264 510Q321 510 357 493T409 440T426 349V96Q428
74 443 64T483 51L480 -10Q466 -10 453 -9T429 -6T406 0Q393 5 382 12T359 29Q340 21 311 12T248 -3T181 -10ZM194 55Q221 55 250 60T305 72T348 85V248L203 234Q158 230 139 208T119 145Q119 103 138 79T194 55ZM327 620V712H402V620H327ZM126 620V712H201V620H126Z"
/>
<glyph unicode="&#xe5;" horiz-adv-x="502" d="M181 -10Q112 -10 76 29T40 143Q40 192 57 223T108 270T194 291L348 306V349Q348 400 326 421T259 442Q234 442 200 440T131 435T71 429L67 488Q91 493 125 498T196 506T264 510Q321 510 357 493T409 440T426 349V96Q428
74 443 64T483 51L480 -10Q466 -10 453 -9T429 -6T406 0Q393 5 382 12T359 29Q340 21 311 12T248 -3T181 -10ZM194 55Q221 55 250 60T305 72T348 85V248L203 234Q158 230 139 208T119 145Q119 103 138 79T194 55ZM256 540Q211 540 181 570T151 645Q151 674 165
697T202 735T256 749Q300 749 330 719T360 645Q360 600 330 570T256 540ZM256 589Q272 589 284 596T303 616T310 645Q310 668 295 684T256 700Q241 700 229 693T209 673T201 645Q201 621 217 605T256 589Z" />
<glyph unicode="&#xe6;" horiz-adv-x="803" d="M176 -10Q109 -10 75 30T40 143Q40 199 59 229T119 274T220 295L348 306V347Q348 393 326 414T263 435Q236 435 201 434T132 430T73 425L70 495Q96 498 131 501T202 507T267 510Q318 510 351 493T401 439Q428 477
468 493T557 510Q657 510 708 455T759 276L754 217H426Q426 140 454 101T556 61Q584 61 617 62T683 66T739 70L741 7Q717 3 683 -1T613 -7T546 -10Q494 -10 458 4T399 43Q363 27 328 15T256 -3T176 -10ZM189 58Q213 58 240 62T293 73T337 84T364 93Q354 119 350
162T346 243L203 231Q160 228 140 208T119 145Q119 102 137 80T189 58ZM426 280H681Q681 368 652 404T557 440Q493 440 460 403T426 280Z" />
<glyph unicode="&#xe7;" horiz-adv-x="436" d="M257 -10Q178 -10 133 16T70 102T51 258Q51 349 71 404T138 485T258 510Q275 510 299 508T350 502T395 495L392 431Q375 433 353 435T310 438T275 440Q218 440 187 422T143 365T130 258Q130 185 141 142T183 79T275
60Q289 60 310 61T354 65T394 68L396 4Q376 1 350 -2T299 -7T257 -10ZM267 -218Q243 -218 219 -216T180 -211L183 -162Q192 -163 214 -163T248 -164Q269 -164 280 -156T292 -127Q292 -108 281 -101T248 -94H207V1H249V-48Q286 -48 311 -54T348 -78T361 -127Q361
-175 335 -196T267 -218Z" />
<glyph unicode="&#xe8;" horiz-adv-x="505" d="M249 -10Q174 -10 131 19T68 105T49 247Q49 342 75 399T148 483T259 510Q359 510 410 455T461 276L457 217H128Q129 139 157 99T258 59Q286 59 319 60T386 64T442 68L444 7Q420 3 386 -1T315 -7T249 -10ZM128 280H383Q383
372 354 408T259 445Q217 445 188 429T144 376T128 280ZM343 591L120 675L147 742L365 643L343 591Z" />
<glyph unicode="&#xe9;" horiz-adv-x="505" d="M249 -10Q174 -10 131 19T68 105T49 247Q49 342 75 399T148 483T259 510Q359 510 410 455T461 276L457 217H128Q129 139 157 99T258 59Q286 59 319 60T386 64T442 68L444 7Q420 3 386 -1T315 -7T249 -10ZM128 280H383Q383
372 354 408T259 445Q217 445 188 429T144 376T128 280ZM164 590L143 642L361 741L387 674L164 590Z" />
<glyph unicode="&#xea;" horiz-adv-x="505" d="M249 -10Q174 -10 131 19T68 105T49 247Q49 342 75 399T148 483T259 510Q359 510 410 455T461 276L457 217H128Q129 139 157 99T258 59Q286 59 319 60T386 64T442 68L444 7Q420 3 386 -1T315 -7T249 -10ZM128 280H383Q383
372 354 408T259 445Q217 445 188 429T144 376T128 280ZM111 591L234 732H286L411 591H334L261 677L189 591H111Z" />
<glyph unicode="&#xeb;" horiz-adv-x="505" d="M249 -10Q174 -10 131 19T68 105T49 247Q49 342 75 399T148 483T259 510Q359 510 410 455T461 276L457 217H128Q129 139 157 99T258 59Q286 59 319 60T386 64T442 68L444 7Q420 3 386 -1T315 -7T249 -10ZM128 280H383Q383
372 354 408T259 445Q217 445 188 429T144 376T128 280ZM342 620V712H417V620H342ZM141 620V712H216V620H141Z" />
<glyph unicode="&#xec;" horiz-adv-x="221" d="M72 0V500H149V0H72ZM419 590L196 674L223 741L441 642L419 590Z" />
<glyph unicode="&#xed;" horiz-adv-x="221" d="M72 0V500H149V0H72ZM59 590L38 642L256 741L282 674L59 590Z" />
<glyph unicode="&#xee;" horiz-adv-x="221" d="M72 0V500H149V0H72ZM214 591L337 732H389L514 591H437L364 677L292 591H214Z" />
<glyph unicode="&#xef;" horiz-adv-x="221" d="M72 0V500H149V0H72ZM448 620V712H523V620H448ZM247 620V712H322V620H247Z" />
<glyph unicode="&#xf0;" horiz-adv-x="549" d="M266 -9Q160 -9 101 48T42 215Q42 280 66 328T137 404T252 431Q279 431 309 425T368 411T416 395Q413 439 396 479T341 554T244 618T95 669L110 727Q236 703 322 656T453 534T498 352Q498 223 475 144T400 28T266
-9ZM266 62Q319 62 351 86T400 168T416 325Q398 333 371 341T314 354T257 360Q214 360 184 341T139 289T124 215Q124 142 159 102T266 62ZM159 518L124 566L386 742L421 693L159 518Z" />
<glyph unicode="&#xf1;" horiz-adv-x="538" d="M72 0V500H149V465Q166 475 191 485T246 502T302 510Q354 510 387 497T438 454T464 378T472 265V0H394V262Q394 327 387 366T357 422T288 440Q263 440 237 435T187 421T149 404V0H72ZM349 611Q334 611 315 618T277
634T240 650T210 657Q197 657 175 644T137 618L119 667Q130 678 145 690T178 710T210 719Q226 719 245 712T283 697T320 681T348 674Q360 674 381 686T418 712L436 662Q426 651 412 639T381 619T349 611Z" />
<glyph unicode="&#xf2;" horiz-adv-x="529" d="M264 -10Q180 -10 134 19T69 107T50 256Q50 342 70 398T138 482T264 510Q344 510 391 482T458 398T479 256Q479 166 461 107T396 19T264 -10ZM264 57Q322 57 351 77T389 142T399 256Q399 325 387 366T346 425T264
443Q212 443 183 425T141 366T129 256Q129 186 138 142T177 78T264 57ZM363 590L140 674L167 741L385 642L363 590Z" />
<glyph unicode="&#xf3;" horiz-adv-x="529" d="M264 -10Q180 -10 134 19T69 107T50 256Q50 342 70 398T138 482T264 510Q344 510 391 482T458 398T479 256Q479 166 461 107T396 19T264 -10ZM264 57Q322 57 351 77T389 142T399 256Q399 325 387 366T346 425T264
443Q212 443 183 425T141 366T129 256Q129 186 138 142T177 78T264 57ZM173 590L152 642L370 741L396 674L173 590Z" />
<glyph unicode="&#xf4;" horiz-adv-x="529" d="M264 -10Q180 -10 134 19T69 107T50 256Q50 342 70 398T138 482T264 510Q344 510 391 482T458 398T479 256Q479 166 461 107T396 19T264 -10ZM264 57Q322 57 351 77T389 142T399 256Q399 325 387 366T346 425T264
443Q212 443 183 425T141 366T129 256Q129 186 138 142T177 78T264 57ZM112 591L235 732H287L412 591H335L262 677L190 591H112Z" />
<glyph unicode="&#xf5;" horiz-adv-x="529" d="M264 -10Q180 -10 134 19T69 107T50 256Q50 342 70 398T138 482T264 510Q344 510 391 482T458 398T479 256Q479 166 461 107T396 19T264 -10ZM264 57Q322 57 351 77T389 142T399 256Q399 325 387 366T346 425T264
443Q212 443 183 425T141 366T129 256Q129 186 138 142T177 78T264 57ZM334 611Q319 611 300 618T262 634T225 650T195 657Q182 657 160 644T122 618L104 667Q115 678 130 690T163 710T195 719Q211 719 230 712T268 697T305 681T333 674Q345 674 366 686T403 712L421
662Q411 651 397 639T366 619T334 611Z" />
<glyph unicode="&#xf6;" horiz-adv-x="529" d="M264 -10Q180 -10 134 19T69 107T50 256Q50 342 70 398T138 482T264 510Q344 510 391 482T458 398T479 256Q479 166 461 107T396 19T264 -10ZM264 57Q322 57 351 77T389 142T399 256Q399 325 387 366T346 425T264
443Q212 443 183 425T141 366T129 256Q129 186 138 142T177 78T264 57ZM347 620V712H422V620H347ZM146 620V712H221V620H146Z" />
<glyph unicode="&#xf7;" horiz-adv-x="560" d="M55 215V287H505V215H55ZM240 30V132H319V30H240ZM240 370V472H319V370H240Z" />
<glyph unicode="&#xf8;" horiz-adv-x="529" d="M146 -111L94 -92L380 606L432 587L146 -111ZM146 -111L94 -92L380 606L432 587L146 -111ZM264 -10Q180 -10 134 19T69 107T50 256Q50 342 70 398T138 482T264 510Q344 510 391 482T458 398T479 256Q479 166 461
107T396 19T264 -10ZM264 57Q322 57 351 77T389 142T399 256Q399 325 387 366T346 425T264 443Q212 443 183 425T141 366T129 256Q129 186 138 142T177 78T264 57Z" />
<glyph unicode="&#xf9;" horiz-adv-x="532" d="M224 -10Q160 -10 126 16T80 97T67 239V500H144V239Q144 173 150 134T179 78T245 60Q289 60 325 72T383 96V500H460V0H383V35Q351 17 314 4T224 -10ZM336 590L113 674L140 741L358 642L336 590Z" />
<glyph unicode="&#xfa;" horiz-adv-x="532" d="M224 -10Q160 -10 126 16T80 97T67 239V500H144V239Q144 173 150 134T179 78T245 60Q289 60 325 72T383 96V500H460V0H383V35Q351 17 314 4T224 -10ZM175 590L154 642L372 741L398 674L175 590Z" />
<glyph unicode="&#xfb;" horiz-adv-x="532" d="M224 -10Q160 -10 126 16T80 97T67 239V500H144V239Q144 173 150 134T179 78T245 60Q289 60 325 72T383 96V500H460V0H383V35Q351 17 314 4T224 -10ZM104 591L227 732H279L404 591H327L254 677L182 591H104Z" />
<glyph unicode="&#xfc;" horiz-adv-x="532" d="M224 -10Q160 -10 126 16T80 97T67 239V500H144V239Q144 173 150 134T179 78T245 60Q289 60 325 72T383 96V500H460V0H383V35Q351 17 314 4T224 -10ZM354 620V712H429V620H354ZM153 620V712H228V620H153Z" />
<glyph unicode="&#xfd;" horiz-adv-x="484" d="M176 -221L241 0H166L25 500H103L225 67H259L382 500H460L254 -221H176ZM173 590L152 642L370 741L396 674L173 590Z" />
<glyph unicode="&#xfe;" horiz-adv-x="528" d="M72 -221V717H149V476Q166 484 190 491T241 504T294 510Q362 510 402 485T460 405T478 258Q478 159 457 101T386 16T250 -10Q228 -10 199 -8T149 -3V-221H72ZM245 58Q310 58 343 79T387 145T398 257Q398 322 388
362T354 421T286 440Q262 440 236 436T187 425T149 412V64Q170 62 199 60T245 58Z" />
<glyph unicode="&#xff;" horiz-adv-x="484" d="M176 -221L241 0H166L25 500H103L225 67H259L382 500H460L254 -221H176ZM327 620V712H402V620H327ZM126 620V712H201V620H126Z" />
<glyph unicode="&#x2013;" horiz-adv-x="630" d="M66 233V302H566V233H66Z" />
<glyph unicode="&#x2014;" horiz-adv-x="1130" d="M66 233V302H1066V233H66Z" />
<glyph unicode="&#x2018;" horiz-adv-x="221" d="M176 706L133 485H50L115 706H176Z" />
<glyph unicode="&#x2019;" horiz-adv-x="218" d="M53 486L96 707H179L114 486H53Z" />
<glyph unicode="&#x201a;" horiz-adv-x="220" d="M183 150L133 -110H35L111 150H183Z" />
<glyph unicode="&#x201c;" horiz-adv-x="376" d="M331 706L288 485H205L270 706H331ZM176 706L133 485H50L115 706H176Z" />
<glyph unicode="&#x201d;" horiz-adv-x="380" d="M53 487L96 708H179L114 487H53ZM215 487L258 708H341L276 487H215Z" />
<glyph unicode="&#x201e;" horiz-adv-x="362" d="M146 112L103 -109H20L85 112H146ZM301 112L258 -109H175L240 112H301Z" />
<glyph unicode="&#x2022;" horiz-adv-x="472" d="M111 106V391H361V106H111Z" />
<glyph unicode="&#x2039;" horiz-adv-x="302" d="M236 65L45 217V279L236 423V342L112 250L236 146V65Z" />
<glyph unicode="&#x203a;" horiz-adv-x="302" d="M66 69V150L190 254L66 347V427L257 283V221L66 69Z" />
</font>
</defs>
</svg>
