<?xml version="1.0" standalone="no"?>
<!DOCTYPE svg PUBLIC "-//W3C//DTD SVG 1.1//EN" "http://www.w3.org/Graphics/SVG/1.1/DTD/svg11.dtd">
<svg xmlns="http://www.w3.org/2000/svg">
  <defs>
    <font id="Oswald" horiz-adv-x="448">
      <font-face font-family="Oswald" units-per-em="1000" panose-1="0 0 0 0 0 0 0 0 0 0" ascent="1193" descent="-289" alphabetic="0" />
      <glyph unicode=" " glyph-name="gid379" horiz-adv-x="229" />
      <glyph unicode="!" glyph-name="gid387" horiz-adv-x="208" d="M84,173L50,810H158L122,173H84ZM50,0V110H158V0H50Z" />
      <glyph unicode="&quot;" glyph-name="gid418" horiz-adv-x="266" d="M20,562V810h97L78,562H20Zm139,0V810h97L217,562H159Z" />
      <glyph unicode="#" glyph-name="gid394" horiz-adv-x="486" d="M34,0L75,290H32v80H87l14,97H34v81h78l38,262H257L219,548h90l38,262H453L415,548h41V467H404l-15-97h64V290H378L336,0H229l42,290H182L141,0H34ZM193,370h90l14,97H208l-15-97Z" />
      <glyph unicode="$" glyph-name="gid439" horiz-adv-x="491" d="M247-77V-8Q144-6 94,59T39,227l100,27q3-43 13.5-83T187,105.5T254,80q44,0 66.5,24.5T343,175q0,55-25,88.5T255,331L119,451q-26,24-43.5,50t-26,57.5T41,630q0,87 49,135.5T223,817v67h35V817q42-3 73.5-17.5t53-40.5t34-63.5T435,608l-96-26q-3,40-12,74.5T295.5,712T231,730t-65.5-24T142,641q0-37 12.5-60.5T195,531L332,411q30-27 56.5-60.5t43-74.5T448,184q0-55-21-96.5T368.5,22T281-7V-77H247Z" />
      <glyph unicode="%" glyph-name="gid472" horiz-adv-x="891" d="M289,0L512,811h92L382,0H289ZM193,380q-83,0-120,51T36,568v63q0,89 36,137t121,48t121-46t36-134V565q0-87-36.5-136T193,380Zm0,81q26,0 38.5,14.5t17,38.5t4.5,51v71q0,41-10.5,70T193,735t-49-29.5T134,635V564q0-27 4.5-50.5t17-38T193,461ZM698-5Q615-5 578.5,45.5T542,183v63q0,88 35.5,136.5T698,431q86,0 121.5-46.5T855,250V180q0-88-36.5-136.5T698-5Zm0,81q26,0 39,14.5T754,129t4,50v72q0,41-10.5,70T698,350t-49-29.5T639,250V179q0-27 4.5-50.5t17-38T698,76Z" />
      <glyph unicode="&amp;" glyph-name="gid422" horiz-adv-x="606" d="M233-9q-55,0-94.5,23.5T78.5,79T58,173q0,77 34.5,133.5T176,407q-18,36-38.5,72.5t-35,76T88,638q0,54 21,94t60,62.5T261,817q49,0 87.5-18T410,747.5T433,667q0-53-24.5-101.5t-59.5-90T281,402L403,210q11,21 18.5,47.5t13,56.5t8.5,58H549q0-39-11.5-82T508,208.5T471,143q13-16 34-28.5T550,102V-8q-4,0-7.5,0T536-8Q507-7 484,5.5T442.5,36T407,70q-27-34-70.5-56.5T233-9Zm0,89q38,0 64,18.5T342,140L218,331q-24-31-38.5-72.5T165,173q0-23 6-44.5t21-35T233,80Zm11,380q21,25 39.5,59T314,591.5T326,667q0,29-18,45.5T261,729q-36,0-51-28t-15-63q0-46 15.5-91.5T244,460Z" />
      <glyph unicode="&apos;" glyph-name="gid419" horiz-adv-x="127" d="M20,562V810h97L78,562H20Z" />
      <glyph unicode="(" glyph-name="gid402" horiz-adv-x="298" d="M268-194q-57,1-93.5,29.5T117-86T86.5,28T75,165T73,311q0,74 2,146.5t11.5,137T117,709t57.5,79T268,817V745q-35-1-54-39.5T187,604t-9.5-139.5T176,311q0-78 1.5-154.5T187,17T214-84t54-39v-71Z" />
      <glyph unicode=")" glyph-name="gid403" horiz-adv-x="260" d="M29-194v72q36,1 55,39.5T111,19t9.5,140T122,313q0,78-1.5,154.5t-9.5,139T84,707T29,746v71q58,0 94.5-28.5T181,710t30.5-114.5T223,459t2-146t-2-146.5T211.5,29T181-86t-57.5-78.5T29-194Z" />
      <glyph unicode="*" glyph-name="gid393" horiz-adv-x="398" d="M147,469L84,507l79,111L45,663l26,68l113-60L172,809h81L240,671l114,60l25-68L261,617l80-110l-65-38L212,594L147,469Z" />
      <glyph unicode="+" glyph-name="gid460" horiz-adv-x="415" d="M165,212V375H25v81H165V619h80V456H390V375H245V212H165Z" />
      <glyph unicode="," glyph-name="gid383" horiz-adv-x="187" d="M57-131L40-85q27,9 42.5,31.5T98,0H41V115H151V2q0-53-23-84.5T57-131Z" />
      <glyph unicode="-" glyph-name="gid398" horiz-adv-x="303" d="M40,250v81H263V250H40Z" />
      <glyph unicode="." glyph-name="gid382" horiz-adv-x="188" d="M49,0V119H156V0H49Z" />
      <glyph unicode="/" glyph-name="gid395" horiz-adv-x="369" d="M29,0L247,810h93L121,0H29Z" />
      <glyph unicode="0" glyph-name="gid361" horiz-adv-x="517" d="M259-9Q190-9 145.5,22t-66,85T58,230V579q0,71 21,124.5T144.5,787T259,817t114-30t65-83.5T459,579V230q0-70-21.5-124T372,21.5T259-9Zm0,88q38,0 57.5,22t27,56.5T351,229V580q0,39-7,73.5T317.5,709T259,730t-59-21t-27-55.5T166,580V229q0-37 7.5-71.5t28-56.5T259,79Z" />
      <glyph unicode="1" glyph-name="gid362" horiz-adv-x="378" d="M171,0V670q-1-1-22.5-6T100,654t-48-9t-22-4v81q17,4 39.5,11t46,17t45,25T197,810h81V0H171Z" />
      <glyph unicode="2" glyph-name="gid363" horiz-adv-x="478" d="M41,0V76L247,397q23,36 42.5,67t32,65.5T334,609q0,56-18,88t-63,32q-38,0-59-21t-29-55t-8-73V553H50v28q0,73 19.5,125.5t63,81.5T248,817q98,0 146-55.5T442,608q0-52-12.5-91T397,444t-44-70L167,90H423V0H41Z" />
      <glyph unicode="3" glyph-name="gid364" horiz-adv-x="477" d="M238-9Q172-9 128,16T62,88T40,199v27H146q0-4 0-8.5t0-9.5q1-36 8.5-65t27-46T238,80q39,0 59,18.5T324,151t7,78q0,64-23.5,104.5T225,378q-3,1-7.5,1t-7.5,0V486q3,0 7,0t7,0q57,2 82,30t25,93q0,55-18.5,88T239,730t-73-36.5T146,600q0-4 0-8.5t0-8.5H40v27q0,65 22,111t66.5,71T239,817q67,0 111-25t66-71.5T438,609q0-73-31.5-117T322,432q37-11 62.5-38T424,325.5T438,229q0-72-20-125.5t-64-83T238-9Z" />
      <glyph unicode="4" glyph-name="gid365" horiz-adv-x="483" d="M275,0V217H40V329L251,810H377V312h91V217H377V0H275ZM143,312H275V680L143,312Z" />
      <glyph unicode="5" glyph-name="gid366" horiz-adv-x="476" d="M243-8Q170-8 127,20T65.5,101T47,227H154q0-36 6-70.5t25.5-57T245,77q44,0 63,25.5t24,69t5,98.5t-6,93.5t-25,59T246,443q-33,0-56-20.5T156,376H65V810H414V703H162l-7-224q20,21 49.5,33T272,524q66,0 103.5-31t53-85T444,284q0-62-9-115.5t-31.5-93T342,14T243-8Z" />
      <glyph unicode="6" glyph-name="gid367" horiz-adv-x="503" d="M257-9Q187-9 143,26.5t-64.5,96T58,257V530q0,79 18,144t61.5,104T257,817q63,0 106.5-23t67-67T455,620q0-2 0.5-5.5T456,608H348q0,59-19,90t-72,31q-29,0-50-18.5T175.5,654T165,556V433q16,25 45.5,40.5T283,489q67,0 105-29t54-81.5T458,255q0-73-20-133T374,26.5T257-9Zm0,89q36,0 56,20.5T341.5,155t8.5,74q0,48-4.5,89T322,383.5T257,408q-22,0-40-8t-31-20.5T165,353V232q0-41 8.5-76T202,100.5T257,80Z" />
      <glyph unicode="7" glyph-name="gid368" horiz-adv-x="386" d="M93,0L239,726H22v84H346V758L196,0H93Z" />
      <glyph unicode="8" glyph-name="gid369" horiz-adv-x="499" d="M250-9Q177-9 133,20T69.5,102.5T50,228q0,41 7,72t20.5,54.5t32,41T150,427q-40,27-65,70.5T60,608q0,64 20,111t62.5,72.5T250,817t106.5-25.5T418,719t20-111q0-68-24.5-111T348,427q22-14 40.5-31.5t32-41t21-54.5t7.5-72q0-72-19.5-125.5T366.5,20T250-9Zm0,85q39,0 60,20t28.5,54t7.5,76q0,38-8.5,71.5t-29.5,55T250,374t-58.5-21T161,298.5T152,226q0-42 8-76t29.5-54T250,76Zm0,400q34,1 51.5,21T326,548.5t7,65.5q0,50-18,85t-65,35t-66-35t-19-85q0-34 7-65.5T197.5,497T250,476Z" />
      <glyph unicode="9" glyph-name="gid370" horiz-adv-x="502" d="M245-9Q182-9 137.5,14.5T70,83T46,192q0,2 0,4.5t0,4.5H153q0-58 19-89.5T246,80q30,0 50,18.5t30,57T336,253V376q-15-25-44.5-40.5T218,320q-67,0-105,29.5t-53.5,82T44,554q0,74 20,133.5T128.5,782T245,817q70,0 114-35.5T423.5,686T444,552V280q0-78-18-144T365,30.5T245-9Zm0,410q35,0 57,17.5T336,457V577q0,42-8,76.5t-28,55T245,729t-55.5-21t-29-54.5T152,580q0-48 4.5-89t24-65.5T245,401Z" />
      <glyph unicode=":" glyph-name="gid384" horiz-adv-x="197" d="M60,415V529H168V415H60ZM60,96V210H168V96H60Z" />
      <glyph unicode=";" glyph-name="gid385" horiz-adv-x="215" d="M76-46L58,1q31,2 44.5,19.5T116,68H59V182H170V70q0-53-21-83.5T76-46ZM59,446V565H167V446H59Z" />
      <glyph unicode="&lt;" glyph-name="gid466" horiz-adv-x="373" d="M315,210L28,363V470L315,623V515L109,417L315,317V210Z" />
      <glyph unicode="=" glyph-name="gid464" horiz-adv-x="415" d="M54,464v81H361V464H54Zm0-178v81H361V286H54Z" />
      <glyph unicode="&gt;" glyph-name="gid465" horiz-adv-x="373" d="M58,210V317L264,417L58,515V623L345,470V363L58,210Z" />
      <glyph unicode="?" glyph-name="gid389" horiz-adv-x="483" d="M158,203V327q50,44 90.5,88T313,508t24,107q0,47-24.5,78T241,724q-40,0-63.5-23T154,642q0-13 2-24.5t5-25.5L61,573q-5,15-8,31.5T50,636q0,80 50,130.5T241,817q95,0 148-53.5T442,612q0-67-25-121T349,391t-96-91V203H158ZM153,0V110H260V0H153Z" />
      <glyph unicode="@" glyph-name="gid421" horiz-adv-x="904" d="M470-134q-87,0-162,25T177-32.5T90,97.5T59,282q0,135 33.5,234.5t94,164.5t143,97T511,810q91,0 157.5-32T778,690.5t63.5-125T861,421q0-66-17-124.5t-49-103t-76-70T621,98q-28,0-50,11t-35,32t-14,49q-7-31-29-59t-66-31q-50-4-83.5,20.5t-50,67T277,279q0,56 17,113.5T343,498t75.5,77T514,604q11,0 23-3.5t23-9.5t19-12l10,17h78L610,229q-2-19-3-35t4.5-26T633,158q32,0 59,19.5T739.5,232t32,81T783,411q1,63-15,120T718.5,632t-87,69T504,726q-78,0-142-30.5t-110-88t-71-139T156,286q0-69 15-123.5T214.5,68T283,1.5T372.5-38T479-51q29,0 58.5,3t61,9T661-24l19-78q-55-16-108-24t-102-8ZM448,182q23,4 45,28.5T525,287l35,233q-7,2-14,3.5T532,525q-40,0-75.5-33.5T399,402T377,278q0-29 7.5-52.5T408,190t40-8Z" />
      <glyph unicode="A" glyph-name="gid1" horiz-adv-x="492" d="M19,0L191,810H300L473,0H366L329,204H164L125,0H19ZM179,285H314L246,650L179,285Z" />
      <glyph unicode="B" glyph-name="gid17" horiz-adv-x="524" d="M63,0V810H249q55,0 95.5-12T412,761t40-63.5T465,607q0-50-12.5-86.5t-38-57.5T349,436q49-11 79-37.5t44.5-68T487,231q0-52-12-95T437.5,63t-65-46.5T279,0H63ZM176,81h76q76,0 101.5,35.5T379,231q0,51-13.5,85.5t-43,52T243,386H176V81Zm0,391h67q48,0 75,13.5T356,529t11,78q0,56-17,81t-53,31.5T203,726H176V472Z" />
      <glyph unicode="C" glyph-name="gid19" horiz-adv-x="515" d="M266-9Q180-9 132.5,27t-66,97T48,260V546q0,82 18.5,143t66,94.5T266,817q76,0 120.5-28t64-80T470,584V520H363v57q0,45-4.5,79.5T334,710t-67,19q-48,0-70-20.5t-28.5-58T162,563V242q0-61 10-96.5T205,95t62-15q46,0 66,20.5T358,157t5,84v60H470V241q0-74-18-130.5t-62-88T266-9Z" />
      <glyph unicode="D" glyph-name="gid25" horiz-adv-x="527" d="M63,0V810H239q90,0 142.5-27.5t75-82.5T479,563V265q0-86-22.5-145t-73-89.5T248,0H63ZM176,81h64q62,0 88,24t31.5,70T365,286V549q0,63-8,102t-35,57t-85,18H176V81Z" />
      <glyph unicode="E" glyph-name="gid34" horiz-adv-x="407" d="M63,0V810H377V726H176V458H339V378H176V81H379V0H63Z" />
      <glyph unicode="F" glyph-name="gid49" horiz-adv-x="391" d="M63,0V810H376V729H176V459H331V379H176V0H63Z" />
      <glyph unicode="G" glyph-name="gid51" horiz-adv-x="535" d="M256-10q-76,0-121.5,32.5T68.5,117T48,266V537q0,89 18.5,151.5t66,95.5T265,817q76,0 122.5-25.5t67.5-78T476,581V551H370v25q0,53-7,86.5t-28.5,50T267,729q-50,0-72.5-23t-28-62.5T161,554V254q0-58 8.5-97T202,99t68-19t68,21t33,62t9,102v56H277v80H482V0H411L400,93q-16-45-50-74T256-10Z" />
      <glyph unicode="H" glyph-name="gid59" horiz-adv-x="561" d="M63,0V810H176V460H384V810H497V0H384V379H176V0H63Z" />
      <glyph unicode="I" glyph-name="gid63" horiz-adv-x="248" d="M69,0V810H180V0H69Z" />
      <glyph unicode="J" glyph-name="gid76" horiz-adv-x="301" d="M7-19V62q37,0 60,5t35.5,18T120,122.5t5,62.5V810H237V183q0-70-15-114.5t-53-66T61-19H7Z" />
      <glyph unicode="K" glyph-name="gid78" horiz-adv-x="495" d="M63,0V810H176V428L362,810H467L307,453L493,0H383L228,380l-52-94V0H63Z" />
      <glyph unicode="L" glyph-name="gid81" horiz-adv-x="397" d="M63,0V810H176V81H383V0H63Z" />
      <glyph unicode="M" glyph-name="gid89" horiz-adv-x="660" d="M61,0L76,810H187L330,153L474,810H584L599,0H508l-9,588L362,0H298L162,588L153,0H61Z" />
      <glyph unicode="N" glyph-name="gid91" horiz-adv-x="528" d="M63,0V810h77L370,272V810h94V0H392L159,553V0H63Z" />
      <glyph unicode="O" glyph-name="gid99" horiz-adv-x="539" d="M270-9Q188-9 139,23T69,114.5T48,254V561q0,80 21.5,137.5t70,88T270,817t130-31t69.5-88T491,561V253q0-79-21.5-138T400,23.5T270-9Zm0,89q45,0 68,18.5t31,52t8,78.5V584q0,45-8,77.5t-31,50T270,729t-68.5-17.5t-31.5-50T162,584V229q0-45 8-78.5t31.5-52T270,80Z" />
      <glyph unicode="P" glyph-name="gid118" horiz-adv-x="480" d="M63,0V810H264q73,0 116.5-26.5T444,707t20-121q0-64-22.5-111T375,402.5T265,377H176V0H63ZM176,458h52q49,0 77,11t40,38.5T357,585q0,58-8.5,89T313,717t-84,12H176V458Z" />
      <glyph unicode="Q" glyph-name="gid121" horiz-adv-x="541" d="M435-164q-27,14-53.5,40t-50,57T289-8q-4-1-9-1T270-9Q188-9 139,23T69,114.5T48,254V561q0,80 21.5,137.5t70,88T270,817t130.5-31t70-88T492,561V253q0-59-12-107.5t-38-83T373,10q12-15 26-31.5T427-52t26-23l-18-89ZM270,80q46,0 69,18.5t31,52t8,78.5V584q0,45-8,77.5t-31,50T270,729q-45,0-68.5-17.5t-31.5-50T162,584V229q0-45 8-78.5t31.5-52T270,80Z" />
      <glyph unicode="R" glyph-name="gid122" horiz-adv-x="519" d="M63,0V810H226q81,0 134-21.5t78.5-69T464,595q0-47-10-85.5t-32-65T364,406L479,0H370L264,380H176V0H63ZM176,461h43q48,0 78,12t44,41t14,81q0,71-26,102.5T226,729H176V461Z" />
      <glyph unicode="S" glyph-name="gid128" horiz-adv-x="473" d="M254-9Q184-9 137.5,21T67,104T39,227l100,27q3-43 13.5-83T187,105.5T254,80q44,0 66.5,24.5T343,175q0,55-25,88.5T255,331L119,451q-40,35-59,76.5T41,630q0,89 51,138t139,49q48,0 84.5-12.5t61-38.5t39-65.5T435,608l-96-26q-3,40-12,73.5t-31.5,54T231,730t-65.5-22.5T142,641q0-37 12.5-61T195,531L332,411q46-40 81-95.5T448,184q0-60-25-103.5T354.5,14T254-9Z" />
      <glyph unicode="T" glyph-name="gid136" horiz-adv-x="413" d="M152,0V726H15v84H398V726H265V0H152Z" />
      <glyph unicode="U" glyph-name="gid142" horiz-adv-x="543" d="M272-9Q184-9 137,26T73,124.5T56,273V810H164V268q0-52 7-95t30.5-68T272,80q48,0 71,25t30,68t7,95V810H487V273q0-85-17-148.5T406.5,26T272-9Z" />
      <glyph unicode="V" glyph-name="gid157" horiz-adv-x="505" d="M204,0L23,810H129L257,213L379,810H482L303,0H204Z" />
      <glyph unicode="W" glyph-name="gid158" horiz-adv-x="729" d="M168,0L36,810h94l87-582L326,807h80L516,225l85,585h92L563,0H481L368,600L254,0H168Z" />
      <glyph unicode="X" glyph-name="gid163" horiz-adv-x="482" d="M13,0L182,424L16,810H121L244,524L356,810H461L291,415L469,0H364L232,305L118,0H13Z" />
      <glyph unicode="Y" glyph-name="gid164" horiz-adv-x="481" d="M187,0V286L12,810H117L241,419L363,810H469L295,286V0H187Z" />
      <glyph unicode="Z" glyph-name="gid173" horiz-adv-x="417" d="M38,0V81L276,729H53v81H396V761L145,81H396V0H38Z" />
      <glyph unicode="[" glyph-name="gid406" horiz-adv-x="340" d="M63-184V810H283V755H170V-129H283v-55H63Z" />
      <glyph unicode="\" glyph-name="gid396" horiz-adv-x="369" d="M247,0L29,810h92L340,0H247Z" />
      <glyph unicode="]" glyph-name="gid407" horiz-adv-x="310" d="M26-184v55H139V754H26v56H247V-184H26Z" />
      <glyph unicode="^" glyph-name="gid470" horiz-adv-x="443" d="M34,487L168,810H276L410,487H308L222,730L135,487H34Z" />
      <glyph unicode="_" glyph-name="gid401" horiz-adv-x="344" d="M0-134v81H344v-81H0Z" />
      <glyph unicode="`" glyph-name="gid495" horiz-adv-x="278" d="M167,612L57,810H164l57-198H167Z" />
      <glyph unicode="a" glyph-name="gid177" horiz-adv-x="409" d="M141-8Q107-8 81,11.5t-41,50T25,126q0,54 18,91t49.5,62.5t73,44.5T253,361v41q0,35-4,58t-16.5,34.5T195,506q-22,0-35.5-10T140,467.5T134,424V395L28,399q2,96 44,141.5T202,586q86,0 122-47t36-136V139q0-27 1.5-52t4-46.5T370,0H272q-3,16-7.5,40.5T258,85q-10-34-38.5-63.5T141-8Zm42,92q16,0 30,9t25,20.5T253,132V296q-25-14-47-28t-38.5-29.5t-26-35T132,159q0-35 13-55t38-20Z" />
      <glyph unicode="b" glyph-name="gid193" horiz-adv-x="447" d="M261-8Q230-8 205.5,7.5T163,42V0H56V810H163V532q19,22 45.5,38T272,586q45,0 71.5-23.5t39.5-59t17-72t4-62.5V229q0-61-12-115.5t-43-88T261-8ZM239,76q28,0 40,20.5T294,152t3,77V369q0,36-4,66.5T276,484t-41,18q-21,0-39.5-9T163,473V102q14-11 33.5-18.5T239,76Z" />
      <glyph unicode="c" glyph-name="gid195" horiz-adv-x="411" d="M212-8Q141-8 104.5,20.5T55.5,101T43,222V355q0,73 13,124.5t49.5,79T212,586q63,0 97.5-20.5t47.5-61T370,404V370H273v35q0,38-5,60t-18,32t-37,10q-26,0-40-12t-18.5-40.5T150,377V195q0-74 14-99t50-25q27,0 39.5,12.5t16,35.5t3.5,52v47h97V178q0-58-13.5-100t-48-64T212-8Z" />
      <glyph unicode="d" glyph-name="gid201" horiz-adv-x="442" d="M188-8Q115-8 79,45.5T43,227V339q0,66 11,122.5T95.5,552T185,586q29,0 53-13t43-32V810H388V0H281V37Q262,17 239.5,4.5T188-8Zm27,84q15,0 32,5.5T281,98V477q-14,10-31,17.5T213,502q-37,0-50-35.5T150,381V218q0-40 4.5-72.5t18.5-51T215,76Z" />
      <glyph unicode="e" glyph-name="gid208" horiz-adv-x="421" d="M214-8Q146-8 109,18.5t-51.5,78T43,223V355q0,77 15,128t52.5,77T214,586q73,0 107.5-30T367,469.5T378,334V287H150V171q0-35 6.5-57t21-32.5T215,71q24,0 36.5,11.5t17,33T273,166v35H377V179q0-87-37-137T214-8ZM150,345H273v52q0,36-4,60.5t-16.5,37T213,507q-26,0-39.5-12T155,454.5T150,376V345Z" />
      <glyph unicode="f" glyph-name="gid223" horiz-adv-x="287" d="M88,0V499H19v79H88v30q0,54 8.5,92.5T132,760t81,21q20,0 35.5-1.5T283,774V696q-9,2-20,3.5T243,701q-31,0-39.5-20.5T195,626V578h88V499H195V0H88Z" />
      <glyph unicode="g" glyph-name="gid225" horiz-adv-x="441" d="M207-181q-53,0-95.5,11.5T44.5-134T20-71q0,30 14,52.5T70,20t46,25l50-7q-13-12-25-24.5t-20-26T113-42q0-26 22.5-39T216-94q57,0 84.5,13.5T328-38q0,18-7,29.5T297,10T248,20L122,36Q83,41 64,61T45,105q0,36 20.5,61T121,222l36-28q-6-8-15-22.5T133,143q0-11 11.5-18t36.5-9l97-9q68-6 101-41T412-34q0-48-22.5-81T322-164.5T207-181Zm4,359q-59,0-96,26T60.5,276T43,381q0,67 19,112.5t56.5,69T211,586q57,0 93-28.5T357,482t17-104q0-59-15.5-104.5t-51-70.5T211,178Zm0,77q22,0 35,8.5T265.5,288t9,39.5T277,381t-2,54t-9,40.5T246,501t-34,9q-22,0-35.5-8.5t-21-25t-10-40.5T143,381q0-27 2.5-50t9.5-40t20.5-26.5T211,255ZM354,481l-25,40q8,14 36,35t60,35l28-70q-14-3-37.5-11T373,493.5T354,481Z" />
      <glyph unicode="h" glyph-name="gid233" horiz-adv-x="445" d="M57,0V810H164V518q29,28 65,48t80,20q34,0 52.5-18t26-45t7.5-55V0H288V437q0,31-9,48t-37,17q-19,0-39.5-11T164,464V0H57Z" />
      <glyph unicode="i" glyph-name="gid237" horiz-adv-x="229" d="M61,0V578H168V0H61Zm0,664V776H168V664H61Z" />
      <glyph unicode="j" glyph-name="gid251" horiz-adv-x="230" d="M36-146q-13,0-28.5,1.5T-19-139v77q5-1 14-2T9-65q23,0 36,9T63.5-31T69,5V578H176V-6q0-68-37.5-104T36-146ZM69,664V776H177V664H69Z" />
      <glyph unicode="k" glyph-name="gid254" horiz-adv-x="429" d="M56,1V811H163V328L319,578H431L295,352L427,0H320L212,296l-49-74V1H56Z" />
      <glyph unicode="l" glyph-name="gid258" horiz-adv-x="229" d="M64,0V810H171V0H64Z" />
      <glyph unicode="m" glyph-name="gid265" horiz-adv-x="680" d="M54,0V578h99V523q29,33 64,49t72,16q32,0 57.5-16T383,515q31,38 67.5,55.5T527,588q28,0 51-13.5t37-43T629,454V0H531V447q0,42-13.5,56.5T481,518q-22,0-46-12.5T391,471q0-4 0-8t0-9V0H293V447q0,42-13.5,56.5T243,518q-22,0-45.5-12.5T153,471V0H54Z" />
      <glyph unicode="n" glyph-name="gid267" horiz-adv-x="439" d="M54,0V578H161V521q29,27 64,46t77,19q35,0 53.5-18t26-45t7.5-55V0H282V437q0,31-9,48t-37,17q-18,0-37.5-10.5T161,466V0H54Z" />
      <glyph unicode="o" glyph-name="gid275" horiz-adv-x="425" d="M213-8Q149-8 112,18T59.5,92T44,205V373q0,65 15.5,113T112,560t101,26t100.5-26t52-74T381,373V205q0-65-15.5-113t-52-74T213-8Zm0,79q31,0 43.5,18t15,47.5T274,198V379q0,33-2.5,62t-15,47.5T213,507t-44-18.5T153.5,441T151,379V198q0-32 2.5-61.5T169,89t44-18Z" />
      <glyph unicode="p" glyph-name="gid294" horiz-adv-x="446" d="M54-190V578H161V532q19,22 46,38t64,16q45,0 71.5-23.5t39.5-59t17-72t4-62.5V229q0-61-12-115.5t-43.5-88T259-8Q228-8 204,7.5T161,43V-190H54ZM238,76q28,0 40,20.5T293,152t3,77V369q0,36-4,66.5T275,484t-41,18q-21,0-40-9t-33-21V102q15-11 34-18.5T238,76Z" />
      <glyph unicode="q" glyph-name="gid297" horiz-adv-x="443" d="M282-190V37Q263,17 240.5,4.5T189-8Q116-8 80,45.5T44,227V339q0,66 11,122.5T96.5,552T186,586q29,0 53-13t43-32v37H389V-190H282ZM216,76q15,0 32.5,5.5T282,98V477q-14,10-31,17.5T214,502q-37,0-50-35.5T151,381V218q0-40 4.5-72.5t18.5-51T216,76Z" />
      <glyph unicode="r" glyph-name="gid298" horiz-adv-x="321" d="M57,0V578H164V496q32,53 64,71t64,18q4,0 7.5,0t9.5-1V466q-12,5-27.5,8.5T250,478q-25,0-45.5-11.5T164,422V0H57Z" />
      <glyph unicode="s" glyph-name="gid304" horiz-adv-x="374" d="M188-8Q117-8 74,36.5T25,154l89,27q8-55 27-82.5T197,71q29,0 44,16.5T256,132q0,25-11,45t-36,41l-99,85q-30,26-50.5,58T39,444q0,46 18.5,77.5t52,48T188,586q72,0 110-44.5T342,434l-76-27q-4,30-12,52.5t-23,35T192,507q-26,0-41.5-17.5T135,448q0-15 6.5-29.5T164,390l102-94q21-19 39.5-41T336,205t12-65q0-49-20-82T272,8.5T188-8Z" />
      <glyph unicode="t" glyph-name="gid313" horiz-adv-x="308" d="M208-8Q163-8 135.5,9t-40,48T83,130V507H22v71H83V747H190V578h93V507H190V137q0-34 11-48.5T243,74q8,0 18.5,1T282,77V-2q-20-3-37-4.5T208-8Z" />
      <glyph unicode="u" glyph-name="gid319" horiz-adv-x="440" d="M137-8Q103-8 84,10T57.5,55T50,110V578H157V142q0-31 9-48.5T203,76q18,0 37.5,10.5T278,112V578H385V0H278V57q-28-27-63.5-46T137-8Z" />
      <glyph unicode="v" glyph-name="gid334" horiz-adv-x="385" d="M129,0L15,578H123l71-465l72,465H370L260,0H129Z" />
      <glyph unicode="w" glyph-name="gid335" horiz-adv-x="588" d="M121,0L28,578h88l60-426l77,426h82l77-424l60,424h88L464,0H374L295,408L217,0H121Z" />
      <glyph unicode="x" glyph-name="gid340" horiz-adv-x="389" d="M9,0L139,304L12,578H114l85-183l75,183H379L247,291L381,0H279L188,196L110,0H9Z" />
      <glyph unicode="y" glyph-name="gid341" horiz-adv-x="392" d="M45-145v82q39,0 62,3.5t33,13T150-20q0,9-7,40T128,86L12,578H120l78-432l75,432H381L243-32q-9-42-33-66.5T148.5-134T58-145H45Z" />
      <glyph unicode="z" glyph-name="gid350" horiz-adv-x="347" d="M32,0V72L209,498H50v80H324V520L146,81H320V0H32Z" />
      <glyph unicode="{" glyph-name="gid404" horiz-adv-x="300" d="M277-191q-63,0-99,6.5t-53.5,27T102.5-97T98,10V151q0,55-4.5,81.5t-17,35T40,276v74q24,0 36.5,9t17,36T98,476V616q0,67 4.5,107t22,60.5t53.5,27t99,6.5V738q-25,0-39-4t-20-16t-7-36.5T210,616V460q0-75-18-107t-48-40q30-7 48-39t18-107V10q0-42 1-66.5T218-93t20-15.5t39-3.5v-79Z" />
      <glyph unicode="|" glyph-name="gid431" horiz-adv-x="239" d="M69-148V810H169V-148H69Z" />
      <glyph unicode="}" glyph-name="gid405" horiz-adv-x="321" d="M44-191v79q25,0 39,3.5T103-93t7,36.5T111,10V167q0,75 18,107t49,39q-31,8-49,40T111,460V616q0,41-1,65.5T103,718T83,734t-39,4v79q63,0 99-6.5t53.5-27t22-60.5T223,616V476q0-54 4.5-81t17-36t36.5-9V276q-24,0-36.5-8.5t-17-35T223,151V10q0-67-4.5-107t-22-60.5t-53.5-27T44-191Z" />
      <glyph unicode="~" glyph-name="gid468" horiz-adv-x="447" d="M296,343q-25,0-51.5,14.5T193,386t-47,14q-13,0-33.5-11.5T73,362L35,413q14,15 35.5,32t44,29T154,486q25,0 50.5-14T255,443.5T302,429q15,0 33.5,12T374,469l38-49q-13-15-33.5-33t-42-31T296,343Z" />
      <glyph unicode="&#xa0;" glyph-name="gid380" horiz-adv-x="229" />
      <glyph unicode="&#xa1;" glyph-name="gid388" horiz-adv-x="208" d="M50-178L85,458h38l35-636H50Zm0,700V632H158V522H50Z" />
      <glyph unicode="&#xa2;" glyph-name="gid436" horiz-adv-x="388" d="M178-79V-6Q122,1 92.5,31T53,110T43,222V355q0,67 11,116t40.5,78T179,584v72h34V586q63,0 97-21t47-61t13-100V370H273v35q0,38-5,60t-18,32t-37,10q-26,0-40-12t-18.5-40.5T150,377V195q0-74 14-99t50-25q27,0 39.5,12.5t16,35.5t3.5,52v47h97V178q0-58-13.5-100t-48-64T212-8V-79H178Z" />
      <glyph unicode="&#xa3;" glyph-name="gid454" horiz-adv-x="398" d="M2,0V54L61,80V354H2v80H61v92q0,59 5,111t22,93t51,64t91,23q52,0 83-22t45-61t14-90q0-10 0-21t0-12H292q0,30-4,57t-17,44.5T230,730t-41-20t-17-50t-5-62V434H287V354H167V81H371V0H2Z" />
      <glyph unicode="&#xa4;" glyph-name="gid438" horiz-adv-x="550" d="M53,186L38,201l80,79q-25,28-40,65T63,423t15,78t40,65L38,645l15,15l79-79q28,26 64.5,41T275,637t78.5-15T418,581l79,79l15-15l-79-79q25-28 39-65t14-78t-14-78t-40-65l80-79l-15-15l-79,79q-28-26-64.5-41.5T275,209q-42-1-78.5,14.5T132,265L53,186Zm222,66q47,0 84.5,23T419,337t22,86t-22,86t-59.5,62T275,594q-46,0-83.5-23T132,509t-22-86t22-86t59.5-62T275,252Z" />
      <glyph unicode="&#xa5;" glyph-name="gid458" horiz-adv-x="457" d="M185,0V115H96v70h89v65H96v69h78L10,810H115L238,419L360,810H467L304,319h77V250H292V185h89V115H292V0H185Z" />
      <glyph unicode="&#xa6;" glyph-name="gid432" horiz-adv-x="212" d="M63,400V810h86V400H63Zm0-553V256h86V-153H63Z" />
      <glyph unicode="&#xa7;" glyph-name="gid424" horiz-adv-x="427" d="M214-8q-50,0-84.5,21T74,69T43,145l81,27q7-20 18.5-41.5t29-36T214,80q29,0 47.5,14.5T282,138q2,15-2,28.5T266.5,193T240,218L125,293q-34,22-58.5,51.5T42,425q0,50 24,83t61,49q-30,20-56,51T45,682t21.5,73T126,801t88,16t84-21t55-55t30-74l-81-27q-7,19-18,39.5T256,715t-43,15q-28,0-44.5-16T152,669q0-12 5-22.5t13.5-19T187,613l129-84q34-22 52.5-57T386,392q0-46-20.5-77.5T313,266q27-23 48.5-52T383,142q0-74-47-112T214-8Zm26,333q17,8 33,25t16,42q1,17-7.5,36.5T253,462l-56,38q-17-9-32.5-29T149,425q0-16 9-31.5T178,370l62-45Z" />
      <glyph unicode="&#xa8;" glyph-name="gid494" horiz-adv-x="400" d="M231,699V810H339V699H231ZM60,699V810H167V699H60Z" />
      <glyph unicode="&#xa9;" glyph-name="gid425" horiz-adv-x="862" d="M431-11Q324-11 248,26T123.5,124T52,260.5T29,412T52,563t71.5,136T248,797t183,37t183-37t124.5-98T810,563t23-151T810.5,260.5T739.5,124t-125-98T431-11Zm1,135q-59,0-96,17t-56.5,48.5t-27,76T245,364V471q0,76 14.5,130t55,82.5T432,712q70,0 108-21t52.5-63T607,523V496H502v27q0,40-6.5,63.5t-21,33.5T434,630q-30,0-46-12.5T366,575t-6-81V336q0-52 7.5-80T391,217.5T434,207q30,0 44.5,13t19,36.5T502,311v32H607V318q0-61-15-104.5T539,147T432,124Zm2-91q92,0 158.5,32T702,151t64,122t21,139q0,72-21,139.5T702,673T592.5,758.5T434,790T275,758.5T165,673T101.5,551.5T81,412q0-71 20.5-139T165,151T275,65T434,33Z" />
      <glyph unicode="&#xaa;" glyph-name="gid359" horiz-adv-x="373" d="M141,321q-44,0-72.5,31.5T40,432q0,40 17,67.5T102.5,546t64,33T239,605v53q0,37-8,62t-35,25q-19,0-30.5-12T149,701.5T144,657H56q2,74 38,119.5T197,822q55,0 84.5-23T322,733t11-105V327H247v64q-15-29-42.5-49.5T141,321Zm35,82q21,0 38,14.5T239,450V563q-27-13-50.5-27.5t-38.5-34T135,454q0-25 11-38t30-13Z" />
      <glyph unicode="&#xab;" glyph-name="gid414" horiz-adv-x="455" d="M389,41L225,269v52L389,549V415L307,295l82-121V41ZM194,41L31,269v52L194,549V415L112,295l82-121V41Z" />
      <glyph unicode="&#xac;" glyph-name="gid469" horiz-adv-x="387" d="M280,311V423H40v81H360V311H280Z" />
      <glyph unicode="&#xae;" glyph-name="gid426" horiz-adv-x="888" d="M444-13Q338-13 262.5,23.5T139,120.5t-70.5,135T46,405q0,76 22.5,150T139,689.5t123.5,97T444,823t181.5-36.5t123.5-97T819.5,555T842,405T819.5,255t-70-134.5t-123-97T444-13Zm0,50q89,0 153,31t105.5,84T764,270.5T784,405T764,539.5t-61.5,118T597,740.5T444,771T290.5,740.5t-106-83T123,539.5T103,405t20-134.5T184.5,152t106-84T444,37ZM292,144V674H448q59,0 96.5-18t55-52T617,520t-23-80.5T532,392l96-248H531L446,373H385V144H292Zm93,279h33q62,0 82.5,22T521,522q0,43-17.5,66.5T440,612H385V423Z" />
      <glyph unicode="&#xaf;" glyph-name="gid503" horiz-adv-x="284" d="M46,745v65H238V745H46Z" />
      <glyph unicode="&#xb0;" glyph-name="gid428" horiz-adv-x="453" d="M226,481q-51,0-89,20T78.5,559T58,650t20.5,90T137,797t89,20q52,0 89.5-20T374,740t21-90t-21-91t-58.5-58T226,481Zm0,72q41,0 64,27t23,70q0,44-23,70.5T226,747t-64-26.5T139,650q0-43 23-70t64-27Z" />
      <glyph unicode="&#xb1;" glyph-name="gid467" horiz-adv-x="415" d="M25,185v81H390V185H25Zm140,42V390H25v81H165V634h80V471H390V390H245V227H165Z" />
      <glyph unicode="&#xb2;" glyph-name="gid376" horiz-adv-x="422" d="M77,433v61L201,629q30,32 47.5,54.5t25,40.5t7.5,36q0,30-14,46.5T224,823q-38,0-53.5-24.5T155,727H76v14q0,44 15,79.5T138.5,877T224,898q65,0 102-35.5T363,765q0-50-23.5-87.5T266,589l-83-86H368V433H77Z" />
      <glyph unicode="&#xb3;" glyph-name="gid377" horiz-adv-x="426" d="M220,423q-50,0-81.5,17.5t-46,48T78,559v16h79v-4q0-37 16-55t49-18q29,0 42.5,17T278,563q0,32-12.5,49T221,629H195v66h23q26,0 40.5,16T273,760q0,28-13,45.5T218,823q-33,0-47-20t-14-53v-4H78v16q0,67 38.5,101.5T220,898q62,0 98.5-31.5T355,776q0-45-19.5-73.5T289,664q27-9 49-33t22-77q0-65-38.5-98T220,423Z" />
      <glyph unicode="&#xb4;" glyph-name="gid496" horiz-adv-x="277" d="M56,612l59,198H222L110,612H56Z" />
      <glyph unicode="&#xb5;" glyph-name="gid471" horiz-adv-x="441" d="M51-175V578H157V142q0-31 9-48.5T203,76q18,0 37.5,10.5T278,112V578H385V0H278V57q-18-19-40-33T191,2q-7-2-16-3.5T159-3V-175H51Z" />
      <glyph unicode="&#xb6;" glyph-name="gid423" horiz-adv-x="492" d="M199-96V515q-73,0-120,37.5T32,662q0,51 22,83.5T117.5,794T215,810H429V-96H352V759H275V-96H199Z" />
      <glyph unicode="&#xb7;" glyph-name="gid391" horiz-adv-x="176" d="M36,322V432H144V322H36Z" />
      <glyph unicode="&#xb8;" glyph-name="gid504" horiz-adv-x="352" d="M147-235q-16,0-33,3t-34,7v54q13-4 26-5.5t25-1.5q26,0 43.5,9T192-139q0,18-10,28.5t-29,17T107-83V0h54V-56q50,0 80.5-23T272-142q0-32-16.5-52.5t-45-30.5T147-235Z" />
      <glyph unicode="&#xb9;" glyph-name="gid375" horiz-adv-x="340" d="M172,433V789L80,753v69l131,66h39V433H172Z" />
      <glyph unicode="&#xba;" glyph-name="gid360" horiz-adv-x="419" d="M210,320q-59,0-93,22.5T69,407T55,505V637q0,85 33.5,135T210,822q83,0 118.5-51.5T364,637V505q0-54-15.5-96t-49-65.5T210,320Zm-2,78q31,0 43.5,16.5t15.5,44t3,58.5V625q0,32-3,58.5t-15.5,43T208,743q-30,0-43.5-16.5t-17-43T144,625V517q0-31 3.5-58t17-44T208,398Z" />
      <glyph unicode="&#xbb;" glyph-name="gid415" horiz-adv-x="481" d="M57,41V174l91,121L57,415V549L230,321V269L57,41Zm195,0V174l91,121L252,415V549L424,321V269L252,41Z" />
      <glyph unicode="&#xbc;" glyph-name="gid373" horiz-adv-x="945" d="M184,355V711L92,675v69l131,66h39V355H184ZM215,0L586,810h92L307,0H215ZM677,0V107H505v59L696,455h59V168h44V107H755V0H677ZM584,168h93V314L584,168Z" />
      <glyph unicode="&#xbd;" glyph-name="gid372" horiz-adv-x="945" d="M149,355V711L57,675v69l131,66h39V355H149ZM180,0L551,810h92L272,0H180ZM555,0V61L679,196q30,32 47.5,54.5t25,40.5t7.5,36q0,30-14,46.5T702,390q-38,0-53.5-24.5T633,294H554v14q0,44 15,79.5T616.5,444T702,465q65,0 102-35.5T841,332q0-50-23.5-87.5T744,156L661,70H846V0H555Z" />
      <glyph unicode="&#xbe;" glyph-name="gid374" horiz-adv-x="874" d="M201,342q-50,0-81.5,17.5t-46,48T59,478v16h79v-4q0-37 16-55t49-18q29,0 42.5,17T259,482q0,32-12.5,49T202,548H176v66h23q26,0 40.5,16T254,679q0,28-13,45.5T199,742q-33,0-47-20t-14-53v-4H59v16q0,67 38.5,101.5T201,817q62,0 98.5-31.5T336,695q0-45-19.5-73.5T270,583q27-9 49-33t22-77q0-65-38.5-98T201,342ZM256,0L627,810h92L348,0H256ZM718,0V107H546v59L737,455h59V168h44V107H796V0H718ZM625,168h93V314L625,168Z" />
      <glyph unicode="&#xbf;" glyph-name="gid390" horiz-adv-x="480" d="M343,425V301q-50-43-90.5-87.5T188,120T164,13q0-47 24.5-78T260-96q41,0 64,23t23,59q0,13-2,25t-5,25L440,55q5-15 8-31.5T451-8q0-79-49.5-130T260-189q-94,0-147.5,54T59,16q0,68 25,121.5T152,237t96,91v97h95Zm5,203V518H241V628H348Z" />
      <glyph unicode="&#xc0;" glyph-name="gid8" horiz-adv-x="492" d="M19,0L191,810H300L473,0H366L329,204H164L125,0H19ZM179,285H314L246,650L179,285Zm42,573L110,1056H217l57-198H221Z" />
      <glyph unicode="&#xc1;" glyph-name="gid2" horiz-adv-x="492" d="M19,0L191,810H300L473,0H366L329,204H164L125,0H19ZM179,285H314L246,650L179,285Zm39,573l59,198H384L272,858H218Z" />
      <glyph unicode="&#xc2;" glyph-name="gid5" horiz-adv-x="492" d="M19,0L191,810H300L473,0H366L329,204H164L125,0H19ZM179,285H314L246,650L179,285ZM105,867l86,175H300l87-175H306L245,988L185,867H105Z" />
      <glyph unicode="&#xc3;" glyph-name="gid14" horiz-adv-x="492" d="M19,0L191,810H300L473,0H366L329,204H164L125,0H19ZM179,285H314L246,650L179,285ZM322,932q-28,0-49.5,12.5T232,969t-41,12q-17,0-25.5-9T157,940H96q0,30 7.5,54.5t25,39T176,1048q25,0 45.5-12t40.5-24t41-12q17,0 25,9t8,33h60q0-30-6-55t-22-40t-46-15Z" />
      <glyph unicode="&#xc4;" glyph-name="gid7" horiz-adv-x="492" d="M19,0L191,810H300L473,0H366L329,204H164L125,0H19ZM179,285H314L246,650L179,285Zm99,646v111H386V931H278Zm-172,0v111H214V931H106Z" />
      <glyph unicode="&#xc5;" glyph-name="gid12" horiz-adv-x="492" d="M19,0L191,810H300L473,0H366L329,204H164L125,0H19ZM179,285H314L246,650L179,285Zm67,543q-50,0-81,30.5T134,940t31,81t81,30t81-30t31-81t-31-81.5T246,828Zm0,54q26,0 42,15.5T304,940q0,28-16,43t-42,15q-27,0-42.5-15T188,940q0-27 15.5-42.5T246,882Z" />
      <glyph unicode="&#xc6;" glyph-name="gid15" horiz-adv-x="635" d="M-51,0L290,810H605V728H400V460H547V379H400V82H605V0H292V205H143L57,0H-51ZM173,286H292V605L173,286Z" />
      <glyph unicode="&#xc7;" glyph-name="gid22" horiz-adv-x="515" d="M266-9Q180-9 132.5,27t-66,97T48,260V546q0,82 18.5,143t66,94.5T266,817q76,0 120.5-28t64-80T470,584V520H363v57q0,45-4.5,79.5T334,710t-67,19q-48,0-70-20.5t-28.5-58T162,563V242q0-61 10-96.5T205,95t62-15q46,0 66,20.5T358,157t5,84v60H470V241q0-74-18-130.5t-62-88T266-9Zm5-226q-16,0-33,3t-34,7v54q13-4 26-5.5t25-1.5q26,0 43.5,9T316-139q0,18-10,28.5t-29,17T231-83V0h54V-56q50,0 80.5-23T396-142q0-32-16.5-52.5t-45-30.5T271-235Z" />
      <glyph unicode="&#xc8;" glyph-name="gid42" horiz-adv-x="407" d="M63,0V810H377V726H176V458H339V378H176V81H379V0H63ZM199,858L88,1056H195l57-198H199Z" />
      <glyph unicode="&#xc9;" glyph-name="gid35" horiz-adv-x="407" d="M63,0V810H377V726H176V458H339V378H176V81H379V0H63ZM196,858l59,198H362L250,858H196Z" />
      <glyph unicode="&#xca;" glyph-name="gid38" horiz-adv-x="407" d="M63,0V810H377V726H176V458H339V378H176V81H379V0H63ZM83,867l86,175H278l87-175H284L223,988L163,867H83Z" />
      <glyph unicode="&#xcb;" glyph-name="gid40" horiz-adv-x="407" d="M63,0V810H377V726H176V458H339V378H176V81H379V0H63ZM256,931v111H364V931H256ZM84,931v111H192V931H84Z" />
      <glyph unicode="&#xcc;" glyph-name="gid71" horiz-adv-x="248" d="M69,0V810H180V0H69ZM99,858L-12,1056H95l57-198H99Z" />
      <glyph unicode="&#xcd;" glyph-name="gid65" horiz-adv-x="248" d="M69,0V810H180V0H69ZM96,858l59,198H262L150,858H96Z" />
      <glyph unicode="&#xce;" glyph-name="gid67" horiz-adv-x="248" d="M69,0V810H180V0H69ZM-17,867l86,175H178l87-175H184L123,988L63,867H-17Z" />
      <glyph unicode="&#xcf;" glyph-name="gid69" horiz-adv-x="248" d="M69,0V810H180V0H69Zm87,931v111H264V931H156Zm-172,0v111H92V931H-16Z" />
      <glyph unicode="&#xd0;" glyph-name="gid33" horiz-adv-x="518" d="M63,0V388H14v65H63V810H239q90,0 142.5-27.5t75-82.5T479,563V265q0-86-22.5-145t-73-89.5T248,0H63ZM176,81h64q62,0 88,24t31.5,70T365,286V549q0,63-8,102t-35,57t-85,18H176V453h61V388H176V81Z" />
      <glyph unicode="&#xd1;" glyph-name="gid97" horiz-adv-x="528" d="M63,0V810h77L370,272V810h94V0H392L159,553V0H63ZM340,932q-28,0-49.5,12.5T250,969t-41,12q-17,0-25.5-9T175,940H114q0,30 7.5,54.5t25,39T194,1048q25,0 45.5-12t40.5-24t41-12q17,0 25,9t8,33h60q0-30-6-55t-22-40t-46-15Z" />
      <glyph unicode="&#xd2;" glyph-name="gid107" horiz-adv-x="539" d="M270-9Q188-9 139,23T69,114.5T48,254V561q0,80 21.5,137.5t70,88T270,817t130-31t69.5-88T491,561V253q0-79-21.5-138T400,23.5T270-9Zm0,89q45,0 68,18.5t31,52t8,78.5V584q0,45-8,77.5t-31,50T270,729t-68.5-17.5t-31.5-50T162,584V229q0-45 8-78.5t31.5-52T270,80ZM245,858L134,1056H241l57-198H245Z" />
      <glyph unicode="&#xd3;" glyph-name="gid100" horiz-adv-x="539" d="M270-9Q188-9 139,23T69,114.5T48,254V561q0,80 21.5,137.5t70,88T270,817t130-31t69.5-88T491,561V253q0-79-21.5-138T400,23.5T270-9Zm0,89q45,0 68,18.5t31,52t8,78.5V584q0,45-8,77.5t-31,50T270,729t-68.5-17.5t-31.5-50T162,584V229q0-45 8-78.5t31.5-52T270,80ZM242,858l59,198H408L296,858H242Z" />
      <glyph unicode="&#xd4;" glyph-name="gid102" horiz-adv-x="539" d="M270-9Q188-9 139,23T69,114.5T48,254V561q0,80 21.5,137.5t70,88T270,817t130-31t69.5-88T491,561V253q0-79-21.5-138T400,23.5T270-9Zm0,89q45,0 68,18.5t31,52t8,78.5V584q0,45-8,77.5t-31,50T270,729t-68.5-17.5t-31.5-50T162,584V229q0-45 8-78.5t31.5-52T270,80ZM129,867l86,175H324l87-175H330L269,988L209,867H129Z" />
      <glyph unicode="&#xd5;" glyph-name="gid115" horiz-adv-x="539" d="M270-9Q188-9 139,23T69,114.5T48,254V561q0,80 21.5,137.5t70,88T270,817t130-31t69.5-88T491,561V253q0-79-21.5-138T400,23.5T270-9Zm0,89q45,0 68,18.5t31,52t8,78.5V584q0,45-8,77.5t-31,50T270,729t-68.5-17.5t-31.5-50T162,584V229q0-45 8-78.5t31.5-52T270,80Zm76,852q-28,0-49.5,12.5T256,969t-41,12q-17,0-25.5-9T181,940H120q0,30 7.5,54.5t25,39T200,1048q25,0 45.5-12t40.5-24t41-12q17,0 25,9t8,33h60q0-30-6-55t-22-40t-46-15Z" />
      <glyph unicode="&#xd6;" glyph-name="gid104" horiz-adv-x="539" d="M270-9Q188-9 139,23T69,114.5T48,254V561q0,80 21.5,137.5t70,88T270,817t130-31t69.5-88T491,561V253q0-79-21.5-138T400,23.5T270-9Zm0,89q45,0 68,18.5t31,52t8,78.5V584q0,45-8,77.5t-31,50T270,729t-68.5-17.5t-31.5-50T162,584V229q0-45 8-78.5t31.5-52T270,80Zm32,851v111H410V931H302Zm-172,0v111H238V931H130Z" />
      <glyph unicode="&#xd7;" glyph-name="gid462" horiz-adv-x="383" d="M103,269L49,323l89,89L49,501l54,54l88-89l89,89l54-54l-89-89l89-89l-54-54l-89,89l-88-89Z" />
      <glyph unicode="&#xd8;" glyph-name="gid113" horiz-adv-x="540" d="M160-74L121-62L373,880l40-10L160-74ZM270-9Q188-9 139,23T69,114.5T48,254V561q0,80 21.5,137.5t70,88T270,817t130-31t69.5-88T491,561V253q0-79-21.5-138T400,23.5T270-9Zm0,89q45,0 68,18.5t31,52t8,78.5V584q0,45-8,77.5t-31,50T270,729t-68.5-17.5t-31.5-50T162,584V229q0-45 8-78.5t31.5-52T270,80Z" />
      <glyph unicode="&#xd9;" glyph-name="gid149" horiz-adv-x="543" d="M272-9Q184-9 137,26T73,124.5T56,273V810H164V268q0-52 7-95t30.5-68T272,80q48,0 71,25t30,68t7,95V810H487V273q0-85-17-148.5T406.5,26T272-9ZM247,858L136,1056H243l57-198H247Z" />
      <glyph unicode="&#xda;" glyph-name="gid143" horiz-adv-x="543" d="M272-9Q184-9 137,26T73,124.5T56,273V810H164V268q0-52 7-95t30.5-68T272,80q48,0 71,25t30,68t7,95V810H487V273q0-85-17-148.5T406.5,26T272-9ZM244,858l59,198H410L298,858H244Z" />
      <glyph unicode="&#xdb;" glyph-name="gid146" horiz-adv-x="543" d="M272-9Q184-9 137,26T73,124.5T56,273V810H164V268q0-52 7-95t30.5-68T272,80q48,0 71,25t30,68t7,95V810H487V273q0-85-17-148.5T406.5,26T272-9ZM131,867l86,175H326l87-175H332L271,988L211,867H131Z" />
      <glyph unicode="&#xdc;" glyph-name="gid148" horiz-adv-x="543" d="M272-9Q184-9 137,26T73,124.5T56,273V810H164V268q0-52 7-95t30.5-68T272,80q48,0 71,25t30,68t7,95V810H487V273q0-85-17-148.5T406.5,26T272-9Zm32,940v111H412V931H304Zm-172,0v111H240V931H132Z" />
      <glyph unicode="&#xdd;" glyph-name="gid165" horiz-adv-x="481" d="M187,0V286L12,810H117L241,419L363,810H469L295,286V0H187Zm26,858l59,198H379L267,858H213Z" />
      <glyph unicode="&#xde;" glyph-name="gid120" horiz-adv-x="503" d="M63,0V810H176V704H293q68,0 110.5-29T466,593t20-124q0-57-13-101t-39-74t-66-45.5T274,233H176V0H63ZM176,324h70q67,0 98.5,30T376,469q0,78-27,109.5T259,610H176V324Z" />
      <glyph unicode="&#xdf;" glyph-name="gid311" horiz-adv-x="515" d="M223-9V80q41,0 66.5,10t39,29.5t19,48T353,232q0,42-13,74t-40,50.5T231,375v89q36,0 56,21.5T315.5,541t8.5,70q0,52-15,86t-65,34q-31,0-48-14t-23.5-40.5T166,613V0H59V612q0,63 20.5,109.5t61,72T241,819q95,0 141.5-53.5T429,611q0-71-25-114t-74-69q42-11 70.5-38T444,323t15-91q0-57-13.5-102T404,54T331,7T223-9Z" />
      <glyph unicode="&#xe0;" glyph-name="gid184" horiz-adv-x="409" d="M141-8Q107-8 81,11.5t-41,50T25,126q0,54 18,91t49.5,62.5t73,44.5T253,361v41q0,35-4,58t-16.5,34.5T195,506q-22,0-35.5-10T140,467.5T134,424V395L28,399q2,96 44,141.5T202,586q86,0 122-47t36-136V139q0-27 1.5-52t4-46.5T370,0H272q-3,16-7.5,40.5T258,85q-10-34-38.5-63.5T141-8Zm42,92q16,0 30,9t25,20.5T253,132V296q-25-14-47-28t-38.5-29.5t-26-35T132,159q0-35 13-55t38-20Zm-6,542L66,824H173l57-198H177Z" />
      <glyph unicode="&#xe1;" glyph-name="gid178" horiz-adv-x="409" d="M141-8Q107-8 81,11.5t-41,50T25,126q0,54 18,91t49.5,62.5t73,44.5T253,361v41q0,35-4,58t-16.5,34.5T195,506q-22,0-35.5-10T140,467.5T134,424V395L28,399q2,96 44,141.5T202,586q86,0 122-47t36-136V139q0-27 1.5-52t4-46.5T370,0H272q-3,16-7.5,40.5T258,85q-10-34-38.5-63.5T141-8Zm42,92q16,0 30,9t25,20.5T253,132V296q-25-14-47-28t-38.5-29.5t-26-35T132,159q0-35 13-55t38-20Zm-9,542l59,198H340L228,626H174Z" />
      <glyph unicode="&#xe2;" glyph-name="gid181" horiz-adv-x="409" d="M141-8Q107-8 81,11.5t-41,50T25,126q0,54 18,91t49.5,62.5t73,44.5T253,361v41q0,35-4,58t-16.5,34.5T195,506q-22,0-35.5-10T140,467.5T134,424V395L28,399q2,96 44,141.5T202,586q86,0 122-47t36-136V139q0-27 1.5-52t4-46.5T370,0H272q-3,16-7.5,40.5T258,85q-10-34-38.5-63.5T141-8Zm42,92q16,0 30,9t25,20.5T253,132V296q-25-14-47-28t-38.5-29.5t-26-35T132,159q0-35 13-55t38-20ZM61,635l86,175H256l87-175H262L201,756L141,635H61Z" />
      <glyph unicode="&#xe3;" glyph-name="gid190" horiz-adv-x="409" d="M141-8Q107-8 81,11.5t-41,50T25,126q0,54 18,91t49.5,62.5t73,44.5T253,361v41q0,35-4,58t-16.5,34.5T195,506q-22,0-35.5-10T140,467.5T134,424V395L28,399q2,96 44,141.5T202,586q86,0 122-47t36-136V139q0-27 1.5-52t4-46.5T370,0H272q-3,16-7.5,40.5T258,85q-10-34-38.5-63.5T141-8Zm42,92q16,0 30,9t25,20.5T253,132V296q-25-14-47-28t-38.5-29.5t-26-35T132,159q0-35 13-55t38-20Zm95,616q-28,0-49.5,12.5T188,737t-41,12q-17,0-25.5-9T113,708H52q0,30 7.5,54.5t25,39T132,816q25,0 45.5-12T218,780t41-12q17,0 25,9t8,33h60q0-30-6-55t-22-40t-46-15Z" />
      <glyph unicode="&#xe4;" glyph-name="gid183" horiz-adv-x="409" d="M141-8Q107-8 81,11.5t-41,50T25,126q0,54 18,91t49.5,62.5t73,44.5T253,361v41q0,35-4,58t-16.5,34.5T195,506q-22,0-35.5-10T140,467.5T134,424V395L28,399q2,96 44,141.5T202,586q86,0 122-47t36-136V139q0-27 1.5-52t4-46.5T370,0H272q-3,16-7.5,40.5T258,85q-10-34-38.5-63.5T141-8Zm42,92q16,0 30,9t25,20.5T253,132V296q-25-14-47-28t-38.5-29.5t-26-35T132,159q0-35 13-55t38-20Zm51,615V810H342V699H234ZM62,699V810H170V699H62Z" />
      <glyph unicode="&#xe5;" glyph-name="gid188" horiz-adv-x="409" d="M141-8Q107-8 81,11.5t-41,50T25,126q0,54 18,91t49.5,62.5t73,44.5T253,361v41q0,35-4,58t-16.5,34.5T195,506q-22,0-35.5-10T140,467.5T134,424V395L28,399q2,96 44,141.5T202,586q86,0 122-47t36-136V139q0-27 1.5-52t4-46.5T370,0H272q-3,16-7.5,40.5T258,85q-10-34-38.5-63.5T141-8Zm42,92q16,0 30,9t25,20.5T253,132V296q-25-14-47-28t-38.5-29.5t-26-35T132,159q0-35 13-55t38-20Zm19,512q-50,0-81,30.5T90,708t31,81t81,30t81-30t31-81t-31-81.5T202,596Zm0,54q26,0 42,15.5T260,708q0,28-16,43t-42,15q-27,0-42.5-15T144,708q0-27 15.5-42.5T202,650Z" />
      <glyph unicode="&#xe6;" glyph-name="gid191" horiz-adv-x="651" d="M180-8Q110-8 76,30.5T42,126q0,53 18.5,88T114,271t82,35l78,21v75q0,46-11.5,74T213,504q-23,0-37-12t-20-33.5T150,409H44q1,81 45,129t124,48q52,0 82.5-29T333,486H318q5,28 24.5,50.5t50.5,36T462,586q71,0 106-36t35-97q0-56-21.5-87t-56-45.5T452,297l-71-15V155q0-32 12-55t47-23q25,0 38,13t18,35.5t5,50.5v25H608V177q0-58-16-99T542,14.5T454-8Q408-8 379,6.5t-44,41T314,109q-8-35-25-61.5t-43.5-41T180-8Zm27,83q23,0 37.5,10.5t22,32T274,171v94l-46-15q-25-8-43-22t-27-33.5T149,149q0-22 6-38.5t19-26T207,75ZM381,340l55,13q35,8 52,26t17,57q0,26-13,44.5T446,499q-25,0-39-13t-20-35.5T381,397V340Z" />
      <glyph unicode="&#xe7;" glyph-name="gid198" horiz-adv-x="411" d="M212-8Q141-8 104.5,20.5T55.5,101T43,222V355q0,73 13,124.5t49.5,79T212,586q63,0 97.5-20.5t47.5-61T370,404V370H273v35q0,38-5,60t-18,32t-37,10q-26,0-40-12t-18.5-40.5T150,377V195q0-74 14-99t50-25q27,0 39.5,12.5t16,35.5t3.5,52v47h97V178q0-58-13.5-100t-48-64T212-8Zm7-227q-16,0-33,3t-34,7v54q13-4 26-5.5t25-1.5q26,0 43.5,9T264-139q0,18-10,28.5t-29,17T179-83V0h54V-56q50,0 80.5-23T344-142q0-32-16.5-52.5t-45-30.5T219-235Z" />
      <glyph unicode="&#xe8;" glyph-name="gid216" horiz-adv-x="421" d="M214-8Q146-8 109,18.5t-51.5,78T43,223V355q0,77 15,128t52.5,77T214,586q73,0 107.5-30T367,469.5T378,334V287H150V171q0-35 6.5-57t21-32.5T215,71q24,0 36.5,11.5t17,33T273,166v35H377V179q0-87-37-137T214-8ZM150,345H273v52q0,36-4,60.5t-16.5,37T213,507q-26,0-39.5-12T155,454.5T150,376V345Zm36,281L75,824H182l57-198H186Z" />
      <glyph unicode="&#xe9;" glyph-name="gid209" horiz-adv-x="421" d="M214-8Q146-8 109,18.5t-51.5,78T43,223V355q0,77 15,128t52.5,77T214,586q73,0 107.5-30T367,469.5T378,334V287H150V171q0-35 6.5-57t21-32.5T215,71q24,0 36.5,11.5t17,33T273,166v35H377V179q0-87-37-137T214-8ZM150,345H273v52q0,36-4,60.5t-16.5,37T213,507q-26,0-39.5-12T155,454.5T150,376V345Zm33,281l59,198H349L237,626H183Z" />
      <glyph unicode="&#xea;" glyph-name="gid212" horiz-adv-x="421" d="M214-8Q146-8 109,18.5t-51.5,78T43,223V355q0,77 15,128t52.5,77T214,586q73,0 107.5-30T367,469.5T378,334V287H150V171q0-35 6.5-57t21-32.5T215,71q24,0 36.5,11.5t17,33T273,166v35H377V179q0-87-37-137T214-8ZM150,345H273v52q0,36-4,60.5t-16.5,37T213,507q-26,0-39.5-12T155,454.5T150,376V345ZM70,635l86,175H265l87-175H271L210,756L150,635H70Z" />
      <glyph unicode="&#xeb;" glyph-name="gid214" horiz-adv-x="421" d="M214-8Q146-8 109,18.5t-51.5,78T43,223V355q0,77 15,128t52.5,77T214,586q73,0 107.5-30T367,469.5T378,334V287H150V171q0-35 6.5-57t21-32.5T215,71q24,0 36.5,11.5t17,33T273,166v35H377V179q0-87-37-137T214-8ZM150,345H273v52q0,36-4,60.5t-16.5,37T213,507q-26,0-39.5-12T155,454.5T150,376V345Zm93,354V810H351V699H243ZM71,699V810H179V699H71Z" />
      <glyph unicode="&#xec;" glyph-name="gid245" horiz-adv-x="224" d="M61,0V578H168V0H61ZM90,626L-21,824H86l57-198H90Z" />
      <glyph unicode="&#xed;" glyph-name="gid239" horiz-adv-x="224" d="M61,0V578H168V0H61ZM87,626l59,198H253L141,626H87Z" />
      <glyph unicode="&#xee;" glyph-name="gid241" horiz-adv-x="224" d="M61,0V578H168V0H61ZM-26,635L60,810H169l87-175H175L114,756L54,635H-26Z" />
      <glyph unicode="&#xef;" glyph-name="gid243" horiz-adv-x="224" d="M61,0V578H168V0H61Zm86,699V810H255V699H147Zm-172,0V810H83V699H-25Z" />
      <glyph unicode="&#xf0;" glyph-name="gid207" horiz-adv-x="471" d="M237-9Q175-9 133.5,19.5T72,100.5T52,225v67q0,73 12,133t45.5,96T209,557q35,0 59-11.5T306,521q-4,39-12.5,75.5T271,655L152,618v54l90,26q-21,24-57.5,37T77,749l5,70q97-1 154-23.5T326,725l116,34V705l-89-24q21-46 35-92.5t21-98T416,377V237q0-74-17-129.5t-56.5-86T237-9Zm0,85q29,0 44.5,18t21,50t5.5,75q0,27 0,54t0,54.5t0,54.5t0,54q-13,12-31,22.5T236,469q-30,0-47-20t-23.5-61T159,284q0-68 4.5-114.5t21-70T237,76Z" />
      <glyph unicode="&#xf1;" glyph-name="gid273" horiz-adv-x="439" d="M54,0V578H161V521q29,27 64,46t77,19q35,0 53.5-18t26-45t7.5-55V0H282V437q0,31-9,48t-37,17q-18,0-37.5-10.5T161,466V0H54ZM296,700q-28,0-49.5,12.5T206,737t-41,12q-17,0-25.5-9T131,708H70q0,30 7.5,54.5t25,39T150,816q25,0 45.5-12T236,780t41-12q17,0 25,9t8,33h60q0-30-6-55t-22-40t-46-15Z" />
      <glyph unicode="&#xf2;" glyph-name="gid283" horiz-adv-x="425" d="M213-8Q149-8 112,18T59.5,92T44,205V373q0,65 15.5,113T112,560t101,26t100.5-26t52-74T381,373V205q0-65-15.5-113t-52-74T213-8Zm0,79q31,0 43.5,18t15,47.5T274,198V379q0,33-2.5,62t-15,47.5T213,507t-44-18.5T153.5,441T151,379V198q0-32 2.5-61.5T169,89t44-18ZM188,626L77,824H184l57-198H188Z" />
      <glyph unicode="&#xf3;" glyph-name="gid276" horiz-adv-x="425" d="M213-8Q149-8 112,18T59.5,92T44,205V373q0,65 15.5,113T112,560t101,26t100.5-26t52-74T381,373V205q0-65-15.5-113t-52-74T213-8Zm0,79q31,0 43.5,18t15,47.5T274,198V379q0,33-2.5,62t-15,47.5T213,507t-44-18.5T153.5,441T151,379V198q0-32 2.5-61.5T169,89t44-18ZM185,626l59,198H351L239,626H185Z" />
      <glyph unicode="&#xf4;" glyph-name="gid278" horiz-adv-x="425" d="M213-8Q149-8 112,18T59.5,92T44,205V373q0,65 15.5,113T112,560t101,26t100.5-26t52-74T381,373V205q0-65-15.5-113t-52-74T213-8Zm0,79q31,0 43.5,18t15,47.5T274,198V379q0,33-2.5,62t-15,47.5T213,507t-44-18.5T153.5,441T151,379V198q0-32 2.5-61.5T169,89t44-18ZM72,635l86,175H267l87-175H273L212,756L152,635H72Z" />
      <glyph unicode="&#xf5;" glyph-name="gid291" horiz-adv-x="425" d="M213-8Q149-8 112,18T59.5,92T44,205V373q0,65 15.5,113T112,560t101,26t100.5-26t52-74T381,373V205q0-65-15.5-113t-52-74T213-8Zm0,79q31,0 43.5,18t15,47.5T274,198V379q0,33-2.5,62t-15,47.5T213,507t-44-18.5T153.5,441T151,379V198q0-32 2.5-61.5T169,89t44-18Zm76,629q-28,0-49.5,12.5T199,737t-41,12q-17,0-25.5-9T124,708H63q0,30 7.5,54.5t25,39T143,816q25,0 45.5-12T229,780t41-12q17,0 25,9t8,33h60q0-30-6-55t-22-40t-46-15Z" />
      <glyph unicode="&#xf6;" glyph-name="gid280" horiz-adv-x="425" d="M213-8Q149-8 112,18T59.5,92T44,205V373q0,65 15.5,113T112,560t101,26t100.5-26t52-74T381,373V205q0-65-15.5-113t-52-74T213-8Zm0,79q31,0 43.5,18t15,47.5T274,198V379q0,33-2.5,62t-15,47.5T213,507t-44-18.5T153.5,441T151,379V198q0-32 2.5-61.5T169,89t44-18Zm32,628V810H353V699H245ZM73,699V810H181V699H73Z" />
      <glyph unicode="&#xf7;" glyph-name="gid463" horiz-adv-x="346" d="M19,375v81H328V375H19ZM130,187V298h85V187H130Zm0,346V644h85V533H130Z" />
      <glyph unicode="&#xf8;" glyph-name="gid289" horiz-adv-x="424" d="M96-95L64-84L330,668l37-12L96-95ZM213-8Q149-8 112,18T59.5,92T44,205V373q0,65 15.5,113T112,560t101,26t100.5-26t52-74T381,373V205q0-65-15.5-113t-52-74T213-8Zm0,79q31,0 43.5,18t15,47.5T274,198V379q0,33-2.5,62t-15,47.5T213,507t-44-18.5T153.5,441T151,379V198q0-32 2.5-61.5T169,89t44-18Z" />
      <glyph unicode="&#xf9;" glyph-name="gid326" horiz-adv-x="440" d="M137-8Q103-8 84,10T57.5,55T50,110V578H157V142q0-31 9-48.5T203,76q18,0 37.5,10.5T278,112V578H385V0H278V57q-28-27-63.5-46T137-8Zm58,634L84,824H191l57-198H195Z" />
      <glyph unicode="&#xfa;" glyph-name="gid320" horiz-adv-x="440" d="M137-8Q103-8 84,10T57.5,55T50,110V578H157V142q0-31 9-48.5T203,76q18,0 37.5,10.5T278,112V578H385V0H278V57q-28-27-63.5-46T137-8Zm55,634l59,198H358L246,626H192Z" />
      <glyph unicode="&#xfb;" glyph-name="gid323" horiz-adv-x="440" d="M137-8Q103-8 84,10T57.5,55T50,110V578H157V142q0-31 9-48.5T203,76q18,0 37.5,10.5T278,112V578H385V0H278V57q-28-27-63.5-46T137-8ZM79,635l86,175H274l87-175H280L219,756L159,635H79Z" />
      <glyph unicode="&#xfc;" glyph-name="gid325" horiz-adv-x="440" d="M137-8Q103-8 84,10T57.5,55T50,110V578H157V142q0-31 9-48.5T203,76q18,0 37.5,10.5T278,112V578H385V0H278V57q-28-27-63.5-46T137-8ZM252,699V810H360V699H252ZM80,699V810H188V699H80Z" />
      <glyph unicode="&#xfd;" glyph-name="gid342" horiz-adv-x="392" d="M45-145v82q39,0 62,3.5t33,13T150-20q0,9-7,40T128,86L12,578H120l78-432l75,432H381L243-32q-9-42-33-66.5T148.5-134T58-145H45ZM168,626l59,198H334L222,626H168Z" />
      <glyph unicode="&#xfe;" glyph-name="gid296" horiz-adv-x="447" d="M55-190V810H162V532q19,22 46,38t64,16q45,0 71.5-23.5t39.5-59t17-72t4-62.5V229q0-61-12-115.5t-43.5-88T260-8Q229-8 205,7.5T162,43V-190H55ZM239,76q27,0 39.5,20.5T294,152t3,77V369q0,36-4,66.5T275.5,484T234,502q-21,0-39.5-9T162,472V102q15-11 34-18.5T239,76Z" />
      <glyph unicode="&#xff;" glyph-name="gid344" horiz-adv-x="392" d="M45-145v82q39,0 62,3.5t33,13T150-20q0,9-7,40T128,86L12,578H120l78-432l75,432H381L243-32q-9-42-33-66.5T148.5-134T58-145H45ZM228,699V810H336V699H228ZM56,699V810H164V699H56Z" />
      <glyph unicode="&#x2013;" glyph-name="gid399" horiz-adv-x="559" d="M40,250v81H519V250H40Z" />
      <glyph unicode="&#x2014;" glyph-name="gid400" horiz-adv-x="1030" d="M40,250v78H990V250H40Z" />
      <glyph unicode="&#x2018;" glyph-name="gid412" horiz-adv-x="178" d="M30,579q0,24 0,48.5T30,676q0,77 22,121t77,46l19-39q-31-3-42.5-29.5T94,691h53V579H30Z" />
      <glyph unicode="&#x2019;" glyph-name="gid413" horiz-adv-x="178" d="M49,545L30,585q31,2 42.5,29T84,697H31V810H148q0-24 0-48.5t0-48.5q0-78-22-121.5T49,545Z" />
      <glyph unicode="&#x201a;" glyph-name="gid408" horiz-adv-x="178" d="M49-133L30-93q31,2 42.5,29T84,19H31V132H148q0-24 0-48.5T148,35q0-78-22-121.5T49-133Z" />
      <glyph unicode="&#x201c;" glyph-name="gid410" horiz-adv-x="354" d="M30,579q0,24 0,48.5T30,676q0,77 22,121t77,46l19-39q-31-3-42.5-29.5T94,691h53V579H30Zm176,0q0,24 0,48.5t0,48.5q0,77 22,121t77,46l19-39q-31-3-42.5-29.5T270,691h53V579H206Z" />
      <glyph unicode="&#x201d;" glyph-name="gid411" horiz-adv-x="325" d="M49,545L30,585q31,2 42.5,29T84,697H31V810H148q0-24 0-48.5t0-48.5q0-78-22-121.5T49,545Zm147,0l-19,40q31,2 42.5,29T231,697H178V810H295q0-24 0-48.5t0-48.5q0-78-22-121.5T196,545Z" />
      <glyph unicode="&#x201e;" glyph-name="gid409" horiz-adv-x="354" d="M225-133L206-93q31,2 42.5,29T260,19H207V132H324q0-24 0-48.5T324,35q0-78-22-121.5T225-133ZM49-133L30-93q31,2 42.5,29T84,19H31V132H148q0-24 0-48.5T148,35q0-78-22-121.5T49-133Z" />
      <glyph unicode="&#x2022;" glyph-name="gid392" horiz-adv-x="363" d="M181,272q-36,0-61,14.5T81.5,328T68,390q0,36 13.5,62T120,492.5T181,507q37,0 62-14.5t38.5-41T295,390q0-36-13.5-62.5t-38.5-41T181,272Z" />
      <glyph unicode="&#x2039;" glyph-name="gid416" horiz-adv-x="275" d="M242,41L43,269v52L242,549V415L125,295L242,174V41Z" />
      <glyph unicode="&#x203a;" glyph-name="gid417" horiz-adv-x="292" d="M60,93V227L177,348L60,467V602L258,374V321L60,93Z" />
    </font>
</defs>
</svg>
