<?xml version="1.0" standalone="no"?>
<!DOCTYPE svg PUBLIC "-//W3C//DTD SVG 1.1//EN" "http://www.w3.org/Graphics/SVG/1.1/DTD/svg11.dtd">
<svg xmlns="http://www.w3.org/2000/svg">
  <defs>
    <font id="Nunito" horiz-adv-x="583">
      <font-face font-family="Nunito" units-per-em="1000" panose-1="0 0 0 0 0 0 0 0 0 0" ascent="1011" descent="-353" alphabetic="0" />
      <glyph unicode=" " glyph-name="space" horiz-adv-x="258" />
      <glyph unicode="!" glyph-name="exclam" horiz-adv-x="228" d="M115,179q-12,0-19.5,8T87,211L67,659q-1,24 11.5,38.5T115,712q23,0 35-14.5T161,659L141,211q0-16-7-24t-19-8ZM115-4Q90-4 75,11.5T60,51T75,90.5T115,106t39.5-15.5T169,51T154.5,11.5T115-4Z" />
      <glyph unicode="&quot;" glyph-name="quotedbl" horiz-adv-x="392" d="M111,421q-11,0-19.5,8.5T81,453L67,663q-2,21 10.5,35T111,712q14,0 24-6.5T150.5,688t4.5-25L141,453q-1-15-9-23.5T111,421Zm171,0q-11,0-19.5,8.5T252,453L238,663q-2,21 10.5,35T282,712q14,0 24-6.5T321.5,688t4.5-25L312,453q-1-15-9-23.5T282,421Z" />
      <glyph unicode="#" glyph-name="numbersign" horiz-adv-x="600" d="M120-7Q104-7 97.5,3.5T95,32l30,157l29-7H69q-11,0-19.5,3.5T37,195.5T33,211q0,15 9.5,22.5T69,241h96l-32-8l49,249l24-10H89q-11,0-19.5,3.5T57,486t-4,16q0,15 9.5,22T89,531H216l-27-7l30,155q4,18 13.5,25.5T257,712t21.5-10.5T281,673L254,531H413l28,148q4,18 14,25.5t24,7.5q15,0 21.5-10.5T504,673L475,524l-24,7h80q12,0 20-3.5t12-9.5t4-16q0-14-9-22t-27-8H440l27,10L419,233l-25,8H511q12,0 20-3.5t12-10t4-16.5q0-14-9-21.5T511,182H384l27,7L379,26Q376,8 366.5,0.5T342-7T320,3.5T316,32l29,150H187L157,26Q154,8 144.5,0.5T120-7Zm78,248H356l46,231H243L198,241Z" />
      <glyph unicode="$" glyph-name="dollar" horiz-adv-x="600" d="M310-122q-15,0-24.5,10T276-88V12L294-5Q224-4 166,14.5T68,62Q57,70 52.5,81.5t-2,22.5t10,19T79,132.5t25-7.5q33-23 80-40T301,68q58,0 95,15t55,42t18,63q0,28-13,49t-41,36t-75,25L240,319q-91,20-135,65.5T61,504q0,58 28.5,103.5t79.5,72T288,709l-12-14v98q0,14 9.5,24T310,827q14,0 24-10t10-24V695l-13,14q47-1 99.5-20T520,635q10-9 12.5-19.5t-1-20t-11-16t-19-7T477,581q-33,27-73.5,41.5T306,637q-75,0-119.5-36T142,506q0-46 28-73.5T261,392l101-22q98-21 144-63.5T552,192q0-57-29-99.5t-79-67T328-4l16,17V-88q0-14-9.5-24T310-122Z" />
      <glyph unicode="%" glyph-name="percent" horiz-adv-x="930" d="M300-1q-7-13-17-17.5t-20-2t-17,10T237.5,8T243,32L629,704q7,13 17,17.5t20,2T683,713t8.5-19T686,671L300-1ZM226,282q-80,0-125,57T56,498q0,68 20.5,116T135,687.5T226,713q79,0 124.5-56.5T396,498q0-68-20.5-116T317,308t-91-26Zm0,59q31,0 53.5,18T314,412t12,86q0,78-27,117t-73,39q-31,0-53.5-17.5t-34.5-52T126,498q0-78 26.5-117.5T226,341ZM704-9Q625-9 579.5,48T534,207q0,68 20.5,116t59,73.5T704,422q80,0 125-56.5T874,207q0-68-20-116.5t-58-74T704-9Zm0,59q32,0 54,17.5T792,120t12,87q0,78-26.5,117T704,363q-31,0-53.5-17.5t-34-52T605,207q0-79 26.5-118T704,50Z" />
      <glyph unicode="&amp;" glyph-name="ampersand" horiz-adv-x="693" d="M287-9Q217-9 166,13.5T88.5,76T62,169q0,34 9,62.5t27.5,54T145,335t65,49l32,21l-11-17q-48,52-67.5,90.5T144,558q0,46 21,81.5t60.5,55T317,714q70,0 114-38.5T475,571q0-36-14-67.5t-47-63T322,374l2,21L511,185H493q14,24 24.5,55t18,67.5T546,385q2,17 11,26t26,9t26-10t7-29q-4-50-14-95t-26-83.5T540,132l-1,24L638,47q13-13 12.5-25.5T640.5,1T615-7q-14,0-23,5.5T571,15l-76,86h21Q474,49 415,20T287-9Zm4,67q57,0 101.5,24T470,152l-1-25L257,359l32-3l-31-20q-43-28-68.5-52.5T153,233t-11-58q0-55 38-86T291,58Zm26,593q-43,0-70-25t-27-66q0-22 6.5-40.5t23.5-41T297,421l-21-1q48,31 76,54.5T392,520t12,47q0,39-24,61.5T317,651Z" />
      <glyph unicode="&apos;" glyph-name="quotesingle" horiz-adv-x="221" d="M111,421q-11,0-19.5,8.5T81,453L67,663q-2,21 10.5,35T111,712q14,0 24-6.5T150.5,688t4.5-25L141,453q-1-15-9-23.5T111,421Z" />
      <glyph unicode="(" glyph-name="parenleft" horiz-adv-x="317" d="M210-169Q154-66 128,42.5T102,263q0,75 11.5,148T149,555t61,140q7,13 19.5,16t24-1.5t16.5-17T268,661q-26-66-44-132T197,397t-9-134t9.5-134T225-2.5T268-135q8-19 2.5-31.5t-17-17t-24-1.5T210-169Z" />
      <glyph unicode=")" glyph-name="parenright" horiz-adv-x="317" d="M108-169q-8-13-20-16t-24,2T47-166t2,31Q76-68 93.5-2.5T120,129t9,134t-9.5,134t-27,131.5T49,661q-7,19-1.5,31.5t16.5,17T87.5,711T108,695q55-102 81-211t26-221q0-75-11.5-148.5T168.5-30T108-169Z" />
      <glyph unicode="*" glyph-name="asterisk" horiz-adv-x="450" d="M128,368q-13,7-14.5,20t7.5,28l70,110l11-16L71,505q-18,0-28.5,7.5T32,535q0,14 10.5,21.5T71,563l131-5l-11-15L122,654q-10,15-8,28t14,20t24.5,1T173,681l57-110H220l57,110q9,16 21.5,22t24.5-1q12-8 13.5-21T328,653L259,543l-11,15l131,5q18,1 28.5-6.5T418,535q0-15-10.5-22.5T379,505l-131,5l11,16l69-110q10-15 8.5-27.5T323,369q-13-8-25.5-2T277,388L220,498h10L172,388q-8-16-20-22t-24,2Z" />
      <glyph unicode="+" glyph-name="plus" horiz-adv-x="600" d="M300,33q-16,0-24,9t-8,24V256H81q-15,0-23.5,8T49,287t8.5,23T81,318H268V502q0,16 8,24.5t24,8.5t24-8.5t8-24.5V318H519q15,0 23.5-8t8.5-23t-8.5-23T519,256H332V66q0-15-8-24t-24-9Z" />
      <glyph unicode="," glyph-name="comma" horiz-adv-x="228" d="M124-95q-10-13-21-15t-19,4T75.5-89T85-65q16,21 22,42.5T113,17l4-21Q91-4 75.5,11.5T60,51T74.5,90.5T113,106q26,0 41-17.5T169,38q0-21-4-43.5T151-51T124-95Z" />
      <glyph unicode="-" glyph-name="hyphen" horiz-adv-x="424" d="M100,233q-15,0-25,9.5T65,266q0,15 10,24.5t25,9.5H325q14,0 24-9.5T359,266q0-14-10-23.5T325,233H100Z" />
      <glyph unicode="." glyph-name="period" horiz-adv-x="228" d="M115-4Q90-4 75,11.5T60,51T75,90.5T115,106t39.5-15.5T169,51T154.5,11.5T115-4Z" />
      <glyph unicode="/" glyph-name="slash" horiz-adv-x="283" d="M55-34Q50-47 41.5-53T22-59T2.5-53.5T-10-38t0,23L228,723q5,13 14,19t19.5,6t19-5.5t12-15.5T292,704L55-34Z" />
      <glyph unicode="0" glyph-name="zero" horiz-adv-x="600" d="M300-9Q179-9 116,84T53,353q0,118 28,198.5T164.5,673T300,714q122,0 184.5-91.5T547,354q0-118-28-199T436,32.5T300-9Zm0,71q84,0 124.5,71.5T465,354q0,150-40.5,219.5T300,643q-83,0-124-70T135,354t41-220.5T300,62Z" />
      <glyph unicode="1" glyph-name="one" horiz-adv-x="600" d="M155,0q-18,0-28,9.5T117,36t10,25.5T155,70H285V637h43L183,541q-13-7-24.5-6t-19,8.5t-10.5,18t1,22T147,603l138,91q13,8 25,13t24,5q14,0 23.5-8.5T367,677V70H487q18,0 28-8.5T525,36q0-18-10-27T487,0H155Z" />
      <glyph unicode="2" glyph-name="two" horiz-adv-x="600" d="M129,0Q107,0 96.5,10.5T86,39q0,11 5.5,21.5T107,82L331,322q51,55 73.5,101.5T427,518q0,60-36.5,91.5T284,641q-45,0-85-14t-77-43q-13-10-23.5-9T80,583T69,601t0.5,22T85,643q39,32 94,51.5T291,714q71,0 120-22t74-64.5T510,524q0-42-13.5-82.5t-41-82.5T384,272L171,47V70H508q19,0 28.5-8.5T546,36q0-18-9.5-27T508,0H129Z" />
      <glyph unicode="3" glyph-name="three" horiz-adv-x="600" d="M292-9Q234-9 175.5,8T74,58Q61,67 57,78.5t-1.5,22t10.5,18T85.5,127t25.5-8q44-29 88-42t91-13q51,0 86,15t53,44.5T447,196q0,62-41,94T287,322H216q-19,0-29,9.5T177,358q0,16 10,25.5t29,9.5h64q46,0 78.5,16T409,454.5T427,526q0,56-36,85.5T287,641q-45,0-85-13t-79-44q-12-9-23.5-8.5t-19,7T69.5,600T70,622.5T87,644q40,34 94,52t111,18q68,0 116.5-21.5t74.5-62T509,533q0-43-16.5-78.5t-46-60.5T375,358v11q73-12 113.5-59.5T529,190q0-61-28.5-105.5T419,15.5T292-9Z" />
      <glyph unicode="4" glyph-name="four" horiz-adv-x="600" d="M418-7Q399-7 388,4T377,35V151H90q-20,0-31.5,9.5T47,188q0,11 5,22.5T70,240L375,684q9,14 20,21t26,7q16,0 27.5-10T460,670V221h73q19,0 29-9t10-26t-10-26t-29-9H460V35q0-20-11-31T418-7ZM377,221V609h24L121,199v22H377Z" />
      <glyph unicode="5" glyph-name="five" horiz-adv-x="600" d="M315-9Q258-9 201.5,8T99,61Q87,69 83,80t-1,22t11,18.5t19.5,8.5t24.5-8q41-29 85-43t92-14q49,0 84.5,18.5t54,52T471,213q0,69-40,113T321,370q-43,0-79-16t-66-51q-7-8-16.5-13.5T138,284q-17,0-26.5,9.5T102,319V667q0,19 10,28.5t28,9.5H480q19,0 28.5-9t9.5-26t-9.5-26T480,635H183V354H161q26,42 72,64.5T336,441q67,0 115.5-28t75-78.5T553,217q0-66-29-117T442,20T315-9Z" />
      <glyph unicode="6" glyph-name="six" horiz-adv-x="600" d="M324-9Q241-9 182.5,31.5T94,149T64,335q0,92 19,162t56,118.5T229,689t120,25q46,0 94.5-18T529,645q11-8 13.5-19.5t-0.5-22T531.5,586T513,578.5T490,587q-34,29-70,41.5T347,641q-65,0-110.5-32t-69-96.5T144,351V258h-9q6,57 33.5,98.5T239,420t97,22q62,0 110-28t75-78.5T548,220q0-66-28-118T441,20.5T324-9Zm-5,70q44,0 78,19.5t53,55T469,217t-19,81t-53,55t-78,20t-78-20t-53-55t-19-81t19-81.5t53-55T319,61Z" />
      <glyph unicode="7" glyph-name="seven" horiz-adv-x="600" d="M168-7q-14,0-24,7T131.5,19.5T137,47L458,670V634H98q-18,0-28,9.5T60,670t10,26t28,9H495q18,0 29-9t11-26q0-14-3.5-24.5T522,622L214,21Q207,7 196,0T168-7Z" />
      <glyph unicode="8" glyph-name="eight" horiz-adv-x="600" d="M300-9Q221-9 164.5,14t-86,67T49,187q0,49 20,87.5T125,337t83,30V352q-65,14-103.5,61.5T66,526q0,60 28.5,101.5t81.5,64T300,714q72,0 124.5-22.5t81.5-64T535,526q0-43-17.5-79.5T468,386t-75-33v14q71-10 114.5-58.5T551,187q0-62-29.5-106t-86-67T300-9Zm0,68q85,0 128.5,33T472,192q0,66-43.5,98.5T300,323q-84,0-128-32.5T128,192q0-67 44-100T300,59Zm0,332q49,0 83.5,15.5T437,451t19,68q0,60-41.5,93.5T300,646T186,612.5T145,519t41-94t114-34Z" />
      <glyph unicode="9" glyph-name="nine" horiz-adv-x="600" d="M251-9Q206-9 157,9T71,61Q60,69 57.5,80T58,101.5t10.5,18t18.5,8t23-8.5q34-29 70-42t73-13q65,0 110.5,32t69,97T456,354v93h9q-6-56-33.5-98T361,285t-97-22q-62,0-110,28T79,370T52,485q0,67 28.5,118.5t79,81T276,714q83,0 141.5-40.5T506,556t30-186q0-92-19-162T461,89.5T371,16T251-9Zm30,341q45,0 79,20t53,55.5T432,489t-19,81t-53,55t-79,20q-44,0-77.5-20t-53-55T131,489t19.5-81.5t53-55.5T281,332Z" />
      <glyph unicode=":" glyph-name="colon" horiz-adv-x="228" d="M115-4Q90-4 75,11.5T60,51T75,90.5T115,106t39.5-15.5T169,51T154.5,11.5T115-4Zm0,384q-25,0-40,16T60,435q0,25 15,40t40,15t39.5-15T169,435q0-23-14.5-39T115,380Z" />
      <glyph unicode=";" glyph-name="semicolon" horiz-adv-x="228" d="M124-95q-10-13-21-15t-19,4T75.5-89T85-65q16,21 22,42.5T113,17l4-21Q91-4 75.5,11.5T60,51T74.5,90.5T113,106q26,0 41-17.5T169,38q0-21-4-43.5T151-51T124-95Zm-9,475q-25,0-40,16T60,435q0,25 15,40t40,15t39.5-15T169,435q0-23-14.5-39T115,380Z" />
      <glyph unicode="&lt;" glyph-name="less" horiz-adv-x="600" d="M512,49L87,242q-33,14-33,45q0,16 8.5,27T87,332L512,525q13,6 22.5,3T550,517.5t6.5-17.5T553,481.5T536,467L89,267v40L536,107q13-6 17-14.5T556.5,74T550,56.5t-15.5-10T512,49Z" />
      <glyph unicode="=" glyph-name="equal" horiz-adv-x="600" d="M81,356q-15,0-23.5,8T49,387t8.5,23T81,418H519q15,0 23.5-8t8.5-23t-8.5-23T519,356H81Zm0-199q-15,0-23.5,8T49,188t8.5,22.5T81,218H519q15,0 23.5-7.5T551,188q0-16-8.5-23.5T519,157H81Z" />
      <glyph unicode="&gt;" glyph-name="greater" horiz-adv-x="600" d="M88,49q-12-5-22-2.5t-15.5,10T44,74t4,18.5T64,107L512,307V267L64,467q-11,6-16,14.5T44,500t6.5,17.5T66,528t22-3L514,332q32-14 32-45q0-15-8-26.5T514,242L88,49Z" />
      <glyph unicode="?" glyph-name="question" horiz-adv-x="443" d="M209,180q-13,0-20,8.5T182,212q0,35 8.5,65.5t27,62.5T268,409q25,30 40,53t21.5,44.5T336,550q0,42-30,66.5T223,641q-46,0-84.5-13.5T64,587q-15-10-27.5-10T16,584T5.5,602t3,23T28,647q39,31 92,49t107,18q57,0 100.5-19.5t67.5-55T419,556q0-31-9-59.5T381.5,439T327,373q-31-32-50-59.5t-28.5-53T236,207q-1-12-8-19.5T209,180ZM208-4q-25,0-40.5,15.5T152,51t15.5,39.5T208,106t39.5-15.5T262,51T247.5,11.5T208-4Z" />
      <glyph unicode="@" glyph-name="at" horiz-adv-x="946" d="M485-163q-96,0-174,30.5T177-45T91,92.5T61,273q0,98 31.5,179t90,139.5T321,682t177,32q116,0 203-46.5T836.5,538T885,344q0-87-24-151T794.5,94T695,59q-60,0-90.5,34.5T578,187l19-5q-25-60-71-91.5T429,59q-77,0-119.5,48.5T267,241q0,73 28,130.5T372,462t111,33q54,0 89-27t45-76H606l11,67q5,32 37,32q17,0 24.5-9.5T683,454L643,227q-2-13-3-25t-1-22q0-33 15-50t45-17q39,0 67.5,29t45,81T828,344q0,95-41.5,165T671,618T497,657q-111,0-195-48T171,474.5T124,273q0-119 44.5-204T294-61.5T485-107q73,0 133,21T719-29q14,11 26,9.5T764-30t5.5-21T755-75q-46-40-115.5-64T485-163ZM438,117q45,0 79.5,27T572,218t20,107q0,56-25,84t-77,28q-44,0-79-25t-55.5-69T335,241q0-60 27-92t76-32Z" />
      <glyph unicode="A" glyph-name="A" horiz-adv-x="729" d="M72-7Q56-7 46.5,0.5t-11,20T41,49L316,675q9,20 21.5,28.5T365,712t27.5-8.5T413,675L689,49q8-16 6.5-29T685,0T660-7q-18,0-29,9.5T613,30L539,201l40-21H149l41,21L117,30Q108,11 98,2T72-7ZM364,609L203,230l-24,19H549l-22-19L366,609h-2Z" />
      <glyph unicode="B" glyph-name="B" horiz-adv-x="676" d="M132,0Q110,0 98.5,11.5T87,45V660q0,22 11.5,33.5T132,705H369q73,0 123.5-21.5T570,621t27-100q0-66-38.5-110T454,353v14q75-9 117.5-54T614,194q0-94-61-144T381,0H132Zm35,66H373q80,0 120,32t40,97q0,66-40,97.5T373,324H167V66Zm0,324H357q78,0 118.5,32T516,514q0,62-40.5,93.5T357,639H167V390Z" />
      <glyph unicode="C" glyph-name="C" horiz-adv-x="673" d="M392-9Q288-9 214,35T100.5,160T61,353q0,84 22.5,150.5t65,113t104.5,72T392,714q62,0 118-17.5T607,645q13-10 17.5-22.5t1-24t-12-19T593,572t-27,10q-36,29-79,43t-93,14q-79,0-134-33.5T177,508T149,353t28-155.5t83-98T394,66q49,0 93,14.5T568,124q15,10 27,9.5t20-7.5t11.5-18t0-23T611,64Q569,28 512.5,9.5T392-9Z" />
      <glyph unicode="D" glyph-name="D" horiz-adv-x="742" d="M132,0Q110,0 98.5,11.5T87,45V660q0,22 11.5,33.5T132,705H325q171,0 264-90t93-262q0-86-23.5-151.5T589,91T477,23T325,0H132Zm37,70H319q70,0 121.5,18t86,53T578,229.5T595,353q0,141-69,211.5T319,635H169V70Z" />
      <glyph unicode="E" glyph-name="E" horiz-adv-x="583" d="M132,0Q110,0 98.5,11.5T87,45V660q0,22 11.5,33.5T132,705H504q17,0 26-9t9-25q0-17-9-26t-26-9H167V392H483q17,0 26-8.5t9-25.5t-9-26t-26-9H167V69H504q17,0 26-9t9-25q0-17-9-26T504,0H132Z" />
      <glyph unicode="F" glyph-name="F" horiz-adv-x="548" d="M131-7Q110-7 98.5,4.5T87,38V660q0,22 11.5,33.5T132,705H495q17,0 26-9t9-25q0-17-9-26t-26-9H169V390H474q17,0 26.5-9t9.5-25q0-17-9.5-26T474,321H169V38q0-45-38-45Z" />
      <glyph unicode="G" glyph-name="G" horiz-adv-x="726" d="M409-9Q296-9 218.5,34T101,158T61,352q0,84 22.5,151t66,113.5t106,72T397,714q63,0 122-17.5T624,641q12-9 15-20t-0.5-22t-11-18.5t-19-8.5T585,579q-41,32-87,46.5T396,640q-80,0-135.5-34t-84-98T148,352q0-140 65.5-214T411,64q48,0 94,9.5T592,100L574,53V302H431q-18,0-27,9t-9,24q0,16 9,24t27,8H610q17,0 26-9t9-26V71q0-15-5-25T623,31Q581,14 522.5,2.5T409-9Z" />
      <glyph unicode="H" glyph-name="H" horiz-adv-x="761" d="M128-7Q108-7 97.5,4.5T87,36V669q0,21 10.5,32T128,712t30.5-11T169,669V393H592V669q0,21 10.5,32T633,712t30.5-11T674,669V36q0-20-10.5-31.5T633-7T602.5,4.5T592,36V322H169V36q0-20-10-31.5T128-7Z" />
      <glyph unicode="I" glyph-name="I" horiz-adv-x="257" d="M128-7Q108-7 97.5,4.5T87,36V669q0,21 10.5,32T128,712t30.5-11T169,669V36q0-20-10-31.5T128-7Z" />
      <glyph unicode="J" glyph-name="J" horiz-adv-x="324" d="M28-6Q9-7-1.5,4T-12,31q0,12 7.5,22T19,64l31,2q51,4 78,35.5T155,188V670q0,21 10.5,31.5T196,712t30.5-10.5T237,670V187q0-57-20-98.5T157.5,24T61-3L28-6Z" />
      <glyph unicode="K" glyph-name="K" horiz-adv-x="625" d="M128-7Q108-7 97.5,4.5T87,36V670q0,21 10.5,31.5T128,712t30.5-10.5T169,670V385h2L497,689q12,12 24,17.5t26,5.5q19,0 27.5-9t6.5-22t-14-25L226,340l1,44L583,55q15-14 16-28.5t-8.5-24T562-7q-15,0-25.5,6.5T513,19L171,332h-2V36q0-20-10-31.5T128-7Z" />
      <glyph unicode="L" glyph-name="L" horiz-adv-x="543" d="M129,0Q109,0 98,11.5T87,43V667q0,21 10.5,32T128,710t30.5-11T169,667V72H497q18,0 28-9.5T535,36T525,9.5T497,0H129Z" />
      <glyph unicode="M" glyph-name="M" horiz-adv-x="855" d="M127-7Q109-7 99,3.5T89,33V672q0,20 10,30t28,10q16,0 25.5-6.5T170,684L444,168H414L687,684q8,15 17,21.5t26,6.5t27-10t10-30V33q0-19-9.5-29.5T729-7Q711-7 701,3.5T691,33V595h24L465,126q-7-13-14.5-18.5T429,102t-22,6t-14,18L140,596h24V33q0-19-9.5-29.5T127-7Z" />
      <glyph unicode="N" glyph-name="N" horiz-adv-x="740" d="M126-7Q107-7 97,3.5T87,34V670q0,20 10,31t26,11t23.5-5.5T164,687L600,106H576V672q0,19 10,29.5T615,712q18,0 27.5-10.5T652,672V33q0-19-8.5-29.5T619-7q-15,0-24,6T576,18L141,599h23V34q0-20-10-30.5T126-7Z" />
      <glyph unicode="O" glyph-name="O" horiz-adv-x="767" d="M383-9Q285-9 212.5,35.5T100.5,161T61,353q0,84 22.5,150.5t64.5,113t101.5,72T383,714q100,0 172.5-44t112-124.5T707,354q0-84-23-151T619,89T517.5,16.5T383-9Zm0,73q76,0 128.5,34T592,197t28,156q0,137-61.5,212.5T383,641q-74,0-126.5-34T176,508.5T148,353q0-136 62-212.5T383,64Z" />
      <glyph unicode="P" glyph-name="P" horiz-adv-x="633" d="M128-7Q108-7 97.5,4.5T87,36V663q0,21 11,31.5T129,705H366q113,0 174-55.5T601,493q0-100-61-156T366,281H169V36q0-20-10-31.5T128-7Zm41,357H356q81,0 122.5,36.5T520,493q0,71-41.5,107.5T356,637H169V350Z" />
      <glyph unicode="Q" glyph-name="Q" horiz-adv-x="767" d="M627-133q10-15 8.5-27.5t-10-21t-20.5-11t-24.5,3T559-169L494-66q-16,28-44,42.5T383-9l68,29q47,0 74.5-16.5T580-57l47-76ZM383-9Q285-9 212.5,35.5T100.5,161T61,353q0,84 22.5,150.5t64.5,113t101.5,72T383,714q100,0 172.5-44t112-124.5T707,354q0-84-23-151T619,89T517.5,16.5T383-9Zm0,73q76,0 128.5,34T592,197t28,156q0,137-61.5,212.5T383,641q-74,0-126.5-34T176,508.5T148,353q0-136 62-212.5T383,64Z" />
      <glyph unicode="R" glyph-name="R" horiz-adv-x="669" d="M128-7Q108-7 97.5,4.5T87,36V663q0,21 11,31.5T129,705H366q113,0 174-53t61-151q0-62-27.5-107.5t-80.5-69T366,301l10,13h20q39,0 68-20t53-64L613,51q8-14 7.5-27.5T611,1.5T585-7T557,1T538,24L429,226q-23,43-53,57.5T297,298H169V36q0-20-10-31.5T128-7Zm41,370H354q82,0 124,34.5T520,501q0,67-42,101.5T354,637H169V363Z" />
      <glyph unicode="S" glyph-name="S" horiz-adv-x="615" d="M315-9q-47,0-92,8T139.5,22T70,60Q58,69 53.5,80.5t-2,23t10,19.5T80,132t24-7q45-32 96-46.5T315,64q90,0 133.5,33.5T492,186q0,45-31.5,70.5T355,297L251,318q-94,20-140.5,65.5T64,505q0,47 19,85.5t53,66T217,699t104,15q63,0 117.5-17.5T537,644q11-9 15-20.5t1-22T542.5,584t-19-8T498,584q-40,30-83,43.5T320,641q-53,0-91.5-16t-60-46.5T147,508q0-48 29.5-76T273,391l104-22q101-21 149.5-63.5T575,190q0-44-18-81T505,45.5T423,5T315-9Z" />
      <glyph unicode="T" glyph-name="T" horiz-adv-x="602" d="M301-7Q282-7 271,4.5T260,36V634H35q-18,0-28,10T-3,670q0,17 10,26t28,9H568q18,0 28-9t10-26t-10-26.5T568,634H343V36q0-20-10.5-31.5T301-7Z" />
      <glyph unicode="U" glyph-name="U" horiz-adv-x="728" d="M365-9Q295-9 242.5,9.5T154,64.5T100,155T82,279V670q0,21 10.5,31.5T123,712t30.5-10.5T164,670V283q0-110 51-164.5T365,64t149,54.5T564,283V670q0,21 11,31.5T606,712q19,0 29.5-10.5T646,670V279q0-93-31.5-158T520,23.5T365-9Z" />
      <glyph unicode="V" glyph-name="V" horiz-adv-x="689" d="M345-7q-19,0-31,9T295,29L20,658q-7,17-4,28.5T29.5,705T54,712q19,0 28.5-8.5T98,679L362,66H330L593,680q7,15 17,23.5t28,8.5q14,0 23.5-7t12-19T669,658L394,29q-7-18-18.5-27T345-7Z" />
      <glyph unicode="W" glyph-name="W" horiz-adv-x="1101" d="M313-7q-18,0-29,9.5T266,31L45,662q-7,21 3.5,35.5T82,712q17,0 27-8.5T126,677L333,70H298L509,674q7,19 17,28.5t27,9.5q16,0 25.5-9.5T595,674L803,70H772L981,677q5,17 15.5,26t27.5,9q21,0 31-14t2-36L835,31q-7-19-17.5-28.5T788-7q-18,0-28.5,9.5T741,31L540,610h22L359,31q-7-19-17-28.5T313-7Z" />
      <glyph unicode="X" glyph-name="X" horiz-adv-x="650" d="M78-7Q61-7 50.5,2t-12,22T48,50L290,376V345L62,653q-11,15-10,28t11.5,22T89,712q14,0 24-6t21-21L339,404H313L517,685q10,15 20,21t24,6q16,0 26.5-8.5t11.5-22T589,653L361,345v31L603,50q10-13 8.5-26T600,2T573-7q-13,0-23.5,6.5T528,20L309,319h32L122,20Q112,6 101-0.5T78-7Z" />
      <glyph unicode="Y" glyph-name="Y" horiz-adv-x="596" d="M298-7Q278-7 267.5,4.5T257,37V365l18-57L24,654q-9,13-8.5,26.5T26,703t26,9q14,0 25-6.5T97,685L310,391H289L502,685q11,15 21,21t24,6q16,0 25-8.5t9.5-22T572,653L322,308l17,57V37q0-44-41-44Z" />
      <glyph unicode="Z" glyph-name="Z" horiz-adv-x="589" d="M86,0Q70,0 60,6.5t-14,18t-0.5,26T61,80L477,666V634H80q-19,0-29,9.5T41,670t10,26t29,9H514q16,0 26.5-6.5t14-17.5t0-26T540,625L124,40V71H535q19,0 29-9t10-26q0-18-10-27T535,0H86Z" />
      <glyph unicode="[" glyph-name="bracketleft" horiz-adv-x="315" d="M145-180q-15,0-25.5,10T109-145V670q0,15 10.5,25T145,705H281q15,0 24-9t9-23q0-13-9-22.5T281,641H190V-116h91q15,0 24-9.5t9-22.5t-9-22.5T281-180H145Z" />
      <glyph unicode="\" glyph-name="backslash" horiz-adv-x="283" d="M228-34L-10,704q-4,13 0,23T2.5,742.5t19,5.5T41,742t14-19L292-15q4-13 0.5-23t-12-15.5T261-59t-19.5,6T228-34Z" />
      <glyph unicode="]" glyph-name="bracketright" horiz-adv-x="315" d="M34-180q-15,0-24,9.5T1-148t9,22.5T34-116h91V641H34q-15,0-24,9.5T1,673q0,14 9,23t24,9H171q15,0 25-10t10-25V-145q0-15-10-25t-25-10H34Z" />
      <glyph unicode="^" glyph-name="asciicircum" horiz-adv-x="600" d="M91,133q-21,0-27.5,13T65,178L260,608q6,15 16,21t24,6q28,0 40-27L535,178q9-19 2.5-32T509,133q-11,0-19,6t-14,20L280,595h40L124,159q-7-14-14-20t-19-6Z" />
      <glyph unicode="_" glyph-name="underscore" horiz-adv-x="500" d="M42-53q-12,0-20.5,7.5T13-27T21.5-8T42,0H458q12,0 20.5-8T487-27t-8.5-18.5T458-53H42Z" />
      <glyph unicode="`" glyph-name="grave" horiz-adv-x="356" d="M207,556L106,712q-8,12-6,23t10,19t19,10.5t22-1.5t18-18l84-163q6-12 2.5-21t-13-13.5t-19-3T207,556Z" />
      <glyph unicode="a" glyph-name="a" horiz-adv-x="530" d="M229-9q-50,0-89.5,19.5T77,64T54,140q0,54 27.5,85t91,44T346,282h45V229H347q-81,0-127.5-7.5t-65-25.5T136,145q0-41 28.5-67T242,52q40,0 70.5,19t48,52T378,199V313q0,62-25,89.5T271,430q-35,0-70-9t-74-29q-14-7-24-4.5T87,398t-7,18.5T84.5,437T102,453q44,22 87,32t82,10q63,0 104-20.5t61-62T456,306V35q0-20-9.5-31T419-7Q400-7 390,4T380,35v78h9q-8-38-30.5-65T303,6T229-9Z" />
      <glyph unicode="b" glyph-name="b" horiz-adv-x="583" d="M322-9Q256-9 208.5,25T145,116l11,11V35q0-20-10.5-31T116-7Q96-7 86,4T76,35V671q0,20 10,30.5T116,712q19,0 30-10.5T157,671V373H145q17,56 64,89t113,33t114-30.5t74.5-87T537,243q0-77-26.5-133.5T435.5,22T322-9ZM305,56q46,0 79.5,22t52,64T455,243q0,91-40.5,139T305,430q-45,0-79-21.5t-52.5-63T155,243q0-90 41-138.5T305,56Z" />
      <glyph unicode="c" glyph-name="c" horiz-adv-x="463" d="M282-9Q209-9 156,23T74.5,112.5T46,246q0,58 16,104t47,78.5T183.5,478T282,495q36,0 75-11t71-38q10-7 13-17t0-19.5t-10-16T413.5,386T392,393q-26,20-53,28t-52,8q-39,0-68-12.5T170,381t-30.5-57T129,245q0-87 41-137.5T287,57q25,0 51.5,8T392,93q11,8 21,7t17-7.5T439.5,76T439,56.5T426,40Q394,14 356,2.5T282-9Z" />
      <glyph unicode="d" glyph-name="d" horiz-adv-x="583" d="M261-9Q196-9 147.5,22t-75,87.5T46,243q0,78 26.5,134.5t75,87T261,495q66,0 113-33t63-89H426V671q0,20 10.5,30.5T467,712q19,0 29.5-10.5T507,671V35q0-20-10-31T467-7Q448-7 437.5,4T427,35v95l11-14q-16-57-63.5-91T261-9Zm17,65q45,0 79,22t52.5,64T428,243q0,91-40.5,139T278,430q-46,0-79.5-21.5t-52-63T128,243q0-90 41-138.5T278,56Z" />
      <glyph unicode="e" glyph-name="e" horiz-adv-x="532" d="M295-9Q218-9 162.5,21.5T76.5,108T46,242q0,76 30,132.5T158.5,463T280,495q49,0 88-16.5T434.5,431t42-75T491,257q0-16-9-23.5T456,226H108v53H437l-16-13q0,54-16,91.5T358.5,415T282,435q-51,0-86.5-23.5t-53.5-65T124,250v-6q0-92 44.5-140T295,56q34,0 67.5,9T428,95q14,9 25.5,8.5t18.5-7t9.5-16t-2-20.5T462,41Q429,17 384,4T295-9Z" />
      <glyph unicode="f" glyph-name="f" horiz-adv-x="333" d="M142-7Q123-7 112.5,4T102,35V423H38q-16,0-25.5,8.5T3,455t9.5,23T38,486h86l-22-21v38q0,95 46.5,145T285,706l29,3q14,1 22.5-5t11-15t0.5-18.5T339,654t-17-8l-23-2q-61-5-88.5-37T183,513V471l-12,15H291q17,0 26-8t9-23t-9-23.5T291,423H183V35q0-42-41-42Z" />
      <glyph unicode="g" glyph-name="g" horiz-adv-x="586" d="M291-189q-53,0-103.5,12.5T96-137q-12,7-15.5,17T79-100.5t9,17T104.5-74T124-77q44-27 84-37t79-10q71,0 107.5,38T431,24V137h10q-15-58-63.5-92T264,11q-67,0-116,30.5T72.5,127T46,254q0,54 15,98.5t43.5,76t69,49T264,495q66,0 114-33.5T440,371l-10-12v93q0,20 10.5,30.5T470,493q20,0 30-10.5T510,452V35q0-111-55.5-167.5T291-189ZM279,77q47,0 81,21.5T412.5,160T431,254q0,81-41,128.5T279,430q-46,0-80-21.5t-52.5-61T128,254q0-81 41-129T279,77Z" />
      <glyph unicode="h" glyph-name="h" horiz-adv-x="568" d="M116-7Q96-7 86,4T76,35V671q0,20 10,30.5T116,712q19,0 30-10.5T157,671V378H144q21,58 68.5,87.5T322,495q58,0 96.5-21T476,410.5T495,303V35q0-20-10.5-31T455-7Q435-7 424.5,4T414,35V298q0,68-26.5,99.5T303,429q-67,0-106.5-41.5T157,277V35q0-42-41-42Z" />
      <glyph unicode="i" glyph-name="i" horiz-adv-x="232" d="M116-5Q96-5 86,6.5T76,39V448q0,21 10,32t30,11q19,0 30-11t11-32V39q0-21-10.5-32.5T116-5Zm0,608q-25,0-39,13.5T63,653q0,24 14,36.5T116,702q26,0 39.5-12.5T169,653q0-23-13.5-36.5T116,603Z" />
      <glyph unicode="j" glyph-name="j" horiz-adv-x="236" d="M-17-191q-15-1-24.5,5t-13,15.5t-2,19T-48-135t19,7q55,3 81.5,29.5T79-15V452q0,20 10.5,30.5T120,493q19,0 29.5-10.5T160,452V-9q0-61-20.5-100.5T80-168.5T-17-191ZM119,603q-25,0-39,13.5T66,653q0,24 14,36.5T119,702q26,0 40-12.5T173,653q0-23-14-36.5T119,603Z" />
      <glyph unicode="k" glyph-name="k" horiz-adv-x="500" d="M116-7Q96-7 86,4T76,35V671q0,20 10,30.5T116,712q19,0 30-10.5T157,671V270h2L364,466q14,13 24.5,20t28.5,7q16,0 25-8.5t8.5-21T438,437L220,230v44L457,51q14-14 14-27T461.5,2T437-7q-18,0-29,7.5T381,23L159,228h-2V35q0-42-41-42Z" />
      <glyph unicode="l" glyph-name="l" horiz-adv-x="296" d="M224-9Q152-9 114,35T76,161V671q0,20 10,30.5T116,712q19,0 30-10.5T157,671V167q0-54 21.5-80.5T242,60q9,0 16,1t14,1q11,1 15.5-5T292,33T284,6T258-6q-8-1-17-2T224-9Z" />
      <glyph unicode="m" glyph-name="m" horiz-adv-x="856" d="M118-7Q98-7 88,4T78,35V452q0,20 10,30.5T117,493t29.5-10.5T157,452V364l-11,14q19,56 61.5,86.5T309,495q62,0 100.5-29.5T461,374H446q18,56 64.5,88.5T619,495q55,0 90.5-21T763,410.5T781,303V35q0-20-10.5-31T740-7Q721-7 710.5,4T700,35V299q0,67-23,98.5T599,429q-60,0-94.5-41.5T470,275V35q0-20-10.5-31T429-7Q410-7 399.5,4T389,35V299q0,67-23.5,98.5T288,429q-60,0-94.5-41.5T159,275V35q0-42-41-42Z" />
      <glyph unicode="n" glyph-name="n" horiz-adv-x="568" d="M116-7Q96-7 86,4T76,35V452q0,20 10,30.5T115,493t29.5-10.5T155,452V366l-11,12q21,58 68.5,87.5T322,495q58,0 96.5-21T476,410.5T495,303V35q0-20-10.5-31T455-7Q435-7 424.5,4T414,35V298q0,68-26.5,99.5T303,429q-67,0-106.5-41.5T157,277V35q0-42-41-42Z" />
      <glyph unicode="o" glyph-name="o" horiz-adv-x="556" d="M278-9Q207-9 155,22T74.5,109.5T46,243q0,58 16,104.5T109,427t73.5,50.5T278,495q71,0 123-31t80.5-87.5T510,243q0-58-16-104T447,59.5t-73.5-51T278-9Zm0,65q45,0 79,22t52.5,64T428,243q0,91-40.5,139T278,430q-46,0-79.5-21.5t-52-63T128,243q0-90 41-138.5T278,56Z" />
      <glyph unicode="p" glyph-name="p" horiz-adv-x="583" d="M116-187q-20,0-30,10.5T76-146V452q0,20 10,30.5T115,493q20,0 30.5-10.5T156,452V357l-11,14q16,57 63.5,90.5T322,495q65,0 113.5-30.5t75-87T537,243q0-77-26.5-133.5T436,22T322-9T209,24.5T145,114h12V-146q0-20-11-30.5T116-187ZM305,56q46,0 79.5,22t52,64T455,243q0,91-40.5,139T305,430q-45,0-79-21.5t-52.5-63T155,243q0-90 41-138.5T305,56Z" />
      <glyph unicode="q" glyph-name="q" horiz-adv-x="583" d="M467-187q-20,0-30.5,10.5T426-146V114h11q-16-56-63-89.5T261-9Q196-9 147.5,22t-75,87.5T46,243q0,78 26.5,134.5t75,87T261,495q66,0 113.5-33.5T438,371l-11-14v95q0,20 10.5,30.5T467,493q20,0 30-10.5T507,452V-146q0-20-10.5-30.5T467-187ZM278,56q45,0 79,22t52.5,64T428,243q0,91-40.5,139T278,430q-46,0-79.5-21.5t-52-63T128,243q0-90 41-138.5T278,56Z" />
      <glyph unicode="r" glyph-name="r" horiz-adv-x="358" d="M117-7Q97-7 86.5,4T76,35V452q0,20 10,30.5T115,493t29.5-10.5T155,452V371H145q16,59 61,91t111,34q15,1 24-6.5T351,464q1-17-8-27t-28-12l-16-2q-68-6-104.5-43.5T158,277V35q0-20-10.5-31T117-7Z" />
      <glyph unicode="s" glyph-name="s" horiz-adv-x="481" d="M240-9Q195-9 149.5,2T65,40Q55,47 51,56.5t-2.5,19t8,16.5t16,8.5T94,96q39-24 75.5-33.5T242,53q57,0 86,21t29,57q0,28-19,44.5T278,201l-91,20q-63,13-93.5,45T63,349q0,45 23.5,77.5T153,477t100,18q44,0 83.5-11.5T408,447q10-7 13.5-16.5t1-19t-9.5-16T396,388t-21,6q-30,20-61,29.5T253,433q-56,0-85-22t-29-58q0-28 18-46t56-26l91-19q65-14 97.5-44.5T434,135q0-66-53-105T240-9Z" />
      <glyph unicode="t" glyph-name="t" horiz-adv-x="350" d="M271-9q-57,0-95.5,20.5T118,71.5T99,168V423H32q-17,0-26,8.5T-3,455t9,23t26,8H99V601q0,20 11,30.5T140,642t29.5-10.5T180,601V486H306q17,0 26-8t9-23t-9-23.5T306,423H180V176q0-57 24-86.5T282,60q19,0 32.5,4T337,68q9,1 15-6t6-24q0-12-4.5-22T338,2q-12-4-31.5-7.5T271-9Z" />
      <glyph unicode="u" glyph-name="u" horiz-adv-x="561" d="M248-9q-59,0-97.5,21.5T92.5,77T73,184V452q0,21 10.5,31T113,493q20,0 30.5-10T154,452V185q0-64 26.5-95.5T264,58q62,0 101,42t39,110V452q0,21 10.5,31T445,493q19,0 29.5-10T485,452V35q0-42-39-42Q427-7 416.5,4T406,35v91l13-14q-20-59-65.5-90T248-9Z" />
      <glyph unicode="v" glyph-name="v" horiz-adv-x="515" d="M257-7q-17,0-30,9.5T205,32L32,436q-7,15-5,28t12,21t28,8q16,0 25-7t16-25L272,60H245L412,461q7,18 16,25t26,7q16,0 24.5-8t10-20.5T484,437L309,32q-7-20-20.5-29.5T257-7Z" />
      <glyph unicode="w" glyph-name="w" horiz-adv-x="841" d="M244-7q-17,0-30,9T193,31L44,436q-6,17-3.5,30T53,486t25,7t24.5-7T118,460L258,60H234L378,460q7,18 17.5,25.5T423,493q16,0 27-8t17-25L608,60H585L727,462q7,18 17,24.5t24,6.5q16,0 24.5-8t9.5-21t-5-28L648,31q-7-19-20.5-28.5T597-7T567,2.5T547,31L399,437h43L295,31q-7-19-20-28.5T244-7Z" />
      <glyph unicode="x" glyph-name="x" horiz-adv-x="525" d="M78-6Q65-6 55,2T44.5,23.5T57,52L232,272V230L68,435q-13,16-12.5,29T66,485t23,8q15,0 25.5-5.5T134,470L277,289H249L393,470q9,12 19,17.5t25,5.5q14,0 23.5-8t10-21.5T458,434L295,232v37L470,52q12-15 11.5-28.5T471,2T447-6T422.5-0.5T402,17L248,211h29L123,17Q114,6 103.5,0T78-6Z" />
      <glyph unicode="y" glyph-name="y" horiz-adv-x="514" d="M184-187q-15,0-24,8t-10.5,21.5T154-130L223,25V-10L31,436q-6,15-4,28t12,21t28,8q16,0 25-7t16-25L272,59H245L411,461q8,18 17,25t26,7q16,0 24.5-8t10-20.5T484,437L228-155q-8-18-17.5-25T184-187Z" />
      <glyph unicode="z" glyph-name="z" horiz-adv-x="463" d="M85,0Q72,0 64,6T53,22t0,22T66,67L348,444V423H81q-16,0-24.5,8.5T48,455t8.5,23T81,486H388q15,0 24.5-6T425,464.5t0.5-21T414,421L127,40V63H408q33,0 33-31q0-15-8.5-23.5T408,0H85Z" />
      <glyph unicode="{" glyph-name="braceleft" horiz-adv-x="352" d="M247-180q-33,0-55.5,11.5t-34,34.5T146-78V149q0,42-16.5,61T71,230q-13,0-21,10t-8,23q0,14 8,23t21,10q42,1 58.5,20T146,376V603q0,50 26,76t75,26h69q15,0 25-9t10-23q0-13-8.5-22.5T320,641H270q-21,0-32-11t-11-34V368q0-30-12-54.5T183,275t-47-14v4q27,0 47-14t32-38.5T227,158V-71q0-23 11-34t32-11h50q14,0 22.5-9.5T351-148t-10-22.5T316-180H247Z" />
      <glyph unicode="|" glyph-name="bar" horiz-adv-x="265" d="M132-187q-19,0-29.5,10.5T92-146V671q0,21 10.5,31T132,712q20,0 30.5-10T173,671V-146q0-41-41-41Z" />
      <glyph unicode="}" glyph-name="braceright" horiz-adv-x="352" d="M36-180q-15,0-25,9.5T1-148t8.5,22.5T32-116H82q22,0 32.5,11T125-71V158q0,30 12,54.5T169.5,251T216,265v-4q-26,0-46.5,14T137,313.5T125,368V596q0,23-10.5,34T82,641H32q-14,0-22.5,9.5T1,673q0,14 10,23t25,9h70q32,0 54.5-11.5t34-34.5T206,603V376q0-41 16.5-60T281,296q14-1 21.5-10.5T310,263t-7.5-23T281,230q-42-1-58.5-20T206,149V-78q0-50-25.5-76T106-180H36Z" />
      <glyph unicode="~" glyph-name="asciitilde" horiz-adv-x="600" d="M415,217q-26,0-55.5,10T289,259q-40,23-61.5,30.5T190,297q-22,0-40.5-9.5T115,252q-7-13-18.5-15T76,241T63.5,258T67,281q20,39 51,58t68,19q25,0 53.5-9.5T308,317q37-19 60-29.5T410,277q22,0 40.5,10.5T485,323q8,12 19,14.5t20.5-3.5t13-17T534,293q-21-38-51.5-57T415,217Z" />
      <glyph unicode="&#xa0;" glyph-name="uni00A0" horiz-adv-x="258" />
      <glyph unicode="&#xa1;" glyph-name="exclamdown" horiz-adv-x="228" d="M115-187q-24,0-36.5,14.5T67-134L87,278q1,16 8.5,23.5T115,309t19-7.5t8-23.5l19-412q1-24-11-38.5T115-187Zm0,567q-25,0-40,16T60,435q0,25 15,40t40,15t39.5-15T169,435q0-23-14.5-39T115,380Z" />
      <glyph unicode="&#xa2;" glyph-name="cent" horiz-adv-x="600" d="M318-122q-14,0-24,10T284-87V16L298-6Q237,1 190,34t-73,87T91,244q0,50 14.5,92.5t42,75t65.5,53T298,490l-14-26V578q0,15 10,25t24,10q15,0 24.5-10t9.5-25V467l-19,25q40,0 80.5-12T484,445q10-7 13.5-17t0.5-20t-10-16.5t-17.5-7T447,392q-24,17-53,25.5T335,426q-37,0-67-13t-51-37t-32-57.5T174,244q0-83 43-133T334,61q30,0 58.5,8T448,95q14,8 24.5,7.5t17-7.5T498,78t-2-20T482,41Q453,19 412,6T331-7l21,20V-87q0-15-9.5-25T318-122Z" />
      <glyph unicode="&#xa3;" glyph-name="sterling" horiz-adv-x="600" d="M76,0Q62,0 51.5,10.5T41,36T51.5,60.5T76,70h85L146,55V340l15-17H73q-13,0-22.5,9T41,353q0,14 9.5,22.5T73,384h88l-15-16V510q0,64 24,109.5t72,70T362,714q51,0 102-17t85-47q12-9 15-20.5T563,608t-12.5-16.5T531,585t-23,8q-32,28-68.5,39.5T361,644q-66,0-99.5-33T228,514V370l-8,14H382q14,0 23.5-8.5T415,353q0-12-9.5-21T382,323H228V70H524q15,0 25-9.5T559,36T549,10.5T524,0H76Z" />
      <glyph unicode="&#xa4;" glyph-name="currency" horiz-adv-x="600" d="M50-11q-9,9-9,22t9,22l59,60q-23,32-36.5,71T59,245q0,43 13,82t37,70L50,458q-9,9-9,21t9,22q9,9 21.5,9T94,499l58-59q30,25 68,39t80,14t79-13.5T447,442l55,57q10,11 23.5,11.5T548,501q10-9 10-22t-11-23l-57-58q24-32 37.5-71T541,245t-13.5-82T489,92l58-59q10-10 10-22.5T547-11q-8-8-21-8T504-9L447,49q-30-24-67.5-38T300-3T220,11T151,49L93-10q-9-9-21.5-9.5T50-11ZM300,67q46,0 84,24t60,64.5T466,245t-22,89.5t-60,65T300,423q-46,0-84.5-24t-61-64.5T132,245t22.5-89.5T215,91t85-24Z" />
      <glyph unicode="&#xa5;" glyph-name="yen" horiz-adv-x="600" d="M300-7Q280-7 269.5,4.5T259,37V175H99q-16,0-25,8t-9,22t9,22t25,8H259v93H99q-16,0-25,8t-9,22t9,22t25,8H233V374L30,656q-9,13-7.5,26t11,21.5T58,712q14,0 23.5-6T100,686L311,390H290L500,686q9,14 19,20t24,6q16,0 25.5-8.5T579,682t-10-27L368,374v14H501q16,0 25-8t9-22t-9-22t-25-8H341V235H501q16,0 25-8t9-22t-9-22t-25-8H341V37q0-44-41-44Z" />
      <glyph unicode="&#xa6;" glyph-name="brokenbar" horiz-adv-x="265" d="M132,365q-19,0-29.5,10.5T92,406V671q0,21 10.5,31T132,712q20,0 30.5-10T173,671V406q0-41-41-41Zm0-552q-19,0-29.5,10.5T92-146V119q0,20 10.5,30.5T132,160q20,0 30.5-10.5T173,119V-146q0-41-41-41Z" />
      <glyph unicode="&#xa7;" glyph-name="section" horiz-adv-x="545" d="M248-189q-54,0-100.5,12.5T68-140q-10,6-13,15.5T54-105t9,17t16.5,8T101-85q30-20 69.5-30.5T249-126q40,0 70,12.5t47,38T383-15q0,38-19.5,65.5T293,102L183,153q-53,26-84,51.5T55,260T42,327q0,41 21,79.5T117,469l-7-24q-11,14-19.5,35.5T82,534q0,57 27.5,96.5t75.5,61T293,713q51,0 96-12.5T468,664q10-6 13.5-16.5t1-20T473,611t-16.5-8T435,609q-29,20-67.5,31T291,651q-37,0-66.5-13t-46-38T162,539q0-37 19.5-64.5T252,423l110-52q54-25 84.5-51T490,264.5T503,198q0-42-20.5-80T428,56l7,23q11-13 19.5-35T463-10q0-55-28-95.5t-76.5-62T248-189ZM116,338q0-36 23-64.5T222,216l94-44q37-17 61-36t38-37l-25-1q20,17 29.5,40t9.5,49q0,36-22,64.5T323,308l-94,45q-36,17-60.5,35.5T131,425l24,2q-19-17-29-40t-10-49Z" />
      <glyph unicode="&#xa8;" glyph-name="dieresis" horiz-adv-x="467" d="M322,606q-23,0-35.5,12T274,652t12.5,34.5T322,699q22,0 34-12.5T368,652t-12-34t-34-12Zm-175,0q-22,0-34.5,12T100,652t12.5,34.5T147,699q23,0 35-12.5T194,652t-12-34t-35-12Z" />
      <glyph unicode="&#xa9;" glyph-name="copyright" horiz-adv-x="815" d="M408-9Q332-9 266,18.5t-115.5,77T73.5,211T46,353q0,77 27.5,142.5t77,114.5t115,76.5T408,714t142.5-27.5T665,610t76.5-114.5T769,353q0-76-27.5-142T665,95.5t-114.5-77T408-9Zm0,44q67,0 124.5,24t100,67.5t66.5,101T723,353T699,478.5T632.5,579t-100,67T408,670q-68,0-125.5-24t-100-67T116,478.5T92,353t24-125.5t66.5-101T282.5,59T408,35Zm13,102q-97,0-152.5,60T213,356q0,98 55.5,155T421,568q34,0 68-11t61-31q9-6 12-15t1-17.5T555,479t-15-7t-20,6q-24,16-48,23t-47,7q-66,0-103-40T285,355t37-115.5T425,197q23,0 47,7t49,24q13,8 23.5,4.5t15.5-13t3-21T550,180q-27-21-61.5-32T421,137Z" />
      <glyph unicode="&#xaa;" glyph-name="ordfeminine" horiz-adv-x="327" d="M136,411q-47,0-78,26T27,501q0,46 41.5,66T182,587h60V551H184q-51,0-75.5-12T84,502q0-20 15.5-34.5T149,453q25,0 44,11t30,32t11,50v57q0,33-18,49.5T162,669q-20,0-41-4.5T78,651q-13-5-21-1T46,662.5t1,17T62,693q25,12 51,16.5t51,4.5q43,0 70.5-12.5T276,664t14-63V439q0-28-27-28q-13,0-20,8t-7,20v31h-2q-17-31-40-45t-58-14Z" />
      <glyph unicode="&#xab;" glyph-name="guillemotleft" horiz-adv-x="441" d="M187,89q-11-5-22.5-1.5T147,102L65,238q-8,14-8,27.5T65,293l81,135q7,12 18,15.5t22-1.5q14-6 18-19t-3-28L136,265l65-129q7-15 3.5-28.5T187,89Zm181,0q-11-5-22.5-1.5T328,102L246,238q-8,14-8,27.5t8,27.5l81,135q7,12 18,15.5t22-1.5q14-6 18-19t-3-28L317,265l65-129q7-15 3.5-28.5T368,89Z" />
      <glyph unicode="&#xac;" glyph-name="logicalnot" horiz-adv-x="600" d="M512,142q-16,0-24,9t-8,24V358H81q-15,0-23.5,8T49,389t8.5,23T81,420H511q16,0 24.5-8.5T544,387V175q0-33-32-33Z" />
      <glyph unicode="&#xad;" glyph-name="uni00AD" horiz-adv-x="424" d="M100,233q-15,0-25,9.5T65,266q0,15 10,24.5t25,9.5H325q14,0 24-9.5T359,266q0-14-10-23.5T325,233H100Z" />
      <glyph unicode="&#xae;" glyph-name="registered" horiz-adv-x="815" d="M408-9Q332-9 266,18.5t-115.5,77T73.5,211T46,353q0,77 27.5,142.5t77,114.5t115,76.5T408,714t142.5-27.5T665,610t76.5-114.5T769,353q0-76-27.5-142T665,95.5t-114.5-77T408-9Zm0,44q67,0 124.5,24t100,67.5t66.5,101T723,353T699,478.5T632.5,579t-100,67T408,670q-68,0-125.5-24t-100-67T116,478.5T92,353t24-125.5t66.5-101T282.5,59T408,35ZM297,136q-33,0-33,35V524q0,19 10,29.5T304,564H435q68,0 104.5-32.5T576,442q0-58-36.5-88.5T437,323l12,10q30,0 50-12.5T532,272l35-92q8-21-2-32.5T537,136q-12,0-20,7.5T506,162L464,272q-9,25-27.5,33.5T392,314H317l13,10V171q0-35-33-35Zm33,232h97q42,0 63,17t21,54t-20.5,54T427,510H330V368Z" />
      <glyph unicode="&#xaf;" glyph-name="macron" horiz-adv-x="501" d="M129,625q-29,0-29,27q0,14 7.5,21t21.5,7H371q30,0 30-28q0-12-7.5-19.5T371,625H129Z" />
      <glyph unicode="&#xb0;" glyph-name="degree" horiz-adv-x="371" d="M186,418q-43,0-76.5,20t-53,53T37,566t19.5,75.5t53,53T186,714q42,0 75-19t52.5-52.5T333,566q0-42-19.5-75.5t-52.5-53T186,418Zm0,55q40,0 64.5,26.5T275,566q0,41-24.5,67T186,659q-39,0-64.5-26T96,566q0-40 25.5-66.5T186,473Z" />
      <glyph unicode="&#xb1;" glyph-name="plusminus" horiz-adv-x="600" d="M300,120q-16,0-24,9t-8,25V297H82q-16,0-24.5,8.5T49,329q0,14 8.5,22T82,359H268V503q0,16 8,24.5t24,8.5t24-8.5t8-24.5V359H519q15,0 23.5-8t8.5-22q0-16-8.5-24T519,297H332V154q0-16-8-25t-24-9ZM81,0Q66,0 57.5,8.5T49,31q0,15 8.5,23T81,62H519q15,0 23.5-8T551,31T542.5,8T519,0H81Z" />
      <glyph unicode="&#xb2;" glyph-name="uni00B2" horiz-adv-x="380" d="M85,282q-15,0-24,8t-9,21q0,12 5,20.5T70,349L189,478q29,31 41.5,56T243,585q0,31-18,48t-52,17q-22,0-45-7.5T85,620q-13-8-24-5.5t-17,12T40.5,648T55,669q26,19 61,29.5T185,709q40,0 69.5-14.5T300,654t16-62q0-34-16-66t-51-69L132,332v9H310q31,0 31-29q0-14-8-22t-23-8H85Z" />
      <glyph unicode="&#xb3;" glyph-name="uni00B3" horiz-adv-x="380" d="M187,278q-39,0-73.5,10.5T54,318q-13,9-15.5,20.5t3,21.5t17,12.5T84,366q22-15 46.5-22t50.5-7q35,0 58.5,16.5T263,405q0,33-23.5,47T177,466H127q-16,0-24,8t-8,22t8,21.5t24,7.5h39q39,0 62,16t23,49q0,28-19.5,44T176,650q-21,0-44.5-7T88,622q-15-9-26.5-6.5T44,627.5t-3.5,21T55,669q27,19 61.5,29.5T186,709q61,0 97-30t36-79q0-42-24.5-69T236,495v8q43-6 69-33t26-72q0-38-19-65t-51.5-41T187,278Z" />
      <glyph unicode="&#xb4;" glyph-name="acute" horiz-adv-x="356" d="M150,556q-7-10-17-11.5t-19,3T101,561t2,21l84,163q7,14 18,18t22.5,1.5T247,754t9.5-19T250,712L150,556Z" />
      <glyph unicode="&#xb5;" glyph-name="uni00B5" horiz-adv-x="600" d="M135-187q-20,0-30,10.5T95-146V452q0,21 10,31t30,10q19,0 30-10t11-31V186q0-65 26-95.5T285,60q63,0 102,41t39,110V452q0,21 10.5,31T466,493q20,0 30.5-10T507,452V35q0-42-39-42Q449-7 438.5,3.5T428,30v82h8q-16-59-57.5-90T284-9Q240-9 207,7T156,67h13l5-212q1-20-9-31t-30-11Z" />
      <glyph unicode="&#xb6;" glyph-name="paragraph" horiz-adv-x="588" d="M276-187q-16,0-24,9t-8,24V310q-60,0-105,25.5t-69.5,70T45,508q0,57 24.5,102T139,680t106,25H459q20,0 31-10.5T501,664V-154q0-33-32-33q-16,0-24.5,9T436-154V643H309V-154q0-33-33-33Z" />
      <glyph unicode="&#xb7;" glyph-name="periodcentered" horiz-adv-x="228" d="M115,211q-25,0-40,15.5T60,266t15,39.5T115,321t39.5-15.5T169,266t-14.5-39.5T115,211Z" />
      <glyph unicode="&#xb8;" glyph-name="cedilla" horiz-adv-x="402" d="M190-192q-18,0-37.5,2.5T117-180q-11,4-15,13t-1,18t11,13.5t20-0.5t25.5-7t30.5-2q26,0 42,9.5T246-108q0,13-9,20.5T208-80q-8,0-15.5-1T175-84q-9-3-14-3t-10,3q-4,4-4.5,9.5T147-59l12,79h51L197-55l-24,6q12,3 23.5,5T218-42q36,0 60-18t24-50q0-37-31-59.5T190-192Z" />
      <glyph unicode="&#xb9;" glyph-name="uni00B9" horiz-adv-x="380" d="M114,282q-31,0-31,30q0,13 7.5,21t23.5,8h67V645h31l-83-52q-16-9-27.5-5.5T84,601t-3,22t17,21l81,50q10,7 19,10.5t20,3.5q10,0 16.5-4T245,692.5t4-17.5V341h52q31,0 31-29q0-14-8-22t-23-8H114Z" />
      <glyph unicode="&#xba;" glyph-name="ordmasculine" horiz-adv-x="339" d="M170,411q-43,0-76,19T42,483T23,563t19,80t52,52.5T170,714q42,0 75-18.5T297,643t19-80t-19-80t-52-53t-75-19Zm0,46q40,0 64,27.5T258,563t-24,78t-64,27q-41,0-65-26.5T81,563t24-79t65-27Z" />
      <glyph unicode="&#xbb;" glyph-name="guillemotright" horiz-adv-x="441" d="M73,89q-14,5-17.5,18.5T59,136l65,129L59,395q-6,15-2,28t17,19q12,5 23,1.5T115,428l80-135q9-14 9-27.5T195,238L113,102q-6-11-17.5-14.5T73,89Zm181,0q-14,5-17.5,18.5T240,136l65,129L240,395q-6,15-2,28t17,19q12,5 23,1.5T296,428l80-135q9-14 9-27.5T376,238L294,102q-6-11-17.5-14.5T254,89Z" />
      <glyph unicode="&#xbc;" glyph-name="onequarter" horiz-adv-x="893" d="M114,282q-31,0-31,30q0,13 7.5,21t23.5,8h67V645h31l-83-52q-16-9-27.5-5.5T84,601t-3,22t17,21l81,50q10,7 19,10.5t20,3.5q10,0 16.5-4T245,692.5t4-17.5V341h52q31,0 31-29q0-14-8-22t-23-8H114ZM304,1q-7-12-16.5-16t-19-1.5T252.5-7t-8,17.5T250,33L638,704q7,12 17,16t19,1.5t16-9.5t8-17t-6-23L304,1ZM775-3q-16,0-25,8.5T741,29V83H580q-16,0-25,9t-9,22q0,10 4.5,19.5T563,154L733,402q5,8 15,16t26,8q17,0 25.5-9t8.5-27V142h36q13,0 21-7t8-22q0-16-8-23t-21-7H808V29q0-15-8.5-23.5T775-3ZM741,142V346h16L605,125v17H741Z" />
      <glyph unicode="&#xbd;" glyph-name="onehalf" horiz-adv-x="937" d="M114,282q-31,0-31,30q0,13 7.5,21t23.5,8h67V645h31l-83-52q-16-9-27.5-5.5T84,601t-3,22t17,21l81,50q10,7 19,10.5t20,3.5q10,0 16.5-4T245,692.5t4-17.5V341h52q31,0 31-29q0-14-8-22t-23-8H114ZM304,1q-7-12-16.5-16t-19-1.5T252.5-7t-8,17.5T250,33L638,704q7,12 17,16t19,1.5t16-9.5t8-17t-6-23L304,1ZM642,0q-15,0-24,8t-9,21q0,12 5,20.5T627,67L746,196q29,31 41.5,56T800,303q0,31-18,48t-52,17q-22,0-45-7.5T642,338q-13-8-24-5.5t-17,12T597.5,366T612,387q26,19 61,29.5T742,427q40,0 69.5-14.5T857,372t16-62q0-34-16-66t-51-69L689,50v9H867q31,0 31-29q0-14-8-22T867,0H642Z" />
      <glyph unicode="&#xbe;" glyph-name="threequarters" horiz-adv-x="893" d="M187,278q-39,0-73.5,10.5T54,318q-13,9-15.5,20.5t3,21.5t17,12.5T84,366q22-15 46.5-22t50.5-7q35,0 58.5,16.5T263,405q0,33-23.5,47T177,466H127q-16,0-24,8t-8,22t8,21.5t24,7.5h39q39,0 62,16t23,49q0,28-19.5,44T176,650q-21,0-44.5-7T88,622q-15-9-26.5-6.5T44,627.5t-3.5,21T55,669q27,19 61.5,29.5T186,709q61,0 97-30t36-79q0-42-24.5-69T236,495v8q43-6 69-33t26-72q0-38-19-65t-51.5-41T187,278ZM304,1q-7-12-16.5-16t-19-1.5T252.5-7t-8,17.5T250,33L638,704q7,12 17,16t19,1.5t16-9.5t8-17t-6-23L304,1ZM775-3q-16,0-25,8.5T741,29V83H580q-16,0-25,9t-9,22q0,10 4.5,19.5T563,154L733,402q5,8 15,16t26,8q17,0 25.5-9t8.5-27V142h36q13,0 21-7t8-22q0-16-8-23t-21-7H808V29q0-15-8.5-23.5T775-3ZM741,142V346h16L605,125v17H741Z" />
      <glyph unicode="&#xbf;" glyph-name="questiondown" horiz-adv-x="443" d="M216-189q-57,0-100,18.5T48.5-118T24-40Q24,3 43.5,41T116,129q32,30 50.5,54.5t28,48T207,281q1,12 8,19t19,7q13,0 20-8t7-23q0-31-7.5-59t-26-57T176,97q-40-40-54.5-68.5T107-29q0-40 30-63.5T220-116q46,0 86,12.5T382-64q15,10 27.5,10t21-7.5T441-80t-3.5-23T418-125q-39-28-90.5-46T216-189Zm19,569q-24,0-39.5,15.5T180,435t15.5,39.5T235,490q26,0 40.5-15.5T290,435t-14.5-39.5T235,380Z" />
      <glyph unicode="&#xc0;" glyph-name="Agrave" horiz-adv-x="729" d="M72-7Q56-7 46.5,0.5t-11,20T41,49L316,675q9,20 21.5,28.5T365,712t27.5-8.5T413,675L689,49q8-16 6.5-29T685,0T660-7q-18,0-29,9.5T613,30L539,201l40-21H149l41,21L117,30Q108,11 98,2T72-7ZM364,609L203,230l-24,19H549l-22-19L366,609h-2ZM331,769L227,892q-9,11-8.5,21.5T226,932t17.5,11.5t22,0.5T285,928l89-129q7-11 4.5-20T368,764.5t-18-5T331,769Z" />
      <glyph unicode="&#xc1;" glyph-name="Aacute" horiz-adv-x="729" d="M72-7Q56-7 46.5,0.5t-11,20T41,49L316,675q9,20 21.5,28.5T365,712t27.5-8.5T413,675L689,49q8-16 6.5-29T685,0T660-7q-18,0-29,9.5T613,30L539,201l40-21H149l41,21L117,30Q108,11 98,2T72-7ZM364,609L203,230l-24,19H549l-22-19L366,609h-2Zm37,160q-8-9-18.5-9.5t-18.5,5T353.5,779t4.5,20l89,129q9,13 20,16t22-0.5T506.5,932t7-18.5T505,892L401,769Z" />
      <glyph unicode="&#xc2;" glyph-name="Acircumflex" horiz-adv-x="729" d="M72-7Q56-7 46.5,0.5t-11,20T41,49L316,675q9,20 21.5,28.5T365,712t27.5-8.5T413,675L689,49q8-16 6.5-29T685,0T660-7q-18,0-29,9.5T613,30L539,201l40-21H149l41,21L117,30Q108,11 98,2T72-7ZM364,609L203,230l-24,19H549l-22-19L366,609h-2ZM270,768q-9-9-19.5-10T232,762t-10,14t5,19l88,123q10,15 23,21.5t28,6.5q16,0 28.5-6.5T418,918l87-123q8-10 6-19t-10.5-14t-19-4T463,768L366,884L270,768Z" />
      <glyph unicode="&#xc3;" glyph-name="Atilde" horiz-adv-x="729" d="M72-7Q56-7 46.5,0.5t-11,20T41,49L316,675q9,20 21.5,28.5T365,712t27.5-8.5T413,675L689,49q8-16 6.5-29T685,0T660-7q-18,0-29,9.5T613,30L539,201l40-21H149l41,21L117,30Q108,11 98,2T72-7ZM364,609L203,230l-24,19H549l-22-19L366,609h-2ZM182,780q-11,0-17.5,7.5T160,808q10,53 41.5,82T277,919q27,0 51-11.5T374.5,881t43-26.5T458,843q27,0 44,17t22,45q3,11 9.5,16t16.5,4q11,0 18-7.5t4-20.5q-10-53-40.5-82T456,786q-27,0-51.5,11.5t-46.5,26T315,850t-41,12q-26,0-43.5-17T208,800q-3-10-9.5-15.5T182,780Z" />
      <glyph unicode="&#xc4;" glyph-name="Adieresis" horiz-adv-x="729" d="M72-7Q56-7 46.5,0.5t-11,20T41,49L316,675q9,20 21.5,28.5T365,712t27.5-8.5T413,675L689,49q8-16 6.5-29T685,0T660-7q-18,0-29,9.5T613,30L539,201l40-21H149l41,21L117,30Q108,11 98,2T72-7ZM364,609L203,230l-24,19H549l-22-19L366,609h-2Zm90,193q-23,0-35.5,12T406,849q0,22 12.5,34T454,895q22,0 34-12t12-34q0-23-12-35t-34-12Zm-175,0q-22,0-34.5,12T232,849q0,22 12.5,34T279,895q23,0 35-12t12-34q0-23-12-35t-35-12Z" />
      <glyph unicode="&#xc5;" glyph-name="Aring" horiz-adv-x="729" d="M72-7Q56-7 46.5,0.5t-11,20T41,49L316,675q9,20 21.5,28.5T365,712t27.5-8.5T413,675L689,49q8-16 6.5-29T685,0T660-7q-18,0-29,9.5T613,30L539,201l40-21H149l41,21L117,30Q108,11 98,2T72-7ZM364,609L203,230l-24,19H549l-22-19L366,609h-2Zm2,149q-33,0-60,15.5t-43,42T247,874q0,33 16,58.5t43,41T366,989q34,0 60.5-15.5t42.5-41T485,874q0-32-16-58.5t-42.5-42T366,758Zm0,43q32,0 52,21t20,52q0,30-20,51t-52,21q-31,0-51.5-21T294,874q0-31 20.5-52T366,801Z" />
      <glyph unicode="&#xc6;" glyph-name="AE" horiz-adv-x="981" d="M42-7Q24-7 14,0.5T4,20t8,25L397,680q8,13 19,19t26,6H900q18,0 27.5-9t9.5-25q0-17-9.5-26T900,636H480l17,29l63-295l-29,22H880q18,0 27.5-8.5T917,358t-9.5-26T880,323H546l20,22L630,41L598,69H900q18,0 27.5-9T937,35q0-17-9.5-26T900,0H598q-33,0-41,33L521,204l30-24H161l32,22L85,20Q77,7 67,0T42-7ZM433,608L208,229l-9,20H530l-14-22L435,608h-2Z" />
      <glyph unicode="&#xc7;" glyph-name="Ccedilla" horiz-adv-x="673" d="M392-9Q288-9 214,35T100.5,160T61,353q0,84 22.5,150.5t65,113t104.5,72T392,714q62,0 118-17.5T607,645q13-10 17.5-22.5t1-24t-12-19T593,572t-27,10q-36,29-79,43t-93,14q-79,0-134-33.5T177,508T149,353t28-155.5t83-98T394,66q49,0 93,14.5T568,124q15,10 27,9.5t20-7.5t11.5-18t0-23T611,64Q569,28 512.5,9.5T392-9Zm-4-183q-18,0-37.5,2.5T315-180q-11,4-15,13t-1,18t11,13.5t20-0.5t25.5-7t30.5-2q26,0 42,9.5T444-108q0,13-9,20.5T406-80q-8,0-15.5-1T373-84q-9-3-14-3t-10,3q-4,4-4.5,9.5T345-59l12,79h51L395-55l-24,6q12,3 23.5,5T416-42q36,0 60-18t24-50q0-37-31-59.5T388-192Z" />
      <glyph unicode="&#xc8;" glyph-name="Egrave" horiz-adv-x="583" d="M132,0Q110,0 98.5,11.5T87,45V660q0,22 11.5,33.5T132,705H504q17,0 26-9t9-25q0-17-9-26t-26-9H167V392H483q17,0 26-8.5t9-25.5t-9-26t-26-9H167V69H504q17,0 26-9t9-25q0-17-9-26T504,0H132ZM289,769L185,892q-9,11-8.5,21.5T184,932t17.5,11.5t22,0.5T243,928l89-129q7-11 4.5-20T326,764.5t-18-5T289,769Z" />
      <glyph unicode="&#xc9;" glyph-name="Eacute" horiz-adv-x="583" d="M132,0Q110,0 98.5,11.5T87,45V660q0,22 11.5,33.5T132,705H504q17,0 26-9t9-25q0-17-9-26t-26-9H167V392H483q17,0 26-8.5t9-25.5t-9-26t-26-9H167V69H504q17,0 26-9t9-25q0-17-9-26T504,0H132ZM359,769q-8-9-18.5-9.5t-18.5,5T311.5,779t4.5,20l89,129q9,13 20,16t22-0.5T464.5,932t7-18.5T463,892L359,769Z" />
      <glyph unicode="&#xca;" glyph-name="Ecircumflex" horiz-adv-x="583" d="M132,0Q110,0 98.5,11.5T87,45V660q0,22 11.5,33.5T132,705H504q17,0 26-9t9-25q0-17-9-26t-26-9H167V392H483q17,0 26-8.5t9-25.5t-9-26t-26-9H167V69H504q17,0 26-9t9-25q0-17-9-26T504,0H132Zm96,768q-9-9-19.5-10T190,762t-10,14t5,19l88,123q10,15 23,21.5t28,6.5q16,0 28.5-6.5T376,918l87-123q8-10 6-19t-10.5-14t-19-4T421,768L324,884L228,768Z" />
      <glyph unicode="&#xcb;" glyph-name="Edieresis" horiz-adv-x="583" d="M132,0Q110,0 98.5,11.5T87,45V660q0,22 11.5,33.5T132,705H504q17,0 26-9t9-25q0-17-9-26t-26-9H167V392H483q17,0 26-8.5t9-25.5t-9-26t-26-9H167V69H504q17,0 26-9t9-25q0-17-9-26T504,0H132ZM412,802q-23,0-35.5,12T364,849q0,22 12.5,34T412,895q22,0 34-12t12-34q0-23-12-35t-34-12Zm-175,0q-22,0-34.5,12T190,849q0,22 12.5,34T237,895q23,0 35-12t12-34q0-23-12-35t-35-12Z" />
      <glyph unicode="&#xcc;" glyph-name="Igrave" horiz-adv-x="257" d="M128-7Q108-7 97.5,4.5T87,36V669q0,21 10.5,32T128,712t30.5-11T169,669V36q0-20-10-31.5T128-7ZM93,769L-11,892q-9,11-8.5,21.5T-12,932T5.5,943.5t22,0.5T47,928l89-129q7-11 4.5-20T130,764.5t-18-5T93,769Z" />
      <glyph unicode="&#xcd;" glyph-name="Iacute" horiz-adv-x="257" d="M128-7Q108-7 97.5,4.5T87,36V669q0,21 10.5,32T128,712t30.5-11T169,669V36q0-20-10-31.5T128-7Zm35,776q-8-9-18.5-9.5t-18.5,5T115.5,779t4.5,20l89,129q9,13 20,16t22-0.5T268.5,932t7-18.5T267,892L163,769Z" />
      <glyph unicode="&#xce;" glyph-name="Icircumflex" horiz-adv-x="257" d="M128-7Q108-7 97.5,4.5T87,36V669q0,21 10.5,32T128,712t30.5-11T169,669V36q0-20-10-31.5T128-7ZM32,768q-9-9-19.5-10T-6,762t-10,14t5,19L77,918q10,15 23,21.5t28,6.5q16,0 28.5-6.5T180,918l87-123q8-10 6-19t-10.5-14t-19-4T225,768L128,884L32,768Z" />
      <glyph unicode="&#xcf;" glyph-name="Idieresis" horiz-adv-x="257" d="M128-7Q108-7 97.5,4.5T87,36V669q0,21 10.5,32T128,712t30.5-11T169,669V36q0-20-10-31.5T128-7Zm88,809q-23,0-35.5,12T168,849q0,22 12.5,34T216,895q22,0 34-12t12-34q0-23-12-35t-34-12ZM41,802q-22,0-34.5,12T-6,849q0,22 12.5,34T41,895q23,0 35-12t12-34q0-23-12-35T41,802Z" />
      <glyph unicode="&#xd0;" glyph-name="Eth" horiz-adv-x="742" d="M132,0Q110,0 98.5,11.5T87,45V660q0,22 11.5,33.5T132,705H325q171,0 264-90t93-262q0-86-23.5-151.5T589,91T477,23T325,0H132Zm37,70H319q70,0 121.5,18t86,53T578,229.5T595,353q0,141-69,211.5T319,635H169V70ZM25,326q-16,0-24.5,8.5T-8,358t8.5,23.5T25,390H340q16,0 24.5-8t8.5-24q0-15-8.5-23.5T340,326H25Z" />
      <glyph unicode="&#xd1;" glyph-name="Ntilde" horiz-adv-x="740" d="M126-7Q107-7 97,3.5T87,34V670q0,20 10,31t26,11t23.5-5.5T164,687L600,106H576V672q0,19 10,29.5T615,712q18,0 27.5-10.5T652,672V33q0-19-8.5-29.5T619-7q-15,0-24,6T576,18L141,599h23V34q0-20-10-30.5T126-7Zm60,787q-11,0-17.5,7.5T164,808q10,53 41.5,82T281,919q27,0 51-11.5T378.5,881t43-26.5T462,843q27,0 44,17t22,45q3,11 9.5,16t16.5,4q11,0 18-7.5t4-20.5q-10-53-40.5-82T460,786q-27,0-51.5,11.5t-46.5,26T319,850t-41,12q-26,0-43.5-17T212,800q-3-10-9.5-15.5T186,780Z" />
      <glyph unicode="&#xd2;" glyph-name="Ograve" horiz-adv-x="767" d="M383-9Q285-9 212.5,35.5T100.5,161T61,353q0,84 22.5,150.5t64.5,113t101.5,72T383,714q100,0 172.5-44t112-124.5T707,354q0-84-23-151T619,89T517.5,16.5T383-9Zm0,73q76,0 128.5,34T592,197t28,156q0,137-61.5,212.5T383,641q-74,0-126.5-34T176,508.5T148,353q0-136 62-212.5T383,64ZM348,769L244,892q-9,11-8.5,21.5T243,932t17.5,11.5t22,0.5T302,928l89-129q7-11 4.5-20T385,764.5t-18-5T348,769Z" />
      <glyph unicode="&#xd3;" glyph-name="Oacute" horiz-adv-x="767" d="M383-9Q285-9 212.5,35.5T100.5,161T61,353q0,84 22.5,150.5t64.5,113t101.5,72T383,714q100,0 172.5-44t112-124.5T707,354q0-84-23-151T619,89T517.5,16.5T383-9Zm0,73q76,0 128.5,34T592,197t28,156q0,137-61.5,212.5T383,641q-74,0-126.5-34T176,508.5T148,353q0-136 62-212.5T383,64Zm35,705q-8-9-18.5-9.5t-18.5,5T370.5,779t4.5,20l89,129q9,13 20,16t22-0.5T523.5,932t7-18.5T522,892L418,769Z" />
      <glyph unicode="&#xd4;" glyph-name="Ocircumflex" horiz-adv-x="767" d="M383-9Q285-9 212.5,35.5T100.5,161T61,353q0,84 22.5,150.5t64.5,113t101.5,72T383,714q100,0 172.5-44t112-124.5T707,354q0-84-23-151T619,89T517.5,16.5T383-9Zm0,73q76,0 128.5,34T592,197t28,156q0,137-61.5,212.5T383,641q-74,0-126.5-34T176,508.5T148,353q0-136 62-212.5T383,64ZM287,768q-9-9-19.5-10T249,762t-10,14t5,19l88,123q10,15 23,21.5t28,6.5q16,0 28.5-6.5T435,918l87-123q8-10 6-19t-10.5-14t-19-4T480,768L383,884L287,768Z" />
      <glyph unicode="&#xd5;" glyph-name="Otilde" horiz-adv-x="767" d="M383-9Q285-9 212.5,35.5T100.5,161T61,353q0,84 22.5,150.5t64.5,113t101.5,72T383,714q100,0 172.5-44t112-124.5T707,354q0-84-23-151T619,89T517.5,16.5T383-9Zm0,73q76,0 128.5,34T592,197t28,156q0,137-61.5,212.5T383,641q-74,0-126.5-34T176,508.5T148,353q0-136 62-212.5T383,64ZM199,780q-11,0-17.5,7.5T177,808q10,53 41.5,82T294,919q27,0 51-11.5T391.5,881t43-26.5T475,843q27,0 44,17t22,45q3,11 9.5,16t16.5,4q11,0 18-7.5t4-20.5q-10-53-40.5-82T473,786q-27,0-51.5,11.5t-46.5,26T332,850t-41,12q-26,0-43.5-17T225,800q-3-10-9.5-15.5T199,780Z" />
      <glyph unicode="&#xd6;" glyph-name="Odieresis" horiz-adv-x="767" d="M383-9Q285-9 212.5,35.5T100.5,161T61,353q0,84 22.5,150.5t64.5,113t101.5,72T383,714q100,0 172.5-44t112-124.5T707,354q0-84-23-151T619,89T517.5,16.5T383-9Zm0,73q76,0 128.5,34T592,197t28,156q0,137-61.5,212.5T383,641q-74,0-126.5-34T176,508.5T148,353q0-136 62-212.5T383,64Zm88,738q-23,0-35.5,12T423,849q0,22 12.5,34T471,895q22,0 34-12t12-34q0-23-12-35t-34-12Zm-175,0q-22,0-34.5,12T249,849q0,22 12.5,34T296,895q23,0 35-12t12-34q0-23-12-35t-35-12Z" />
      <glyph unicode="&#xd7;" glyph-name="multiply" horiz-adv-x="600" d="M129,70q-12-12-24.5-11t-21,9.5t-9,21T85,113L256,284L82,458q-9,10-10.5,20T75,496.5T88.5,510t18.5,3.5T126,502L300,329L473,502q12,12 24.5,11t21.5-9.5t10-21T517,458L344,284L515,113q9-9 10.5-19T522,75.5t-13-13T491,59T471,70L300,241L129,70Z" />
      <glyph unicode="&#xd8;" glyph-name="Oslash" horiz-adv-x="767" d="M383-9Q285-9 212.5,35.5T100.5,161T61,353q0,84 22.5,150.5t64.5,113t101.5,72T383,714q100,0 172.5-44t112-124.5T707,354q0-84-23-151T619,89T517.5,16.5T383-9Zm0,73q76,0 128.5,34T592,197t28,156q0,137-61.5,212.5T383,641q-74,0-126.5-34T176,508.5T148,353q0-136 62-212.5T383,64ZM201-26q-7-12-16.5-15T165-41.5t-17,10t-8.5,18T145,9l41,70l24,40L506,625l19,35l41,71q7,12 16.5,15t20,0.5T620,737t8.5-18T622,696l-41-70l-24-40L262,80L243,46L201-26Z" />
      <glyph unicode="&#xd9;" glyph-name="Ugrave" horiz-adv-x="728" d="M365-9Q295-9 242.5,9.5T154,64.5T100,155T82,279V670q0,21 10.5,31.5T123,712t30.5-10.5T164,670V283q0-110 51-164.5T365,64t149,54.5T564,283V670q0,21 11,31.5T606,712q19,0 29.5-10.5T646,670V279q0-93-31.5-158T520,23.5T365-9ZM330,769L226,892q-9,11-8.5,21.5T225,932t17.5,11.5t22,0.5T284,928l89-129q7-11 4.5-20T367,764.5t-18-5T330,769Z" />
      <glyph unicode="&#xda;" glyph-name="Uacute" horiz-adv-x="728" d="M365-9Q295-9 242.5,9.5T154,64.5T100,155T82,279V670q0,21 10.5,31.5T123,712t30.5-10.5T164,670V283q0-110 51-164.5T365,64t149,54.5T564,283V670q0,21 11,31.5T606,712q19,0 29.5-10.5T646,670V279q0-93-31.5-158T520,23.5T365-9Zm35,778q-8-9-18.5-9.5t-18.5,5T352.5,779t4.5,20l89,129q9,13 20,16t22-0.5T505.5,932t7-18.5T504,892L400,769Z" />
      <glyph unicode="&#xdb;" glyph-name="Ucircumflex" horiz-adv-x="728" d="M365-9Q295-9 242.5,9.5T154,64.5T100,155T82,279V670q0,21 10.5,31.5T123,712t30.5-10.5T164,670V283q0-110 51-164.5T365,64t149,54.5T564,283V670q0,21 11,31.5T606,712q19,0 29.5-10.5T646,670V279q0-93-31.5-158T520,23.5T365-9ZM269,768q-9-9-19.5-10T231,762t-10,14t5,19l88,123q10,15 23,21.5t28,6.5q16,0 28.5-6.5T417,918l87-123q8-10 6-19t-10.5-14t-19-4T462,768L365,884L269,768Z" />
      <glyph unicode="&#xdc;" glyph-name="Udieresis" horiz-adv-x="728" d="M365-9Q295-9 242.5,9.5T154,64.5T100,155T82,279V670q0,21 10.5,31.5T123,712t30.5-10.5T164,670V283q0-110 51-164.5T365,64t149,54.5T564,283V670q0,21 11,31.5T606,712q19,0 29.5-10.5T646,670V279q0-93-31.5-158T520,23.5T365-9Zm88,811q-23,0-35.5,12T405,849q0,22 12.5,34T453,895q22,0 34-12t12-34q0-23-12-35t-34-12Zm-175,0q-22,0-34.5,12T231,849q0,22 12.5,34T278,895q23,0 35-12t12-34q0-23-12-35t-35-12Z" />
      <glyph unicode="&#xdd;" glyph-name="Yacute" horiz-adv-x="596" d="M298-7Q278-7 267.5,4.5T257,37V365l18-57L24,654q-9,13-8.5,26.5T26,703t26,9q14,0 25-6.5T97,685L310,391H289L502,685q11,15 21,21t24,6q16,0 25-8.5t9.5-22T572,653L322,308l17,57V37q0-44-41-44Zm35,776q-8-9-18.5-9.5t-18.5,5T285.5,779t4.5,20l89,129q9,13 20,16t22-0.5T438.5,932t7-18.5T437,892L333,769Z" />
      <glyph unicode="&#xde;" glyph-name="Thorn" horiz-adv-x="634" d="M128-5Q108-5 97.5,6.5T87,38V667q0,21 11,32t31,11t30-10.5T169,671V577H367q113,0 174-55t61-156T541,209.5T367,154H169V38q0-20-10-31.5T128-5Zm41,227H357q81,0 122,36.5T520,366T479,473T357,509H169V222Z" />
      <glyph unicode="&#xdf;" glyph-name="germandbls" horiz-adv-x="615" d="M403-9Q360-9 316,3.5T238,40q-11,7-15,17t-2,20t9.5,17t17.5,8t21-6q33-21 69-30.5T404,56q49,0 77,21t28,57q0,29-24,48.5T402,220q-80,25-112,56.5T258,356q0,21 7,40.5t24,41T336,484q31,27 43.5,48.5T392,579q0,33-23.5,52.5T302,651q-70,0-107.5-42T157,490V35q0-20-11-31T116-7Q96-7 86,4T76,35V480q0,112 59,173t166,61q53,0 91-15.5T450,654t20-68q0-38-17-68t-59-67q-23-20-36-34.5T340,390t-5-26q0-26 23-45t84-38q77-23 110-57.5T585,136q0-43-22.5-75.5T499,9.5T403-9Z" />
      <glyph unicode="&#xe0;" glyph-name="agrave" horiz-adv-x="530" d="M229-9q-50,0-89.5,19.5T77,64T54,140q0,54 27.5,85t91,44T346,282h45V229H347q-81,0-127.5-7.5t-65-25.5T136,145q0-41 28.5-67T242,52q40,0 70.5,19t48,52T378,199V313q0,62-25,89.5T271,430q-35,0-70-9t-74-29q-14-7-24-4.5T87,398t-7,18.5T84.5,437T102,453q44,22 87,32t82,10q63,0 104-20.5t61-62T456,306V35q0-20-9.5-31T419-7Q400-7 390,4T380,35v78h9q-8-38-30.5-65T303,6T229-9Zm11,565L139,712q-8,12-6,23t10,19t19,10.5t22-1.5t18-18l84-163q6-12 2.5-21t-13-13.5t-19-3T240,556Z" />
      <glyph unicode="&#xe1;" glyph-name="aacute" horiz-adv-x="530" d="M229-9q-50,0-89.5,19.5T77,64T54,140q0,54 27.5,85t91,44T346,282h45V229H347q-81,0-127.5-7.5t-65-25.5T136,145q0-41 28.5-67T242,52q40,0 70.5,19t48,52T378,199V313q0,62-25,89.5T271,430q-35,0-70-9t-74-29q-14-7-24-4.5T87,398t-7,18.5T84.5,437T102,453q44,22 87,32t82,10q63,0 104-20.5t61-62T456,306V35q0-20-9.5-31T419-7Q400-7 390,4T380,35v78h9q-8-38-30.5-65T303,6T229-9Zm76,565q-7-10-17-11.5t-19,3T256,561t2,21l84,163q7,14 18,18t22.5,1.5T402,754t9.5-19T405,712L305,556Z" />
      <glyph unicode="&#xe2;" glyph-name="acircumflex" horiz-adv-x="530" d="M229-9q-50,0-89.5,19.5T77,64T54,140q0,54 27.5,85t91,44T346,282h45V229H347q-81,0-127.5-7.5t-65-25.5T136,145q0-41 28.5-67T242,52q40,0 70.5,19t48,52T378,199V313q0,62-25,89.5T271,430q-35,0-70-9t-74-29q-14-7-24-4.5T87,398t-7,18.5T84.5,437T102,453q44,22 87,32t82,10q63,0 104-20.5t61-62T456,306V35q0-20-9.5-31T419-7Q400-7 390,4T380,35v78h9q-8-38-30.5-65T303,6T229-9ZM404,582q6-12 2.5-21.5t-12-13.5t-18-2.5T361,556L272,699L183,556q-6-10-15.5-11.5t-18,2.5t-12,13.5T140,582l83,152q9,16 21,24t28,8t28-8t21-24l83-152Z" />
      <glyph unicode="&#xe3;" glyph-name="atilde" horiz-adv-x="530" d="M229-9q-50,0-89.5,19.5T77,64T54,140q0,54 27.5,85t91,44T346,282h45V229H347q-81,0-127.5-7.5t-65-25.5T136,145q0-41 28.5-67T242,52q40,0 70.5,19t48,52T378,199V313q0,62-25,89.5T271,430q-35,0-70-9t-74-29q-14-7-24-4.5T87,398t-7,18.5T84.5,437T102,453q44,22 87,32t82,10q63,0 104-20.5t61-62T456,306V35q0-20-9.5-31T419-7Q400-7 390,4T380,35v78h9q-8-38-30.5-65T303,6T229-9ZM115,587q-10,0-16.5,7T95,615q4,24 12,44t21,35t30.5,23.5T199,726q25,0 43.5-11.5t35-26T310,662t34-12q23,0 38.5,17.5T403,714q2,10 8.5,14.5T429,732q10,0 16.5-7t3.5-21q-5-31-18.5-56T396,608t-51-15q-25,0-43.5,11.5t-35,26.5T234,657.5T200,669q-23,0-38-17t-21-47q-2-9-8.5-14T115,587Z" />
      <glyph unicode="&#xe4;" glyph-name="adieresis" horiz-adv-x="530" d="M229-9q-50,0-89.5,19.5T77,64T54,140q0,54 27.5,85t91,44T346,282h45V229H347q-81,0-127.5-7.5t-65-25.5T136,145q0-41 28.5-67T242,52q40,0 70.5,19t48,52T378,199V313q0,62-25,89.5T271,430q-35,0-70-9t-74-29q-14-7-24-4.5T87,398t-7,18.5T84.5,437T102,453q44,22 87,32t82,10q63,0 104-20.5t61-62T456,306V35q0-20-9.5-31T419-7Q400-7 390,4T380,35v78h9q-8-38-30.5-65T303,6T229-9ZM360,606q-23,0-35.5,12T312,652t12.5,34.5T360,699q22,0 34-12.5T406,652t-12-34t-34-12Zm-175,0q-22,0-34.5,12T138,652t12.5,34.5T185,699q23,0 35-12.5T232,652t-12-34t-35-12Z" />
      <glyph unicode="&#xe5;" glyph-name="aring" horiz-adv-x="530" d="M229-9q-50,0-89.5,19.5T77,64T54,140q0,54 27.5,85t91,44T346,282h45V229H347q-81,0-127.5-7.5t-65-25.5T136,145q0-41 28.5-67T242,52q40,0 70.5,19t48,52T378,199V313q0,62-25,89.5T271,430q-35,0-70-9t-74-29q-14-7-24-4.5T87,398t-7,18.5T84.5,437T102,453q44,22 87,32t82,10q63,0 104-20.5t61-62T456,306V35q0-20-9.5-31T419-7Q400-7 390,4T380,35v78h9q-8-38-30.5-65T303,6T229-9Zm43,556q-33,0-60,15.5t-43,42T153,663q0,33 16,58.5t43,41T272,778q34,0 60.5-15.5t42.5-41T391,663q0-32-16-58.5t-42.5-42T272,547Zm0,43q32,0 52,21t20,52q0,30-20,51t-52,21q-31,0-51.5-21T200,663q0-31 20.5-52T272,590Z" />
      <glyph unicode="&#xe6;" glyph-name="ae" horiz-adv-x="861" d="M234-9q-52,0-92.5,19.5T77.5,64T54,140q0,54 28,85t92,44t173,13h45V228H347q-81,0-127.5-7t-65-25T136,145q0-41 29-67t79-26q41,0 72,19.5t48,54T381,204V312q0,62-26.5,90T272,430q-35,0-70.5-9T127,392q-13-7-23.5-4.5T87,398t-6.5,18.5T85,437t18,16q43,22 86.5,32T273,495q73,0 115-30t56-91H421q25,59 76.5,90T613,496q48,0 86-16.5t65-47T805,358t14-100v-3q0-14-8.5-20.5T785,228H451v54H765l-15-13q0,52-16,89t-46.5,57T612,435q-46,0-80.5-22t-53-62.5T460,253v-7q0-92 42-141T626,56q31,0 65.5,9T758,95q13,9 24.5,8.5t19-7t10-16T809,60T792,41Q759,17 715,4T627-9Q542-9 483.5,30T404,145h20Q410,74 360,32.5T234-9Z" />
      <glyph unicode="&#xe7;" glyph-name="ccedilla" horiz-adv-x="463" d="M282-9Q209-9 156,23T74.5,112.5T46,246q0,58 16,104t47,78.5T183.5,478T282,495q36,0 75-11t71-38q10-7 13-17t0-19.5t-10-16T413.5,386T392,393q-26,20-53,28t-52,8q-39,0-68-12.5T170,381t-30.5-57T129,245q0-87 41-137.5T287,57q25,0 51.5,8T392,93q11,8 21,7t17-7.5T439.5,76T439,56.5T426,40Q394,14 356,2.5T282-9Zm-1-183q-18,0-37.5,2.5T208-180q-11,4-15,13t-1,18t11,13.5t20-0.5t25.5-7t30.5-2q26,0 42,9.5T337-108q0,13-9,20.5T299-80q-8,0-15.5-1T266-84q-9-3-14-3t-10,3q-4,4-4.5,9.5T238-59l12,79h51L288-55l-24,6q12,3 23.5,5T309-42q36,0 60-18t24-50q0-37-31-59.5T281-192Z" />
      <glyph unicode="&#xe8;" glyph-name="egrave" horiz-adv-x="532" d="M295-9Q218-9 162.5,21.5T76.5,108T46,242q0,76 30,132.5T158.5,463T280,495q49,0 88-16.5T434.5,431t42-75T491,257q0-16-9-23.5T456,226H108v53H437l-16-13q0,54-16,91.5T358.5,415T282,435q-51,0-86.5-23.5t-53.5-65T124,250v-6q0-92 44.5-140T295,56q34,0 67.5,9T428,95q14,9 25.5,8.5t18.5-7t9.5-16t-2-20.5T462,41Q429,17 384,4T295-9ZM248,556L147,712q-8,12-6,23t10,19t19,10.5t22-1.5t18-18l84-163q6-12 2.5-21t-13-13.5t-19-3T248,556Z" />
      <glyph unicode="&#xe9;" glyph-name="eacute" horiz-adv-x="532" d="M295-9Q218-9 162.5,21.5T76.5,108T46,242q0,76 30,132.5T158.5,463T280,495q49,0 88-16.5T434.5,431t42-75T491,257q0-16-9-23.5T456,226H108v53H437l-16-13q0,54-16,91.5T358.5,415T282,435q-51,0-86.5-23.5t-53.5-65T124,250v-6q0-92 44.5-140T295,56q34,0 67.5,9T428,95q14,9 25.5,8.5t18.5-7t9.5-16t-2-20.5T462,41Q429,17 384,4T295-9Zm18,565q-7-10-17-11.5t-19,3T264,561t2,21l84,163q7,14 18,18t22.5,1.5T410,754t9.5-19T413,712L313,556Z" />
      <glyph unicode="&#xea;" glyph-name="ecircumflex" horiz-adv-x="532" d="M295-9Q218-9 162.5,21.5T76.5,108T46,242q0,76 30,132.5T158.5,463T280,495q49,0 88-16.5T434.5,431t42-75T491,257q0-16-9-23.5T456,226H108v53H437l-16-13q0,54-16,91.5T358.5,415T282,435q-51,0-86.5-23.5t-53.5-65T124,250v-6q0-92 44.5-140T295,56q34,0 67.5,9T428,95q14,9 25.5,8.5t18.5-7t9.5-16t-2-20.5T462,41Q429,17 384,4T295-9ZM412,582q6-12 2.5-21.5t-12-13.5t-18-2.5T369,556L280,699L191,556q-6-10-15.5-11.5t-18,2.5t-12,13.5T148,582l83,152q9,16 21,24t28,8t28-8t21-24l83-152Z" />
      <glyph unicode="&#xeb;" glyph-name="edieresis" horiz-adv-x="532" d="M295-9Q218-9 162.5,21.5T76.5,108T46,242q0,76 30,132.5T158.5,463T280,495q49,0 88-16.5T434.5,431t42-75T491,257q0-16-9-23.5T456,226H108v53H437l-16-13q0,54-16,91.5T358.5,415T282,435q-51,0-86.5-23.5t-53.5-65T124,250v-6q0-92 44.5-140T295,56q34,0 67.5,9T428,95q14,9 25.5,8.5t18.5-7t9.5-16t-2-20.5T462,41Q429,17 384,4T295-9Zm73,615q-23,0-35.5,12T320,652t12.5,34.5T368,699q22,0 34-12.5T414,652t-12-34t-34-12Zm-175,0q-22,0-34.5,12T146,652t12.5,34.5T193,699q23,0 35-12.5T240,652t-12-34t-35-12Z" />
      <glyph unicode="&#xec;" glyph-name="igrave" horiz-adv-x="232" d="M116-5Q96-5 86,6.5T76,39V448q0,21 10,32t30,11q19,0 30-11t11-32V39q0-21-10.5-32.5T116-5ZM84,556L-17,712q-8,12-6,23t10,19T6,764.5T28,763t18-18l84-163q6-12 2.5-21t-13-13.5t-19-3T84,556Z" />
      <glyph unicode="&#xed;" glyph-name="iacute" horiz-adv-x="232" d="M116-5Q96-5 86,6.5T76,39V448q0,21 10,32t30,11q19,0 30-11t11-32V39q0-21-10.5-32.5T116-5Zm33,561q-7-10-17-11.5t-19,3T100,561t2,21l84,163q7,14 18,18t22.5,1.5T246,754t9.5-19T249,712L149,556Z" />
      <glyph unicode="&#xee;" glyph-name="icircumflex" horiz-adv-x="232" d="M116-5Q96-5 86,6.5T76,39V448q0,21 10,32t30,11q19,0 30-11t11-32V39q0-21-10.5-32.5T116-5ZM248,582q6-12 2.5-21.5t-12-13.5t-18-2.5T205,556L116,699L27,556q-6-10-15.5-11.5t-18,2.5t-12,13.5T-16,582L67,734q9,16 21,24t28,8t28-8t21-24l83-152Z" />
      <glyph unicode="&#xef;" glyph-name="idieresis" horiz-adv-x="232" d="M116-5Q96-5 86,6.5T76,39V448q0,21 10,32t30,11q19,0 30-11t11-32V39q0-21-10.5-32.5T116-5Zm88,611q-23,0-35.5,12T156,652t12.5,34.5T204,699q22,0 34-12.5T250,652t-12-34t-34-12ZM29,606Q7,606-5.5,618T-18,652t12.5,34.5T29,699q23,0 35-12.5T76,652T64,618T29,606Z" />
      <glyph unicode="&#xf0;" glyph-name="eth" horiz-adv-x="560" d="M276-9Q207-9 155,20T74.5,101T46,223q0,69 28.5,120.5t79.5,80T272,452q49,0 87-16.5t63.5-50T459,300H436q1,99-39,173.5T288,593h22L159,527q-16-6-27.5-2t-16,14t0,21.5T137,579l111,48l2-11q-20,10-41,18.5T165,650q-18,5-24,16t-3,22t14,17t29,1q40-10 73.5-25T319,648l-23,1l124,54q15,6 26.5,2T463,691t1-21t-20-18l-93-41l3,12q53-38 88-89.5T495.5,420T514,284q0-71-15.5-125.5t-46-92T378,10T276-9Zm1,66q47,0 81,20t51.5,57.5T427,223q0,76-39.5,120T277,387q-45,0-79-20t-52-56.5T128,223q0-79 39.5-122.5T277,57Z" />
      <glyph unicode="&#xf1;" glyph-name="ntilde" horiz-adv-x="568" d="M116-7Q96-7 86,4T76,35V452q0,20 10,30.5T115,493t29.5-10.5T155,452V366l-11,12q21,58 68.5,87.5T322,495q58,0 96.5-21T476,410.5T495,303V35q0-20-10.5-31T455-7Q435-7 424.5,4T414,35V298q0,68-26.5,99.5T303,429q-67,0-106.5-41.5T157,277V35q0-42-41-42Zm12,594q-10,0-16.5,7T108,615q4,24 12,44t21,35t30.5,23.5T212,726q25,0 43.5-11.5t35-26T323,662t34-12q23,0 38.5,17.5T416,714q2,10 8.5,14.5T442,732q10,0 16.5-7t3.5-21q-5-31-18.5-56T409,608t-51-15q-25,0-43.5,11.5t-35,26.5T247,657.5T213,669q-23,0-38-17t-21-47q-2-9-8.5-14T128,587Z" />
      <glyph unicode="&#xf2;" glyph-name="ograve" horiz-adv-x="556" d="M278-9Q207-9 155,22T74.5,109.5T46,243q0,58 16,104.5T109,427t73.5,50.5T278,495q71,0 123-31t80.5-87.5T510,243q0-58-16-104T447,59.5t-73.5-51T278-9Zm0,65q45,0 79,22t52.5,64T428,243q0,91-40.5,139T278,430q-46,0-79.5-21.5t-52-63T128,243q0-90 41-138.5T278,56ZM246,556L145,712q-8,12-6,23t10,19t19,10.5t22-1.5t18-18l84-163q6-12 2.5-21t-13-13.5t-19-3T246,556Z" />
      <glyph unicode="&#xf3;" glyph-name="oacute" horiz-adv-x="556" d="M278-9Q207-9 155,22T74.5,109.5T46,243q0,58 16,104.5T109,427t73.5,50.5T278,495q71,0 123-31t80.5-87.5T510,243q0-58-16-104T447,59.5t-73.5-51T278-9Zm0,65q45,0 79,22t52.5,64T428,243q0,91-40.5,139T278,430q-46,0-79.5-21.5t-52-63T128,243q0-90 41-138.5T278,56Zm33,500q-7-10-17-11.5t-19,3T262,561t2,21l84,163q7,14 18,18t22.5,1.5T408,754t9.5-19T411,712L311,556Z" />
      <glyph unicode="&#xf4;" glyph-name="ocircumflex" horiz-adv-x="556" d="M278-9Q207-9 155,22T74.5,109.5T46,243q0,58 16,104.5T109,427t73.5,50.5T278,495q71,0 123-31t80.5-87.5T510,243q0-58-16-104T447,59.5t-73.5-51T278-9Zm0,65q45,0 79,22t52.5,64T428,243q0,91-40.5,139T278,430q-46,0-79.5-21.5t-52-63T128,243q0-90 41-138.5T278,56ZM410,582q6-12 2.5-21.5t-12-13.5t-18-2.5T367,556L278,699L189,556q-6-10-15.5-11.5t-18,2.5t-12,13.5T146,582l83,152q9,16 21,24t28,8t28-8t21-24l83-152Z" />
      <glyph unicode="&#xf5;" glyph-name="otilde" horiz-adv-x="556" d="M278-9Q207-9 155,22T74.5,109.5T46,243q0,58 16,104.5T109,427t73.5,50.5T278,495q71,0 123-31t80.5-87.5T510,243q0-58-16-104T447,59.5t-73.5-51T278-9Zm0,65q45,0 79,22t52.5,64T428,243q0,91-40.5,139T278,430q-46,0-79.5-21.5t-52-63T128,243q0-90 41-138.5T278,56ZM121,587q-10,0-16.5,7T101,615q4,24 12,44t21,35t30.5,23.5T205,726q25,0 43.5-11.5t35-26T316,662t34-12q23,0 38.5,17.5T409,714q2,10 8.5,14.5T435,732q10,0 16.5-7t3.5-21q-5-31-18.5-56T402,608t-51-15q-25,0-43.5,11.5t-35,26.5T240,657.5T206,669q-23,0-38-17t-21-47q-2-9-8.5-14T121,587Z" />
      <glyph unicode="&#xf6;" glyph-name="odieresis" horiz-adv-x="556" d="M278-9Q207-9 155,22T74.5,109.5T46,243q0,58 16,104.5T109,427t73.5,50.5T278,495q71,0 123-31t80.5-87.5T510,243q0-58-16-104T447,59.5t-73.5-51T278-9Zm0,65q45,0 79,22t52.5,64T428,243q0,91-40.5,139T278,430q-46,0-79.5-21.5t-52-63T128,243q0-90 41-138.5T278,56Zm88,550q-23,0-35.5,12T318,652t12.5,34.5T366,699q22,0 34-12.5T412,652t-12-34t-34-12Zm-175,0q-22,0-34.5,12T144,652t12.5,34.5T191,699q23,0 35-12.5T238,652t-12-34t-35-12Z" />
      <glyph unicode="&#xf7;" glyph-name="divide" horiz-adv-x="600" d="M81,256q-15,0-23.5,8T49,287t8.5,23T81,318H519q15,0 23.5-8t8.5-23t-8.5-23T519,256H81ZM294,43q-21,0-32.5,12T250,88t11.5,32.5T294,132t32.5-11T338,88q0-21-11-33T294,43Zm0,398q-21,0-32.5,12T250,486t11.5,32.5T294,530t32.5-11.5T338,486t-11-33t-33-12Z" />
      <glyph unicode="&#xf8;" glyph-name="oslash" horiz-adv-x="556" d="M278-9Q207-9 155,22T74.5,109.5T46,243q0,58 16,104.5T109,427t73.5,50.5T278,495q71,0 123-31t80.5-87.5T510,243q0-58-16-104T447,59.5t-73.5-51T278-9Zm0,65q45,0 79,22t52.5,64T428,243q0,91-40.5,139T278,430q-46,0-79.5-21.5t-52-63T128,243q0-90 41-138.5T278,56ZM152-30q-7-12-18-14t-20.5,3.5T100.5-24T105,1L404,517q8,12 19,13.5t20-4T456,510t-4-24L152-30Z" />
      <glyph unicode="&#xf9;" glyph-name="ugrave" horiz-adv-x="561" d="M248-9q-59,0-97.5,21.5T92.5,77T73,184V452q0,21 10.5,31T113,493q20,0 30.5-10T154,452V185q0-64 26.5-95.5T264,58q62,0 101,42t39,110V452q0,21 10.5,31T445,493q19,0 29.5-10T485,452V35q0-42-39-42Q427-7 416.5,4T406,35v91l13-14q-20-59-65.5-90T248-9Zm1,566L148,713q-8,12-6,23t10,19t19,10.5t22-1.5t18-18l84-163q6-12 2.5-21t-13-13.5t-19-3T249,557Z" />
      <glyph unicode="&#xfa;" glyph-name="uacute" horiz-adv-x="561" d="M248-9q-59,0-97.5,21.5T92.5,77T73,184V452q0,21 10.5,31T113,493q20,0 30.5-10T154,452V185q0-64 26.5-95.5T264,58q62,0 101,42t39,110V452q0,21 10.5,31T445,493q19,0 29.5-10T485,452V35q0-42-39-42Q427-7 416.5,4T406,35v91l13-14q-20-59-65.5-90T248-9Zm66,566q-7-10-17-11.5t-19,3T265,562t2,21l84,163q7,14 18,18t22.5,1.5T411,755t9.5-19T414,713L314,557Z" />
      <glyph unicode="&#xfb;" glyph-name="ucircumflex" horiz-adv-x="561" d="M248-9q-59,0-97.5,21.5T92.5,77T73,184V452q0,21 10.5,31T113,493q20,0 30.5-10T154,452V185q0-64 26.5-95.5T264,58q62,0 101,42t39,110V452q0,21 10.5,31T445,493q19,0 29.5-10T485,452V35q0-42-39-42Q427-7 416.5,4T406,35v91l13-14q-20-59-65.5-90T248-9ZM413,583q6-12 2.5-21.5t-12-13.5t-18-2.5T370,557L281,700L192,557q-6-10-15.5-11.5t-18,2.5t-12,13.5T149,583l83,152q9,16 21,24t28,8t28-8t21-24l83-152Z" />
      <glyph unicode="&#xfc;" glyph-name="udieresis" horiz-adv-x="561" d="M248-9q-59,0-97.5,21.5T92.5,77T73,184V452q0,21 10.5,31T113,493q20,0 30.5-10T154,452V185q0-64 26.5-95.5T264,58q62,0 101,42t39,110V452q0,21 10.5,31T445,493q19,0 29.5-10T485,452V35q0-42-39-42Q427-7 416.5,4T406,35v91l13-14q-20-59-65.5-90T248-9ZM369,607q-23,0-35.5,12T321,653t12.5,34.5T369,700q22,0 34-12.5T415,653t-12-34t-34-12Zm-175,0q-22,0-34.5,12T147,653t12.5,34.5T194,700q23,0 35-12.5T241,653t-12-34t-35-12Z" />
      <glyph unicode="&#xfd;" glyph-name="yacute" horiz-adv-x="514" d="M184-187q-15,0-24,8t-10.5,21.5T154-130L223,25V-10L31,436q-6,15-4,28t12,21t28,8q16,0 25-7t16-25L272,59H245L411,461q8,18 17,25t26,7q16,0 24.5-8t10-20.5T484,437L228-155q-8-18-17.5-25T184-187ZM291,556q-7-10-17-11.5t-19,3T242,561t2,21l84,163q7,14 18,18t22.5,1.5T388,754t9.5-19T391,712L291,556Z" />
      <glyph unicode="&#xfe;" glyph-name="thorn" horiz-adv-x="583" d="M116-187q-20,0-30,10.5T76-146V671q0,20 10.5,30.5T116,712t30-10.5T157,671V371H145q16,57 63.5,90.5T322,495q65,0 113.5-30.5t75-87T537,243q0-77-26.5-133.5T436,22T322-9T209,24.5T145,114h12V-146q0-20-11-30.5T116-187ZM305,56q46,0 79.5,22t52,64T455,243q0,91-40.5,139T305,430q-45,0-79-21.5t-52.5-63T155,243q0-90 41-138.5T305,56Z" />
      <glyph unicode="&#xff;" glyph-name="ydieresis" horiz-adv-x="514" d="M184-187q-15,0-24,8t-10.5,21.5T154-130L223,25V-10L31,436q-6,15-4,28t12,21t28,8q16,0 25-7t16-25L272,59H245L411,461q8,18 17,25t26,7q16,0 24.5-8t10-20.5T484,437L228-155q-8-18-17.5-25T184-187ZM346,606q-23,0-35.5,12T298,652t12.5,34.5T346,699q22,0 34-12.5T392,652t-12-34t-34-12Zm-175,0q-22,0-34.5,12T124,652t12.5,34.5T171,699q23,0 35-12.5T218,652t-12-34t-35-12Z" />
      <glyph unicode="&#x2013;" glyph-name="endash" horiz-adv-x="500" d="M22,240q-12,0-20.5,8T-7,267t8.5,18.5T22,293H478q12,0 20.5-7.5T507,267t-8.5-19T478,240H22Z" />
      <glyph unicode="&#x2014;" glyph-name="emdash" horiz-adv-x="1000" d="M22,240q-12,0-20.5,8T-7,267t8.5,18.5T22,293H978q12,0 20.5-7.5T1007,267t-8.5-19T978,240H22Z" />
      <glyph unicode="&#x2018;" glyph-name="quoteleft" horiz-adv-x="228" d="M105,692q10,13 20.5,14.5t18-4T152,686t-9-24q-16-21-22.5-42.5T114,580l-3,20q26,0 42-14.5T169,546q0-24-15-39.5T115,491q-26,0-40.5,17.5T60,559q0,21 3.5,43.5t14,45.5T105,692Z" />
      <glyph unicode="&#x2019;" glyph-name="quoteright" horiz-adv-x="228" d="M124,508q-10-13-21-14.5t-19,4T75.5,514T85,538q16,21 22,42.5t6,38.5l4-20q-26,0-41.5,15.5T60,654q0,25 14.5,40T113,709q26,0 41-17.5T169,641q0-21-4-43.5T151,552t-27-44Z" />
      <glyph unicode="&#x201a;" glyph-name="quotesinglbase" horiz-adv-x="228" d="M124-95q-10-13-21-15t-19,4T75.5-89T85-65q16,21 22,42.5T113,17l4-21Q91-4 75.5,11.5T60,51T74.5,90.5T113,106q26,0 41-17.5T169,38q0-21-4-43.5T151-51T124-95Z" />
      <glyph unicode="&#x201c;" glyph-name="quotedblleft" horiz-adv-x="394" d="M105,692q10,13 20.5,14.5t18-4T152,686t-9-24q-16-21-22.5-42.5T114,580l-3,20q26,0 42-14.5T169,546q0-24-15-39.5T115,491q-26,0-40.5,17.5T60,559q0,21 3.5,43.5t14,45.5T105,692Zm166,0q10,13 20.5,14.5t18-4T318,686t-9-24q-16-21-22.5-42.5T280,580l-3,20q26,0 42-14.5T335,546q0-24-15-39.5T281,491q-26,0-40.5,17.5T226,559q0,21 3.5,43.5t14,45.5T271,692Z" />
      <glyph unicode="&#x201d;" glyph-name="quotedblright" horiz-adv-x="394" d="M124,508q-10-13-21-14.5t-19,4T75.5,514T85,538q16,21 22,42.5t6,38.5l4-20q-26,0-41.5,15.5T60,654q0,25 14.5,40T113,709q26,0 41-17.5T169,641q0-21-4-43.5T151,552t-27-44Zm166,0q-10-13-21-14.5t-19,4T241.5,514t9.5,24q16,21 22,42.5t6,38.5l4-20q-26,0-41.5,15.5T226,654q0,25 14.5,40T279,709q26,0 41-17.5T335,641q0-21-4-43.5T317,552t-27-44Z" />
      <glyph unicode="&#x201e;" glyph-name="quotedblbase" horiz-adv-x="394" d="M124-95q-10-13-21-15t-19,4T75.5-89T85-65q16,21 22,42.5T113,17l4-21Q91-4 75.5,11.5T60,51T74.5,90.5T113,106q26,0 41-17.5T169,38q0-21-4-43.5T151-51T124-95Zm166,0q-10-13-21-15t-19,4t-8.5,17T251-65q16,21 22,42.5T279,17l4-21q-26,0-41.5,15.5T226,51t14.5,39.5T279,106q26,0 41-17.5T335,38q0-21-4-43.5T317-51T290-95Z" />
      <glyph unicode="&#x2022;" glyph-name="bullet" horiz-adv-x="524" d="M262,88q-49,0-90,23.5T106,175T81,265q0,46 23.5,86.5t64.5,66T262,443q48,0 89.5-23T418,356.5T443,265q0-49-24.5-89T353,112T262,88Z" />
      <glyph unicode="&#x2039;" glyph-name="guilsinglleft" horiz-adv-x="260" d="M187,89q-11-5-22.5-1.5T147,102L65,238q-8,14-8,27.5T65,293l81,135q7,12 18,15.5t22-1.5q14-6 18-19t-3-28L136,265l65-129q7-15 3.5-28.5T187,89Z" />
      <glyph unicode="&#x203a;" glyph-name="guilsinglright" horiz-adv-x="260" d="M73,89q-14,5-17.5,18.5T59,136l65,129L59,395q-6,15-2,28t17,19q12,5 23,1.5T115,428l80-135q9-14 9-27.5T195,238L113,102q-6-11-17.5-14.5T73,89Z" />
    </font>
</defs>
</svg>
