<?xml version="1.0" standalone="no"?>
<!DOCTYPE svg PUBLIC "-//W3C//DTD SVG 1.1//EN" "http://www.w3.org/Graphics/SVG/1.1/DTD/svg11.dtd">
<svg xmlns="http://www.w3.org/2000/svg">
  <defs>
    <font id="Rubik" horiz-adv-x="510">
      <font-face font-family="Rubik Light" units-per-em="1000" panose-1="0 0 0 0 0 0 0 0 0 0" ascent="935" descent="-250" alphabetic="0" />
      <glyph unicode=" " glyph-name="gid186" horiz-adv-x="245" />
      <glyph unicode="!" glyph-name="gid197" horiz-adv-x="245" d="M99,166q-10,0-16.5,6.5T76,189V677q0,10 6.5,16.5T99,700h47q10,0 16.5-6.5T169,677V189q0-10-6.5-16.5T146,166H99ZM90,0Q80,0 73.5,6.5T67,23V86q0,11 6.5,17.5T90,110h64q10,0 16.5-6.5T177,86V23q0-10-6.5-16.5T154,0H90Z" />
      <glyph unicode="&quot;" glyph-name="gid234" horiz-adv-x="374" d="M249,489q-10,0-14.5,6.5T229,511L212,687q-1,11 4.5,17t15.5,6h65q10,0 16-6t5-17L301,511q-1-9-6-15.5T280,489H249ZM93,489q-10,0-14.5,6.5T73,511L56,687q-1,11 4.5,17T76,710h65q10,0 16-6t5-17L145,511q-1-9-5.5-15.5T124,489H93Z" />
      <glyph unicode="#" glyph-name="gid204" horiz-adv-x="697" d="M173,39q-9,0-15,6t-5,15l18,121H72q-10,0-16,6t-6,16v34q0,10 6,16t16,6H183l26,176H98q-10,0-16,6t-6,16v34q0,10 6,16t16,6H221l18,121q2,8 7,14.5t15,6.5h37q9,0 15-6t5-15L300,513H448l18,121q2,8 7,14.5t15,6.5h37q9,0 15-6t5-15L527,513h97q10,0 16.5-6t6.5-16V457q0-10-6.5-16T624,435H516L490,259H598q10,0 16.5-6t6.5-16V203q0-10-6.5-16T598,181H478L460,60q-3-21-23-21H400q-9,0-15,6t-5,15l18,121H251L233,60q-3-21-23-21H173Zm90,220H410l26,176H289L263,259Z" />
      <glyph unicode="$" glyph-name="gid248" horiz-adv-x="618" d="M290-100q-11,0-17,6.5T267-77V-7Q194-1 144,26.5T68,93T40,176q0,8 6.5,14.5T62,197h52q11,0 17-6t8-14q6-24 25-47.5t54.5-39T310,75q86,0 126.5,30.5T477,187q0,35-21.5,56.5T390,282T276,319q-73,21-121,46T83.5,427T60,521q0,73 54,125.5T267,708v69q0,10 6,16.5t17,6.5h38q10,0 16.5-6.5T351,777V707q67-8 112-37t68-67t24-74q0-7-5-13.5T534,509H481q-7,0-14.5,4T455,528q-6,41-46,69T305,625q-65,0-105.5-25T159,522q0-34 19-56.5T238,426t107-36q80-22 131-46.5t75.5-61T576,189q0-56-27.5-98.5T470.5,23T351-8V-77q0-10-6.5-16.5T328-100H290Z" />
      <glyph unicode="%" glyph-name="gid265" horiz-adv-x="761" d="M109,0Q88,0 88,20q0,6 4,11L586,681q7,9 13.5,14t19.5,5h33q21,0 21-20q0-6-4-11L176,19q-7-9-13.5-14T142,0H109ZM567-6Q502-6 464.5,31T423,128q-1,26-1,44.5t1,46.5q4,60 39.5,97.5T567,354q70,0 105.5-37.5T712,219q2-28 2-46.5T712,128q-4-60-41.5-97T567-6Zm0,66q27,0 42,11t22,27.5t8,33.5q2,27 2,43t-2,40q-1,27-17,50t-55,23q-38,0-53.5-23T496,215q-1-24-1-40t1-43q2-17 8.5-33.5t22-27.5T567,60ZM193,349q-66,0-103,35T49,479q-1,26-1,44.5T49,570q3,60 39,97.5T193,705q70,0 105.5-37.5T337,570q2-28 2-46.5T337,479q-3-60-40.5-95T193,349Zm0,62q26,0 41.5,11T257,449.5t8,33.5q2,27 2,42.5T265,566q-1,27-17.5,50T193,639t-53.5-23T122,566q-1-25-1-40.5t1-42.5q2-17 8.5-33.5T152,422t41-11Z" />
      <glyph unicode="&amp;" glyph-name="gid237" horiz-adv-x="694" d="M287-10q-68,0-120.5,25T85,84.5T56,187q0,46 19.5,80.5T127,329t70,49q-47,50-66.5,88T111,545q0,45 23,82t65,60t99,23q56,0 97-22t64-59t23-83q0-44-21-77t-55.5-59T330,361L500,194q16,28 30.5,65T554,346q2,20 21,20h44q10,0 15.5-6t5.5-15q-1-22-6.5-47t-16-53t-25-55.5T559,136L661,34q9-8 9-15q0-9-5-14T650,0H594q-10,0-16.5,3T567,10L501,75q-39-38-92-61.5T287-10Zm0,80q40,0 80,16.5T441,137L254,319q-43-24-74.5-54.5T148,189q0-38 19.5-64.5T219,84t68-14ZM275,419q32,18 59.5,36t44,40T395,545q0,40-28,64t-69,24q-39,0-68-23.5T201,544q0-17 6-34.5T229.5,471T275,419Z" />
      <glyph unicode="&apos;" glyph-name="gid235" horiz-adv-x="218" d="M93,489q-10,0-14.5,6.5T73,511L56,687q-1,11 4.5,17T76,710h65q10,0 16-6t5-17L145,511q-1-9-5.5-15.5T124,489H93Z" />
      <glyph unicode="(" glyph-name="gid216" horiz-adv-x="339" d="M291-159q-65,0-110,27.5T109-47T69.5,98.5T57,309T69.5,520T109,665.5T181,749t110,27q10,0 16.5-7t6.5-16V718q0-9-6.5-16T294,695q-42-1-70.5-21.5t-46-65.5t-25-118.5T145,309t7.5-180.5T177.5,10t46-66T294-78q7,0 13.5-6.5T314-101v-35q0-9-6.5-16T291-159Z" />
      <glyph unicode=")" glyph-name="gid217" horiz-adv-x="339" d="M47-159q-9,0-16,7t-7,16v35q0,10 6.5,16.5T45-78q42,1 70.5,22T161,10t25,118.5T194,309t-8,180.5T161,608t-45.5,65.5T45,695q-8,0-14.5,7T24,718v35q0,9 7,16t16,7q65,0 110-27t72.5-83.5T269,520t12-211T269,98.5T229.5-47T157-131.5T47-159Z" />
      <glyph unicode="*" glyph-name="gid203" horiz-adv-x="446" d="M146,412l-44,33q-7,5-8,14.5T97,475q0,1 6,7l72,66L77,559q-4,1-5.5,1.5T69,561q-7,2-11.5,10.5T55,589l18,53q2,8 11,12t16,2q1,0 8-4l86-49l-20,97q-1,4-1,5.5t0,2.5q0,8 6.5,15t15.5,7h55q9,0 15.5-7t6.5-15q0-1 0-2.5t-1-5.5l-20-97l87,49q7,4 8,4q8,2 16.5-2T373,642l18-53q2-9-2.5-17.5T376,561q-1,0-2.5-0.5T369,559l-99-11l73-66q6-6 6-7q5-6 4-15.5T344,445l-44-33q-8-4-17-3t-14,8q0,1-1,2t-3,5l-42,91l-42-91q-1-4-2.5-5t-1.5-2q-4-7-13.5-8T146,412Z" />
      <glyph unicode="+" glyph-name="gid253" horiz-adv-x="622" d="M293,33q-10,0-16.5,6.5T270,56V264H65q-10,0-16.5,6.5T42,287v32q0,10 6.5,16.5T65,342H270V544q0,10 6.5,16.5T293,567h35q10,0 16.5-6.5T351,544V342H557q10,0 16.5-6.5T580,319V287q0-10-6.5-16.5T557,264H351V56q0-10-6.5-16.5T328,33H293Z" />
      <glyph unicode="," glyph-name="gid193" horiz-adv-x="249" d="M67-75q-8,0-12.5,6T51-54L74,89q2,12 8.5,20.5T102,118h67q7,0 11.5-5t4.5-12q0-8-3-16L129-52q-4-10-10.5-16.5T100-75H67Z" />
      <glyph unicode="-" glyph-name="gid209" horiz-adv-x="484" d="M92,258q-10,0-16.5,6.5T69,281v38q0,10 6.5,16.5T92,342H392q11,0 17-6.5t6-16.5V281q0-10-6-16.5T392,258H92Z" />
      <glyph unicode="." glyph-name="gid192" horiz-adv-x="252" d="M90,0Q80,0 73.5,6.5T67,23V95q0,10 6.5,16.5T90,118h72q10,0 17-6.5T186,95V23q0-10-7-16.5T162,0H90Z" />
      <glyph unicode="/" glyph-name="gid205" horiz-adv-x="482" d="M46-84q-8,0-14,6T26-64q0,5 3,12L371,768q3,6 8.5,12t17.5,6h39q8,0 14-6t6-14q0-4-2-12L111-66q-2-5-8-11.5T85-84H46Z" />
      <glyph unicode="0" glyph-name="gid129" horiz-adv-x="635" d="M317-10q-69,0-116.5,21.5T123,71T79.5,158T64,262q-1,27-1.5,57t0,61T64,439q1,55 15.5,104T124,629.5t77.5,59T317,710q69,0 116.5-21.5t77.5-59T555.5,543T571,439q1-28 1.5-59t0-61T571,262q-1-55-15.5-104t-44-87t-77-59.5T317-10Zm0,86q78,0 115.5,51T471,267q2,29 2,56.5t0,55T471,433q-1,87-38.5,139.5T317,625q-77,0-114.5-52.5T163,433q0-27-0.5-54.5t0-55T163,267q2-89 40-140T317,76Z" />
      <glyph unicode="1" glyph-name="gid130" horiz-adv-x="428" d="M276,0q-10,0-16.5,6.5T253,23V583L87,455q-8-6-17-5t-15,9L29,492q-6,9-4.5,18T34,525L252,693q7,5 13,6t13,1h51q10,0 16.5-6.5T352,677V23q0-10-6.5-16.5T329,0H276Z" />
      <glyph unicode="2" glyph-name="gid131" horiz-adv-x="587" d="M72,0Q62,0 55.5,6.5T49,23V55q0,9 5,20T74,99L286,311q51,43 80.5,73.5t42,58.5T421,501q0,57-32,90.5T294,625q-40,0-69-16.5t-45-45T158,499q-2-13-10.5-18T132,476H80q-9,0-15,5.5T59,495q1,38 16,76.5t44.5,70t73,50.5T294,711q79,0 129.5-28.5T498,607t24-103q0-44-15-80.5t-43.5-71T393,282L201,87H513q11,0 17.5-6T537,64V23q0-10-6.5-16.5T513,0H72Z" />
      <glyph unicode="3" glyph-name="gid132" horiz-adv-x="601" d="M298-10Q235-10 188,5.5T109,47T60.5,104.5T43,168q0,9 6,14.5T64,188h49q9,0 16.5-4.5T141,166q10-36 34.5-56t57-27.5T298,75q69,0 112,33t43,97q0,65-39,93T306,326H211q-10,0-16.5,6T188,349v27q0,9 3.5,15.5T199,403L393,615H98q-10,0-16.5,6T75,638v38q0,11 6.5,17.5T98,700H497q11,0 17.5-6.5T521,676V640q0-7-3.5-12.5T510,617L317,402l16-1q66-2 115.5-24t77-65.5T553,202q0-67-33-114T429.5,15.5T298-10Z" />
      <glyph unicode="4" glyph-name="gid133" horiz-adv-x="621" d="M401,0q-10,0-16.5,6.5T378,23V167H54q-10,0-16.5,6.5T31,190v40q0,4 2.5,12.5T42,260L342,683q12,17 37,17h72q10,0 16.5-6.5T474,677V254h90q11,0 17.5-6.5T588,231V190q0-10-6.5-16.5T565,167H474V23q0-10-6.5-16.5T451,0H401ZM138,252H379V595L138,252Z" />
      <glyph unicode="5" glyph-name="gid134" horiz-adv-x="594" d="M292-10q-79,0-133.5,27.5T75.5,89T45,182q-1,9 5,14.5T65,202h54q9,0 16-4.5T146,180q10-37 32.5-60.5t52-34T292,75q43,0 78.5,17.5t56.5,52T448,228q0,45-20.5,77.5t-56,50T292,373q-33,0-54-8t-35.5-19t-26-19T151,319H99q-9,0-16,6.5T77,341l32,334q1,12 7.5,18.5T134,700H483q10,0 16.5-6.5T506,677V638q0-11-6.5-17T483,615H195L176,418q15,9 45.5,21.5T306,452q50,0 93.5-15t77-44T529,322.5T548,227q0-76-33-129T424,17.5T292-10Z" />
      <glyph unicode="6" glyph-name="gid135" horiz-adv-x="603" d="M308-10q-83,0-141,33.5t-88.5,88T48,230q0,30 7.5,57.5t19,52t23,44T118,415L308,680q5,5 12,12.5t21,7.5h53q9,0 14.5-6.5T414,678q0-4-1-7.5t-3-5.5L264,461q12,4 28,5.5t29,1.5q55-1 100-20t77.5-51.5t49.5-75T565,231q0-63-30-118T447.5,24T308-10Zm-1,85q42,0 78,18t58.5,52.5T466,231q0,50-22,84.5t-58.5,52T307,385t-78-17.5t-58.5-52T148,231q0-51 22.5-85.5T229,93t78-18Z" />
      <glyph unicode="7" glyph-name="gid136" horiz-adv-x="513" d="M149,0q-9,0-14.5,6.5T129,22q0,3 2,9L380,613H52q-10,0-16.5,6.5T29,636v40q0,11 6.5,17.5T52,700H462q12,0 18-6.5t6-17.5V639q0-13-2-21t-6-18L232,25q-4-8-10.5-16.5T203,0H149Z" />
      <glyph unicode="8" glyph-name="gid137" horiz-adv-x="636" d="M318-10Q260-10 211.5,4.5T128.5,47T75,113.5T56,201q0,61 29.5,105T164,373q-39,23-61,60T81,521q0,60 29.5,101.5t83,64.5T318,710q70,0 123.5-22.5t83-64.5T554,522q0-51-22-88.5T472,373q49-23 78.5-67T580,201q0-65-33-112.5t-92-73T318-10Zm0,80q46,0 83,16t59,45.5T482,201q0,41-22,69.5t-59,44T318,330t-83.5-15.5t-59.5-44T153,201q0-40 22-69.5T234.5,86T318,70Zm0,339q38,0 70.5,14t52,38T460,519t-18.5,59t-51,38.5T318,630t-72.5-13.5T194,578t-19-59q0-35 19-59.5T245.5,422T318,409Z" />
      <glyph unicode="9" glyph-name="gid138" horiz-adv-x="593" d="M193,0q-9,0-14.5,6.5T173,22q0,5 1.5,8t2.5,5L330,248q-25-6-54-6q-55,1-99.5,20T101,313.5T54,387T38,473q0,44 15.5,86t47,76t79,54.5T290,710t110.5-19.5t80-53t48-75.5T544,475q0-41-12-75t-28.5-61T472,289L279,20q-4-5-11-12.5T247,0H193Zm97,323q42,0 77.5,18.5t56.5,52T445,474t-21,80.5t-56.5,52T290,625q-41,0-76-18.5t-56-52T137,474t21-80.5t56-52T290,323Z" />
      <glyph unicode=":" glyph-name="gid194" horiz-adv-x="256" d="M92,350q-10,0-16.5,6.5T69,373v70q0,10 6.5,16.5T92,466h72q10,0 16.5-6.5T187,443V373q0-10-6.5-16.5T164,350H92ZM92,0Q82,0 75.5,6.5T69,23V93q0,10 6.5,16.5T92,116h72q10,0 16.5-6.5T187,93V23q0-10-6.5-16.5T164,0H92Z" />
      <glyph unicode=";" glyph-name="gid195" horiz-adv-x="271" d="M79-75q-8,0-12,6T64-54L86,89q2,12 8.5,20.5T114,118h67q7,0 11.5-5t4.5-12q0-8-3-16L141-52q-4-10-10-16.5T112-75H79Zm25,425q-10,0-16.5,6.5T81,373v70q0,10 6.5,16.5T104,466h72q10,0 17-6.5t7-16.5V373q0-10-7-16.5T176,350H104Z" />
      <glyph unicode="&lt;" glyph-name="gid259" horiz-adv-x="492" d="M404,25q-6,0-12.5,4T380,35L65,252q-15,10-22,21t-7,24v18q0,14 7,24t22,21L380,576q5,3 11.5,7t12.5,4q8,0 14-5.5t6-15.5V522q0-11-6-18.5T401,489L133,306L401,123q11-8 17-15t6-18V45q0-9-6-14.5T404,25Z" />
      <glyph unicode="=" glyph-name="gid257" horiz-adv-x="570" d="M94,386q-10,0-16,6t-6,16v34q0,10 6,16.5T94,465H475q10,0 16.5-6.5T498,442V408q0-10-6.5-16T475,386H94Zm0-250q-10,0-16,6t-6,16v34q0,10 6,16.5T94,215H475q10,0 16.5-6.5T498,192V158q0-10-6.5-16T475,136H94Z" />
      <glyph unicode="&gt;" glyph-name="gid258" horiz-adv-x="491" d="M88,26q-8,0-14,5T68,46V90q0,12 5.5,19T91,123L358,307L91,489q-12,8-17.5,15T68,523v44q0,10 6,15t14,5q6,0 13-3.5t11-6.5L427,361q15-11 22-21t7-25V298q0-14-7-24.5T427,252L112,36q-4-3-11-6.5T88,26Z" />
      <glyph unicode="?" glyph-name="gid199" horiz-adv-x="531" d="M243,164q-9,0-15,5.5T222,185t0,20t0,20q2,43 19,76t41.5,60T332,412.5T374.5,462T396,515q4,36-14,60.5T333,613t-64,13q-53,0-90.5-27.5T129,506q-3-12-10-17t-16-5H55q-9,0-15.5,6T33,506q1,41 18,78t48.5,65t75,44.5T272,710q61,0 104.5-16.5t70-44T485,589t10-66q-3-40-20-71.5t-41-58t-48.5-52t-41.5-53T324,229q-1-11-1.5-21.5T322,187q-2-11-8-17t-17-6H243ZM235,0q-10,0-16.5,6.5T212,23V84q0,10 6.5,16.5T235,107h65q11,0 17.5-6.5T324,84V23q0-10-6.5-16.5T300,0H235Z" />
      <glyph unicode="@" glyph-name="gid236" horiz-adv-x="832" d="M411-118q-107,0-182,36T112,22.5T60,187q-1,14-2,37t-1,49t1,49t2,36q7,68 33,125t69.5,97.5T267,643t140,22q91,0 157.5-21t111-61T743,486t27-128q2-25 2-51.5t-0.5-48T770,227q-3-49-20-82T703.5,95.5T634,79q-33,0-56,11t-36,24.5T523,136q-8-13-22-29T461.5,80T396,69q-74,0-118,53.5T234,273q0,98 44,151.5T396,478q41,0 64.5-15T498,430v17q0,10 6.5,16.5T521,470h27q10,0 16.5-6.5T571,447V234q0-43 18-64t45-21t40.5,15.5t18,35.5t4.5,34q1,15 2,48t-2,71q-6,79-36.5,133T569,568T407,596q-82,0-140-29.5T175.5,483T133,353q-2-17-2.5-48t0-62.5T133,192Q146,77 216,14.5T411-48q72,0 114,11.5t64.5,27T626,17q5,3 11,7.5T652,29h40q9,0 15.5-6T714,7q0-4-1.5-7.5T708-7q-26-29-65-54.5t-95.5-41T411-118Zm-9,257q53,0 74.5,36.5T498,273t-21.5,98T402,408q-51,0-73-37t-22-98q0-36 9.5-66.5t30.5-49T402,139Z" />
      <glyph unicode="A" glyph-name="gid1" horiz-adv-x="670" d="M40,0Q32,0 26,6T20,20q0,5 1,11L269,678q4,10 11,16t21,6h68q14,0 21-6t11-16L648,31q2-6 2-11q0-8-6-14T630,0H579q-12,0-17.5,6T554,17L499,159H171L116,17q-1-5-7-11T91,0H40ZM200,245H470L335,600L200,245Z" />
      <glyph unicode="B" glyph-name="gid10" horiz-adv-x="668" d="M110,0Q99,0 93,6.5T87,23V676q0,11 6,17.5t17,6.5H384q75,0 122.5-24.5t70-66.5T599,515q0-41-13.5-70.5t-33.5-48T513,368q39-19 69.5-62T613,202q0-55-25-101T513.5,27.5T392,0H110Zm75,81H379q64,0 99,35t35,86q0,53-35,87.5T379,324H185V81Zm0,323H369q64,0 97,29.5T499,514t-33,78t-97,27H185V404Z" />
      <glyph unicode="C" glyph-name="gid11" horiz-adv-x="666" d="M339-10q-92,0-152.5,34T95,119T61,261q-1,41-1,88t1,90q3,81 34,142t91.5,95T339,710q69,0 121-19t86.5-51T599,568.5T619,487q1-9-5.5-15T598,466H543q-9,0-15.5,5T518,489q-17,78-63.5,107T339,625q-81,0-128-45.5T161,434q-3-82 0-168q3-100 50-145.5T339,75q69,0 115.5,29T518,211q3,13 9.5,18t15.5,5h55q9,0 15.5-5.5T619,214q-2-42-20-82T546.5,60T460,9T339-10Z" />
      <glyph unicode="D" glyph-name="gid13" horiz-adv-x="689" d="M110,0Q99,0 93,6.5T87,23V676q0,11 6,17.5t17,6.5H337q103,0 166-31t92-91.5T625,429q1-45 1-79t-1-78q-2-92-30.5-152.5t-90-90T342,0H110Zm75,85H337q69,0 110,19t59.5,61T526,276q2,30 2,52.5t0,45T526,425q-2,97-46,143.5T332,615H185V85Z" />
      <glyph unicode="E" glyph-name="gid15" horiz-adv-x="606" d="M110,0Q99,0 93,6.5T87,23V676q0,11 6,17.5t17,6.5H523q11,0 17-6.5t6-17.5V638q0-11-6-17t-17-6H183V396H501q11,0 17-6.5t6-17.5V335q0-10-6-16.5T501,312H183V85H531q11,0 17-6t6-17V23q0-10-6-16.5T531,0H110Z" />
      <glyph unicode="F" glyph-name="gid20" horiz-adv-x="584" d="M110,0Q99,0 93,6.5T87,23V676q0,11 6,17.5t17,6.5H518q11,0 17.5-6.5T542,676V636q0-11-6.5-17T518,613H184V380H498q11,0 17.5-6.5T522,356V316q0-10-6.5-16.5T498,293H184V23q0-10-6.5-16.5T160,0H110Z" />
      <glyph unicode="G" glyph-name="gid21" horiz-adv-x="681" d="M342-10q-89,0-150.5,33t-94,93T61,257q-1,44-1,93.5T61,445q4,81 36.5,140.5t94.5,92T342,710q70,0 122-20t85.5-50.5t50-63.5T617,518q1-9-5-14.5T596,498H537q-10,0-14.5,4T514,516q-9,26-29.5,51t-55,41.5T342,625q-80,0-128.5-43T161,440q-3-89 0-178q4-100 53-143.5T342,75q53,0 94.5,20T502,155.5T526,259v42H376q-10,0-16.5,6.5T353,325v32q0,11 6.5,17.5T376,381H602q11,0 17-6.5t6-17.5V261q0-82-33.5-143T494,23.5T342-10Z" />
      <glyph unicode="H" glyph-name="gid22" horiz-adv-x="714" d="M110,0Q99,0 93,6.5T87,23V676q0,11 6,17.5t17,6.5h51q11,0 17.5-6.5T185,676V400H529V676q0,11 6.5,17.5T552,700h51q11,0 17.5-6.5T627,676V23q0-10-6.5-16.5T603,0H552q-10,0-16.5,6.5T529,23V310H185V23q0-10-6.5-16.5T161,0H110Z" />
      <glyph unicode="I" glyph-name="gid23" horiz-adv-x="273" d="M110,0Q99,0 93,6.5T87,23V677q0,10 6,16.5t17,6.5h53q11,0 17-6.5t6-16.5V23q0-10-6-16.5T163,0H110Z" />
      <glyph unicode="J" glyph-name="gid28" horiz-adv-x="634" d="M295-10q-51,0-96.5,13t-81,39T61,108T38,202q0,9 6,15.5T60,224h54q11,0 17.5-6.5T140,201q4-45 26-72.5T222,88t75-13q76,0 116,50t40,133V613H98q-10,0-16.5,6.5T75,636v41q0,10 6.5,16.5T98,700H529q11,0 17.5-6.5T553,676V256q0-81-31-141T434,22.5T295-10Z" />
      <glyph unicode="K" glyph-name="gid30" horiz-adv-x="601" d="M110,0Q99,0 93,6.5T87,23V676q0,11 6,17.5t17,6.5h50q11,0 17.5-6.5T184,676V428L451,684q4,4 13.5,10t25.5,6h54q8,0 14-6t6-14t-4-13L251,365L580,34q5-6 5-14T579,6T565,0H509q-17,0-26,6.5T470,17L184,298V23q0-10-6.5-16.5T160,0H110Z" />
      <glyph unicode="L" glyph-name="gid31" horiz-adv-x="563" d="M110,0Q99,0 93,6.5T87,23V677q0,10 6,16.5t17,6.5h53q10,0 16.5-6.5T186,677V87H518q11,0 17.5-6.5T542,63V23q0-10-6.5-16.5T518,0H110Z" />
      <glyph unicode="M" glyph-name="gid32" horiz-adv-x="794" d="M110,0Q100,0 93.5,6.5T87,23V676q0,11 6.5,17.5T110,700h50q12,0 18-6t8-10L397,280L610,684q2,4 7.5,10t17.5,6h49q11,0 17.5-6.5T708,676V23q0-10-6.5-16.5T684,0H635q-10,0-16.5,6.5T612,23V515L445,189q-4-10-12-15.5T413,168H382q-13,0-20,5.5T350,189L182,515V23q0-10-6.5-16.5T159,0H110Z" />
      <glyph unicode="N" glyph-name="gid33" horiz-adv-x="695" d="M110,0Q99,0 93,6.5T87,23V676q0,11 6,17.5t17,6.5h46q12,0 18-5.5t7-8.5L513,176V676q0,11 6,17.5t17,6.5h48q11,0 17.5-6.5T608,676V24q0-10-6.5-17T585,0H537q-11,0-16.5,6T513,14L182,519V23q0-10-6.5-16.5T158,0H110Z" />
      <glyph unicode="O" glyph-name="gid35" horiz-adv-x="677" d="M339-10q-86,0-147,29.5t-94,91T61,265q-1,44-1,84.5T61,434q4,92 38.5,153.5t96,92T339,710q81,0 142.5-30.5t96.5-92T616,434q2-44 2-84.5T616,265q-3-93-36.5-154.5T485,19.5T339-10Zm0,85q76,0 124.5,46T516,270q2,45 2,80.5T516,430q-2,69-25.5,112T428,605t-89,20t-89-20t-62.5-63T161,430q-1-44-1-79.5t1-80.5q4-103 53-149T339,75Z" />
      <glyph unicode="P" glyph-name="gid43" horiz-adv-x="642" d="M110,0Q99,0 93,6.5T87,23V676q0,11 6,17.5t17,6.5H364q74,0 128.5-24T577,604.5T607,486T577,368t-84.5-71T364,273H187V23q0-10-6.5-16.5T163,0H110Zm76,357H359q74,0 111,33t37,96q0,62-36,96T359,616H186V357Z" />
      <glyph unicode="Q" glyph-name="gid45" horiz-adv-x="677" d="M538-65q-13,0-21,8.5T504-42L463,14Q409-10 338-10q-85,0-146,29.5t-94.5,91T61,265q-1,44-1,84.5T61,434q3,92 38,153.5t96.5,92T338,710q82,0 143.5-30.5t96.5-92T615,434q2-44 2-84.5T615,265q-5-137-72-205l66-94q1-1 2-3.5t1-7.5q1-8-5-14t-15-6H538ZM338,75q76,0 125,46t53,149q2,45 2,80.5T516,430q-2,69-25.5,112T428,605t-90,20q-49,0-88.5-20T187,542T161,430q-1-44-1-79.5t1-80.5q4-103 53-149T338,75Z" />
      <glyph unicode="R" glyph-name="gid46" horiz-adv-x="655" d="M110,0Q99,0 93,6.5T87,23V676q0,11 6,17.5t17,6.5H354q113,0 179-53t66-157q0-77-38.5-125.5T456,297L610,31q3-6 3-11q0-8-6.5-14T592,0H544q-17,0-25,9T505,27L360,281H185V23q0-10-6.5-16.5T161,0H110Zm75,366H350q75,0 112,31.5T499,491q0,61-36.5,93T350,616H185V366Z" />
      <glyph unicode="S" glyph-name="gid47" horiz-adv-x="622" d="M312-10q-87,0-146,27T75.5,86.5T42,176q0,8 6.5,14.5T64,197h51q12,0 18-6t8-14q6-24 25-47.5t54.5-39T312,75q86,0 126.5,30.5T479,187q0,35-21.5,56.5T392,282T278,319q-73,21-121,46T85.5,427T62,521q0,54 29,96.5T175,685t132,25q62,0 108.5-16.5t77.5-44t47-59T557,529q0-7-5-13.5T536,509H483q-7,0-14.5,4T457,528q-6,41-46,69T307,625q-65,0-105.5-25T161,522q0-34 19-56.5T240,426t107-36q80-22 131-46.5t75.5-61T578,189q0-63-33-107.5t-92.5-68T312-10Z" />
      <glyph unicode="T" glyph-name="gid48" horiz-adv-x="579" d="M263,0q-10,0-16.5,6.5T240,23V611H48q-10,0-16.5,6.5T25,634v42q0,11 6.5,17.5T48,700H530q11,0 17.5-6.5T554,676V634q0-10-6.5-16.5T530,611H339V23q0-10-6.5-16.5T315,0H263Z" />
      <glyph unicode="U" glyph-name="gid49" horiz-adv-x="701" d="M351-10q-84,0-144.5,30t-93,91.5T81,270V676q0,11 6,17.5t17,6.5h51q11,0 17.5-6.5T179,676V268q0-98 46-145T351,76q79,0 125.5,47T523,268V676q0,11 6.5,17.5T546,700h52q10,0 16.5-6.5T621,676V270q0-97-32.5-158.5T496,20T351-10Z" />
      <glyph unicode="V" glyph-name="gid54" horiz-adv-x="655" d="M295,0q-15,0-23.5,7T258,26L35,669q-2,6-2,11q0,8 6,14t14,6h52q12,0 18.5-6.5T132,682L327,115L523,682q2,5 8,11.5t18,6.5h52q8,0 14.5-6t6.5-14q0-5-2-11L396,26q-4-12-12.5-19T360,0H295Z" />
      <glyph unicode="W" glyph-name="gid55" horiz-adv-x="801" d="M205,0q-13,0-20.5,7T174,27L45,669q-1,4-1,7t0,4q0,8 6,14t14,6h52q21,0 24-17L242,167L350,521q3,9 10.5,16.5T382,545h37q15,0 22-7.5t9-16.5L559,167L660,683q3,17 25,17h52q8,0 14-6t6-14q0-1-0.5-4t-0.5-7L627,27q-3-13-10.5-20T596,0H557q-14,0-22,7T524,25L400,406L277,25q-4-11-11.5-18T244,0H205Z" />
      <glyph unicode="X" glyph-name="gid56" horiz-adv-x="633" d="M45,0Q37,0 30.5,6T24,20q0,4 1.5,7.5T28,33L257,356L39,667q-3,6-3,13q0,8 6,14t14,6h60q10,0 16-4.5T143,683L319,433L494,683q4,8 10.5,12.5T520,700h57q8,0 14-6t6-14q0-7-4-13L378,355L606,33q2-2 3-5.5t1-7.5q0-8-6-14T589,0H528q-9,0-15.5,5T501,17L315,276L130,17q-5-7-11-12T104,0H45Z" />
      <glyph unicode="Y" glyph-name="gid57" horiz-adv-x="647" d="M297,0q-10,0-16.5,6.5T274,23V259L33,667q-1,3-2,6t-1,7q0,8 6,14t14,6h52q9,0 16-4.5T128,683L323,359L518,683q5,8 11.5,12.5T545,700h51q9,0 15-6t6-14q0-4-1-7t-3-6L373,259V23q0-10-6.5-16.5T349,0H297Z" />
      <glyph unicode="Z" glyph-name="gid59" horiz-adv-x="600" d="M64,0Q53,0 47,7T41,24V67q0,15 6,24t9,13L428,613H73q-10,0-16.5,6.5T50,636v40q0,11 6.5,17.5T73,700H526q11,0 17.5-6.5T550,676V633q0-12-4-20t-9-15L168,87H536q11,0 17.5-6.5T560,63V23q0-10-6.5-16.5T536,0H64Z" />
      <glyph unicode="[" glyph-name="gid220" horiz-adv-x="326" d="M96-159q-10,0-16.5,6.5T73-136V753q0,10 6.5,16.5T96,776H275q11,0 17-6.5t6-16.5V718q0-11-6-17t-17-6H162V-74H275q11,0 17-6.5T298-97v-39q0-10-6-16.5T275-159H96Z" />
      <glyph unicode="\" glyph-name="gid206" horiz-adv-x="481" d="M397-84q-12,0-18,6.5T371-66L28,754q-3,8-3,12q0,8 6,14t14,6H84q12,0 18.5-6t7.5-12L453-52q2-7 2-12q0-8-6-14t-14-6H397Z" />
      <glyph unicode="]" glyph-name="gid221" horiz-adv-x="326" d="M50-159q-10,0-16.5,6.5T27-136v39q0,10 6.5,16.5T50-74H164V695H50q-10,0-16.5,6T27,718v35q0,10 6.5,16.5T50,776H230q10,0 16.5-6.5T253,753V-136q0-10-6.5-16.5T230-159H50Z" />
      <glyph unicode="^" glyph-name="gid263" horiz-adv-x="432" d="M80,579q-15,0-15,12q0,8 11,18l92,92q11,11 18,13t15,2h30q9,0 16-2t17-13l92-92q11-10 11-18q0-12-15-12H326q-7,0-14.5,1.5T298,586l-82,56l-82-56q-5-4-13-5.5T106,579H80Z" />
      <glyph unicode="_" glyph-name="gid213" horiz-adv-x="748" d="M84-41q-11,0-17,6.5T61-18V20q0,10 6,16.5T84,43H664q10,0 16.5-6.5T687,20V-18q0-10-6.5-16.5T664-41H84Z" />
      <glyph unicode="`" glyph-name="gid283" horiz-adv-x="337" d="M221,595q-11,0-18,2t-15,9L72,701q-5,5-5,12q0,20 19,20h68q14,0 21-4t16-15l75-90q5-5 5-13q0-16-16-16H221Z" />
      <glyph unicode="a" glyph-name="gid60" horiz-adv-x="552" d="M219-10q-50,0-91,20T62,64T37,141q0,69 56,110t146,54l149,21v29q0,48-27.5,75T271,457q-44,0-72-18t-39-46q-6-15-21-15H94q-11,0-16.5,6.5T72,400q0,15 11.5,37T119,480t61.5,35.5T272,530q60,0 101-15.5T437.5,473t34-59T482,347V23q0-10-6.5-16.5T459,0H413q-11,0-17,6.5T390,23V66q-13-18-35-35.5t-55-29T219-10Zm21,75q41,0 75,17.5T368.5,137T388,230v28L272,241q-71-10-107-33.5T129,148q0-28 16.5-46.5t42-27.5T240,65Z" />
      <glyph unicode="b" glyph-name="gid68" horiz-adv-x="595" d="M331-10q-60,0-100,21.5T167,65V23q0-10-6.5-16.5T144,0H98Q88,0 81.5,6.5T75,23V687q0,10 6.5,16.5T98,710h49q10,0 16-6.5t6-16.5V457q25,31 64.5,52T331,530q56,0 95.5-19.5t65-53.5T530,380t15-90q1-16 1-30t-1-30q-2-48-15-91T491.5,62.5t-65-53T331-10ZM310,71q52,0 81.5,22.5t42.5,59T449,231q1,29 0,58q-2,42-15,78.5t-42.5,59T310,449q-47,0-78-22t-46.5-56T169,302q-1-16-1-38.5t1-38.5q2-37 16.5-72.5t45-58.5T310,71Z" />
      <glyph unicode="c" glyph-name="gid69" horiz-adv-x="552" d="M284-10q-71,0-122.5,27.5T82,96.5T52,220q-1,15-1,40t1,40q2,72 30,123.5t79.5,79T284,530q58,0 99.5-16T452,473t40.5-54T507,364q1-10-6-16t-17-6H436q-10,0-15,4.5T411,362q-18,49-49,69t-77,20q-60,0-97.5-37T147,295q-1-36 0-70q3-83 40.5-119.5T285,69q46,0 77,20t49,69q5,11 10,16t15,5h48q10,0 17-6.5t6-16.5q-1-21-9-43T472.5,68.5T429,28.5t-62-28T284-10Z" />
      <glyph unicode="d" glyph-name="gid71" horiz-adv-x="595" d="M264-10q-55,0-95,19.5t-65.5,53T65.5,139T51,230q-1,16-1,30t1,30q2,47 14.5,90t38,77T169,510.5T264,530q59,0 98-21t64-52V687q0,10 6.5,16.5T449,710h48q10,0 16.5-6.5T520,687V23q0-10-6.5-16.5T497,0H452q-11,0-17,6.5T429,23V65q-25-32-65-53.5T264-10Zm21,81q50,0 80,23t45,58.5T426,225q1,16 1,38.5T426,302q-1,35-16.5,69t-46,56T285,449q-51,0-81-22.5t-43-59T146,289q-1-29 0-58q2-42 15-78.5t43-59T285,71Z" />
      <glyph unicode="e" glyph-name="gid73" horiz-adv-x="560" d="M282-10Q178-10 117,53.5T50,227q-1,13-1,33.5T50,294q4,71 33,124.5T162.5,501T281,530q76,0 127.5-32T487,407t27-138V252q0-11-6.5-17T491,229H145q0-1 0-4t0-5q2-41 18-76.5T209.5,86T281,64q36,0 60,11t39,24.5T400,121q9,12 14,14.5t16,2.5h49q9,0 15.5-5.5T500,117q-1-15-16-36.5T441.5,38t-68-34.5T282-10ZM145,298H419v3q0,45-16.5,80T355,436.5T281,457t-73.5-20.5T161,381t-16-80v-3Z" />
      <glyph unicode="f" glyph-name="gid78" horiz-adv-x="385" d="M149,0q-10,0-16.5,6.5T126,23V440H41q-10,0-16.5,6.5T18,463v34q0,10 6.5,16.5T41,520h85v50q0,51 17,89.5T197.5,719T298,740h60q10,0 16.5-6.5T381,717V683q0-10-6.5-16.5T358,660H300q-47,0-64-24.5T219,565V520H348q10,0 16.5-6.5T371,497V463q0-10-6.5-16.5T348,440H219V23q0-10-6.5-16.5T196,0H149Z" />
      <glyph unicode="g" glyph-name="gid79" horiz-adv-x="597" d="M287-220q-68,0-111.5,18t-68,43.5t-35,51T61-67q-1,10 6.5,17T84-43h48q9,0 15-4t10-17q6-15 18-33.5t37-32T282-143q47,0 79,13t48.5,44T426,0V68q-24-31-63-51.5T265-4q-56,0-96,19.5t-65.5,53T65.5,145T51,235q-1,28 0,55q2,47 14.5,90t38,77T169,510.5T265,530q60,0 99.5-22T429,453v43q0,10 6.5,17t16.5,7h46q10,0 17-7t7-17V11q0-67-22.5-119t-74-82T287-220ZM285,76q50,0 80.5,23t45,58T426,228q1,14 1,34.5T426,297q-1,36-15.5,71t-45,58T285,449t-80-22.5t-43-59T147,289q-1-26 0-53q2-42 15-78.5t43-59T285,76Z" />
      <glyph unicode="h" glyph-name="gid80" horiz-adv-x="609" d="M98,0Q88,0 81.5,6.5T75,23V687q0,10 6.5,16.5T98,710h50q11,0 17-6.5t6-16.5V454q27,34 66,55t99,21q65,0 110.5-28.5t69-79T539,305V23q0-10-6-16.5T516,0H466q-10,0-16.5,6.5T443,23V300q0,70-34,109.5T309,449q-62,0-100-39.5T171,300V23q0-10-6-16.5T148,0H98Z" />
      <glyph unicode="i" glyph-name="gid81" horiz-adv-x="242" d="M97,0Q87,0 80.5,6.5T74,23V497q0,10 6.5,16.5T97,520h48q10,0 16.5-6.5T168,497V23q0-10-6.5-16.5T145,0H97ZM89,617q-10,0-16.5,6.5T66,640v54q0,10 6.5,17T89,718h63q10,0 17-7t7-17V640q0-10-7-16.5T152,617H89Z" />
      <glyph unicode="j" glyph-name="gid87" horiz-adv-x="254" d="M-11-190q-10,0-16.5,6.5T-34-167v34q0,10 6.5,16.5T-11-110H3q36,0 53,13.5t22.5,36T84-11V497q0,10 6.5,16.5T107,520h49q10,0 16.5-6.5T179,497V-12q0-53-16.5-93T109-167.5T8-190H-11ZM99,617q-10,0-16.5,6.5T76,640v54q0,10 6.5,17T99,718h64q10,0 17-7t7-17V640q0-10-7-16.5T163,617H99Z" />
      <glyph unicode="k" glyph-name="gid90" horiz-adv-x="516" d="M98,0Q88,0 81.5,6.5T75,23V687q0,10 6.5,16.5T98,710h47q10,0 16.5-6.5T168,687V339L365,503q12,10 18.5,13.5T405,520h53q9,0 15-6t6-15q0-4-2.5-9T467,480L236,288L492,39q12-10 12-18q0-9-6-15T483,0H431q-15,0-22,3.5T391,17L168,230V23q0-10-6.5-16.5T145,0H98Z" />
      <glyph unicode="l" glyph-name="gid91" horiz-adv-x="243" d="M98,0Q88,0 81.5,6.5T75,23V687q0,10 6.5,16.5T98,710h47q11,0 17-6.5t6-16.5V23q0-10-6-16.5T145,0H98Z" />
      <glyph unicode="m" glyph-name="gid92" horiz-adv-x="889" d="M97,0Q87,0 80.5,6.5T74,23V497q0,10 6.5,16.5T97,520h45q10,0 16.5-6.5T165,497V462q23,31 58,49.5T307,530q113,1 160-92q23,42 67,67t100,25q52,0 94.5-24t67-72.5T820,312V23q0-10-6.5-16.5T797,0H750q-10,0-16.5,6.5T727,23V303q0,56-16,88t-43,45t-59,13q-26,0-53-13t-44.5-45T494,303V23q0-10-6.5-16.5T471,0H424q-10,0-16.5,6.5T401,23V303q0,56-17,88t-44,45t-57,13q-26,0-53-13t-44.5-45T168,304V23q0-10-6.5-16.5T145,0H97Z" />
      <glyph unicode="n" glyph-name="gid93" horiz-adv-x="606" d="M97,0Q87,0 80.5,6.5T74,23V497q0,10 6.5,16.5T97,520h47q10,0 16.5-6.5T167,497V453q26,34 65.5,55.5T334,530q65,0 110.5-28.5t69-79T537,305V23q0-10-6.5-16.5T514,0H464q-10,0-16.5,6.5T441,23V300q0,70-34,109.5T307,449q-62,0-99.5-39.5T170,300V23q0-10-6.5-16.5T147,0H97Z" />
      <glyph unicode="o" glyph-name="gid95" horiz-adv-x="574" d="M287-10q-76,0-127,29T82,99.5T52,217q-1,17-1,43.5T52,303q3,67 30.5,118T161,501t126,29t126-29t78.5-80T522,303q1-16 1-42.5T522,217q-3-66-30-117.5T414,19T287-10Zm0,77q62,0 99,39.5T426,222q1,15 1,38t-1,38q-3,76-40,115.5T287,453t-99.5-39.5T148,298q-1-15-1-38t1-38q2-76 39.5-115.5T287,67Z" />
      <glyph unicode="p" glyph-name="gid103" horiz-adv-x="596" d="M98-190q-10,0-16.5,6.5T75-167V497q0,10 6.5,16.5T98,520h46q10,0 16.5-6.5T167,497V453q24,33 64,55t100,22q56,0 95.5-19t65-52T530,384t15-90q1-16 1-34t-1-34q-2-47-15-89.5t-38.5-75t-65-52T331-10q-58,0-97.5,21.5T169,65V-167q0-10-6-16.5T147-190H98ZM310,71q52,0 81.5,22.5t42.5,59T449,231q1,29 0,58q-2,42-15,78.5t-42.5,59T310,449q-49,0-79.5-23t-45-58.5T169,295q-1-16-1-38t1-39q1-35 16.5-69T232,93t78-22Z" />
      <glyph unicode="q" glyph-name="gid105" horiz-adv-x="596" d="M450-190q-11,0-17,6.5T427-167V65q-25-32-64.5-53.5T265-10q-55,0-95,19.5t-65.5,52t-38,75T52,226q-1,16-1,34t1,34q2,48 14.5,90t38,75T170,511t95,19q60,0 100-22t64-55v44q0,10 6.5,16.5T452,520h46q10,0 16.5-6.5T521,497V-167q0-10-6.5-16.5T498-190H450ZM286,71q48,0 78.5,22t46,56T427,218q1,17 1,39t-1,38q-1,37-16,72.5T365.5,426T286,449q-51,0-81-22.5t-43-59T147,289q-1-29 0-58q2-42 15-78.5t43-59T286,71Z" />
      <glyph unicode="r" glyph-name="gid106" horiz-adv-x="380" d="M97,0Q87,0 80.5,6.5T74,23V496q0,10 6.5,17T97,520h46q10,0 17-7t7-17V452q20,34 55,51t85,17h39q10,0 16.5-6.5T369,497V456q0-10-6.5-16T346,434H286q-54,0-85-31.5T170,317V23q0-10-7-16.5T146,0H97Z" />
      <glyph unicode="s" glyph-name="gid107" horiz-adv-x="510" d="M254-10q-56,0-96,14T93,38T55.5,78T42,110q-1,11 7,17t16,6h45q5,0 8.5-1.5T128,123q13-14 29-28t39.5-23T255,63q51,0 84,19.5T372,140q0,25-13.5,40t-48,27T216,232q-60,14-95,34.5t-50,49T56,380q0,37 22,71.5T142.5,508T249,530q52,0 89-13t61-32.5T435,446t13-32q1-10-6-16.5T426,391H384q-7,0-11.5,3t-8.5,7q-10,13-23.5,26t-35,21.5T249,457q-50,0-75-21t-25-53q0-19 11-34t42-27t92-26q66-13 104-35t54-51t16-67q0-42-24-77T372,10.5T254-10Z" />
      <glyph unicode="t" glyph-name="gid109" horiz-adv-x="391" d="M277,0q-56,0-91,21.5t-51,61T119,176V440H41q-10,0-16.5,6.5T18,463v34q0,10 6.5,16.5T41,520h78V687q0,10 6.5,16.5T142,710h47q10,0 16.5-6.5T212,687V520H336q11,0 17-6.5t6-16.5V463q0-10-6-16.5T336,440H212V183q0-47 16-74t57-27h61q10,0 16.5-6.5T369,59V23q0-10-6.5-16.5T346,0H277Z" />
      <glyph unicode="u" glyph-name="gid110" horiz-adv-x="602" d="M268-10q-64,0-108.5,28.5T92,98T69,215V497q0,10 6.5,16.5T92,520h50q10,0 16.5-6.5T165,497V220Q165,71 295,71q62,0 99.5,39.5T432,220V497q0,10 6.5,16.5T455,520h50q10,0 16-6.5t6-16.5V23q0-10-6-16.5T505,0H458q-10,0-16.5,6.5T435,23V67q-27-35-65.5-56T268-10Z" />
      <glyph unicode="v" glyph-name="gid115" horiz-adv-x="554" d="M255,0q-15,0-23.5,7T218,25L33,489q-2,5-2,10q0,9 6,15t15,6h48q11,0 17-6t8-11L277,109L429,503q2,5 7.5,11t16.5,6h49q8,0 14.5-6t6.5-15q0-5-2-10L335,25q-4-11-12.5-18T298,0H255Z" />
      <glyph unicode="w" glyph-name="gid116" horiz-adv-x="802" d="M212,0q-13,0-20,6.5T180,25L38,489q-2,5-2,10q0,9 6.5,15T57,520h44q11,0 17-6t8-11L237,126L356,499q2,7 8.5,14t19.5,7h34q13,0 20-7t8-14L565,126L676,503q1,5 7,11t17,6h45q8,0 14-6t6-15q0-5-2-10L622,25q-4-12-11-18.5T589,0H550q-13,0-21.5,6.5T517,25L401,383L285,25q-4-12-12-18.5T251,0H212Z" />
      <glyph unicode="x" glyph-name="gid117" horiz-adv-x="539" d="M50,0Q42,0 35.5,6T29,21q0,3 1.5,7.5T36,39L210,266L47,481q-4,6-5.5,10T40,499q0,9 6,15t15,6h51q11,0 17-5.5t9-10.5L271,331L404,503q4,5 9.5,11t16.5,6h49q9,0 15-6t6-15q0-4-1.5-8T493,481L328,264L502,39q4-6 5.5-10t1.5-8q0-9-6-15T488,0H435q-10,0-16,5T409,15L269,198L127,15q-4-4-9.5-9.5T101,0H50Z" />
      <glyph unicode="y" glyph-name="gid118" horiz-adv-x="552" d="M165-190q-8,0-14,6t-6,14q0,4 1,8t4,10L227,31L36,482q-5,12-5,17q0,9 6,15t15,6h49q11,0 16.5-5t7.5-12L277,139L433,503q3,7 8.5,12t16.5,5h47q9,0 15-6t6-14q0-5-5-18L237-173q-3-7-8.5-12T212-190H165Z" />
      <glyph unicode="z" glyph-name="gid121" horiz-adv-x="509" d="M64,0Q54,0 47.5,6.5T41,23V58q0,9 4.5,17T55,90L331,441H73q-10,0-16.5,6T50,464v33q0,10 6.5,16.5T73,520H429q10,0 16.5-6.5T452,497V460q0-9-4.5-16T438,429L165,79H449q11,0 17-6t6-17V23q0-10-6-16.5T449,0H64Z" />
      <glyph unicode="{" glyph-name="gid218" horiz-adv-x="368" d="M315-159q-59,0-97.5,19T157-83.5t-31,91T117,131q0,52-14,80.5T61,258l-7,3q-25,16-25,38v20q0,22 25,38l8,4q28,19 41.5,47T117,487q0,70 9,123.5T157,701t60.5,56T315,776h5q10,0 16-6t6-16V717q0-10-6-16t-15-6h-5q-48-1-71.5-24.5t-31-72.5T206,468q0-60-19-99t-56-60q25-13 41.5-35.5t25-53.5t8.5-70q0-79 7.5-129.5t31-73.5T316-78h5q9,0 15-6t6-16v-37q0-10-6-16t-16-6h-5Z" />
      <glyph unicode="|" glyph-name="gid244" horiz-adv-x="233" d="M97-208q-10,0-16.5,6.5T74-185V873q0,10 6.5,16.5T97,896h39q10,0 16.5-6.5T159,873V-185q0-10-6.5-16.5T136-208H97Z" />
      <glyph unicode="}" glyph-name="gid219" horiz-adv-x="368" d="M53,776q59,0 97.5-19T211,701t31.5-91T252,486q0-52 13.5-80T307,360l8-4q24-16 24-38V298q0-22-24-37l-9-5q-28-18-41-46t-13-80q0-70-9.5-123.5T211-83.5t-60.5-56T54-159H48q-10,0-16,6t-6,16v37q0,10 6,16t16,6h4q49,2 72.5,25t31,73T163,149q0,61 18.5,100T237,308q-24,15-40.5,37t-25,52.5T163,467q0,81-7.5,130.5t-30.5,73T53,695H48q-10,0-16,6t-6,16v37q0,10 6,16t16,6h5Z" />
      <glyph unicode="~" glyph-name="gid261" horiz-adv-x="560" d="M90,241q-8,0-13,5.5T72,261v39q0,15 15.5,28.5T128,351t54,9q33,0 57.5-5.5t46-12.5t44-12.5T380,324q30,0 48,11.5T457,354q4,2 7.5,3t7.5,2q9,0 13-5.5t4-15.5V299q0-14-15.5-28t-40-23T379,239q-31,0-55.5,6T278,257.5T233.5,270T181,276q-30,0-48-11.5T104,246q-4-2-7-3.5T90,241Z" />
      <glyph unicode="&#xa0;" glyph-name="gid187" horiz-adv-x="245" />
      <glyph unicode="&#xa1;" glyph-name="gid198" horiz-adv-x="237" d="M142,352q10,0 16.5-6.5T165,329V-158q0-11-6.5-17T142-181H96q-11,0-17,6t-6,17V329q0,10 6,16.5T96,352h46Zm9,167q10,0 16.5-6.5T174,496V432q0-10-6.5-17T151,408H87q-10,0-16.5,7T64,432v64q0,10 6.5,16.5T87,519h64Z" />
      <glyph unicode="&#xa2;" glyph-name="gid246" horiz-adv-x="560" d="M260-100q-10,0-16.5,6.5T237-77V-6Q154,6 106,64.5T55,220q-1,15-1,40t1,40q2,96 50.5,155T237,526v61q0,10 6.5,16.5T260,610h41q10,0 16.5-6.5T324,587V527q51-7 86.5-26T468,457t31.5-50T510,364q1-10-6-16t-17-6H439q-10,0-15,4.5T414,362q-18,49-52.5,69T282,451q-54,0-91.5-37T151,295q-2-36 0-70q2-83 39.5-119.5T282,69q46,0 80,20t52,69q5,11 10,16t15,5h48q10,0 17-6.5t6-16.5q-1-17-10.5-42t-31-50.5T411,19T324-7V-77q0-10-6.5-16.5T301-100H260Z" />
      <glyph unicode="&#xa3;" glyph-name="gid250" horiz-adv-x="677" d="M463-6Q426-6 398,4.5t-51,26t-44,31t-42,26T215,98q-42,0-57.5-22T136,19q-2-5-5-12T116,0H68Q60,0 54.5,6T49,19q2,69 35,107.5T165,177q-1,30-6,60.5T149,303H72q-10,0-16.5,6.5T49,326v34q0,10 6.5,16.5T72,383h64q-1,16-2,34t-1,37q0,72 26,130t79.5,92.5T373,711q78,0 132-30t82.5-80.5T617,489q0-9-6-15.5T596,467H543q-9,0-16,6.5T517,490q-13,65-47.5,100.5T372,626q-70,0-104.5-48T233,453q0-19 1-36.5t3-33.5H429q10,0 16.5-6.5T452,360V326q0-10-6.5-16.5T429,303H245q4-32 8.5-63t4.5-65q34-7 58.5-22T362,121t43-29.5T455,79q43,0 60,23.5T539,162q1,5 6.5,11t12.5,6h45q9,0 14-5.5t5-13.5q-1-53-22.5-90.5T542.5,13T463-6Z" />
      <glyph unicode="&#xa4;" glyph-name="gid247" horiz-adv-x="589" d="M96,78L72,102q-7,7-7,16t7,16l44,43Q77,230 77,300t39,123L72,466q-7,7-7,16t7,16l24,24q7,7 16,7t16-7l43-43q26,18 57,28.5T294,518q34,0 66-10.5T417,479l43,43q8,7 17,7t16-7l24-24q7-7 7-16t-7-16l-44-43q18-26 28.5-57.5T512,300q0-35-10.5-66T473,177l44-43q7-7 7-16t-7-16L493,78q-7-7-16-7t-17,7l-43,44Q364,83 294,83T171,122L128,78q-7-7-16-7T96,78Zm198,83q39,0 70.5,18.5t50,50.5T433,300q0,39-18.5,70.5t-50,50T294,439t-70-18.5t-49.5-50T156,300q0-38 18.5-70T224,179.5T294,161Z" />
      <glyph unicode="&#xa5;" glyph-name="gid251" horiz-adv-x="617" d="M282,0q-10,0-16.5,6.5T259,23V280L37,667q-1,3-2,6t-1,7q0,8 6,14t14,6h53q10,0 16.5-4.5T134,683L308,382L483,683q5,8 11,12.5t16,4.5h53q8,0 14-6t6-14q0-4-1-7t-2-6L358,280V23q0-10-6.5-16.5T334,0H282ZM117,106q-10,0-16.5,6.5T94,129v35q0,10 6.5,16.5T117,187H500q10,0 16.5-6.5T523,164V129q0-10-6.5-16.5T500,106H117Zm0,130q-10,0-16.5,6T94,258v35q0,10 6.5,16.5T117,316H500q10,0 16.5-6.5T523,293V258q0-10-6.5-16T500,236H117Z" />
      <glyph unicode="&#xa6;" glyph-name="gid245" horiz-adv-x="238" d="M100,475q-10,0-16.5,6.5T77,498V806q0,10 6.5,16.5T100,829h39q10,0 16.5-6.5T162,806V498q0-10-6.5-16.5T139,475H100ZM100,0Q90,0 83.5,6.5T77,23V331q0,10 6.5,16.5T100,354h39q10,0 16.5-6.5T162,331V23q0-10-6.5-16.5T139,0H100Z" />
      <glyph unicode="&#xa7;" glyph-name="gid239" horiz-adv-x="569" d="M279-140q-53,0-92,13T122.5-92.5T84.5-47T71-2Q70,8 76,13.5T92,19h46q8,0 14-4T162,0q7-15 18-30t34.5-25T278-65q53,0 78.5,26.5T382,25q0,27-11,43.5T332,98t-83,27q-74,22-119.5,48T63,235T42,323q0,43 22,75.5T118,455q-13,17-18.5,38.5T94,540q0,42 22,81.5t65.5,64T290,710q71,0 116.5-22.5t68-54.5T498,572q1-9-5.5-14.5T477,552H431q-9,0-14.5,4T406,570q-6,16-17.5,30.5T354,625t-63,10q-54,0-79-26.5T187,545q0-27 11-43.5t39.5-29T320,445q74-22 119.5-48t66-62T526,247q0-43-22-75.5T450,115q14-18 19-39t5-46q0-42-21.5-81t-65-64T279-140ZM381,165q27,16 42,34t15,46q0,26-11.5,47T383,331t-95,37q-32,10-56.5,19T188,405q-28-15-42.5-34T131,325q0-26 11.5-47t44-39T281,202q58-17 100-37Z" />
      <glyph unicode="&#xa8;" glyph-name="gid282" horiz-adv-x="401" d="M258,621q-11,0-17,6t-6,16v54q0,10 6,16.5t17,6.5h54q10,0 16.5-6.5T335,697V643q0-10-6.5-16T312,621H258ZM88,621q-10,0-16,6t-6,16v54q0,10 6,16.5T88,720h55q10,0 16.5-6.5T166,697V643q0-10-6.5-16T143,621H88Z" />
      <glyph unicode="&#xa9;" glyph-name="gid240" horiz-adv-x="826" d="M413-10q-75,0-140,28T158.5,95.5T81,210T53,350T81,490t77.5,114.5T273,682t140,28t140-28t114.5-77.5T745,490t28-140T745,210T667.5,95.5T553,18T413-10Zm0,63q61,0 114,23t93,64t63,95t23,115T683,465t-63,95t-93,64.5T413,648T299,624.5T206,560t-62.5-95T121,350t22.5-115T206,140t93-64T413,53Zm0,105q-51,0-87,21.5t-55.5,57T249,316q0,9-0.5,22t0,26t0.5,22q2,44 21.5,79.5t55.5,57T413,544q56,0 92-17.5t53-43T576,433q0-10-6-16t-16-6H522q-11,0-16,6t-8,13q-8,23-27.5,35T413,477q-35,0-54-14.5t-26.5-36T324,385q0-9-0.5-21.5t0-25T324,317q1-19 8.5-41T359,239.5T413,225q38,0 57.5,12T498,272q3,7 8,13t16,6h32q10,0 16-6t6-16q-1-24-18-50t-53-43.5T413,158Z" />
      <glyph unicode="&#xaa;" glyph-name="gid127" horiz-adv-x="364" d="M146,429q-44,0-69.5,22.5T51,506q0,40 30.5,64T164,601l62,9q0,5-2.5,13T212,637.5T182,644q-19,0-29-4.5T136,630t-17-5H88q-8,0-14,3.5T69,641q1,11 15,26t40,26.5T185,705q54,0 83.5-29.5T298,597V455q0-10-5.5-15.5T278,434H247q-9,0-14.5,5.5T227,455v8q-9-15-32-24.5T146,429Zm13,58q37,0 52,20.5T226,556l-44-7q-36-5-47.5-16T123,509q0-10 11-16t25-6Z" />
      <glyph unicode="&#xab;" glyph-name="gid230" horiz-adv-x="608" d="M531,85q-5,0-10.5,2.5T509,95L315,283q-9,9-12,17t-4,16v26q1,8 4,16t12,17L509,563q6,5 11.5,8t10.5,3q9,0 14.5-6t5.5-15V513q0-13-4-20.5T533,475L383,329L533,183q10-10 14-17.5t4-20.5V105q0-9-5.5-14.5T531,85ZM274,85q-5,0-10.5,2.5T252,95L59,283q-10,9-13,17t-4,16v26q1,8 4,16t13,17L252,563q6,5 11.5,8t10.5,3q9,0 15-6t6-15V513q0-13-4-20.5T277,475L126,329L277,183q10-10 14-17.5t4-20.5V105q0-9-6-14.5T274,85Z" />
      <glyph unicode="&#xac;" glyph-name="gid262" horiz-adv-x="578" d="M447,159q-10,0-16.5,6.5T424,182V282H93q-11,0-17,6.5T70,305v33q0,11 6,17t17,6H483q10,0 16.5-6t6.5-17V182q0-10-6.5-16.5T483,159H447Z" />
      <glyph unicode="&#xad;" glyph-name="gid210" horiz-adv-x="600" d="M92,258q-10,0-16.5,6.5T69,281v38q0,10 6.5,16.5T92,342H392q11,0 17-6.5t6-16.5V281q0-10-6-16.5T392,258H92Z" />
      <glyph unicode="&#xae;" glyph-name="gid241" horiz-adv-x="826" d="M413-10q-75,0-140,28T158.5,95.5T81,210T53,350T81,490t77.5,114.5T273,682t140,28t140-28t114.5-77.5T745,490t28-140T745,210T667.5,95.5T553,18T413-10Zm0,63q61,0 114,23t93,64t63,95t23,115T683,465t-63,95t-93,64.5T413,648T299,624.5T206,560t-62.5-95T121,350t22.5-115T206,140t93-64T413,53ZM297,168q-22,0-22,22V512q0,22 22,22H428q38,0 70-11t51.5-37T569,416q0-40-19.5-66T500,312l64-108q2-2 3-5.5t1-8.5q0-8-5.5-15T546,168H519q-10,0-17,5t-12,14L425,298H349V190q0-22-22-22H297Zm52,196h77q40,0 54,16t14,36q0,21-14,37t-54,16H349V364Z" />
      <glyph unicode="&#xaf;" glyph-name="gid288" horiz-adv-x="400" d="M88,617q-10,0-16,6t-6,16v31q0,10 6,16t16,6H311q11,0 17-6t6-16V639q0-10-6-16t-17-6H88Z" />
      <glyph unicode="&#xb0;" glyph-name="gid243" horiz-adv-x="388" d="M194,426q-40,0-73.5,18.5T67,495.5T47,568q0,41 20,73t53.5,50.5T194,710q41,0 74-18.5T321,641t20-73q0-40-20-72.5t-53-51T194,426Zm0,66q34,0 55,21t21,55t-21,55t-55,21t-55-21t-21-55t21-55t55-21Z" />
      <glyph unicode="&#xb1;" glyph-name="gid260" horiz-adv-x="560" d="M262,192q-10,0-16.5,6T239,215V369H86q-10,0-16.5,6.5T63,392v32q0,10 6.5,16.5T86,447H239V598q0,10 6.5,16.5T262,621h36q10,0 16.5-6.5T321,598V447H473q11,0 17-6.5t6-16.5V392q0-10-6-16.5T473,369H321V215q0-11-6.5-17T298,192H262ZM96,0Q86,0 79.5,6.5T73,23V55q0,10 6.5,16.5T96,78H463q11,0 17-6.5T486,55V23q0-10-6-16.5T463,0H96Z" />
      <glyph unicode="&#xb2;" glyph-name="gid184" horiz-adv-x="341" d="M52,350q-22,0-22,22v22q0,8 5,15.5T54,427q61,45 99,72t55,48t17,46q0,22-16,35.5T169,642t-35.5-7.5T117,618t-8-15q-6-11-11-14.5T85,585H57q-20,0-18,19q2,27 19.5,49.5t46.5,37T169,705q59,0 93.5-32.5T297,594q0-35-16-62t-49-54t-85-63H290q22,0 22-22V372q0-22-22-22H52Z" />
      <glyph unicode="&#xb3;" glyph-name="gid185" horiz-adv-x="341" d="M166,345q-48,0-77.5,12.5T44,389T27,428q-1,10 6,14.5T44,447H70q7,0 13.5-3.5T95,436q7-6 13-12.5T126.5,413t38.5-4q30,0 49.5,12T234,454q0,25-18,34.5T169,498H128q-10,0-16,6t-6,15v20q0,7 3.5,12t8.5,10l80,73H65q-22,0-22,22v22q0,22 22,22H270q22,0 22-22V658q0-10-2.5-18T277,622l-72-64q53-4 77.5-33T307,453q0-49-37-78.5T166,345Z" />
      <glyph unicode="&#xb4;" glyph-name="gid284" horiz-adv-x="337" d="M82,595q-16,0-16,16q0,8 5,13l75,90q9,11 16,15t21,4h68q19,0 19-20q0-7-5-12L149,606q-8-7-15-9t-18-2H82Z" />
      <glyph unicode="&#xb5;" glyph-name="gid264" horiz-adv-x="607" d="M95-200q-11,0-17,6.5T72-177V497q0,10 6,16.5T95,520h50q10,0 16.5-6.5T168,497V220q0-46 20.5-80T240,88.5T304,71q34,0 65,17.5T420,140t20,80V497q0,10 6.5,16.5T463,520h50q10,0 16.5-6.5T536,497V23q0-10-6.5-16.5T513,0H466q-10,0-16.5,6.5T443,23V67q-22-30-53.5-50T307-5q-50-1-82,16.5T168,56V-177q0-10-6.5-16.5T145-200H95Z" />
      <glyph unicode="&#xb6;" glyph-name="gid238" horiz-adv-x="532" d="M234-100q-10,0-16.5,6.5T211-77V339q-50,0-91,24T54.5,428T30,519t24.5,91T120,675.5T211,700H432q10,0 16.5-6.5T455,677V-77q0-10-6.5-16.5T432-100H395q-10,0-16.5,6.5T372-77V625H293V-77q0-10-6-16.5T271-100H234Z" />
      <glyph unicode="&#xb7;" glyph-name="gid201" horiz-adv-x="330" d="M165,196q-29,0-53.5,14.5T72.5,250T58,304q0,30 14.5,54t39,38.5T165,411q30,0 54-14.5T258,358t15-54q0-29-15-54t-39-39.5T165,196Z" />
      <glyph unicode="&#xb8;" glyph-name="gid289" horiz-adv-x="313" d="M152-220q-28,1-49.5,10t-31,21T71-169l15,14q9,8 16,3.5T120-163t32-7q16,0 28,10t12,27q0,16-12,25.5T152-98q-15,0-25.5-4t-18-5.5T93-101L76-83q-5,6-2.5,14T80-53l35,80h59L133-56q6,4 16.5,6T170-48q34,0 55.5-23.5T247-132q0-36-24.5-62.5T152-220Z" />
      <glyph unicode="&#xb9;" glyph-name="gid183" horiz-adv-x="258" d="M146,350q-22,0-22,22V610L65,566q-7-5-16-4t-15,9L21,588q-6,8-4.5,16.5T25,619l99,74q10,7 23,7h28q22,0 22-22V372q0-22-22-22H146Z" />
      <glyph unicode="&#xba;" glyph-name="gid128" horiz-adv-x="359" d="M180,429q-56,0-89.5,28T54,540q-1,8-1,27.5T54,594q3,55 39,83t87,28t86.5-28T305,594q1-7 1-26.5T305,540q-3-55-36-83t-89-28Zm0,63q25,0 38,13t14,40q1,8 1,22.5T232,589q-1,25-14,39.5T180,643t-38-14.5T128,589q-1-7-1-21.5t1-22.5q2-27 14.5-40T180,492Z" />
      <glyph unicode="&#xbb;" glyph-name="gid231" horiz-adv-x="608" d="M334,85q-9,0-14.5,5.5T314,105v40q0,13 4,20.5T332,183L482,329L332,475q-10,10-14,17.5T314,513v40q0,9 5.5,15t14.5,6q5,0 11-3t11-8L550,375q9-9 12.5-17t3.5-16V316q0-8-3.5-16T550,283L356,95q-5-5-11-7.5T334,85ZM78,85q-9,0-15,5.5T57,105v40q0,13 4,20.5T75,183L226,329L75,475q-10,10-14,17.5T57,513v40q0,9 6,15t15,6q5,0 10.5-3t11.5-8L293,375q9-9 12.5-17t4.5-16V316q-1-8-4.5-16T293,283L100,95q-6-5-11.5-7.5T78,85Z" />
      <glyph unicode="&#xbc;" glyph-name="gid171" horiz-adv-x="776" d="M146,350q-22,0-22,22V610L65,566q-7-5-16-4t-15,9L21,588q-6,8-4.5,16.5T25,619l99,74q10,7 23,7h28q22,0 22-22V372q0-22-22-22H146ZM84,0Q63,0 63,20q0,6 4,11L561,681q7,9 13.5,14t19.5,5h28q21,0 21-20q0-6-4-11L145,19q-7-9-13-14T112,0H84ZM646,0q-22,0-22,22V70H476q-22,0-22,22v23q0,2 1.5,10T466,145L602,332q8,11 15.5,14.5T632,350h42q22,0 22-22V136h35q22,0 22-22V92q0-22-22-22H696V22q0-22-22-22H646ZM539,135h86V258L539,135Z" />
      <glyph unicode="&#xbd;" glyph-name="gid170" horiz-adv-x="774" d="M146,350q-22,0-22,22V610L65,566q-7-5-16-4t-15,9L21,588q-6,8-4.5,16.5T25,619l99,74q10,7 23,7h28q22,0 22-22V372q0-22-22-22H146ZM84,0Q63,0 63,20q0,6 4,11L561,681q7,9 13.5,14t19.5,5h28q21,0 21-20q0-6-4-11L145,19q-7-9-13-14T112,0H84ZM485,0q-22,0-22,22V44q0,8 5,15.5T487,77q61,45 99,72t55,48t17,46q0,22-16,35.5T602,292t-35.5-7.5T550,268t-8-15q-6-11-11-14.5T518,235H490q-20,0-18,19q2,27 19.5,49.5t46.5,37T602,355q59,0 93.5-32.5T730,244q0-35-16-62t-49-54T580,65H723q22,0 22-22V22q0-22-22-22H485Z" />
      <glyph unicode="&#xbe;" glyph-name="gid172" horiz-adv-x="860" d="M166,345q-48,0-77.5,12.5T44,389T27,428q-1,10 6,14.5T44,447H70q7,0 13.5-3.5T95,436q7-6 13-12.5T126.5,413t38.5-4q30,0 49.5,12T234,454q0,25-18,34.5T169,498H128q-10,0-16,6t-6,15v20q0,7 3.5,12t8.5,10l80,73H65q-22,0-22,22v22q0,22 22,22H270q22,0 22-22V658q0-10-2.5-18T277,622l-72-64q53-4 77.5-33T307,453q0-49-37-78.5T166,345ZM167,0q-21,0-21,20q0,6 4,11L644,681q7,9 13.5,14t19.5,5h28q21,0 21-20q0-6-4-11L228,19q-7-9-13-14T195,0H167ZM730,0q-22,0-22,22V70H560q-22,0-22,22v23q0,2 1.5,10T550,145L686,332q8,11 15.5,14.5T716,350h42q22,0 22-22V136h35q22,0 22-22V92q0-22-22-22H780V22q0-22-22-22H730ZM623,135h86V258L623,135Z" />
      <glyph unicode="&#xbf;" glyph-name="gid200" horiz-adv-x="525" d="M285,356q10,0 16-6t6-15q0-10 0-20.5T306,294q-1-42-18.5-75t-42-60.5t-49-51.5T154,58.5T133,5q-4-35 13.5-60.5T195-94t64-13q54,0 91,28t49,92q3,13 10.5,18T426,36h47q10,0 16-6t6-16q-1-42-18-78.5T428.5-129t-75-44.5T256-190q-61,0-104.5,16.5T81.5-130T43-69.5T33-3q3,40 20,71.5t41.5,58t48.5,52T184.5,231T204,291q1,11 1.5,21t1.5,21q2,11 8,17t16,6h54Zm8,164q10,0 16.5-6.5T316,497V436q0-10-6.5-17T293,412H228q-10,0-17,7t-7,17v61q0,10 7,16.5t17,6.5h65Z" />
      <glyph unicode="&#xc0;" glyph-name="gid6" horiz-adv-x="670" d="M40,0Q32,0 26,6T20,20q0,5 1,11L269,678q4,10 11,16t21,6h68q14,0 21-6t11-16L648,31q2-6 2-11q0-8-6-14T630,0H579q-12,0-17.5,6T554,17L499,159H171L116,17q-1-5-7-11T91,0H40ZM200,245H470L335,600L200,245ZM330,750q-11,0-18,2t-15,9L181,856q-5,5-5,12q0,20 19,20h74q14,0 21.5-4T306,869l75-90q5-5 5-13q0-16-16-16H330Z" />
      <glyph unicode="&#xc1;" glyph-name="gid2" horiz-adv-x="670" d="M40,0Q32,0 26,6T20,20q0,5 1,11L269,678q4,10 11,16t21,6h68q14,0 21-6t11-16L648,31q2-6 2-11q0-8-6-14T630,0H579q-12,0-17.5,6T554,17L499,159H171L116,17q-1-5-7-11T91,0H40ZM200,245H470L335,600L200,245ZM308,750q-16,0-16,16q0,8 5,13l75,90q9,11 16,15t21,4h74q19,0 19-20q0-7-5-12L381,761q-8-7-15-9t-18-2H308Z" />
      <glyph unicode="&#xc2;" glyph-name="gid4" horiz-adv-x="670" d="M40,0Q32,0 26,6T20,20q0,5 1,11L269,678q4,10 11,16t21,6h68q14,0 21-6t11-16L648,31q2-6 2-11q0-8-6-14T630,0H579q-12,0-17.5,6T554,17L499,159H171L116,17q-1-5-7-11T91,0H40ZM200,245H470L335,600L200,245Zm-2,505q-15,0-15,12q0,8 11,19l92,92q11,11 18,13t15,2h32q9,0 16-2t17-13l92-92q11-11 11-19q0-12-15-12H445q-7,0-14.5,2T417,757l-82,57l-82-57q-5-3-13-5t-15-2H198Z" />
      <glyph unicode="&#xc3;" glyph-name="gid8" horiz-adv-x="670" d="M40,0Q32,0 26,6T20,20q0,5 1,11L269,678q4,10 11,16t21,6h68q14,0 21-6t11-16L648,31q2-6 2-11q0-8-6-14T630,0H579q-12,0-17.5,6T554,17L499,159H171L116,17q-1-5-7-11T91,0H40ZM200,245H470L335,600L200,245ZM387,745q-24,0-41,8.5t-30.5,17T287,779q-12,0-17.5-7t-10-14.5T244,750H212q-7,0-12,5t-5,11q0,15 5.5,31.5t17,30.5T245,850.5t36,8.5q25,0 42-8.5t31-17t29-8.5q12,0 17,7.5t9.5,15T425,855h32q9,0 13-5t4-12q0-14-6-30.5T450.5,777T423,754t-36-9Z" />
      <glyph unicode="&#xc4;" glyph-name="gid5" horiz-adv-x="670" d="M40,0Q32,0 26,6T20,20q0,5 1,11L269,678q4,10 11,16t21,6h68q14,0 21-6t11-16L648,31q2-6 2-11q0-8-6-14T630,0H579q-12,0-17.5,6T554,17L499,159H171L116,17q-1-5-7-11T91,0H40ZM200,245H470L335,600L200,245ZM407,750q-11,0-17,6t-6,16v54q0,10 6,16.5t17,6.5h54q10,0 16.5-6.5T484,826V772q0-10-6.5-16T461,750H407Zm-200,0q-10,0-16,6t-6,16v54q0,10 6,16.5t16,6.5h55q10,0 16.5-6.5T285,826V772q0-10-6.5-16T262,750H207Z" />
      <glyph unicode="&#xc5;" glyph-name="gid7" horiz-adv-x="670" d="M40,0Q32,0 26,6T20,20q0,5 1,11L269,678q4,10 11,16t21,6h68q14,0 21-6t11-16L648,31q2-6 2-11q0-8-6-14T630,0H579q-12,0-17.5,6T554,17L499,159H171L116,17q-1-5-7-11T91,0H40ZM200,245H470L335,600L200,245ZM335,740q-34,0-59,22t-25,57q0,34 24.5,56.5T335,898t59.5-22.5T419,819q0-35-24.5-57T335,740Zm0,49q13,0 21.5,8.5T365,819t-8.5,21.5T335,849t-21.5-8.5T305,819t8.5-21.5T335,789Z" />
      <glyph unicode="&#xc6;" glyph-name="gid9" horiz-adv-x="936" d="M25,0Q17,0 11,6T5,20q0,6 3,13q4,10 9.5,23.5T35,95t34,68t58,110.5t90.5,167T347,678q6,11 13.5,16.5T377,700H853q11,0 17-6.5t6-17.5V638q0-11-6-17t-17-6H518V396H831q11,0 17-6.5t6-17.5V335q0-10-6-16.5T831,312H518V85H861q11,0 17-6t6-17V23q0-10-6-16.5T861,0H445q-10,0-16.5,6.5T422,23V159H181q-27-49-42.5-77.5T116,39.5T106.5,22T104,17q-4-7-10-12T79,0H25ZM219,245H422V609h-7L219,245Z" />
      <glyph unicode="&#xc7;" glyph-name="gid12" horiz-adv-x="666" d="M335-220q-27,1-49,10t-31,21t-1,20l15,14q9,8 16,3.5T303-163t32-7q17,0 28.5,10T375-133q0,16-11.5,25.5T335-98q-15,0-25-4t-18-5.5T276-101L259-83q-5,6-2.5,14T263-53L283-6Q210,4 161.5,39.5t-73,92T61,261q-1,41-1,88t1,90q3,81 34,142t91.5,95T339,710q69,0 121-19t86.5-51T599,568.5T619,487q1-9-5.5-15T598,466H543q-9,0-15.5,5T518,489q-17,78-63.5,107T339,625q-81,0-128-45.5T161,434q-3-82 0-168q3-100 50-145.5T339,75q69,0 115.5,29T518,211q3,13 9.5,18t15.5,5h55q9,0 15.5-5.5T619,214q-2-42-20-82T546.5,60T460,9T339-10L317-56q6,4 16.5,6T353-48q34,0 55.5-23.5T430-132q0-36-24-62.5T335-220Z" />
      <glyph unicode="&#xc8;" glyph-name="gid19" horiz-adv-x="606" d="M110,0Q99,0 93,6.5T87,23V676q0,11 6,17.5t17,6.5H523q11,0 17-6.5t6-17.5V638q0-11-6-17t-17-6H183V396H501q11,0 17-6.5t6-17.5V335q0-10-6-16.5T501,312H183V85H531q11,0 17-6t6-17V23q0-10-6-16.5T531,0H110ZM298,750q-11,0-18,2t-15,9L149,856q-5,5-5,12q0,20 19,20h74q14,0 21.5-4T274,869l75-90q5-5 5-13q0-16-16-16H298Z" />
      <glyph unicode="&#xc9;" glyph-name="gid16" horiz-adv-x="606" d="M110,0Q99,0 93,6.5T87,23V676q0,11 6,17.5t17,6.5H523q11,0 17-6.5t6-17.5V638q0-11-6-17t-17-6H183V396H501q11,0 17-6.5t6-17.5V335q0-10-6-16.5T501,312H183V85H531q11,0 17-6t6-17V23q0-10-6-16.5T531,0H110ZM276,750q-16,0-16,16q0,8 5,13l75,90q9,11 16,15t21,4h74q19,0 19-20q0-7-5-12L349,761q-8-7-15-9t-18-2H276Z" />
      <glyph unicode="&#xca;" glyph-name="gid17" horiz-adv-x="606" d="M110,0Q99,0 93,6.5T87,23V676q0,11 6,17.5t17,6.5H523q11,0 17-6.5t6-17.5V638q0-11-6-17t-17-6H183V396H501q11,0 17-6.5t6-17.5V335q0-10-6-16.5T501,312H183V85H531q11,0 17-6t6-17V23q0-10-6-16.5T531,0H110Zm56,750q-15,0-15,12q0,8 11,19l92,92q11,11 18,13t15,2h32q9,0 16-2t17-13l92-92q11-11 11-19q0-12-15-12H413q-7,0-14.5,2T385,757l-82,57l-82-57q-5-3-13-5t-15-2H166Z" />
      <glyph unicode="&#xcb;" glyph-name="gid18" horiz-adv-x="606" d="M110,0Q99,0 93,6.5T87,23V676q0,11 6,17.5t17,6.5H523q11,0 17-6.5t6-17.5V638q0-11-6-17t-17-6H183V396H501q11,0 17-6.5t6-17.5V335q0-10-6-16.5T501,312H183V85H531q11,0 17-6t6-17V23q0-10-6-16.5T531,0H110ZM376,750q-11,0-17,6t-6,16v54q0,10 6,16.5t17,6.5h54q10,0 16.5-6.5T453,826V772q0-10-6.5-16T430,750H376Zm-200,0q-10,0-16,6t-6,16v54q0,10 6,16.5t16,6.5h55q10,0 16.5-6.5T254,826V772q0-10-6.5-16T231,750H176Z" />
      <glyph unicode="&#xcc;" glyph-name="gid27" horiz-adv-x="273" d="M110,0Q99,0 93,6.5T87,23V677q0,10 6,16.5t17,6.5h53q11,0 17-6.5t6-16.5V23q0-10-6-16.5T163,0H110Zm22,750q-11,0-18,2t-15,9L-17,856q-5,5-5,12q0,20 19,20H71q14,0 21.5-4T108,869l75-90q5-5 5-13q0-16-16-16H132Z" />
      <glyph unicode="&#xcd;" glyph-name="gid24" horiz-adv-x="273" d="M110,0Q99,0 93,6.5T87,23V677q0,10 6,16.5t17,6.5h53q11,0 17-6.5t6-16.5V23q0-10-6-16.5T163,0H110Zm-1,750q-16,0-16,16q0,8 5,13l75,90q9,11 16,15t21,4h74q19,0 19-20q0-7-5-12L182,761q-8-7-15-9t-18-2H109Z" />
      <glyph unicode="&#xce;" glyph-name="gid25" horiz-adv-x="273" d="M110,0Q99,0 93,6.5T87,23V677q0,10 6,16.5t17,6.5h53q11,0 17-6.5t6-16.5V23q0-10-6-16.5T163,0H110ZM0,750q-15,0-15,12q0,8 11,19l92,92q11,11 18,13t15,2h32q9,0 16-2t17-13l92-92q11-11 11-19q0-12-15-12H247q-7,0-14.5,2T219,757l-82,57L55,757q-5-3-13-5t-15-2H0Z" />
      <glyph unicode="&#xcf;" glyph-name="gid26" horiz-adv-x="273" d="M110,0Q99,0 93,6.5T87,23V677q0,10 6,16.5t17,6.5h53q11,0 17-6.5t6-16.5V23q0-10-6-16.5T163,0H110Zm99,750q-11,0-17,6t-6,16v54q0,10 6,16.5t17,6.5h54q10,0 16.5-6.5T286,826V772q0-10-6.5-16T263,750H209ZM9,750q-10,0-16,6t-6,16v54q0,10 6,16.5T9,849H64q10,0 16.5-6.5T87,826V772q0-10-6.5-16T64,750H9Z" />
      <glyph unicode="&#xd0;" glyph-name="gid14" horiz-adv-x="699" d="M119,0q-10,0-16.5,6.5T96,23V313H38q-10,0-16.5,6.5T15,336v32q0,10 6.5,16.5T38,391H96V676q0,11 6.5,17.5T119,700H346q104,0 167-31t92-91.5T635,429q1-43 1-78t-1-79q-2-92-30.5-152.5T514,29.5T350,0H119Zm75,85H346q69,0 109.5,19T515,165t20,111q1,29 1,52t0,45.5T535,425q-2,97-45.5,143.5T342,615H194V391H327q10,0 16-6.5t6-16.5V336q0-10-6-16.5T327,313H194V85Z" />
      <glyph unicode="&#xd1;" glyph-name="gid34" horiz-adv-x="695" d="M110,0Q99,0 93,6.5T87,23V676q0,11 6,17.5t17,6.5h46q12,0 18-5.5t7-8.5L513,176V676q0,11 6,17.5t17,6.5h48q11,0 17.5-6.5T608,676V24q0-10-6.5-17T585,0H537q-11,0-16.5,6T513,14L182,519V23q0-10-6.5-16.5T158,0H110ZM399,745q-24,0-41,8.5t-30.5,17T299,779q-12,0-17.5-7t-10-14.5T256,750H224q-7,0-12,5t-5,11q0,15 5.5,31.5t17,30.5T257,850.5t36,8.5q25,0 42-8.5t31-17t29-8.5q12,0 17,7.5t9.5,15T437,855h32q9,0 13-5t4-12q0-14-6-30.5T462.5,777T435,754t-36-9Z" />
      <glyph unicode="&#xd2;" glyph-name="gid39" horiz-adv-x="677" d="M339-10q-86,0-147,29.5t-94,91T61,265q-1,44-1,84.5T61,434q4,92 38.5,153.5t96,92T339,710q81,0 142.5-30.5t96.5-92T616,434q2-44 2-84.5T616,265q-3-93-36.5-154.5T485,19.5T339-10Zm0,85q76,0 124.5,46T516,270q2,45 2,80.5T516,430q-2,69-25.5,112T428,605t-89,20t-89-20t-62.5-63T161,430q-1-44-1-79.5t1-80.5q4-103 53-149T339,75Zm-5,675q-11,0-18,2t-15,9L185,856q-5,5-5,12q0,20 19,20h74q14,0 21.5-4T310,869l75-90q5-5 5-13q0-16-16-16H334Z" />
      <glyph unicode="&#xd3;" glyph-name="gid36" horiz-adv-x="677" d="M339-10q-86,0-147,29.5t-94,91T61,265q-1,44-1,84.5T61,434q4,92 38.5,153.5t96,92T339,710q81,0 142.5-30.5t96.5-92T616,434q2-44 2-84.5T616,265q-3-93-36.5-154.5T485,19.5T339-10Zm0,85q76,0 124.5,46T516,270q2,45 2,80.5T516,430q-2,69-25.5,112T428,605t-89,20t-89-20t-62.5-63T161,430q-1-44-1-79.5t1-80.5q4-103 53-149T339,75ZM311,750q-16,0-16,16q0,8 5,13l75,90q9,11 16,15t21,4h74q19,0 19-20q0-7-5-12L384,761q-8-7-15-9t-18-2H311Z" />
      <glyph unicode="&#xd4;" glyph-name="gid37" horiz-adv-x="677" d="M339-10q-86,0-147,29.5t-94,91T61,265q-1,44-1,84.5T61,434q4,92 38.5,153.5t96,92T339,710q81,0 142.5-30.5t96.5-92T616,434q2-44 2-84.5T616,265q-3-93-36.5-154.5T485,19.5T339-10Zm0,85q76,0 124.5,46T516,270q2,45 2,80.5T516,430q-2,69-25.5,112T428,605t-89,20t-89-20t-62.5-63T161,430q-1-44-1-79.5t1-80.5q4-103 53-149T339,75ZM202,750q-15,0-15,12q0,8 11,19l92,92q11,11 18,13t15,2h32q9,0 16-2t17-13l92-92q11-11 11-19q0-12-15-12H449q-7,0-14.5,2T421,757l-82,57l-82-57q-5-3-13-5t-15-2H202Z" />
      <glyph unicode="&#xd5;" glyph-name="gid41" horiz-adv-x="677" d="M339-10q-86,0-147,29.5t-94,91T61,265q-1,44-1,84.5T61,434q4,92 38.5,153.5t96,92T339,710q81,0 142.5-30.5t96.5-92T616,434q2-44 2-84.5T616,265q-3-93-36.5-154.5T485,19.5T339-10Zm0,85q76,0 124.5,46T516,270q2,45 2,80.5T516,430q-2,69-25.5,112T428,605t-89,20t-89-20t-62.5-63T161,430q-1-44-1-79.5t1-80.5q4-103 53-149T339,75Zm51,670q-24,0-41,8.5t-30.5,17T290,779q-12,0-17.5-7t-10-14.5T247,750H215q-7,0-12,5t-5,11q0,15 5.5,31.5t17,30.5T248,850.5t36,8.5q25,0 42-8.5t31-17t29-8.5q12,0 17,7.5t9.5,15T428,855h32q9,0 13-5t4-12q0-14-6-30.5T453.5,777T426,754t-36-9Z" />
      <glyph unicode="&#xd6;" glyph-name="gid38" horiz-adv-x="677" d="M339-10q-86,0-147,29.5t-94,91T61,265q-1,44-1,84.5T61,434q4,92 38.5,153.5t96,92T339,710q81,0 142.5-30.5t96.5-92T616,434q2-44 2-84.5T616,265q-3-93-36.5-154.5T485,19.5T339-10Zm0,85q76,0 124.5,46T516,270q2,45 2,80.5T516,430q-2,69-25.5,112T428,605t-89,20t-89-20t-62.5-63T161,430q-1-44-1-79.5t1-80.5q4-103 53-149T339,75Zm72,675q-11,0-17,6t-6,16v54q0,10 6,16.5t17,6.5h54q10,0 16.5-6.5T488,826V772q0-10-6.5-16T465,750H411Zm-200,0q-10,0-16,6t-6,16v54q0,10 6,16.5t16,6.5h55q10,0 16.5-6.5T289,826V772q0-10-6.5-16T266,750H211Z" />
      <glyph unicode="&#xd7;" glyph-name="gid255" horiz-adv-x="559" d="M100,87L68,119q-7,7-7,16t7,16L215,298L68,446q-7,7-7,16t7,16l32,33q7,7 16,7t16-7L279,363L427,510q7,8 16,8t16-8l33-32q7-7 7-16t-7-16L344,298L492,151q7-7 7-16t-7-16L459,87q-7-7-16-7t-16,7L279,234L132,87q-7-7-16-7t-16,7Z" />
      <glyph unicode="&#xd8;" glyph-name="gid40" horiz-adv-x="677" d="M339-10q-86,0-147,29.5t-94,91T61,265q-1,44-1,84.5T61,434q4,92 38.5,153.5t96,92T339,710q81,0 142.5-30.5t96.5-92T616,434q2-44 2-84.5T616,265q-3-93-36.5-154.5T485,19.5T339-10Zm0,85q76,0 124.5,46T516,270q2,45 2,80.5T516,430q-2,69-25.5,112T428,605t-89,20t-89-20t-62.5-63T161,430q-1-44-1-79.5t1-80.5q4-103 53-149T339,75ZM101-65Q88-65 83-54t1,22L530,750q2,4 7,9.5t15,5.5h24q12,0 17.5-9T591,732L145-50q-2-4-7-9.5T122-65H101Z" />
      <glyph unicode="&#xd9;" glyph-name="gid53" horiz-adv-x="701" d="M351-10q-84,0-144.5,30t-93,91.5T81,270V676q0,11 6,17.5t17,6.5h51q11,0 17.5-6.5T179,676V268q0-98 46-145T351,76q79,0 125.5,47T523,268V676q0,11 6.5,17.5T546,700h52q10,0 16.5-6.5T621,676V270q0-97-32.5-158.5T496,20T351-10Zm-5,760q-11,0-18,2t-15,9L197,856q-5,5-5,12q0,20 19,20h74q14,0 21.5-4T322,869l75-90q5-5 5-13q0-16-16-16H346Z" />
      <glyph unicode="&#xda;" glyph-name="gid50" horiz-adv-x="701" d="M351-10q-84,0-144.5,30t-93,91.5T81,270V676q0,11 6,17.5t17,6.5h51q11,0 17.5-6.5T179,676V268q0-98 46-145T351,76q79,0 125.5,47T523,268V676q0,11 6.5,17.5T546,700h52q10,0 16.5-6.5T621,676V270q0-97-32.5-158.5T496,20T351-10ZM324,750q-16,0-16,16q0,8 5,13l75,90q9,11 16,15t21,4h74q19,0 19-20q0-7-5-12L397,761q-8-7-15-9t-18-2H324Z" />
      <glyph unicode="&#xdb;" glyph-name="gid51" horiz-adv-x="701" d="M351-10q-84,0-144.5,30t-93,91.5T81,270V676q0,11 6,17.5t17,6.5h51q11,0 17.5-6.5T179,676V268q0-98 46-145T351,76q79,0 125.5,47T523,268V676q0,11 6.5,17.5T546,700h52q10,0 16.5-6.5T621,676V270q0-97-32.5-158.5T496,20T351-10ZM214,750q-15,0-15,12q0,8 11,19l92,92q11,11 18,13t15,2h32q9,0 16-2t17-13l92-92q11-11 11-19q0-12-15-12H461q-7,0-14.5,2T433,757l-82,57l-82-57q-5-3-13-5t-15-2H214Z" />
      <glyph unicode="&#xdc;" glyph-name="gid52" horiz-adv-x="701" d="M351-10q-84,0-144.5,30t-93,91.5T81,270V676q0,11 6,17.5t17,6.5h51q11,0 17.5-6.5T179,676V268q0-98 46-145T351,76q79,0 125.5,47T523,268V676q0,11 6.5,17.5T546,700h52q10,0 16.5-6.5T621,676V270q0-97-32.5-158.5T496,20T351-10Zm73,760q-11,0-17,6t-6,16v54q0,10 6,16.5t17,6.5h54q10,0 16.5-6.5T501,826V772q0-10-6.5-16T478,750H424Zm-200,0q-10,0-16,6t-6,16v54q0,10 6,16.5t16,6.5h55q10,0 16.5-6.5T302,826V772q0-10-6.5-16T279,750H224Z" />
      <glyph unicode="&#xdd;" glyph-name="gid58" horiz-adv-x="647" d="M297,0q-10,0-16.5,6.5T274,23V259L33,667q-1,3-2,6t-1,7q0,8 6,14t14,6h52q9,0 16-4.5T128,683L323,359L518,683q5,8 11.5,12.5T545,700h51q9,0 15-6t6-14q0-4-1-7t-3-6L373,259V23q0-10-6.5-16.5T349,0H297Zm-1,750q-16,0-16,16q0,8 5,13l75,90q9,11 16,15t21,4h74q19,0 19-20q0-7-5-12L369,761q-8-7-15-9t-18-2H296Z" />
      <glyph unicode="&#xde;" glyph-name="gid44" horiz-adv-x="647" d="M110,0Q99,0 93,6.5T87,23V677q0,10 6,16.5t17,6.5h54q10,0 16.5-6.5T187,677V565H363q74,0 129-24t85-71.5T607,351T577,233t-85-70.5T363,139H187V23q0-10-6.5-16.5T163,0H110Zm76,222H359q74,0 111,33t37,97q0,61-36,95.5T359,482H186V222Z" />
      <glyph unicode="&#xdf;" glyph-name="gid108" horiz-adv-x="589" d="M98,0Q88,0 81.5,6.5T75,23V493q0,58 22.5,107t71,79.5T295,710t126-28.5t70-71T513,523q0-40-12.5-69t-32-48T429,377q44-15 68.5-41.5T532,275t10-70q0-34-13-70T489,68T419,18.5T314,0H247q-12,0-18,6.5T223,23V56q0,10 6,16.5T247,79h53q72,0 109,37t37,91t-37,91.5T299,336H246q-11,0-17,6t-6,17v29q0,10 5.5,16.5T246,411h45q65,1 98,29.5T422,521q0,48-35,79t-92,31q-58,0-92.5-34.5T168,490V23q0-10-6.5-16.5T145,0H98Z" />
      <glyph unicode="&#xe0;" glyph-name="gid64" horiz-adv-x="552" d="M219-10q-50,0-91,20T62,64T37,141q0,69 56,110t146,54l149,21v29q0,48-27.5,75T271,457q-44,0-72-18t-39-46q-6-15-21-15H94q-11,0-16.5,6.5T72,400q0,15 11.5,37T119,480t61.5,35.5T272,530q60,0 101-15.5T437.5,473t34-59T482,347V23q0-10-6.5-16.5T459,0H413q-11,0-17,6.5T390,23V66q-13-18-35-35.5t-55-29T219-10Zm21,75q41,0 75,17.5T368.5,137T388,230v28L272,241q-71-10-107-33.5T129,148q0-28 16.5-46.5t42-27.5T240,65Zm36,530q-11,0-18,2t-15,9L127,701q-5,5-5,12q0,20 19,20h68q14,0 21-4t16-15l75-90q5-5 5-13q0-16-16-16H276Z" />
      <glyph unicode="&#xe1;" glyph-name="gid61" horiz-adv-x="552" d="M219-10q-50,0-91,20T62,64T37,141q0,69 56,110t146,54l149,21v29q0,48-27.5,75T271,457q-44,0-72-18t-39-46q-6-15-21-15H94q-11,0-16.5,6.5T72,400q0,15 11.5,37T119,480t61.5,35.5T272,530q60,0 101-15.5T437.5,473t34-59T482,347V23q0-10-6.5-16.5T459,0H413q-11,0-17,6.5T390,23V66q-13-18-35-35.5t-55-29T219-10Zm21,75q41,0 75,17.5T368.5,137T388,230v28L272,241q-71-10-107-33.5T129,148q0-28 16.5-46.5t42-27.5T240,65Zm6,530q-16,0-16,16q0,8 5,13l75,90q9,11 16,15t21,4h68q19,0 19-20q0-7-5-12L313,606q-8-7-15-9t-18-2H246Z" />
      <glyph unicode="&#xe2;" glyph-name="gid62" horiz-adv-x="552" d="M219-10q-50,0-91,20T62,64T37,141q0,69 56,110t146,54l149,21v29q0,48-27.5,75T271,457q-44,0-72-18t-39-46q-6-15-21-15H94q-11,0-16.5,6.5T72,400q0,15 11.5,37T119,480t61.5,35.5T272,530q60,0 101-15.5T437.5,473t34-59T482,347V23q0-10-6.5-16.5T459,0H413q-11,0-17,6.5T390,23V66q-13-18-35-35.5t-55-29T219-10Zm21,75q41,0 75,17.5T368.5,137T388,230v28L272,241q-71-10-107-33.5T129,148q0-28 16.5-46.5t42-27.5T240,65ZM138,595q-15,0-15,12q0,8 11,19l92,92q10,11 17.5,13t15.5,2h30q9,0 16-2t17-13l92-92q11-11 11-19q0-12-15-12H384q-7,0-15,2t-13,5l-82,57l-82-57q-5-3-13-5t-15-2H138Z" />
      <glyph unicode="&#xe3;" glyph-name="gid66" horiz-adv-x="552" d="M219-10q-50,0-91,20T62,64T37,141q0,69 56,110t146,54l149,21v29q0,48-27.5,75T271,457q-44,0-72-18t-39-46q-6-15-21-15H94q-11,0-16.5,6.5T72,400q0,15 11.5,37T119,480t61.5,35.5T272,530q60,0 101-15.5T437.5,473t34-59T482,347V23q0-10-6.5-16.5T459,0H413q-11,0-17,6.5T390,23V66q-13-18-35-35.5t-55-29T219-10Zm21,75q41,0 75,17.5T368.5,137T388,230v28L272,241q-71-10-107-33.5T129,148q0-28 16.5-46.5t42-27.5T240,65Zm84,525q-25,0-40,8.5t-27.5,17T229,624q-12,0-17.5-7t-10-14.5T186,595H154q-7,0-12,5t-5,11q0,15 5.5,30.5t16.5,29T185.5,692t34.5,8q26,0 41-8.5t28-17t28-8.5q12,0 17,7.5t9.5,15T359,696h32q8,0 12.5-5t4.5-12q0-14-5.5-30T386,619.5T359.5,598T324,590Z" />
      <glyph unicode="&#xe4;" glyph-name="gid63" horiz-adv-x="552" d="M219-10q-50,0-91,20T62,64T37,141q0,69 56,110t146,54l149,21v29q0,48-27.5,75T271,457q-44,0-72-18t-39-46q-6-15-21-15H94q-11,0-16.5,6.5T72,400q0,15 11.5,37T119,480t61.5,35.5T272,530q60,0 101-15.5T437.5,473t34-59T482,347V23q0-10-6.5-16.5T459,0H413q-11,0-17,6.5T390,23V66q-13-18-35-35.5t-55-29T219-10Zm21,75q41,0 75,17.5T368.5,137T388,230v28L272,241q-71-10-107-33.5T129,148q0-28 16.5-46.5t42-27.5T240,65Zm91,556q-11,0-17,6t-6,16v54q0,10 6,16.5t17,6.5h54q10,0 16.5-6.5T408,697V643q0-10-6.5-16T385,621H331Zm-170,0q-10,0-16,6t-6,16v54q0,10 6,16.5t16,6.5h55q10,0 16.5-6.5T239,697V643q0-10-6.5-16T216,621H161Z" />
      <glyph unicode="&#xe5;" glyph-name="gid65" horiz-adv-x="552" d="M219-10q-50,0-91,20T62,64T37,141q0,69 56,110t146,54l149,21v29q0,48-27.5,75T271,457q-44,0-72-18t-39-46q-6-15-21-15H94q-11,0-16.5,6.5T72,400q0,15 11.5,37T119,480t61.5,35.5T272,530q60,0 101-15.5T437.5,473t34-59T482,347V23q0-10-6.5-16.5T459,0H413q-11,0-17,6.5T390,23V66q-13-18-35-35.5t-55-29T219-10Zm21,75q41,0 75,17.5T368.5,137T388,230v28L272,241q-71-10-107-33.5T129,148q0-28 16.5-46.5t42-27.5T240,65Zm33,525q-34,0-59,22t-25,57q0,34 24.5,56.5T273,748t59.5-22.5T357,669q0-35-24.5-57T273,590Zm0,49q13,0 21.5,8.5T303,669t-8.5,21.5T273,699t-21.5-8.5T243,669t8.5-21.5T273,639Z" />
      <glyph unicode="&#xe6;" glyph-name="gid67" horiz-adv-x="891" d="M224-10q-56,0-98,20T61,64T38,141q0,69 56,111t146,55l148,21v27q0,48-27,75t-89,27q-33,0-56-10t-37-24t-22-28q-4-9-8.5-13T137,378H94q-9,0-15.5,6.5T72,400q0,15 11.5,37t35,43t62,35.5T273,530q72,0 113-22.5T447,452q27,34 68.5,56T617,530q70,0 115-24.5T801,441t34-85t10-87V252q0-11-7-17t-17-6H484v-9q2-57 21.5-91T555,79.5T616,64q33,0 65,13.5T734,121q8,11 13.5,14t17.5,3h45q21,0 21-21q0-12-13-33.5T778,41T710.5,5T616-10q-71,0-117,28T427,91q-32-52-83.5-76.5T224-10Zm17,75q41,0 74.5,17.5T369,137t20,93v28L273,241q-71-10-107-33.5T130,148q0-28 16-46.5T188,74t53-9ZM484,298H749v4q0,67-32.5,111T617,457q-34,0-63.5-17T505,389t-21-87v-4Z" />
      <glyph unicode="&#xe7;" glyph-name="gid70" horiz-adv-x="552" d="M282-220q-28,1-49.5,10t-31,21T201-169l15,14q9,8 16,3.5T250-163t32-7q16,0 28,10t12,27q0,16-12,25.5T282-98q-15,0-25.5-4t-18-5.5T223-101L206-83q-5,6-2.5,14T210-53L230-5Q148,9 101.5,67.5T52,220q-1,15-1,40t1,40q2,72 30,123.5t79.5,79T284,530q58,0 99.5-16T452,473t40.5-54T507,364q1-10-6-16t-17-6H436q-10,0-15,4.5T411,362q-18,49-49,69t-77,20q-60,0-97.5-37T147,295q-1-36 0-70q3-83 40.5-119.5T285,69q46,0 77,20t49,69q5,11 10,16t15,5h48q10,0 17-6.5t6-16.5q-1-25-14.5-54T453,48T385.5,6.5T285-10L263-56q6,4 16.5,6T300-48q34,0 55.5-23.5T377-132q0-36-24.5-62.5T282-220Z" />
      <glyph unicode="&#xe8;" glyph-name="gid77" horiz-adv-x="560" d="M282-10Q178-10 117,53.5T50,227q-1,13-1,33.5T50,294q4,71 33,124.5T162.5,501T281,530q76,0 127.5-32T487,407t27-138V252q0-11-6.5-17T491,229H145q0-1 0-4t0-5q2-41 18-76.5T209.5,86T281,64q36,0 60,11t39,24.5T400,121q9,12 14,14.5t16,2.5h49q9,0 15.5-5.5T500,117q-1-15-16-36.5T441.5,38t-68-34.5T282-10ZM145,298H419v3q0,45-16.5,80T355,436.5T281,457t-73.5-20.5T161,381t-16-80v-3ZM283,595q-11,0-18,2t-15,9L134,701q-5,5-5,12q0,20 19,20h68q14,0 21-4t16-15l75-90q5-5 5-13q0-16-16-16H283Z" />
      <glyph unicode="&#xe9;" glyph-name="gid74" horiz-adv-x="560" d="M282-10Q178-10 117,53.5T50,227q-1,13-1,33.5T50,294q4,71 33,124.5T162.5,501T281,530q76,0 127.5-32T487,407t27-138V252q0-11-6.5-17T491,229H145q0-1 0-4t0-5q2-41 18-76.5T209.5,86T281,64q36,0 60,11t39,24.5T400,121q9,12 14,14.5t16,2.5h49q9,0 15.5-5.5T500,117q-1-15-16-36.5T441.5,38t-68-34.5T282-10ZM145,298H419v3q0,45-16.5,80T355,436.5T281,457t-73.5-20.5T161,381t-16-80v-3ZM254,595q-16,0-16,16q0,8 5,13l75,90q9,11 16,15t21,4h68q19,0 19-20q0-7-5-12L321,606q-8-7-15-9t-18-2H254Z" />
      <glyph unicode="&#xea;" glyph-name="gid75" horiz-adv-x="560" d="M282-10Q178-10 117,53.5T50,227q-1,13-1,33.5T50,294q4,71 33,124.5T162.5,501T281,530q76,0 127.5-32T487,407t27-138V252q0-11-6.5-17T491,229H145q0-1 0-4t0-5q2-41 18-76.5T209.5,86T281,64q36,0 60,11t39,24.5T400,121q9,12 14,14.5t16,2.5h49q9,0 15.5-5.5T500,117q-1-15-16-36.5T441.5,38t-68-34.5T282-10ZM145,298H419v3q0,45-16.5,80T355,436.5T281,457t-73.5-20.5T161,381t-16-80v-3Zm0,297q-15,0-15,12q0,8 11,19l92,92q10,11 17.5,13t15.5,2h30q9,0 16-2t17-13l92-92q11-11 11-19q0-12-15-12H391q-7,0-15,2t-13,5l-82,57l-82-57q-5-3-13-5t-15-2H145Z" />
      <glyph unicode="&#xeb;" glyph-name="gid76" horiz-adv-x="560" d="M282-10Q178-10 117,53.5T50,227q-1,13-1,33.5T50,294q4,71 33,124.5T162.5,501T281,530q76,0 127.5-32T487,407t27-138V252q0-11-6.5-17T491,229H145q0-1 0-4t0-5q2-41 18-76.5T209.5,86T281,64q36,0 60,11t39,24.5T400,121q9,12 14,14.5t16,2.5h49q9,0 15.5-5.5T500,117q-1-15-16-36.5T441.5,38t-68-34.5T282-10ZM145,298H419v3q0,45-16.5,80T355,436.5T281,457t-73.5-20.5T161,381t-16-80v-3ZM339,621q-11,0-17,6t-6,16v54q0,10 6,16.5t17,6.5h54q10,0 16.5-6.5T416,697V643q0-10-6.5-16T393,621H339Zm-170,0q-10,0-16,6t-6,16v54q0,10 6,16.5t16,6.5h55q10,0 16.5-6.5T247,697V643q0-10-6.5-16T224,621H169Z" />
      <glyph unicode="&#xec;" glyph-name="gid86" horiz-adv-x="242" d="M97,0Q87,0 80.5,6.5T74,23V497q0,10 6.5,16.5T97,520h48q10,0 16.5-6.5T168,497V23q0-10-6.5-16.5T145,0H97Zm26,595q-11,0-18,2t-15,9L-26,701q-5,5-5,12q0,20 19,20H56q14,0 21-4t16-15l75-90q5-5 5-13q0-16-16-16H123Z" />
      <glyph unicode="&#xed;" glyph-name="gid83" horiz-adv-x="242" d="M97,0Q87,0 80.5,6.5T74,23V497q0,10 6.5,16.5T97,520h48q10,0 16.5-6.5T168,497V23q0-10-6.5-16.5T145,0H97ZM94,595q-16,0-16,16q0,8 5,13l75,90q9,11 16,15t21,4h68q19,0 19-20q0-7-5-12L161,606q-8-7-15-9t-18-2H94Z" />
      <glyph unicode="&#xee;" glyph-name="gid84" horiz-adv-x="242" d="M97,0Q87,0 80.5,6.5T74,23V497q0,10 6.5,16.5T97,520h48q10,0 16.5-6.5T168,497V23q0-10-6.5-16.5T145,0H97ZM-14,595q-15,0-15,12q0,8 11,19l92,92q10,11 17.5,13t15.5,2h30q9,0 16-2t17-13l92-92q11-11 11-19q0-12-15-12H232q-7,0-15,2t-13,5l-82,57L40,602q-5-3-13-5t-15-2H-14Z" />
      <glyph unicode="&#xef;" glyph-name="gid85" horiz-adv-x="242" d="M97,0Q87,0 80.5,6.5T74,23V497q0,10 6.5,16.5T97,520h48q10,0 16.5-6.5T168,497V23q0-10-6.5-16.5T145,0H97Zm82,621q-11,0-17,6t-6,16v54q0,10 6,16.5t17,6.5h54q10,0 16.5-6.5T256,697V643q0-10-6.5-16T233,621H179ZM9,621q-10,0-16,6t-6,16v54q0,10 6,16.5T9,720H64q10,0 16.5-6.5T87,697V643q0-10-6.5-16T64,621H9Z" />
      <glyph unicode="&#xf0;" glyph-name="gid72" horiz-adv-x="567" d="M281-10q-75,0-127,30.5t-78.5,85T49,231T76,356t79,84t126,30q33,0 61-8t49-24q-21,62-58,110L232,509q-7-3-12-3q-8,0-14,4.5T200,524v21q0,12 5,17.5t17,9.5l65,25q-16,15-34.5,30.5T215,658q-9,8-12.5,13t-3.5,9q0,9 5.5,14.5T219,700h52q13,0 22.5-3.5T310,687q17-14 32.5-28.5T372,629l93,36q8,3 12,3q9,0 14.5-4.5T497,650V629q0-11-5-16.5T475,602l-58-22q44-56 69.5-135T513,243q1-4 1-7.5t-1-7.5q0-70-27.5-124T407,20T281-10Zm0,77q46,0 76,21t45.5,56.5T418,223q0,4 0,7t0,7q0,43-15,78.5T358,372t-77,21q-46,0-76.5-21T159,315.5T144,237q0-5 0-8t0-7q1-43 16.5-78T206,88t75-21Z" />
      <glyph unicode="&#xf1;" glyph-name="gid94" horiz-adv-x="606" d="M97,0Q87,0 80.5,6.5T74,23V497q0,10 6.5,16.5T97,520h47q10,0 16.5-6.5T167,497V453q26,34 65.5,55.5T334,530q65,0 110.5-28.5t69-79T537,305V23q0-10-6.5-16.5T514,0H464q-10,0-16.5,6.5T441,23V300q0,70-34,109.5T307,449q-62,0-99.5-39.5T170,300V23q0-10-6.5-16.5T147,0H97ZM356,590q-25,0-40,8.5t-27.5,17T261,624q-12,0-17.5-7t-10-14.5T218,595H186q-7,0-12,5t-5,11q0,15 5.5,30.5t16.5,29T217.5,692t34.5,8q26,0 41-8.5t28-17t28-8.5q12,0 17,7.5t9.5,15T391,696h32q8,0 12.5-5t4.5-12q0-14-5.5-30T418,619.5T391.5,598T356,590Z" />
      <glyph unicode="&#xf2;" glyph-name="gid99" horiz-adv-x="574" d="M287-10q-76,0-127,29T82,99.5T52,217q-1,17-1,43.5T52,303q3,67 30.5,118T161,501t126,29t126-29t78.5-80T522,303q1-16 1-42.5T522,217q-3-66-30-117.5T414,19T287-10Zm0,77q62,0 99,39.5T426,222q1,15 1,38t-1,38q-3,76-40,115.5T287,453t-99.5-39.5T148,298q-1-15-1-38t1-38q2-76 39.5-115.5T287,67Zm2,528q-11,0-18,2t-15,9L140,701q-5,5-5,12q0,20 19,20h68q14,0 21-4t16-15l75-90q5-5 5-13q0-16-16-16H289Z" />
      <glyph unicode="&#xf3;" glyph-name="gid96" horiz-adv-x="574" d="M287-10q-76,0-127,29T82,99.5T52,217q-1,17-1,43.5T52,303q3,67 30.5,118T161,501t126,29t126-29t78.5-80T522,303q1-16 1-42.5T522,217q-3-66-30-117.5T414,19T287-10Zm0,77q62,0 99,39.5T426,222q1,15 1,38t-1,38q-3,76-40,115.5T287,453t-99.5-39.5T148,298q-1-15-1-38t1-38q2-76 39.5-115.5T287,67ZM259,595q-16,0-16,16q0,8 5,13l75,90q9,11 16,15t21,4h68q19,0 19-20q0-7-5-12L326,606q-8-7-15-9t-18-2H259Z" />
      <glyph unicode="&#xf4;" glyph-name="gid97" horiz-adv-x="574" d="M287-10q-76,0-127,29T82,99.5T52,217q-1,17-1,43.5T52,303q3,67 30.5,118T161,501t126,29t126-29t78.5-80T522,303q1-16 1-42.5T522,217q-3-66-30-117.5T414,19T287-10Zm0,77q62,0 99,39.5T426,222q1,15 1,38t-1,38q-3,76-40,115.5T287,453t-99.5-39.5T148,298q-1-15-1-38t1-38q2-76 39.5-115.5T287,67ZM151,595q-15,0-15,12q0,8 11,19l92,92q10,11 17.5,13t15.5,2h30q9,0 16-2t17-13l92-92q11-11 11-19q0-12-15-12H397q-7,0-15,2t-13,5l-82,57l-82-57q-5-3-13-5t-15-2H151Z" />
      <glyph unicode="&#xf5;" glyph-name="gid101" horiz-adv-x="574" d="M287-10q-76,0-127,29T82,99.5T52,217q-1,17-1,43.5T52,303q3,67 30.5,118T161,501t126,29t126-29t78.5-80T522,303q1-16 1-42.5T522,217q-3-66-30-117.5T414,19T287-10Zm0,77q62,0 99,39.5T426,222q1,15 1,38t-1,38q-3,76-40,115.5T287,453t-99.5-39.5T148,298q-1-15-1-38t1-38q2-76 39.5-115.5T287,67Zm51,523q-25,0-40,8.5t-27.5,17T243,624q-12,0-17.5-7t-10-14.5T200,595H168q-7,0-12,5t-5,11q0,15 5.5,30.5t16.5,29T199.5,692t34.5,8q26,0 41-8.5t28-17t28-8.5q12,0 17,7.5t9.5,15T373,696h32q8,0 12.5-5t4.5-12q0-14-5.5-30T400,619.5T373.5,598T338,590Z" />
      <glyph unicode="&#xf6;" glyph-name="gid98" horiz-adv-x="574" d="M287-10q-76,0-127,29T82,99.5T52,217q-1,17-1,43.5T52,303q3,67 30.5,118T161,501t126,29t126-29t78.5-80T522,303q1-16 1-42.5T522,217q-3-66-30-117.5T414,19T287-10Zm0,77q62,0 99,39.5T426,222q1,15 1,38t-1,38q-3,76-40,115.5T287,453t-99.5-39.5T148,298q-1-15-1-38t1-38q2-76 39.5-115.5T287,67Zm57,554q-11,0-17,6t-6,16v54q0,10 6,16.5t17,6.5h54q10,0 16.5-6.5T421,697V643q0-10-6.5-16T398,621H344Zm-170,0q-10,0-16,6t-6,16v54q0,10 6,16.5t16,6.5h55q10,0 16.5-6.5T252,697V643q0-10-6.5-16T229,621H174Z" />
      <glyph unicode="&#xf7;" glyph-name="gid256" horiz-adv-x="556" d="M88,261q-10,0-16.5,6T65,283v34q0,10 6.5,16.5T88,340H468q11,0 17-6.5t6-16.5V283q0-10-6-16t-17-6H88ZM246,69q-10,0-16.5,6T223,92v60q0,10 6.5,17t16.5,7h63q10,0 16.5-7t6.5-17V92q0-11-6.5-17T309,69H246Zm0,356q-10,0-16.5,6.5T223,448v60q0,11 6.5,17.5T246,532h63q10,0 16.5-6.5T332,508V448q0-10-6.5-16.5T309,425H246Z" />
      <glyph unicode="&#xf8;" glyph-name="gid100" horiz-adv-x="574" d="M287-10q-76,0-127,29T82,99.5T52,217q-1,17-1,43.5T52,303q3,67 30.5,118T161,501t126,29t126-29t78.5-80T522,303q1-16 1-42.5T522,217q-3-66-30-117.5T414,19T287-10Zm0,77q62,0 99,39.5T426,222q1,15 1,38t-1,38q-3,76-40,115.5T287,453t-99.5-39.5T148,298q-1-15-1-38t1-38q2-76 39.5-115.5T287,67ZM73-28q-8,0-14,6T53-8q0,3 0.5,6T57,5L456,532q3,4 8,9.5t15,5.5h21q8,0 14-6t6-14q0-1-0.5-4.5T516,514L117-13q-3-4-7.5-9.5T95-28H73Z" />
      <glyph unicode="&#xf9;" glyph-name="gid114" horiz-adv-x="602" d="M268-10q-64,0-108.5,28.5T92,98T69,215V497q0,10 6.5,16.5T92,520h50q10,0 16.5-6.5T165,497V220Q165,71 295,71q62,0 99.5,39.5T432,220V497q0,10 6.5,16.5T455,520h50q10,0 16-6.5t6-16.5V23q0-10-6-16.5T505,0H458q-10,0-16.5,6.5T435,23V67q-27-35-65.5-56T268-10Zm32,605q-11,0-18,2t-15,9L151,701q-5,5-5,12q0,20 19,20h68q14,0 21-4t16-15l75-90q5-5 5-13q0-16-16-16H300Z" />
      <glyph unicode="&#xfa;" glyph-name="gid111" horiz-adv-x="602" d="M268-10q-64,0-108.5,28.5T92,98T69,215V497q0,10 6.5,16.5T92,520h50q10,0 16.5-6.5T165,497V220Q165,71 295,71q62,0 99.5,39.5T432,220V497q0,10 6.5,16.5T455,520h50q10,0 16-6.5t6-16.5V23q0-10-6-16.5T505,0H458q-10,0-16.5,6.5T435,23V67q-27-35-65.5-56T268-10Zm2,605q-16,0-16,16q0,8 5,13l75,90q9,11 16,15t21,4h68q19,0 19-20q0-7-5-12L337,606q-8-7-15-9t-18-2H270Z" />
      <glyph unicode="&#xfb;" glyph-name="gid112" horiz-adv-x="602" d="M268-10q-64,0-108.5,28.5T92,98T69,215V497q0,10 6.5,16.5T92,520h50q10,0 16.5-6.5T165,497V220Q165,71 295,71q62,0 99.5,39.5T432,220V497q0,10 6.5,16.5T455,520h50q10,0 16-6.5t6-16.5V23q0-10-6-16.5T505,0H458q-10,0-16.5,6.5T435,23V67q-27-35-65.5-56T268-10ZM162,595q-15,0-15,12q0,8 11,19l92,92q10,11 17.5,13t15.5,2h30q9,0 16-2t17-13l92-92q11-11 11-19q0-12-15-12H408q-7,0-15,2t-13,5l-82,57l-82-57q-5-3-13-5t-15-2H162Z" />
      <glyph unicode="&#xfc;" glyph-name="gid113" horiz-adv-x="602" d="M268-10q-64,0-108.5,28.5T92,98T69,215V497q0,10 6.5,16.5T92,520h50q10,0 16.5-6.5T165,497V220Q165,71 295,71q62,0 99.5,39.5T432,220V497q0,10 6.5,16.5T455,520h50q10,0 16-6.5t6-16.5V23q0-10-6-16.5T505,0H458q-10,0-16.5,6.5T435,23V67q-27-35-65.5-56T268-10Zm87,631q-11,0-17,6t-6,16v54q0,10 6,16.5t17,6.5h54q10,0 16.5-6.5T432,697V643q0-10-6.5-16T409,621H355Zm-170,0q-10,0-16,6t-6,16v54q0,10 6,16.5t16,6.5h55q10,0 16.5-6.5T263,697V643q0-10-6.5-16T240,621H185Z" />
      <glyph unicode="&#xfd;" glyph-name="gid119" horiz-adv-x="552" d="M165-190q-8,0-14,6t-6,14q0,4 1,8t4,10L227,31L36,482q-5,12-5,17q0,9 6,15t15,6h49q11,0 16.5-5t7.5-12L277,139L433,503q3,7 8.5,12t16.5,5h47q9,0 15-6t6-14q0-5-5-18L237-173q-3-7-8.5-12T212-190H165Zm81,785q-16,0-16,16q0,8 5,13l75,90q9,11 16,15t21,4h68q19,0 19-20q0-7-5-12L313,606q-8-7-15-9t-18-2H246Z" />
      <glyph unicode="&#xfe;" glyph-name="gid104" horiz-adv-x="596" d="M98-190q-10,0-16.5,6.5T75-167V687q0,10 6.5,16.5T98,710h49q10,0 16.5-6.5T170,687V455q24,33 62.5,54T331,530q56,0 95.5-19t65-52T530,384t15-90q1-16 1-34t-1-34q-1-47-14-89.5t-39-75t-65.5-52T331-10q-58,0-97.5,21.5T170,65V-167q0-10-6.5-16.5T147-190H98ZM311,71q51,0 80.5,22.5t42.5,59T449,231q2,29 0,58q-2,42-15,78.5t-42.5,59T311,449q-50,0-80.5-23t-45-58.5T170,295q-1-16-1-38t1-39q1-35 16-69t46-56t79-22Z" />
      <glyph unicode="&#xff;" glyph-name="gid120" horiz-adv-x="552" d="M165-190q-8,0-14,6t-6,14q0,4 1,8t4,10L227,31L36,482q-5,12-5,17q0,9 6,15t15,6h49q11,0 16.5-5t7.5-12L277,139L433,503q3,7 8.5,12t16.5,5h47q9,0 15-6t6-14q0-5-5-18L237-173q-3-7-8.5-12T212-190H165ZM331,621q-11,0-17,6t-6,16v54q0,10 6,16.5t17,6.5h54q10,0 16.5-6.5T408,697V643q0-10-6.5-16T385,621H331Zm-170,0q-10,0-16,6t-6,16v54q0,10 6,16.5t16,6.5h55q10,0 16.5-6.5T239,697V643q0-10-6.5-16T216,621H161Z" />
      <glyph unicode="&#x2013;" glyph-name="gid211" horiz-adv-x="574" d="M92,258q-10,0-16.5,6.5T69,281v38q0,10 6.5,16.5T92,342H482q11,0 17-6.5t6-16.5V281q0-10-6-16.5T482,258H92Z" />
      <glyph unicode="&#x2014;" glyph-name="gid212" horiz-adv-x="764" d="M92,258q-10,0-16.5,6.5T69,281v38q0,10 6.5,16.5T92,342H672q11,0 17-6.5t6-16.5V281q0-10-6-16.5T672,258H92Z" />
      <glyph unicode="&#x2018;" glyph-name="gid228" horiz-adv-x="235" d="M67,517q-7,0-11.5,5T51,534q0,8 3,16l53,137q5,10 11,16.5t18,6.5h33q8,0 12.5-6t2.5-16L162,546q-1-12-8-20.5T134,517H67Z" />
      <glyph unicode="&#x2019;" glyph-name="gid229" horiz-adv-x="228" d="M73,517q-8,0-12.5,6T57,538L80,681q2,12 8.5,20.5T108,710h67q7,0 11.5-5.5T191,693q0-8-4-16L135,540q-4-10-10.5-16.5T106,517H73Z" />
      <glyph unicode="&#x201a;" glyph-name="gid224" horiz-adv-x="249" d="M67-75q-9,0-13,6T51-53L74,89q2,12 8,20.5t20,8.5h66q8,0 12.5-5t4.5-12q0-8-4-16L129-52q-4-10-10.5-16.5T99-75H67Z" />
      <glyph unicode="&#x201c;" glyph-name="gid226" horiz-adv-x="395" d="M227,517q-7,0-11.5,5T211,534q0,8 3,16l53,137q5,10 11,16.5t18,6.5h33q8,0 12.5-6t2.5-16L322,546q-1-12-8-20.5T294,517H227ZM67,517q-7,0-11.5,5T51,534q0,8 3,16l53,137q5,10 11,16.5t18,6.5h33q8,0 12.5-6t2.5-16L162,546q-1-12-8-20.5T134,517H67Z" />
      <glyph unicode="&#x201d;" glyph-name="gid227" horiz-adv-x="388" d="M233,517q-9,0-13,6t-3,15l23,143q2,12 8,20.5t20,8.5h66q8,0 12.5-5.5T351,693q0-8-4-16L295,540q-4-10-10.5-16.5T265,517H233ZM73,517q-8,0-12.5,6T57,538L80,681q2,12 8.5,20.5T108,710h67q7,0 11.5-5.5T191,693q0-8-4-16L135,540q-4-10-10.5-16.5T106,517H73Z" />
      <glyph unicode="&#x201e;" glyph-name="gid225" horiz-adv-x="409" d="M227-75q-9,0-13,6t-3,15L233,89q2,12 8.5,20.5T262,118h66q8,0 12.5-5t4.5-12q0-8-4-16L288-52q-4-10-10-16.5T259-75H227ZM67-75q-9,0-13,6T51-53L74,89q2,12 8,20.5t20,8.5h66q8,0 12.5-5t4.5-12q0-8-4-16L129-52q-4-10-10.5-16.5T99-75H67Z" />
      <glyph unicode="&#x2022;" glyph-name="gid202" horiz-adv-x="382" d="M191,202q-29,0-54,14.5t-39.5,39T83,309q0,30 14.5,54.5t39.5,39T191,417q30,0 54-14.5t38.5-39T298,309q0-29-14.5-53.5t-38.5-39T191,202Z" />
      <glyph unicode="&#x2039;" glyph-name="gid232" horiz-adv-x="352" d="M274,85q-5,0-10.5,2.5T252,95L59,283q-10,9-13,17t-4,16v26q1,8 4,16t13,17L252,563q6,5 11.5,8t10.5,3q9,0 15-6t6-15V513q0-13-4-20.5T277,475L126,329L277,183q10-10 14-17.5t4-20.5V105q0-9-6-14.5T274,85Z" />
      <glyph unicode="&#x203a;" glyph-name="gid233" horiz-adv-x="352" d="M78,85q-9,0-15,5.5T57,105v40q0,13 4,20.5T75,183L226,329L75,475q-10,10-14,17.5T57,513v40q0,9 6,15t15,6q5,0 10.5-3t11.5-8L293,375q9-9 12.5-17t4.5-16V316q-1-8-4.5-16T293,283L100,95q-6-5-11.5-7.5T78,85Z" />
    </font>
</defs>
</svg>
