<?xml version="1.0" standalone="no"?>
<!DOCTYPE svg PUBLIC "-//W3C//DTD SVG 1.1//EN" "http://www.w3.org/Graphics/SVG/1.1/DTD/svg11.dtd">
<svg xmlns="http://www.w3.org/2000/svg">
<defs >
<font id="EncodeSansCondensed" horiz-adv-x="979" ><font-face
    font-family="Encode Sans Condensed"
    units-per-em="2000"
    panose-1="0 0 5 6 0 0 0 0 0 0"
    ascent="2060"
    descent="-440"
    alphabetic="0" />
<glyph unicode=" " glyph-name="space" horiz-adv-x="421" />
<glyph unicode="!" glyph-name="exclam" horiz-adv-x="449" d="M176 373L143 918V1480H306V918L274 373H176ZM175 -13T145 16T114 95Q114 144 144 174T224 205Q273 205 304 175T335 95Q335 47 304 17T224 -13Q175 -13 145 16Z" />
<glyph unicode="&quot;" glyph-name="quotedbl" horiz-adv-x="674" d="M139 918L105 1616H266L232 918H139ZM442 918L408 1616H569L535 918H442Z" />
<glyph unicode="#" glyph-name="numbersign" horiz-adv-x="1053" d="M963 892H770L744 588H963V464H734L695 0H570L609 464H398L359 0H234L273 464H90V588H283L309 892H90V1016H319L358 1480H483L444 1016H655L694 1480H819L780 1016H963V892ZM619 588L645 892H434L408
588H619Z" />
<glyph unicode="$" glyph-name="dollar" horiz-adv-x="915" d="M859 234T774 131T529 -5V-240H387V-19H383Q312 -19 231 -5T78 34V170Q237 117 384 117Q702 117 702 385Q702 460 677 511T597 599T447 669L377 693Q219 748 137 845T55 1095Q55 1253 139 1354T387
1486V1720H529V1499H537Q603 1499 674 1490T798 1463V1327Q680 1363 544 1363Q212 1363 212 1106Q212 1034 236 985T312 900T454 832L524 808Q691 751 775 653T859 397Q859 234 774 131Z" />
<glyph unicode="%" glyph-name="percent" horiz-adv-x="1672" d="M248 575T166 685T84 1037Q84 1499 396 1499Q707 1499 707 1037Q707 795 625 685T396 575Q248 575 166 685ZM496 0L1045 1480H1176L627 0H496ZM483 685T530 764T577 1035Q577 1229 531 1308T396
1388Q308 1388 261 1309T214 1038Q214 844 261 765T396 685Q483 685 530 764ZM965 -18T965 444Q965 686 1047 796T1276 906Q1424 906 1506 796T1588 444Q1588 -18 1276 -18Q965 -18 965 444ZM1364 92T1411 171T1458 443Q1458 637 1411 716T1276 796Q1188 796 1141
717T1094 446Q1094 252 1141 172T1276 92Q1364 92 1411 171Z" />
<glyph unicode="&amp;" glyph-name="ampersand" horiz-adv-x="1315" d="M1227 -20L1007 173Q942 78 836 30T590 -18Q444 -18 338 34T175 181T119 405Q119 535 177 635T340 796Q293 865 273 932T252 1078Q252 1282 373 1390T730 1499Q826 1499 928 1476V1340Q837
1363 737 1363Q570 1363 490 1292T409 1080Q409 1013 427 958T490 844T616 710L962 407Q971 463 971 531Q971 671 936 799H1070Q1087 736 1095 667T1103 534Q1103 410 1072 309L1315 96L1227 -20ZM821 107T911 258L528 594Q459 656 413 707Q275 604 275 422Q275
325 314 254T427 145T604 107Q821 107 911 258Z" />
<glyph unicode="&apos;" glyph-name="quotesingle" horiz-adv-x="371" d="M139 918L105 1616H266L232 918H139Z" />
<glyph unicode="(" glyph-name="parenleft" horiz-adv-x="580" d="M106 -6T106 588Q106 1182 398 1616H551Q266 1168 266 588Q266 8 551 -440H398Q106 -6 106 588Z" />
<glyph unicode=")" glyph-name="parenright" horiz-adv-x="580" d="M314 8T314 588Q314 1168 29 1616H182Q473 1184 473 588Q473 -8 182 -440H29Q314 8 314 588Z" />
<glyph unicode="*" glyph-name="asterisk" horiz-adv-x="877" d="M494 1187L632 1038L727 907L633 838L537 969L438 1146L340 969L244 838L149 907L245 1038L382 1187L184 1227L30 1277L66 1388L219 1337L404 1252L380 1454V1616H497V1454L473 1252L658 1337L810
1388L847 1277L693 1227L494 1187Z" />
<glyph unicode="+" glyph-name="plus" horiz-adv-x="1021" d="M444 362V697H127V823H444V1158H577V823H895V697H577V362H444Z" />
<glyph unicode="," glyph-name="comma" horiz-adv-x="409" d="M256 208T285 172T315 63Q315 -36 289 -133T217 -316H126Q159 -227 176 -155T198 -13Q152 -11 123 19T94 98Q94 149 123 178T201 208Q256 208 285 172Z" />
<glyph unicode="-" glyph-name="hyphen" horiz-adv-x="699" d="M127 498V627H572V498H127Z" />
<glyph unicode="." glyph-name="period" horiz-adv-x="409" d="M155 -13T125 17T94 97Q94 147 124 177T204 208Q254 208 284 178T315 97Q315 47 284 17T204 -13Q155 -13 125 17Z" />
<glyph unicode="/" glyph-name="slash" horiz-adv-x="505" d="M0 -240L356 1616H505L149 -240H0Z" />
<glyph unicode="0" glyph-name="zero" horiz-adv-x="1085" d="M324 -19T210 159T96 740Q96 1142 209 1320T542 1499Q761 1499 874 1321T988 740Q988 338 874 160T542 -19Q324 -19 210 159ZM637 116T700 173T798 368T833 737Q833 972 799 1110T701 1306T542 1364Q448
1364 384 1307T286 1112T251 743Q251 508 285 370T384 174T542 116Q637 116 700 173Z" />
<glyph unicode="1" glyph-name="one" horiz-adv-x="597" d="M352 1485H444V0H290V1289L17 1091V1241L352 1485Z" />
<glyph unicode="2" glyph-name="two" horiz-adv-x="851" d="M797 137V0H47V88L412 667Q501 808 540 909T579 1105Q579 1243 509 1303T297 1363Q153 1363 30 1309V1446Q83 1470 161 1484T313 1499Q514 1499 623 1408T733 1121Q733 1006 692 890T547 612L244 137H797Z" />
<glyph unicode="3" glyph-name="three" horiz-adv-x="891" d="M668 735T747 638T826 390Q826 260 769 168T605 29T351 -19Q186 -19 42 32V163Q114 137 193 124T346 111Q504 111 590 183T676 396Q676 538 588 616T319 694H194V825H264Q443 825 537 903T631 1118Q631
1245 559 1307T341 1369Q192 1369 65 1315V1446Q119 1470 198 1484T354 1499Q563 1499 672 1404T781 1128Q781 998 712 903T516 769Q668 735 747 638Z" />
<glyph unicode="4" glyph-name="four" horiz-adv-x="1042" d="M1005 484V358H816V0H674V358H44V446L543 1480H696L217 484H674L695 980H816V484H1005Z" />
<glyph unicode="5" glyph-name="five" horiz-adv-x="896" d="M594 832T722 726T850 413Q850 202 728 92T378 -19Q209 -19 68 33V164Q141 139 221 125T375 111Q537 111 618 185T700 408Q700 510 657 575T519 676T267 722L114 731L160 1480H790V1348H300L267 853L331
849Q594 832 722 726Z" />
<glyph unicode="6" glyph-name="six" horiz-adv-x="1007" d="M674 850T764 803T908 660T961 423Q961 280 909 181T767 31T562 -19Q351 -19 231 146T110 693Q110 1116 253 1307T672 1499Q734 1499 792 1490T897 1460V1327Q798 1367 672 1367Q537 1367 448 1306T311
1107T263 741Q316 793 394 821T561 850Q674 850 764 803ZM635 108T692 140T782 241T816 416Q816 573 740 648T537 724Q459 724 387 696T264 609Q270 418 309 308T412 153T564 108Q635 108 692 140Z" />
<glyph unicode="7" glyph-name="seven" horiz-adv-x="823" d="M9 1480H767V1392L297 0H138L600 1343H9V1480Z" />
<glyph unicode="8" glyph-name="eight" horiz-adv-x="1085" d="M829 708T889 655T977 533T1004 372Q1004 256 949 167T792 30T552 -19Q402 -19 296 28T135 162T80 369Q80 498 150 601T346 758Q227 822 174 909T121 1118Q121 1233 172 1319T318 1452T544 1499Q671
1499 765 1454T911 1324T962 1125Q962 1006 903 911T728 753Q829 708 889 655ZM272 1043T300 989T396 891T590 806Q601 803 610 799Q723 859 773 933T824 1117Q824 1242 751 1309T545 1377Q415 1377 344 1309T272 1123Q272 1043 300 989ZM695 103T774 171T854 363Q854
447 825 502T728 599T533 681Q498 692 459 707Q350 663 290 577T230 378Q230 245 311 174T552 103Q695 103 774 171Z" />
<glyph unicode="9" glyph-name="nine" horiz-adv-x="1007" d="M656 1499T776 1334T897 787Q897 364 754 173T335 -19Q273 -19 215 -10T110 20V153Q209 113 335 113Q470 113 559 174T696 373T744 739Q691 687 613 659T446 630Q333 630 243 677T99 820T46 1057Q46
1200 98 1299T240 1449T445 1499Q656 1499 776 1334ZM548 756T620 784T743 871Q737 1062 698 1172T595 1327T443 1372Q372 1372 315 1340T225 1239T191 1064Q191 907 267 832T470 756Q548 756 620 784Z" />
<glyph unicode=":" glyph-name="colon" horiz-adv-x="409" d="M155 -13T125 17T94 97Q94 147 124 177T204 208Q254 208 284 178T315 97Q315 47 284 17T204 -13Q155 -13 125 17ZM155 877T125 907T94 987Q94 1037 124 1067T204 1098Q254 1098 284 1068T315 987Q315
937 284 907T204 877Q155 877 125 907Z" />
<glyph unicode=";" glyph-name="semicolon" horiz-adv-x="409" d="M256 208T285 172T315 63Q315 -36 289 -133T217 -316H126Q159 -227 176 -155T198 -13Q152 -11 123 19T94 98Q94 149 123 178T201 208Q256 208 285 172ZM155 877T125 907T94 987Q94 1037 124 1067T204
1098Q254 1098 284 1068T315 987Q315 937 284 907T204 877Q155 877 125 907Z" />
<glyph unicode="&lt;" glyph-name="less" horiz-adv-x="1021" d="M895 1160V1028L259 760L895 492V360L127 690V830L895 1160Z" />
<glyph unicode="=" glyph-name="equal" horiz-adv-x="1021" d="M127 892V1018H895V892H127ZM127 502V628H895V502H127Z" />
<glyph unicode="&gt;" glyph-name="greater" horiz-adv-x="1021" d="M127 1160L895 830V690L127 360V492L763 760L127 1028V1160Z" />
<glyph unicode="?" glyph-name="question" horiz-adv-x="800" d="M271 771Q394 814 465 864T567 975T598 1118Q598 1245 526 1307T307 1369Q159 1369 32 1315V1446Q86 1470 165 1484T322 1499Q530 1499 639 1404T748 1128Q748 1026 714 948T605 808T410 693L395
361H298L271 771ZM298 -13T267 17T236 95Q236 144 266 174T346 205Q395 205 426 175T457 95Q457 48 426 18T346 -13Q298 -13 267 17Z" />
<glyph unicode="@" glyph-name="at" horiz-adv-x="1662" d="M1199 1498T1387 1275T1575 567Q1575 363 1534 233T1421 42T1256 -18Q1174 -18 1121 19T1046 125H1036Q993 53 923 18T766 -18Q680 -18 614 16T512 117T475 277Q475 423 561 502T831 600L1032 622V733Q1032
822 1006 873T929 945T794 967Q737 967 671 956T542 921L543 1051Q600 1072 675 1084T816 1097Q940 1097 1020 1061T1140 944T1181 727V242Q1181 169 1204 135T1280 100Q1355 100 1403 206T1452 561Q1452 865 1382 1045T1176 1304T837 1382Q632 1382 497 1302T291
1032T219 523Q219 197 292 7T507 -263T872 -344Q960 -344 1042 -330T1213 -287V-405Q1048 -460 872 -460Q614 -460 441 -363T177 -49T86 520Q86 1035 278 1266T837 1498Q1199 1498 1387 1275ZM870 107T929 138T1032 239V516L842 497Q732 485 680 436T628 295Q628
200 674 154T808 107Q870 107 929 138Z" />
<glyph unicode="A" glyph-name="A" horiz-adv-x="1175" d="M1002 0L855 479H316L170 0H17L478 1480H697L1158 0H1002ZM358 615H814L586 1361L358 615Z" />
<glyph unicode="B" glyph-name="B" horiz-adv-x="1130" d="M918 736T992 642T1067 397Q1067 191 922 89T462 -13Q299 -13 144 7V1462Q321 1496 496 1496Q680 1496 797 1455T969 1327T1025 1106Q1025 981 964 890T773 765Q918 736 992 642ZM395 1368T295 1351V825H517Q652
825 731 856T843 947T877 1098Q877 1195 841 1254T725 1340T510 1368Q395 1368 295 1351ZM648 115T741 145T877 238T919 401Q919 549 831 621T553 694H295V124Q381 115 493 115Q648 115 741 145Z" />
<glyph unicode="C" glyph-name="C" horiz-adv-x="975" d="M482 -19T354 54T156 295T86 737Q86 1139 238 1319T686 1499Q824 1499 953 1461V1324Q887 1345 824 1354T690 1363Q541 1363 445 1305T298 1110T248 741Q248 504 298 367T443 174T684 117Q749 117 813
129T953 168V31Q892 8 819 -5T670 -19Q482 -19 354 54Z" />
<glyph unicode="D" glyph-name="D" horiz-adv-x="1202" d="M301 -13T144 3V1463Q326 1496 464 1496Q792 1496 954 1312T1116 740Q1116 476 1039 310T811 65T429 -13Q301 -13 144 3ZM628 122T737 183T901 380T956 740Q956 961 904 1098T746 1298T474 1361Q387 1361
298 1347V130Q378 122 459 122Q628 122 737 183Z" />
<glyph unicode="E" glyph-name="E" horiz-adv-x="994" d="M296 137H954V0H144V1480H944V1343H296V828H850V691H296V137Z" />
<glyph unicode="F" glyph-name="F" horiz-adv-x="952" d="M936 1342H298V816H844V678H298V0H144V1480H936V1342Z" />
<glyph unicode="G" glyph-name="G" horiz-adv-x="1152" d="M1036 720V13Q887 -13 763 -13Q536 -13 387 62T162 302T86 739Q86 1141 249 1320T728 1499Q875 1499 1012 1460V1323Q878 1363 736 1363Q572 1363 466 1305T304 1110T248 737Q248 507 303 373T468 181T752
123Q824 123 890 132V720H1036Z" />
<glyph unicode="H" glyph-name="H" horiz-adv-x="1259" d="M144 0V1480H298V831H961V1480H1115V0H961V688H298V0H144Z" />
<glyph unicode="I" glyph-name="I" horiz-adv-x="441" d="M144 0V1480H298V0H144Z" />
<glyph unicode="J" glyph-name="J" horiz-adv-x="441" d="M-18 -273Q71 -135 107 -10T144 291V1480H298V273Q293 93 246 -47T87 -343L-18 -273Z" />
<glyph unicode="K" glyph-name="K" horiz-adv-x="1092" d="M968 0L467 688H298V0H144V1480H298V830H471L932 1480H1098L587 762L1139 0H968Z" />
<glyph unicode="L" glyph-name="L" horiz-adv-x="929" d="M144 0V1480H298V140H925V0H144Z" />
<glyph unicode="M" glyph-name="M" horiz-adv-x="1574" d="M1242 1480H1426V0H1281V1235L855 205H719L293 1224V0H148V1480H332L790 372L1242 1480Z" />
<glyph unicode="N" glyph-name="N" horiz-adv-x="1283" d="M994 1480H1139V0H980L289 1222V0H144V1480H303L994 258V1480Z" />
<glyph unicode="O" glyph-name="O" horiz-adv-x="1225" d="M86 -19T86 740Q86 1499 613 1499Q1139 1499 1139 740Q1139 -19 613 -19Q86 -19 86 740ZM730 116T810 174T935 368T979 735Q979 970 935 1108T811 1305T613 1364Q495 1364 415 1306T290 1112T246 745Q246
510 290 372T414 175T613 116Q730 116 810 174Z" />
<glyph unicode="P" glyph-name="P" horiz-adv-x="1097" d="M144 1463Q326 1496 471 1496Q745 1496 881 1372T1017 989Q1017 485 452 485Q369 485 298 492V0H144V1463ZM666 617T765 706T864 985Q864 1183 771 1273T481 1364Q388 1364 298 1350V626Q365 617 457
617Q666 617 765 706Z" />
<glyph unicode="Q" glyph-name="Q" horiz-adv-x="1225" d="M1139 394T1025 205T687 -2Q876 -69 1116 -93L1088 -226Q700 -169 485 -60T178 238T86 740Q86 1499 613 1499Q1139 1499 1139 740Q1139 394 1025 205ZM246 510T290 372T414 175T613 116Q730 116 810 174T935
368T979 735Q979 970 935 1108T811 1305T613 1364Q495 1364 415 1306T290 1112T246 745Q246 510 290 372Z" />
<glyph unicode="R" glyph-name="R" horiz-adv-x="1162" d="M962 0L541 615Q499 612 453 612Q371 612 296 617V0H144V1463Q233 1479 314 1487T486 1496Q752 1496 883 1387T1015 1059Q1016 893 933 787T690 639L1131 0H962ZM666 740T766 816T867 1057Q867 1216 779
1291T496 1367Q389 1367 296 1351V746Q384 740 449 740Q666 740 766 816Z" />
<glyph unicode="S" glyph-name="S" horiz-adv-x="915" d="M313 -19T231 -5T78 35V171Q235 117 387 117Q544 117 623 184T702 385Q702 460 677 511T597 599T447 669L377 693Q219 748 137 845T55 1095Q55 1221 109 1311T270 1450T531 1499Q600 1499 672 1489T798
1461V1325Q678 1363 539 1363Q212 1363 212 1106Q212 1034 236 985T312 900T454 832L524 808Q691 751 775 653T859 397Q859 266 804 173T642 30T386 -19Q313 -19 231 -5Z" />
<glyph unicode="T" glyph-name="T" horiz-adv-x="1034" d="M440 0V1340H7V1480H1027V1340H594V0H440Z" />
<glyph unicode="U" glyph-name="U" horiz-adv-x="1235" d="M452 -19T346 38T188 215T136 522V1480H290V503Q290 303 368 210T620 117Q792 117 870 210T949 503V1480H1099V522Q1099 335 1049 216T893 39T620 -19Q452 -19 346 38Z" />
<glyph unicode="V" glyph-name="V" horiz-adv-x="1146" d="M993 1480H1143L687 0H459L3 1480H163L576 121L993 1480Z" />
<glyph unicode="W" glyph-name="W" horiz-adv-x="1840" d="M1651 1480H1797L1439 0H1236L923 1293L604 0H401L42 1480H199L511 154L834 1480H1015L1333 150L1651 1480Z" />
<glyph unicode="X" glyph-name="X" horiz-adv-x="1133" d="M656 756L1120 0H948L566 626L182 0H10L476 755L29 1480H201L566 886L931 1480H1101L656 756Z" />
<glyph unicode="Y" glyph-name="Y" horiz-adv-x="1034" d="M1062 1480L594 659V0H441V658L-35 1480H130L520 804L907 1480H1062Z" />
<glyph unicode="Z" glyph-name="Z" horiz-adv-x="993" d="M248 138H943V0H50V88L735 1342H60V1480H933V1392L248 138Z" />
<glyph unicode="[" glyph-name="bracketleft" horiz-adv-x="580" d="M164 -440V1616H617V1490H316V-314H617V-440H164Z" />
<glyph unicode="\" glyph-name="backslash" horiz-adv-x="505" d="M356 -240L0 1616H149L505 -240H356Z" />
<glyph unicode="]" glyph-name="bracketright" horiz-adv-x="580" d="M-37 -440V-314H264V1490H-37V1616H416V-440H-37Z" />
<glyph unicode="^" glyph-name="asciicircum" horiz-adv-x="1053" d="M955 740H805L526 1346L248 740H98L449 1480H602L955 740Z" />
<glyph unicode="_" glyph-name="underscore" horiz-adv-x="966" d="M87 -126V0H878V-126H87Z" />
<glyph unicode="`" glyph-name="grave" horiz-adv-x="906" d="M388 1252L198 1616H354L518 1252H388Z" />
<glyph unicode="a" glyph-name="a" horiz-adv-x="893" d="M532 1102T612 1066T734 948T775 725V0H648L637 119H627Q582 51 514 17T360 -18Q273 -18 207 17T105 118T68 277Q68 423 155 503T425 601L626 622V732Q626 824 600 876T521 950T384 972Q327 972 261 962T131
929V1059Q189 1079 264 1090T406 1102Q532 1102 612 1066ZM464 105T522 136T626 238V515L436 496Q327 485 275 435T222 294Q222 199 268 152T402 105Q464 105 522 136Z" />
<glyph unicode="b" glyph-name="b" horiz-adv-x="964" d="M332 -19T258 -7T127 25V1616H279V981H288Q325 1034 388 1068T532 1102Q690 1102 789 975T889 562Q889 -19 401 -19Q332 -19 258 -7ZM570 107T651 209T732 547Q732 711 701 804T615 932T484 968Q422 968
366 937T279 850V125Q304 117 340 112T409 107Q570 107 651 209Z" />
<glyph unicode="c" glyph-name="c" horiz-adv-x="740" d="M286 -19T181 113T75 542Q75 744 128 867T283 1046T537 1102Q634 1102 718 1081V948Q635 969 560 969Q445 969 375 930T269 799T234 547Q234 383 266 289T361 154T523 114Q605 114 718 152V20Q607 -19
494 -19Q286 -19 181 113Z" />
<glyph unicode="d" glyph-name="d" horiz-adv-x="964" d="M338 -19T256 33T124 206T75 521Q75 816 198 958T568 1101Q621 1101 686 1094V1616H838V0H707L696 110H686Q649 52 586 17T442 -19Q338 -19 256 33ZM541 115T597 147T686 238V964Q661 969 625 972T558
976Q395 976 314 874T232 536Q232 371 263 279T349 151T479 115Q541 115 597 147Z" />
<glyph unicode="e" glyph-name="e" horiz-adv-x="888" d="M824 490H231Q234 347 268 264T369 146T543 110Q639 110 774 150V20Q707 -1 648 -10T527 -19Q372 -19 273 36T125 216T75 544Q75 831 177 966T461 1102Q638 1102 731 968T824 541V490ZM353 988T294 902T231
599H676Q674 747 648 833T575 953T460 988Q353 988 294 902Z" />
<glyph unicode="f" glyph-name="f" horiz-adv-x="609" d="M443 1506T393 1458T343 1302V1085H624V959H343V0H192V959H8V1085H192V1297Q192 1463 278 1549T533 1636Q604 1636 660 1625V1495Q599 1506 547 1506Q443 1506 393 1458Z" />
<glyph unicode="g" glyph-name="g" horiz-adv-x="964" d="M339 -460T268 -450T141 -419V-288Q272 -332 395 -332Q494 -332 557 -302T653 -202T686 -16V105H676Q639 52 576 18T432 -16Q332 -16 252 36T124 208T75 521Q75 816 198 958T564 1102Q632 1102 707 1090T838
1058V5Q838 -241 731 -350T404 -460Q339 -460 268 -450ZM542 117T598 147T686 235V960Q658 967 622 971T555 976Q394 976 313 874T232 536Q232 372 263 280T348 153T480 117Q542 117 598 147Z" />
<glyph unicode="h" glyph-name="h" horiz-adv-x="974" d="M127 1616H279V964H288Q341 1033 412 1067T571 1102Q702 1102 779 1021T856 754V0H704V747Q704 864 657 912T523 961Q457 961 389 927T279 820V0H127V1616Z" />
<glyph unicode="i" glyph-name="i" horiz-adv-x="406" d="M127 0V1085H279V0H127ZM152 1320T124 1347T95 1421Q95 1468 123 1495T203 1523Q254 1523 282 1496T310 1421Q310 1374 282 1347T203 1320Q152 1320 124 1347Z" />
<glyph unicode="j" glyph-name="j" horiz-adv-x="406" d="M-35 -395Q54 -257 90 -132T127 170V1085H279V181Q279 47 258 -59T191 -261T69 -464L-35 -395ZM152 1320T124 1347T95 1421Q95 1468 123 1495T203 1523Q254 1523 282 1496T310 1421Q310 1374 282 1347T203
1320Q152 1320 124 1347Z" />
<glyph unicode="k" glyph-name="k" horiz-adv-x="900" d="M759 0L419 493H279V0H127V1616H279V619H417L730 1085H896L546 558L929 0H759Z" />
<glyph unicode="l" glyph-name="l" horiz-adv-x="405" d="M127 0V1616H279V0H127Z" />
<glyph unicode="m" glyph-name="m" horiz-adv-x="1497" d="M1224 1102T1301 1021T1379 753V0H1227V747Q1227 963 1053 963Q994 963 931 930T826 822Q829 792 829 759V0H680V747Q680 863 635 913T510 963Q448 963 384 927T279 815V0H127V1085H255L267 963H277Q332
1033 403 1067T557 1102Q737 1102 798 949Q858 1028 935 1065T1094 1102Q1224 1102 1301 1021Z" />
<glyph unicode="n" glyph-name="n" horiz-adv-x="974" d="M127 1085H255L267 964H277Q332 1031 405 1066T565 1102Q700 1102 778 1022T856 758V0H704V749Q704 864 657 913T523 963Q456 963 389 928T279 820V0H127V1085Z" />
<glyph unicode="o" glyph-name="o" horiz-adv-x="953" d="M75 -19T75 541Q75 834 178 968T477 1102Q669 1102 773 967T878 542Q878 250 775 116T477 -19Q75 -19 75 541ZM557 105T610 144T692 278T721 538Q721 706 692 803T610 939T477 978Q397 978 344 940T261
806T232 545Q232 377 261 280T343 144T477 105Q557 105 610 144Z" />
<glyph unicode="p" glyph-name="p" horiz-adv-x="964" d="M127 1085H257L268 973H278Q315 1031 378 1066T522 1102Q685 1102 787 975T889 562Q889 267 766 124T396 -19Q337 -19 279 -11V-440H127V1085ZM569 107T650 209T732 547Q732 711 701 804T616 932T486 968Q424
968 367 936T279 845V119Q303 114 339 111T406 107Q569 107 650 209Z" />
<glyph unicode="q" glyph-name="q" horiz-adv-x="964" d="M686 103H676Q639 49 576 15T432 -19Q330 -19 251 34T123 207T75 522Q75 817 198 959T564 1102Q632 1102 707 1090T838 1058V-440H686V103ZM542 116T598 146T686 234V960Q658 967 622 971T555 976Q394
976 313 874T232 537Q232 373 263 280T349 152T480 116Q542 116 598 146Z" />
<glyph unicode="r" glyph-name="r" horiz-adv-x="622" d="M127 1085H254L267 937H277Q323 1016 394 1056T551 1096Q574 1096 612 1091V946Q588 950 542 950Q463 950 391 908T279 792V0H127V1085Z" />
<glyph unicode="s" glyph-name="s" horiz-adv-x="758" d="M203 -19T86 22V151Q218 109 332 109Q445 109 504 156T563 292Q563 367 527 407T416 469L306 498Q178 533 121 604T63 792Q63 883 107 953T236 1062T442 1102Q551 1102 653 1078V948Q599 961 551 967T448
973Q326 973 266 923T206 794Q206 726 240 687T348 626L458 596Q592 560 649 488T706 297Q706 199 662 128T534 19T334 -19Q203 -19 86 22Z" />
<glyph unicode="t" glyph-name="t" horiz-adv-x="644" d="M571 117T632 131V-2Q556 -19 491 -19Q342 -19 263 61T184 317V959H0V1085H184L209 1480H336V1085H618V959H336V338Q336 255 356 207T416 138T522 117Q571 117 632 131Z" />
<glyph unicode="u" glyph-name="u" horiz-adv-x="965" d="M274 -19T196 62T118 329V1085H270V335Q270 219 316 170T447 120Q511 120 578 155T686 262V1085H838V0H710L698 118H688Q632 50 560 16T407 -19Q274 -19 196 62Z" />
<glyph unicode="v" glyph-name="v" horiz-adv-x="909" d="M747 1085H903L555 0H354L6 1085H167L457 148L747 1085Z" />
<glyph unicode="w" glyph-name="w" horiz-adv-x="1493" d="M1312 1085H1454L1175 0H998L748 925L496 0H318L39 1085H186L414 171L661 1085H839L1083 175L1312 1085Z" />
<glyph unicode="x" glyph-name="x" horiz-adv-x="856" d="M518 549L856 0H687L427 429L167 0H3L338 547L7 1085H176L430 669L684 1085H848L518 549Z" />
<glyph unicode="y" glyph-name="y" horiz-adv-x="909" d="M747 1085H903L414 -440H262L404 0H354L6 1085H167L454 137L747 1085Z" />
<glyph unicode="z" glyph-name="z" horiz-adv-x="777" d="M226 126H734V0H51V93L548 959H61V1085H724V992L226 126Z" />
<glyph unicode="{" glyph-name="braceleft" horiz-adv-x="620" d="M356 761T320 704T205 625Q283 602 319 546T356 398V-154Q356 -244 400 -287T536 -331H657V-449Q591 -460 521 -460Q364 -460 284 -381T204 -147V406Q204 484 164 522T49 561H30V688H49Q124 688
164 727T204 844V1323Q204 1478 284 1557T521 1636Q591 1636 657 1625V1507H536Q445 1507 401 1464T356 1330V852Q356 761 320 704Z" />
<glyph unicode="|" glyph-name="bar" horiz-adv-x="428" d="M144 -440V1616H284V-440H144Z" />
<glyph unicode="}" glyph-name="braceright" horiz-adv-x="620" d="M590 688V561H570Q495 561 456 523T416 406V-147Q416 -302 336 -381T98 -460Q27 -460 -37 -449V-331H83Q175 -331 219 -288T264 -154V398Q264 489 300 545T415 625Q264 668 264 852V1330Q264
1420 220 1463T83 1507H-37V1625Q27 1636 98 1636Q255 1636 335 1557T416 1323V844Q416 766 455 727T570 688H590Z" />
<glyph unicode="~" glyph-name="asciitilde" horiz-adv-x="1021" d="M640 635T596 651T491 698Q435 726 402 738T333 751Q272 751 222 725T127 643V783Q163 829 215 852T332 876Q381 876 425 860T532 813Q586 786 620 773T689 760Q749 760 799 786T895 868V728Q820
635 689 635Q640 635 596 651Z" />
<glyph unicode="&#xa0;" glyph-name="uni00A0" horiz-adv-x="421" />
<glyph unicode="&#xa1;" glyph-name="exclamdown" horiz-adv-x="449" d="M273 1098T304 1068T335 988Q335 939 305 908T224 877Q175 877 145 907T114 988Q114 1038 144 1068T224 1098Q273 1098 304 1068ZM176 709H274L306 166V-380H143V166L176 709Z" />
<glyph unicode="&#xa2;" glyph-name="cent" horiz-adv-x="736" d="M444 969T374 930T269 799T234 547Q234 383 266 289T361 154T523 114Q605 114 718 152V20Q633 -10 551 -16V-240H420V-15Q248 7 162 139T75 542Q75 799 162 931T420 1093V1325H551V1102Q641 1100
718 1081V948Q635 969 556 969Q444 969 374 930Z" />
<glyph unicode="&#xa3;" glyph-name="sterling" horiz-adv-x="1090" d="M1044 135V0H72V135H267V687H72V813H267V1072Q267 1283 389 1391T750 1499Q817 1499 888 1490T1013 1463V1327Q895 1363 759 1363Q583 1363 501 1295T419 1075V813H868V687H419V135H1044Z" />
<glyph unicode="&#xa4;" glyph-name="currency" horiz-adv-x="1053" d="M891 466L990 370L897 276L801 376L731 464Q646 399 526 399Q407 399 321 463L252 376L156 276L63 370L162 466L253 537Q197 623 197 740Q197 856 253 942L162 1014L61 1110L155 1204L251
1104L322 1015Q406 1079 526 1079Q645 1079 731 1015L802 1104L898 1204L992 1110L891 1014L799 942Q856 857 856 740Q856 623 800 537L891 466ZM591 503T641 531T719 612T747 740Q747 809 721 863T646 947T528 977Q462 977 412 949T334 867T306 740Q306 667 334
614T411 532T526 503Q591 503 641 531Z" />
<glyph unicode="&#xa5;" glyph-name="yen" horiz-adv-x="1076" d="M1086 1480L665 746H912V637H615V411H912V302H615V0H461V302H164V411H461V637H164V746H411L-12 1480H154L542 804L930 1480H1086Z" />
<glyph unicode="&#xa6;" glyph-name="brokenbar" horiz-adv-x="428" d="M144 836V1616H284V836H144ZM144 -440V340H284V-440H144Z" />
<glyph unicode="&#xa7;" glyph-name="section" horiz-adv-x="859" d="M767 569T678 483Q711 447 726 401T741 294Q741 197 697 127T568 19T365 -19Q238 -19 121 19V143Q253 104 364 104Q479 104 538 151T598 287Q598 362 563 402T452 464L332 495Q207 529 150
600T93 786Q93 849 117 903T187 999Q118 1068 118 1186Q118 1278 162 1348T291 1457T499 1497Q607 1497 708 1475V1350Q611 1373 507 1373Q383 1373 323 1323T262 1194Q262 1126 296 1087T404 1026L523 994Q654 959 710 888T767 697Q767 569 678 483ZM494 581Q541
568 579 551Q637 608 637 690Q637 768 599 811T481 877L362 909Q312 923 285 935Q223 876 223 793Q223 721 259 678T374 612L494 581Z" />
<glyph unicode="&#xa8;" glyph-name="dieresis" horiz-adv-x="906" d="M226 1323T199 1349T172 1421Q172 1466 199 1493T271 1520Q316 1520 343 1493T371 1421Q371 1376 344 1350T271 1323Q226 1323 199 1349ZM589 1323T562 1349T535 1421Q535 1466 562 1493T634
1520Q679 1520 706 1493T734 1421Q734 1376 707 1350T634 1323Q589 1323 562 1349Z" />
<glyph unicode="&#xa9;" glyph-name="copyright" horiz-adv-x="1664" d="M610 -22T441 73T179 340T86 740Q86 967 179 1139T441 1407T832 1502Q1054 1502 1223 1407T1485 1140T1578 740Q1578 513 1485 341T1223 73T832 -22Q610 -22 441 73ZM1024 84T1168 165T1390
394T1469 740Q1469 937 1391 1085T1168 1315T832 1396Q640 1396 496 1315T274 1086T195 740Q195 543 273 395T496 165T832 84Q1024 84 1168 165ZM754 324T664 371T525 509T475 733Q475 863 525 955T670 1096T898 1144Q1000 1144 1090 1118V1003Q993 1028 907 1028Q759
1028 683 956T607 736Q607 588 680 514T887 440Q983 440 1090 477V363Q999 324 875 324Q754 324 664 371Z" />
<glyph unicode="&#xaa;" glyph-name="ordfeminine" horiz-adv-x="748" d="M447 1495T516 1465T620 1367T655 1184V610H537L526 705H517Q480 650 423 623T294 595Q222 595 167 624T80 708T49 834Q49 954 122 1019T354 1098L515 1113V1196Q515 1296 467 1336T313
1376Q217 1376 104 1339V1458Q155 1475 217 1485T337 1495Q447 1495 516 1465ZM388 707T434 730T515 806V1020L366 1006Q276 999 233 961T190 854Q190 780 229 744T340 707Q388 707 434 730Z" />
<glyph unicode="&#xab;" glyph-name="guillemotleft" horiz-adv-x="832" d="M287 137L97 563L287 988H438L247 563L438 137H287ZM624 137L434 563L624 988H775L584 563L775 137H624Z" />
<glyph unicode="&#xac;" glyph-name="logicalnot" horiz-adv-x="1240" d="M989 191V697H127V823H1122V191H989Z" />
<glyph unicode="&#xad;" glyph-name="uni00AD" horiz-adv-x="699" d="M127 498V627H572V498H127Z" />
<glyph unicode="&#xae;" glyph-name="registered" horiz-adv-x="1453" d="M906 1498T1044 1420T1260 1202T1337 882Q1337 702 1260 563T1045 346T727 268Q548 268 410 345T194 562T117 882Q117 1062 194 1202T409 1420T727 1498Q906 1498 1044 1420ZM882 358T998
422T1178 606T1242 882Q1242 1040 1179 1159T998 1343T727 1408Q572 1408 455 1343T275 1159T211 882Q211 724 274 606T455 423T727 358Q882 358 998 422ZM963 869T833 830L990 600H886L737 815H714H609L607 600H515V1192H714Q837 1192 900 1144T963 1003Q963 869
833 830ZM730 896Q803 896 837 922T872 1003Q872 1112 730 1112H609V896H730Z" />
<glyph unicode="&#xaf;" glyph-name="overscore" horiz-adv-x="906" d="M175 1368V1476H731V1368H175Z" />
<glyph unicode="&#xb0;" glyph-name="degree" horiz-adv-x="911" d="M358 823T281 866T161 987T117 1160Q117 1256 160 1333T281 1453T455 1497Q552 1497 629 1454T750 1333T794 1160Q794 1064 751 987T630 867T455 823Q358 823 281 866ZM520 930T571 958T651
1038T680 1160Q680 1230 652 1282T572 1362T455 1390Q390 1390 339 1362T260 1282T231 1160Q231 1091 259 1039T339 958T455 930Q520 930 571 958Z" />
<glyph unicode="&#xb1;" glyph-name="plusminus" horiz-adv-x="1021" d="M444 334V669H127V796H444V1130H577V796H895V669H577V334H444ZM127 1V127H895V1H127Z" />
<glyph unicode="&#xb2;" glyph-name="uni00B2" horiz-adv-x="717" d="M616 -23V-136H90V-63L341 318Q403 412 430 477T458 601Q458 688 411 727T265 766Q163 766 77 730V841Q116 858 170 867T282 877Q427 877 506 814T585 615Q585 539 555 460T452 274L256 -23H616Z" />
<glyph unicode="&#xb3;" glyph-name="uni00B3" horiz-adv-x="717" d="M526 362T580 297T634 130Q634 -4 544 -76T292 -149Q178 -149 73 -115V-7Q124 -25 180 -34T288 -43Q396 -43 453 2T511 137Q511 226 453 274T275 322H176V431H241Q357 431 418 479T480 613Q480
693 431 732T282 771Q176 771 89 734V841Q127 858 183 867T296 877Q446 877 524 812T603 624Q603 535 556 472T422 384Q526 362 580 297Z" />
<glyph unicode="&#xb4;" glyph-name="acute" horiz-adv-x="906" d="M388 1252L552 1616H707L518 1252H388Z" />
<glyph unicode="&#xb5;" glyph-name="uni00B5" horiz-adv-x="965" d="M838 1085V0H710L698 118H688Q637 50 572 16T435 -19Q327 -19 270 45V-440H118V1085H270V335Q270 219 316 170T447 120Q511 120 578 155T686 262V1085H838Z" />
<glyph unicode="&#xb6;" glyph-name="paragraph" horiz-adv-x="1097" d="M587 490Q525 485 486 485Q80 485 80 989Q80 1249 179 1372T484 1496Q591 1496 708 1480V0H587V490ZM833 0V1480H953V0H833Z" />
<glyph unicode="&#xb7;" glyph-name="middot" horiz-adv-x="409" d="M155 449T125 479T94 559Q94 609 124 639T204 670Q254 670 284 640T315 559Q315 509 284 479T204 449Q155 449 125 479Z" />
<glyph unicode="&#xb8;" glyph-name="cedilla" horiz-adv-x="906" d="M570 -116T606 -156T642 -259Q642 -331 592 -373T447 -416Q407 -416 368 -408T296 -384V-303Q365 -338 445 -338Q548 -338 548 -255Q548 -168 443 -168H413V20H503V-106Q570 -116 606 -156Z" />
<glyph unicode="&#xb9;" glyph-name="uni00B9" horiz-adv-x="717" d="M460 -23H646V-136H137V-23H333V710L134 566V688L382 868H460V-23Z" />
<glyph unicode="&#xba;" glyph-name="ordmasculine" horiz-adv-x="796" d="M234 595T145 705T55 1045Q55 1276 144 1385T398 1495Q562 1495 651 1385T741 1045Q741 816 652 706T398 595Q234 595 145 705ZM462 708T505 738T572 842T596 1045Q596 1175 573 1249T506
1352T398 1382Q334 1382 291 1353T224 1249T200 1045Q200 916 224 842T291 738T398 708Q462 708 505 738Z" />
<glyph unicode="&#xbb;" glyph-name="guillemotright" horiz-adv-x="832" d="M57 137L247 563L57 988H207L398 563L207 137H57ZM394 137L584 563L394 988H544L735 563L544 137H394Z" />
<glyph unicode="&#xbc;" glyph-name="onequarter" horiz-adv-x="1661" d="M460 729H646V616H137V729H333V1462L134 1318V1440L382 1620H460V729ZM404 -136L1125 1616H1257L536 -136H404ZM1633 201V98H1509V-136H1395V98H975V171L1300 864H1425L1116 201H1395L1422
526H1509V201H1633Z" />
<glyph unicode="&#xbd;" glyph-name="onehalf" horiz-adv-x="1661" d="M460 729H646V616H137V729H333V1462L134 1318V1440L382 1620H460V729ZM404 -136L1125 1616H1257L536 -136H404ZM1560 -23V-136H1034V-63L1285 318Q1347 412 1374 477T1402 601Q1402 688 1355
727T1209 766Q1107 766 1021 730V841Q1060 858 1114 867T1226 877Q1371 877 1450 814T1529 615Q1529 539 1499 460T1396 274L1200 -23H1560Z" />
<glyph unicode="&#xbe;" glyph-name="threequarters" horiz-adv-x="1661" d="M526 1114T580 1049T634 882Q634 748 544 676T292 603Q178 603 73 637V745Q124 727 180 718T288 709Q396 709 453 754T511 889Q511 978 453 1026T275 1074H176V1183H241Q357 1183 418
1231T480 1365Q480 1445 431 1484T282 1523Q176 1523 89 1486V1593Q127 1610 183 1619T296 1629Q446 1629 524 1564T603 1376Q603 1287 556 1224T422 1136Q526 1114 580 1049ZM404 -136L1125 1616H1257L536 -136H404ZM1633 201V98H1509V-136H1395V98H975V171L1300
864H1425L1116 201H1395L1422 526H1509V201H1633Z" />
<glyph unicode="&#xbf;" glyph-name="questiondown" horiz-adv-x="800" d="M502 1098T533 1068T564 990Q564 941 534 911T454 881Q404 881 374 911T343 990Q343 1037 374 1067T454 1098Q502 1098 533 1068ZM529 314Q407 271 336 222T233 113T202 -27Q202 -271
493 -271Q641 -271 768 -217V-347Q714 -371 635 -385T479 -400Q271 -400 162 -306T52 -37Q52 111 131 213T390 392L405 724H503L529 314Z" />
<glyph unicode="&#xc0;" glyph-name="Agrave" horiz-adv-x="1175" d="M1002 0L855 479H316L170 0H17L478 1480H697L1158 0H1002ZM358 615H814L586 1361L358 615ZM522 1608L358 1892H517L654 1608H522Z" />
<glyph unicode="&#xc1;" glyph-name="Aacute" horiz-adv-x="1175" d="M1002 0L855 479H316L170 0H17L478 1480H697L1158 0H1002ZM358 615H814L586 1361L358 615ZM522 1608L659 1892H817L654 1608H522Z" />
<glyph unicode="&#xc2;" glyph-name="Acircumflex" horiz-adv-x="1175" d="M1002 0L855 479H316L170 0H17L478 1480H697L1158 0H1002ZM358 615H814L586 1361L358 615ZM854 1608H734L588 1826L441 1608H322L517 1892H659L854 1608Z" />
<glyph unicode="&#xc3;" glyph-name="Atilde" horiz-adv-x="1175" d="M1002 0L855 479H316L170 0H17L478 1480H697L1158 0H1002ZM358 615H814L586 1361L358 615ZM689 1667T656 1677T573 1709Q529 1728 503 1736T448 1745Q401 1745 366 1728T296 1672V1783Q353
1849 449 1849Q487 1849 520 1839T603 1807Q644 1788 671 1779T728 1770Q774 1770 810 1787T880 1843V1733Q825 1667 727 1667Q689 1667 656 1677Z" />
<glyph unicode="&#xc4;" glyph-name="Adieresis" horiz-adv-x="1175" d="M1002 0L855 479H316L170 0H17L478 1480H697L1158 0H1002ZM358 615H814L586 1361L358 615ZM343 1658T316 1683T289 1751Q289 1795 316 1820T389 1846Q436 1846 463 1821T490 1751Q490 1708
463 1683T389 1658Q343 1658 316 1683ZM740 1658T713 1683T686 1751Q686 1795 713 1820T786 1846Q833 1846 860 1821T887 1751Q887 1708 860 1683T786 1658Q740 1658 713 1683Z" />
<glyph unicode="&#xc5;" glyph-name="Aring" horiz-adv-x="1175" d="M1002 0L855 479H316L170 0H17L478 1480H697L1158 0H1002ZM358 615H814L586 1361L358 615ZM532 1599T488 1624T418 1693T392 1793Q392 1848 417 1892T487 1961T588 1986Q644 1986 688 1961T758
1892T783 1793Q783 1738 758 1694T689 1624T588 1599Q532 1599 488 1624ZM640 1674T672 1706T704 1793Q704 1847 672 1879T588 1912Q536 1912 504 1880T472 1793Q472 1738 504 1706T588 1674Q640 1674 672 1706Z" />
<glyph unicode="&#xc6;" glyph-name="AE" horiz-adv-x="1624" d="M979 137H1584V0H837L812 479H323L172 0H17L487 1480H1574V1343H916L943 828H1480V691H950L979 137ZM366 616H805L768 1343H595L366 616Z" />
<glyph unicode="&#xc7;" glyph-name="Ccedilla" horiz-adv-x="975" d="M541 1363T445 1305T298 1110T248 741Q248 504 298 367T443 174T684 117Q749 117 813 129T953 168V31Q892 8 819 -5T670 -19H660V-103Q737 -111 781 -150T825 -258Q825 -333 771 -374T617
-416Q522 -416 440 -381V-300Q528 -338 611 -338Q729 -338 729 -253Q729 -210 698 -189T609 -168H570V-14Q333 13 210 190T86 737Q86 1139 238 1319T686 1499Q824 1499 953 1461V1324Q887 1345 824 1354T690 1363Q541 1363 445 1305Z" />
<glyph unicode="&#xc8;" glyph-name="Egrave" horiz-adv-x="994" d="M296 137H954V0H144V1480H944V1343H296V828H850V691H296V137ZM501 1608L337 1892H496L633 1608H501Z" />
<glyph unicode="&#xc9;" glyph-name="Eacute" horiz-adv-x="994" d="M296 137H954V0H144V1480H944V1343H296V828H850V691H296V137ZM501 1608L638 1892H796L633 1608H501Z" />
<glyph unicode="&#xca;" glyph-name="Ecircumflex" horiz-adv-x="994" d="M296 137H954V0H144V1480H944V1343H296V828H850V691H296V137ZM833 1608H713L567 1826L420 1608H301L496 1892H638L833 1608Z" />
<glyph unicode="&#xcb;" glyph-name="Edieresis" horiz-adv-x="994" d="M296 137H954V0H144V1480H944V1343H296V828H850V691H296V137ZM322 1658T295 1683T268 1751Q268 1795 295 1820T368 1846Q415 1846 442 1821T469 1751Q469 1708 442 1683T368 1658Q322 1658
295 1683ZM719 1658T692 1683T665 1751Q665 1795 692 1820T765 1846Q812 1846 839 1821T866 1751Q866 1708 839 1683T765 1658Q719 1658 692 1683Z" />
<glyph unicode="&#xcc;" glyph-name="Igrave" horiz-adv-x="441" d="M144 0V1480H298V0H144ZM155 1608L-9 1892H150L287 1608H155Z" />
<glyph unicode="&#xcd;" glyph-name="Iacute" horiz-adv-x="441" d="M144 0V1480H298V0H144ZM155 1608L292 1892H450L287 1608H155Z" />
<glyph unicode="&#xce;" glyph-name="Icircumflex" horiz-adv-x="441" d="M144 0V1480H298V0H144ZM487 1608H367L221 1826L74 1608H-45L150 1892H292L487 1608Z" />
<glyph unicode="&#xcf;" glyph-name="Idieresis" horiz-adv-x="441" d="M144 0V1480H298V0H144ZM-24 1658T-51 1683T-78 1751Q-78 1795 -51 1820T22 1846Q69 1846 96 1821T123 1751Q123 1708 96 1683T22 1658Q-24 1658 -51 1683ZM373 1658T346 1683T319 1751Q319
1795 346 1820T419 1846Q466 1846 493 1821T520 1751Q520 1708 493 1683T419 1658Q373 1658 346 1683Z" />
<glyph unicode="&#xd0;" glyph-name="Eth" horiz-adv-x="1202" d="M792 1496T954 1312T1116 740Q1116 476 1039 310T811 65T429 -13Q301 -13 144 3V706H-3V819H144V1463Q326 1496 464 1496Q792 1496 954 1312ZM628 122T737 183T901 380T956 740Q956 961 904 1098T746
1298T474 1361Q387 1361 298 1347V819H570V706H298V130Q378 122 459 122Q628 122 737 183Z" />
<glyph unicode="&#xd1;" glyph-name="Ntilde" horiz-adv-x="1283" d="M994 1480H1139V0H980L289 1222V0H144V1480H303L994 258V1480ZM742 1667T709 1677T626 1709Q582 1728 556 1736T501 1745Q454 1745 419 1728T349 1672V1783Q406 1849 502 1849Q540 1849 573
1839T656 1807Q697 1788 724 1779T781 1770Q827 1770 863 1787T933 1843V1733Q878 1667 780 1667Q742 1667 709 1677Z" />
<glyph unicode="&#xd2;" glyph-name="Ograve" horiz-adv-x="1225" d="M86 -19T86 740Q86 1499 613 1499Q1139 1499 1139 740Q1139 -19 613 -19Q86 -19 86 740ZM730 116T810 174T935 368T979 735Q979 970 935 1108T811 1305T613 1364Q495 1364 415 1306T290 1112T246
745Q246 510 290 372T414 175T613 116Q730 116 810 174ZM547 1608L383 1892H542L679 1608H547Z" />
<glyph unicode="&#xd3;" glyph-name="Oacute" horiz-adv-x="1225" d="M86 -19T86 740Q86 1499 613 1499Q1139 1499 1139 740Q1139 -19 613 -19Q86 -19 86 740ZM730 116T810 174T935 368T979 735Q979 970 935 1108T811 1305T613 1364Q495 1364 415 1306T290 1112T246
745Q246 510 290 372T414 175T613 116Q730 116 810 174ZM547 1608L684 1892H842L679 1608H547Z" />
<glyph unicode="&#xd4;" glyph-name="Ocircumflex" horiz-adv-x="1225" d="M86 -19T86 740Q86 1499 613 1499Q1139 1499 1139 740Q1139 -19 613 -19Q86 -19 86 740ZM730 116T810 174T935 368T979 735Q979 970 935 1108T811 1305T613 1364Q495 1364 415 1306T290
1112T246 745Q246 510 290 372T414 175T613 116Q730 116 810 174ZM879 1608H759L613 1826L466 1608H347L542 1892H684L879 1608Z" />
<glyph unicode="&#xd5;" glyph-name="Otilde" horiz-adv-x="1225" d="M86 -19T86 740Q86 1499 613 1499Q1139 1499 1139 740Q1139 -19 613 -19Q86 -19 86 740ZM730 116T810 174T935 368T979 735Q979 970 935 1108T811 1305T613 1364Q495 1364 415 1306T290 1112T246
745Q246 510 290 372T414 175T613 116Q730 116 810 174ZM714 1667T681 1677T598 1709Q554 1728 528 1736T473 1745Q426 1745 391 1728T321 1672V1783Q378 1849 474 1849Q512 1849 545 1839T628 1807Q669 1788 696 1779T753 1770Q799 1770 835 1787T905 1843V1733Q850
1667 752 1667Q714 1667 681 1677Z" />
<glyph unicode="&#xd6;" glyph-name="Odieresis" horiz-adv-x="1225" d="M86 -19T86 740Q86 1499 613 1499Q1139 1499 1139 740Q1139 -19 613 -19Q86 -19 86 740ZM730 116T810 174T935 368T979 735Q979 970 935 1108T811 1305T613 1364Q495 1364 415 1306T290
1112T246 745Q246 510 290 372T414 175T613 116Q730 116 810 174ZM368 1658T341 1683T314 1751Q314 1795 341 1820T414 1846Q461 1846 488 1821T515 1751Q515 1708 488 1683T414 1658Q368 1658 341 1683ZM765 1658T738 1683T711 1751Q711 1795 738 1820T811 1846Q858
1846 885 1821T912 1751Q912 1708 885 1683T811 1658Q765 1658 738 1683Z" />
<glyph unicode="&#xd7;" glyph-name="multiply" horiz-adv-x="964" d="M193 383L105 472L394 760L105 1048L193 1137L482 848L770 1137L859 1048L570 760L859 472L770 383L482 672L193 383Z" />
<glyph unicode="&#xd8;" glyph-name="Oslash" horiz-adv-x="1225" d="M1139 1105T1139 740Q1139 -19 613 -19Q403 -19 276 101L196 -28L111 26L209 184Q86 372 86 740Q86 1499 613 1499Q824 1499 949 1378L1030 1508L1115 1454L1017 1296Q1139 1105 1139 740ZM246
484T302 335L868 1247Q822 1309 759 1336T613 1364Q495 1364 415 1306T290 1112T246 745Q246 484 302 335ZM730 116T810 174T935 368T979 735Q979 995 923 1144L357 232Q403 171 467 144T613 116Q730 116 810 174Z" />
<glyph unicode="&#xd9;" glyph-name="Ugrave" horiz-adv-x="1235" d="M452 -19T346 38T188 215T136 522V1480H290V503Q290 303 368 210T620 117Q792 117 870 210T949 503V1480H1099V522Q1099 335 1049 216T893 39T620 -19Q452 -19 346 38ZM554 1608L390 1892H549L686
1608H554Z" />
<glyph unicode="&#xda;" glyph-name="Uacute" horiz-adv-x="1235" d="M452 -19T346 38T188 215T136 522V1480H290V503Q290 303 368 210T620 117Q792 117 870 210T949 503V1480H1099V522Q1099 335 1049 216T893 39T620 -19Q452 -19 346 38ZM554 1608L691 1892H849L686
1608H554Z" />
<glyph unicode="&#xdb;" glyph-name="Ucircumflex" horiz-adv-x="1235" d="M452 -19T346 38T188 215T136 522V1480H290V503Q290 303 368 210T620 117Q792 117 870 210T949 503V1480H1099V522Q1099 335 1049 216T893 39T620 -19Q452 -19 346 38ZM886 1608H766L620
1826L473 1608H354L549 1892H691L886 1608Z" />
<glyph unicode="&#xdc;" glyph-name="Udieresis" horiz-adv-x="1235" d="M452 -19T346 38T188 215T136 522V1480H290V503Q290 303 368 210T620 117Q792 117 870 210T949 503V1480H1099V522Q1099 335 1049 216T893 39T620 -19Q452 -19 346 38ZM375 1658T348 1683T321
1751Q321 1795 348 1820T421 1846Q468 1846 495 1821T522 1751Q522 1708 495 1683T421 1658Q375 1658 348 1683ZM772 1658T745 1683T718 1751Q718 1795 745 1820T818 1846Q865 1846 892 1821T919 1751Q919 1708 892 1683T818 1658Q772 1658 745 1683Z" />
<glyph unicode="&#xdd;" glyph-name="Yacute" horiz-adv-x="1034" d="M1062 1480L594 659V0H441V658L-35 1480H130L520 804L907 1480H1062ZM452 1608L589 1892H747L584 1608H452Z" />
<glyph unicode="&#xde;" glyph-name="Thorn" horiz-adv-x="1107" d="M144 1480H298V1253Q382 1265 472 1265Q746 1265 881 1142T1017 759Q1017 255 453 255Q369 255 298 262V0H144V1480ZM666 387T765 476T864 755Q864 953 771 1043T481 1134Q388 1134 298 1120V396Q365
387 457 387Q666 387 765 476Z" />
<glyph unicode="&#xdf;" glyph-name="germandbls" horiz-adv-x="1208" d="M1043 560T1099 488T1156 297Q1156 199 1112 128T984 19T783 -19Q651 -19 537 17V147Q659 109 779 109Q894 109 953 156T1013 292Q1013 367 978 407T867 469L757 498Q629 532 571 604T513
792Q513 882 556 951T685 1058T891 1097Q918 1097 935 1096Q940 1143 940 1183Q940 1360 863 1437T654 1515Q502 1515 423 1425T344 1130V0H192V957H8V1085H192V1135Q192 1382 311 1509T646 1636Q835 1636 947 1527T1059 1184Q1059 1125 1051 1065T1031 960Q972
973 902 973Q778 973 718 923T657 794Q657 726 691 687T799 626L909 596Q1043 560 1099 488Z" />
<glyph unicode="&#xe0;" glyph-name="agrave" horiz-adv-x="893" d="M532 1102T612 1066T734 948T775 725V0H648L637 119H627Q582 51 514 17T360 -18Q273 -18 207 17T105 118T68 277Q68 423 155 503T425 601L626 622V732Q626 824 600 876T521 950T384 972Q327
972 261 962T131 929V1059Q189 1079 264 1090T406 1102Q532 1102 612 1066ZM464 105T522 136T626 238V515L436 496Q327 485 275 435T222 294Q222 199 268 152T402 105Q464 105 522 136ZM377 1252L187 1616H343L507 1252H377Z" />
<glyph unicode="&#xe1;" glyph-name="aacute" horiz-adv-x="893" d="M532 1102T612 1066T734 948T775 725V0H648L637 119H627Q582 51 514 17T360 -18Q273 -18 207 17T105 118T68 277Q68 423 155 503T425 601L626 622V732Q626 824 600 876T521 950T384 972Q327
972 261 962T131 929V1059Q189 1079 264 1090T406 1102Q532 1102 612 1066ZM464 105T522 136T626 238V515L436 496Q327 485 275 435T222 294Q222 199 268 152T402 105Q464 105 522 136ZM377 1252L541 1616H696L507 1252H377Z" />
<glyph unicode="&#xe2;" glyph-name="acircumflex" horiz-adv-x="893" d="M532 1102T612 1066T734 948T775 725V0H648L637 119H627Q582 51 514 17T360 -18Q273 -18 207 17T105 118T68 277Q68 423 155 503T425 601L626 622V732Q626 824 600 876T521 950T384 972Q327
972 261 962T131 929V1059Q189 1079 264 1090T406 1102Q532 1102 612 1066ZM464 105T522 136T626 238V515L436 496Q327 485 275 435T222 294Q222 199 268 152T402 105Q464 105 522 136ZM693 1252H578L442 1539L306 1252H191L371 1616H513L693 1252Z" />
<glyph unicode="&#xe3;" glyph-name="atilde" horiz-adv-x="893" d="M532 1102T612 1066T734 948T775 725V0H648L637 119H627Q582 51 514 17T360 -18Q273 -18 207 17T105 118T68 277Q68 423 155 503T425 601L626 622V732Q626 824 600 876T521 950T384 972Q327
972 261 962T131 929V1059Q189 1079 264 1090T406 1102Q532 1102 612 1066ZM464 105T522 136T626 238V515L436 496Q327 485 275 435T222 294Q222 199 268 152T402 105Q464 105 522 136ZM536 1346T505 1357T427 1390Q391 1409 365 1418T312 1428Q268 1428 233 1410T164
1352V1466Q220 1534 313 1534Q348 1534 380 1523T457 1489Q495 1470 520 1461T571 1451Q615 1451 650 1469T720 1528V1413Q662 1346 570 1346Q536 1346 505 1357Z" />
<glyph unicode="&#xe4;" glyph-name="adieresis" horiz-adv-x="893" d="M532 1102T612 1066T734 948T775 725V0H648L637 119H627Q582 51 514 17T360 -18Q273 -18 207 17T105 118T68 277Q68 423 155 503T425 601L626 622V732Q626 824 600 876T521 950T384 972Q327
972 261 962T131 929V1059Q189 1079 264 1090T406 1102Q532 1102 612 1066ZM464 105T522 136T626 238V515L436 496Q327 485 275 435T222 294Q222 199 268 152T402 105Q464 105 522 136ZM215 1323T188 1349T161 1421Q161 1466 188 1493T260 1520Q305 1520 332 1493T360
1421Q360 1376 333 1350T260 1323Q215 1323 188 1349ZM578 1323T551 1349T524 1421Q524 1466 551 1493T623 1520Q668 1520 695 1493T723 1421Q723 1376 696 1350T623 1323Q578 1323 551 1349Z" />
<glyph unicode="&#xe5;" glyph-name="aring" horiz-adv-x="893" d="M532 1102T612 1066T734 948T775 725V0H648L637 119H627Q582 51 514 17T360 -18Q273 -18 207 17T105 118T68 277Q68 423 155 503T425 601L626 622V732Q626 824 600 876T521 950T384 972Q327 972
261 962T131 929V1059Q189 1079 264 1090T406 1102Q532 1102 612 1066ZM464 105T522 136T626 238V515L436 496Q327 485 275 435T222 294Q222 199 268 152T402 105Q464 105 522 136ZM386 1248T342 1273T272 1342T246 1441Q246 1496 271 1540T341 1610T442 1635Q498
1635 542 1610T612 1541T637 1441Q637 1386 612 1342T543 1273T442 1248Q386 1248 342 1273ZM494 1323T526 1355T558 1441Q558 1496 526 1528T442 1560Q390 1560 358 1528T326 1441Q326 1387 358 1355T442 1323Q494 1323 526 1355Z" />
<glyph unicode="&#xe6;" glyph-name="ae" horiz-adv-x="1423" d="M1360 490H775Q778 347 812 264T911 146T1082 110Q1175 110 1310 150V20Q1186 -19 1067 -19Q931 -19 840 26T697 169Q635 67 554 25T372 -18Q281 -18 212 16T106 116T68 275Q68 426 160 512T449
599H628V735Q628 826 601 877T521 950T383 972Q327 972 261 961T131 929V1059Q193 1080 265 1091T402 1102Q527 1102 606 1061T720 932Q808 1103 1003 1103Q1174 1103 1267 970T1360 541V490ZM893 989T836 902T775 599H1212Q1210 750 1183 835T1110 955T997 989Q893
989 836 902ZM571 106T656 278Q632 370 629 494H460Q335 494 279 440T222 290Q222 198 270 152T405 106Q571 106 656 278Z" />
<glyph unicode="&#xe7;" glyph-name="ccedilla" horiz-adv-x="740" d="M445 969T375 930T269 799T234 547Q234 383 266 289T361 154T523 114Q605 114 718 152V20Q607 -19 494 -19H490V-106Q557 -116 593 -156T629 -259Q629 -331 579 -373T434 -416Q394 -416 355
-408T283 -384V-303Q352 -338 432 -338Q535 -338 535 -255Q535 -168 430 -168H400V-12Q239 15 157 147T75 542Q75 744 128 867T283 1046T537 1102Q634 1102 718 1081V948Q635 969 560 969Q445 969 375 930Z" />
<glyph unicode="&#xe8;" glyph-name="egrave" horiz-adv-x="888" d="M824 490H231Q234 347 268 264T369 146T543 110Q639 110 774 150V20Q707 -1 648 -10T527 -19Q372 -19 273 36T125 216T75 544Q75 831 177 966T461 1102Q638 1102 731 968T824 541V490ZM353 988T294
902T231 599H676Q674 747 648 833T575 953T460 988Q353 988 294 902ZM390 1252L200 1616H356L520 1252H390Z" />
<glyph unicode="&#xe9;" glyph-name="eacute" horiz-adv-x="888" d="M824 490H231Q234 347 268 264T369 146T543 110Q639 110 774 150V20Q707 -1 648 -10T527 -19Q372 -19 273 36T125 216T75 544Q75 831 177 966T461 1102Q638 1102 731 968T824 541V490ZM353 988T294
902T231 599H676Q674 747 648 833T575 953T460 988Q353 988 294 902ZM390 1252L554 1616H709L520 1252H390Z" />
<glyph unicode="&#xea;" glyph-name="ecircumflex" horiz-adv-x="888" d="M824 490H231Q234 347 268 264T369 146T543 110Q639 110 774 150V20Q707 -1 648 -10T527 -19Q372 -19 273 36T125 216T75 544Q75 831 177 966T461 1102Q638 1102 731 968T824 541V490ZM353
988T294 902T231 599H676Q674 747 648 833T575 953T460 988Q353 988 294 902ZM706 1252H591L455 1539L319 1252H204L384 1616H526L706 1252Z" />
<glyph unicode="&#xeb;" glyph-name="edieresis" horiz-adv-x="888" d="M824 490H231Q234 347 268 264T369 146T543 110Q639 110 774 150V20Q707 -1 648 -10T527 -19Q372 -19 273 36T125 216T75 544Q75 831 177 966T461 1102Q638 1102 731 968T824 541V490ZM353
988T294 902T231 599H676Q674 747 648 833T575 953T460 988Q353 988 294 902ZM228 1323T201 1349T174 1421Q174 1466 201 1493T273 1520Q318 1520 345 1493T373 1421Q373 1376 346 1350T273 1323Q228 1323 201 1349ZM591 1323T564 1349T537 1421Q537 1466 564 1493T636
1520Q681 1520 708 1493T736 1421Q736 1376 709 1350T636 1323Q591 1323 564 1349Z" />
<glyph unicode="&#xec;" glyph-name="igrave" horiz-adv-x="406" d="M127 0V1085H279V0H127ZM138 1252L-52 1616H104L268 1252H138Z" />
<glyph unicode="&#xed;" glyph-name="iacute" horiz-adv-x="406" d="M127 0V1085H279V0H127ZM138 1252L302 1616H457L268 1252H138Z" />
<glyph unicode="&#xee;" glyph-name="icircumflex" horiz-adv-x="406" d="M127 0V1085H279V0H127ZM454 1252H339L203 1539L67 1252H-48L132 1616H274L454 1252Z" />
<glyph unicode="&#xef;" glyph-name="idieresis" horiz-adv-x="406" d="M127 0V1085H279V0H127ZM-24 1323T-51 1349T-78 1421Q-78 1466 -51 1493T21 1520Q66 1520 93 1493T121 1421Q121 1376 94 1350T21 1323Q-24 1323 -51 1349ZM339 1323T312 1349T285 1421Q285
1466 312 1493T384 1520Q429 1520 456 1493T484 1421Q484 1376 457 1350T384 1323Q339 1323 312 1349Z" />
<glyph unicode="&#xf0;" glyph-name="eth" horiz-adv-x="953" d="M763 1161T819 966T876 583Q876 -20 478 -20Q75 -20 75 541Q75 1100 469 1100Q576 1100 653 1041Q605 1177 528 1302L177 1236L157 1332L468 1390Q376 1513 257 1616H431Q527 1535 610 1416L835
1458L855 1363L666 1328Q763 1161 819 966ZM595 103T658 203T721 536Q721 704 692 801T610 937T477 977Q397 977 344 938T261 804T232 543Q232 375 261 278T343 142T478 103Q595 103 658 203Z" />
<glyph unicode="&#xf1;" glyph-name="ntilde" horiz-adv-x="974" d="M127 1085H255L267 964H277Q332 1031 405 1066T565 1102Q700 1102 778 1022T856 758V0H704V749Q704 864 657 913T523 963Q456 963 389 928T279 820V0H127V1085ZM586 1346T555 1357T477 1390Q441
1409 415 1418T362 1428Q318 1428 283 1410T214 1352V1466Q270 1534 363 1534Q398 1534 430 1523T507 1489Q545 1470 570 1461T621 1451Q665 1451 700 1469T770 1528V1413Q712 1346 620 1346Q586 1346 555 1357Z" />
<glyph unicode="&#xf2;" glyph-name="ograve" horiz-adv-x="953" d="M75 -19T75 541Q75 834 178 968T477 1102Q669 1102 773 967T878 542Q878 250 775 116T477 -19Q75 -19 75 541ZM557 105T610 144T692 278T721 538Q721 706 692 803T610 939T477 978Q397 978 344
940T261 806T232 545Q232 377 261 280T343 144T477 105Q557 105 610 144ZM412 1252L222 1616H378L542 1252H412Z" />
<glyph unicode="&#xf3;" glyph-name="oacute" horiz-adv-x="953" d="M75 -19T75 541Q75 834 178 968T477 1102Q669 1102 773 967T878 542Q878 250 775 116T477 -19Q75 -19 75 541ZM557 105T610 144T692 278T721 538Q721 706 692 803T610 939T477 978Q397 978 344
940T261 806T232 545Q232 377 261 280T343 144T477 105Q557 105 610 144ZM412 1252L576 1616H731L542 1252H412Z" />
<glyph unicode="&#xf4;" glyph-name="ocircumflex" horiz-adv-x="953" d="M75 -19T75 541Q75 834 178 968T477 1102Q669 1102 773 967T878 542Q878 250 775 116T477 -19Q75 -19 75 541ZM557 105T610 144T692 278T721 538Q721 706 692 803T610 939T477 978Q397
978 344 940T261 806T232 545Q232 377 261 280T343 144T477 105Q557 105 610 144ZM728 1252H613L477 1539L341 1252H226L406 1616H548L728 1252Z" />
<glyph unicode="&#xf5;" glyph-name="otilde" horiz-adv-x="953" d="M75 -19T75 541Q75 834 178 968T477 1102Q669 1102 773 967T878 542Q878 250 775 116T477 -19Q75 -19 75 541ZM557 105T610 144T692 278T721 538Q721 706 692 803T610 939T477 978Q397 978 344
940T261 806T232 545Q232 377 261 280T343 144T477 105Q557 105 610 144ZM571 1346T540 1357T462 1390Q426 1409 400 1418T347 1428Q303 1428 268 1410T199 1352V1466Q255 1534 348 1534Q383 1534 415 1523T492 1489Q530 1470 555 1461T606 1451Q650 1451 685 1469T755
1528V1413Q697 1346 605 1346Q571 1346 540 1357Z" />
<glyph unicode="&#xf6;" glyph-name="odieresis" horiz-adv-x="953" d="M75 -19T75 541Q75 834 178 968T477 1102Q669 1102 773 967T878 542Q878 250 775 116T477 -19Q75 -19 75 541ZM557 105T610 144T692 278T721 538Q721 706 692 803T610 939T477 978Q397 978
344 940T261 806T232 545Q232 377 261 280T343 144T477 105Q557 105 610 144ZM250 1323T223 1349T196 1421Q196 1466 223 1493T295 1520Q340 1520 367 1493T395 1421Q395 1376 368 1350T295 1323Q250 1323 223 1349ZM613 1323T586 1349T559 1421Q559 1466 586 1493T658
1520Q703 1520 730 1493T758 1421Q758 1376 731 1350T658 1323Q613 1323 586 1349Z" />
<glyph unicode="&#xf7;" glyph-name="divide" horiz-adv-x="1021" d="M465 1006T437 1033T408 1108Q408 1154 436 1182T511 1211Q556 1211 584 1183T613 1108Q613 1062 585 1034T511 1006Q465 1006 437 1033ZM127 697V823H895V697H127ZM465 309T437 336T408 411Q408
458 436 486T511 514Q556 514 584 486T613 411Q613 365 585 337T511 309Q465 309 437 336Z" />
<glyph unicode="&#xf8;" glyph-name="oslash" horiz-adv-x="953" d="M878 804T878 542Q878 250 775 116T477 -19Q325 -19 228 63L169 -28L85 26L160 144Q75 283 75 541Q75 834 178 968T477 1102Q627 1102 722 1022L781 1113L865 1060L790 943Q878 804 878 542ZM396
980T341 941T257 807T227 545Q227 379 256 280L651 901Q620 943 577 961T477 980Q396 980 341 941ZM558 102T612 141T697 276T727 538Q727 707 696 808L299 185Q330 141 374 122T477 102Q558 102 612 141Z" />
<glyph unicode="&#xf9;" glyph-name="ugrave" horiz-adv-x="965" d="M274 -19T196 62T118 329V1085H270V335Q270 219 316 170T447 120Q511 120 578 155T686 262V1085H838V0H710L698 118H688Q632 50 560 16T407 -19Q274 -19 196 62ZM414 1252L224 1616H380L544 1252H414Z" />
<glyph unicode="&#xfa;" glyph-name="uacute" horiz-adv-x="965" d="M274 -19T196 62T118 329V1085H270V335Q270 219 316 170T447 120Q511 120 578 155T686 262V1085H838V0H710L698 118H688Q632 50 560 16T407 -19Q274 -19 196 62ZM414 1252L578 1616H733L544 1252H414Z" />
<glyph unicode="&#xfb;" glyph-name="ucircumflex" horiz-adv-x="965" d="M274 -19T196 62T118 329V1085H270V335Q270 219 316 170T447 120Q511 120 578 155T686 262V1085H838V0H710L698 118H688Q632 50 560 16T407 -19Q274 -19 196 62ZM730 1252H615L479 1539L343
1252H228L408 1616H550L730 1252Z" />
<glyph unicode="&#xfc;" glyph-name="udieresis" horiz-adv-x="965" d="M274 -19T196 62T118 329V1085H270V335Q270 219 316 170T447 120Q511 120 578 155T686 262V1085H838V0H710L698 118H688Q632 50 560 16T407 -19Q274 -19 196 62ZM252 1323T225 1349T198 1421Q198
1466 225 1493T297 1520Q342 1520 369 1493T397 1421Q397 1376 370 1350T297 1323Q252 1323 225 1349ZM615 1323T588 1349T561 1421Q561 1466 588 1493T660 1520Q705 1520 732 1493T760 1421Q760 1376 733 1350T660 1323Q615 1323 588 1349Z" />
<glyph unicode="&#xfd;" glyph-name="yacute" horiz-adv-x="909" d="M747 1085H903L414 -440H262L404 0H354L6 1085H167L454 137L747 1085ZM390 1252L554 1616H709L520 1252H390Z" />
<glyph unicode="&#xfe;" glyph-name="thorn" horiz-adv-x="964" d="M127 1616H279V981H288Q327 1035 390 1068T537 1102Q637 1102 715 1050T841 877T889 562Q889 267 766 124T396 -19Q337 -19 279 -11V-440H127V1616ZM569 107T650 209T732 547Q732 711 701 804T616
932T487 968Q423 968 367 937T279 850V119Q303 114 339 111T406 107Q569 107 650 209Z" />
<glyph unicode="&#xff;" glyph-name="ydieresis" horiz-adv-x="909" d="M747 1085H903L414 -440H262L404 0H354L6 1085H167L454 137L747 1085ZM228 1323T201 1349T174 1421Q174 1466 201 1493T273 1520Q318 1520 345 1493T373 1421Q373 1376 346 1350T273 1323Q228
1323 201 1349ZM591 1323T564 1349T537 1421Q537 1466 564 1493T636 1520Q681 1520 708 1493T736 1421Q736 1376 709 1350T636 1323Q591 1323 564 1349Z" />
<glyph unicode="&#x2013;" glyph-name="endash" horiz-adv-x="800" d="M0 505V621H800V505H0Z" />
<glyph unicode="&#x2014;" glyph-name="emdash" horiz-adv-x="1600" d="M0 505V621H1600V505H0Z" />
<glyph unicode="&#x2018;" glyph-name="quoteleft" horiz-adv-x="409" d="M257 1311T286 1281T315 1202Q315 1152 286 1122T213 1092Q94 1092 94 1237Q94 1335 120 1433T191 1616H282Q250 1525 233 1454T211 1313Q257 1311 286 1281Z" />
<glyph unicode="&#x2019;" glyph-name="quoteright" horiz-adv-x="409" d="M256 1629T285 1593T315 1484Q315 1385 289 1288T217 1105H126Q159 1194 176 1266T198 1408Q152 1410 123 1440T94 1519Q94 1570 123 1599T201 1629Q256 1629 285 1593Z" />
<glyph unicode="&#x201a;" glyph-name="quotesinglbase" horiz-adv-x="409" d="M256 208T285 172T315 63Q315 -36 289 -133T217 -316H126Q159 -227 176 -155T198 -13Q152 -11 123 19T94 98Q94 149 123 178T201 208Q256 208 285 172Z" />
<glyph unicode="&#x201c;" glyph-name="quotedblleft" horiz-adv-x="731" d="M257 1311T286 1281T315 1202Q315 1152 286 1122T213 1092Q94 1092 94 1237Q94 1335 120 1433T191 1616H282Q250 1525 233 1454T211 1313Q257 1311 286 1281ZM579 1311T608 1281T637
1202Q637 1152 608 1122T535 1092Q416 1092 416 1237Q416 1335 442 1433T513 1616H604Q572 1525 555 1454T533 1313Q579 1311 608 1281Z" />
<glyph unicode="&#x201d;" glyph-name="quotedblright" horiz-adv-x="731" d="M256 1629T285 1593T315 1484Q315 1385 289 1288T217 1105H126Q159 1194 176 1266T198 1408Q152 1410 123 1440T94 1519Q94 1570 123 1599T201 1629Q256 1629 285 1593ZM578 1629T607
1593T637 1484Q637 1385 611 1288T539 1105H448Q481 1194 498 1266T520 1408Q474 1410 445 1440T416 1519Q416 1570 445 1599T523 1629Q578 1629 607 1593Z" />
<glyph unicode="&#x201e;" glyph-name="quotedblbase" horiz-adv-x="731" d="M256 208T285 172T315 63Q315 -36 289 -133T217 -316H126Q159 -227 176 -155T198 -13Q152 -11 123 19T94 98Q94 149 123 178T201 208Q256 208 285 172ZM578 208T607 172T637 63Q637
-36 611 -133T539 -316H448Q481 -227 498 -155T520 -13Q474 -11 445 19T416 98Q416 149 445 178T523 208Q578 208 607 172Z" />
<glyph unicode="&#x2022;" glyph-name="bullet" horiz-adv-x="667" d="M267 320T212 351T126 437T94 560Q94 628 125 683T212 769T333 800Q400 800 455 769T541 683T573 560Q573 492 542 437T455 351T333 320Q267 320 212 351Z" />
<glyph unicode="&#x2039;" glyph-name="guilsinglleft" horiz-adv-x="495" d="M287 137L97 563L287 988H438L247 563L438 137H287Z" />
<glyph unicode="&#x203a;" glyph-name="guilsinglright" horiz-adv-x="495" d="M57 137L247 563L57 988H207L398 563L207 137H57Z" />
</font>
</defs>
</svg>
