<?xml version="1.0" standalone="no"?>
<!DOCTYPE svg PUBLIC "-//W3C//DTD SVG 1.1//EN" "http://www.w3.org/Graphics/SVG/1.1/DTD/svg11.dtd">
<svg xmlns="http://www.w3.org/2000/svg">
  <defs>
    <font id="Archivo" horiz-adv-x="554">
      <font-face font-family="Archivo SemiBold" units-per-em="1000" panose-1="0 0 0 0 0 0 0 0 0 0" ascent="878" descent="-210" alphabetic="0" />
      <glyph unicode=" " glyph-name="gid465" horiz-adv-x="209" />
      <glyph unicode="!" glyph-name="gid430" horiz-adv-x="273" d="M108,181L84,686H189L165,181H108ZM88,0V105h98V0H88Z" />
      <glyph unicode="&quot;" glyph-name="gid463" horiz-adv-x="374" d="M70,410L56,539V686h93V539L132,410H70Zm164,0L220,539V686h94V539L296,410H234Z" />
      <glyph unicode="#" glyph-name="gid437" horiz-adv-x="582" d="M63-12l42,191H24v76h97l34,155H70v76H172l47,212h79L251,486H398l47,212h80L477,486h80V410H462L427,255h85V179H411L369-12H290l42,191H184L143-12H63ZM200,255H348l34,155H235L200,255Z" />
      <glyph unicode="$" glyph-name="gid474" horiz-adv-x="510" d="M233-49V723h50V-49H233ZM253,68q-54,0-95,11T90,110.5t-41,50T35,227q0,4 0,8.5t1,7.5h87q-1-4-1-6.5t0-5.5q1-35 18.5-55.5T189,147t69-8q33,0 61,9t44.5,26.5T380,218q0,34-21.5,51T302,296.5T229,318q-32,9-64,19.5t-57.5,27t-41,42T51,471q0,35 14.5,62T107,578.5T172.5,607T258,617q50,0 87.5-11T408,575t37-46t12-55q0-5 0-10.5t-1-8.5H370v11q0,20-10.5,38t-36,30T253,546q-29,0-50-5t-35-14t-21-21.5T140,476q0-26 17-40t45.5-23T264,394q35-10 71.5-21t67-27t49-43.5T470,230q0-41-16-72t-45.5-51t-69-29.5T253,68Z" />
      <glyph unicode="%" glyph-name="gid505" horiz-adv-x="950" d="M189,0L684,686h80L268,0H189Zm55,337q-47,0-81.5,16.5T110,409T92,517q0,70 18,109t52.5,55.5T244,698q48,0 81-16.5T376.5,626T395,517q0-69-18.5-108.5T325,353t-81-16Zm0,59q45,0 60,30.5T319,512v10q0,37-6,63t-22.5,40T244,639q-44,0-60-30.5T168,522V512q0-55 16-85.5T244,396ZM708-12q-47,0-81,16.5T575,60T557,168q0,70 18,109t52,55.5T708,349q48,0 81.5-16.5T841,277t18-109q0-69-18-108.5T789.5,4T708-12Zm0,59q46,0 60.5,30.5T783,164v9q0,37-6,63t-22,40t-47,14q-44,0-59.5-30.5T633,173v-9q0-56 15.5-86.5T708,47Z" />
      <glyph unicode="&amp;" glyph-name="gid509" horiz-adv-x="692" d="M308-12q-76,0-134.5,23.5T82,79T49,184q0,69 35,110.5T171,352v4q-45,22-75.5,57.5T65,510T96.5,613T185,676.5T318,698q74,0 130.5-23T537,609.5T569,510V493H481v11q-1,41-22.5,67.5t-58,39T316,623q-32,0-61-6.5T203.5,596T168,559.5T155,505q0-41 20-67.5T227.5,398T298,385h62V312H300q-40,0-77-10t-59.5-36.5T141,190q0-45 21.5-73t61-41T315,63q56,0 93,14t55,43t18,71V385H654V311H569V194q0-66-29.5-112T452,12T308-12Z" />
      <glyph unicode="&apos;" glyph-name="gid464" horiz-adv-x="209" d="M70,410L56,539V686h93V539L132,410H70Z" />
      <glyph unicode="(" glyph-name="gid442" horiz-adv-x="355" d="M248-157Q163-64 117.5,51.5T72,290q0,122 45.5,238T248,736h57q-40-61-73.5-134t-53-152.5T159,290t19.5-160t53-153T305-157H248Z" />
      <glyph unicode=")" glyph-name="gid443" horiz-adv-x="355" d="M107,735q86-93 131-208.5T283,288q0-122-45-238T107-158H50Q91-97 124-24t52.5,152.5T196,288q0,81-19.5,160.5T124,601T50,735h57Z" />
      <glyph unicode="*" glyph-name="gid436" horiz-adv-x="407" d="M170,333l11,137L75,392L41,451l117,58L41,569l34,58l106-79L170,687h67L226,548l106,79l34-58L248,509l118-58l-34-59L226,470l11-137H170Z" />
      <glyph unicode="+" glyph-name="gid493" horiz-adv-x="625" d="M275,0V217H76v76H275V511h75V293H548V217H350V0H275Z" />
      <glyph unicode="," glyph-name="gid426" horiz-adv-x="277" d="M79-147v41q19,4 31.5,19T129-49.5T135,0H89V105h97V11q0-58-16.5-90.5t-41-47.5T79-147Z" />
      <glyph unicode="-" glyph-name="gid448" horiz-adv-x="333" d="M40,226v89H293V226H40Z" />
      <glyph unicode="." glyph-name="gid425" horiz-adv-x="277" d="M89,0V105h98V0H89Z" />
      <glyph unicode="/" glyph-name="gid438" horiz-adv-x="294" d="M0-49L223,735h71L71-49H0Z" />
      <glyph unicode="0" glyph-name="gid378" horiz-adv-x="573" d="M287-12Q231-12 187,4.5t-75,57t-47,109T49,343T65,515.5t47,109t75,57T287,698t99.5-16.5t74.5-57t47-109T524,343T508,170.5t-47-109t-74.5-57T287-12Zm0,74q57,0 88.5,29t44,86T432,319v46q0,86-12.5,143.5t-44,86.5T287,624t-89-29t-44.5-86T141,366V321q0-85 12.5-143T198,91t89-29Z" />
      <glyph unicode="1" glyph-name="gid379" horiz-adv-x="521" d="M67,0V75H240V550H66v56q37,3 76.5,11T220,642.5T289,688h40V75H492V0H67Z" />
      <glyph unicode="2" glyph-name="gid380" horiz-adv-x="567" d="M50,0V29q0,42 16.5,77.5t44,65T173,228t71,53q49,34 90.5,68T401,422.5T426,511q0,31-14.5,56.5T368,608t-74,15q-53,0-85-18t-46.5-48T148,491V450H61q-1,5-2,15.5T58,490q0,74 33,119.5t88,67T298,698q57,0 98-15.5T464,640t40-61.5T517,506q0-47-16.5-86t-46-72.5t-69-64.5T300,220q-32-21-63-44.5T184,128T156,82H521V0H50Z" />
      <glyph unicode="3" glyph-name="gid381" horiz-adv-x="573" d="M288-12q-80,0-135,24.5T70,82T42,189v13h89V189q0-62 39.5-94.5T280,62T393,92.5T436,190q0,49-23,75t-59.5,36.5T276,312H204v74h75q38,0 70,12t51.5,39.5T420,509q0,40-17.5,65T355,611.5T289,624q-40,0-72-13.5T166.5,570T148,502V489H58v18q0,57 29.5,100t81,67T287,698q66,0 116.5-21T483,615t29-101q0-44-16-74.5T454,389t-56-33v-4q55-16 92-58t37-110q0-61-30.5-105t-85-67.5T288-12Z" />
      <glyph unicode="4" glyph-name="gid382" horiz-adv-x="555" d="M347,0V168H28v74q42,72 76.5,145t62,150T212,698h94q-13-55-32-112.5T232,474T186.5,373t-42-81T113,242H347V460q6,16 12.5,33.5t12.5,36t11,35t8,31.5h44V242h91V168H435V0H347Z" />
      <glyph unicode="5" glyph-name="gid383" horiz-adv-x="571" d="M290-12q-72,0-126,27T80,92.5T50,213h89q0-47 20-81t54.5-52T290,62q43,0 76,17.5T417.5,133T436,224q0,50-17,82.5T370.5,355T298,371q-30,0-57-9.5T192.5,335T157,293L74,306l29,380H492V604H180L164,390q17,15 38.5,27.5t49.5,20t64,7.5q59,0 107-23t76-71t28-124q0-75-28.5-129T417,16T290-12Z" />
      <glyph unicode="6" glyph-name="gid384" horiz-adv-x="573" d="M300-12Q241-12 194.5,5t-79,55T66,162.5T49,323q0,106 17,177.5t48.5,115t78,63T298,698q74,0 119.5-28T484,594.5T505,486H415q0,46-13,77t-40.5,46T293,624q-60,0-93.5-31.5t-46-91.5T140,358q14,23 39.5,42T240,430.5T314,442q74,0 122-29.5T507,332t23-114q0-69-30-121T418,16.5T300-12Zm-6,74q49,0 81,21.5t47.5,57T438,219q0,41-15,75t-46.5,54.5T296,369t-82-21t-49-55.5T149,214q0-41 16-76t48-55.5T294,62Z" />
      <glyph unicode="7" glyph-name="gid385" horiz-adv-x="553" d="M145,0q0,93 24,179t62.5,163T316,485t90,119H39v82H522V631q-37-43-76.5-95.5T370,424.5T305,303T259,175.5T242,47V0H145Z" />
      <glyph unicode="8" glyph-name="gid386" horiz-adv-x="574" d="M287-12q-85,0-138,27T71.5,87T47,187q0,56 28,99t88,66q-48,25-72.5,66T66,509q0,53 24.5,95.5t74,68T287,698t122-25.5t74-68T508,509q0-50-25-91t-73-66q61-23 88.5-66T526,187q0-55-24.5-100t-77-72T287-12Zm0,73q73,0 110,34t37,93q0,58-37,92T287,314T176.5,280T139,188q0-59 37.5-93T287,61Zm0,326q61,0 96,31.5T418,507q0,56-35,87t-96,31t-96-31t-35-87q0-57 35-88.5T287,387Z" />
      <glyph unicode="9" glyph-name="gid387" horiz-adv-x="573" d="M275-12q-73,0-119,28T89,92T68,200h90q0-46 13.5-77T212,77t68-15q61,0 93.5,31.5T419,185t14,143q-13-22-39-41.5t-60.5-31T260,244q-74,0-122,29.5T66.5,354T43,468q0,70 30,121.5t82,80T272,698q59,0 106-17t79.5-55T507,523.5T524,363q0-105-16.5-177T459,70.5t-78.5-63T275-12Zm3,329q49,0 81.5,21T408,394t16,78q0,42-15.5,76.5t-48,55T279,624t-81-21.5T150.5,546T135,467q0-41 15-75t46.5-54.5T278,317Z" />
      <glyph unicode=":" glyph-name="gid427" horiz-adv-x="296" d="M99,421V526h98V421H99ZM99,0V105h98V0H99Z" />
      <glyph unicode=";" glyph-name="gid428" horiz-adv-x="296" d="M90-147v41q19,4 31.5,19T140-49.5T146,0H100V105h98V11q0-58-17-90.5T139.5-127T90-147Zm10,568V526h98V421H100Z" />
      <glyph unicode="&lt;" glyph-name="gid499" horiz-adv-x="625" d="M539,5L65,207v95L539,504V420L138,254L539,89V5Z" />
      <glyph unicode="=" glyph-name="gid497" horiz-adv-x="625" d="M76,322v76H549V322H76Zm0-211v76H549V111H76Z" />
      <glyph unicode="&gt;" glyph-name="gid498" horiz-adv-x="625" d="M86,5V89L487,254L86,420v84L560,302V207L86,5Z" />
      <glyph unicode="?" glyph-name="gid432" horiz-adv-x="578" d="M240,177v56q0,39 12,65t31.5,45t41,35.5t41,34t31.5,41T409,510q0,13-3.5,31.5t-16,36T352,607t-66,12q-46,0-73-14.5T172.5,568t-18-43T150,490q0-7 0-13.5t1-14.5H62q-1,4-2,12.5T59,496q0,23 7,50t23,54t43,49t66.5,35.5T292,698q49,0 85-11.5t60.5-31t39-43t21-47.5t6.5-45q0-48-13-81t-33.5-55.5t-43-39.5T371,310.5t-34-37T324,223V177H240ZM233,0V105h98V0H233Z" />
      <glyph unicode="@" glyph-name="gid508" horiz-adv-x="1005" d="M476-153q-130,0-225.5,43.5T103,26T51,262q0,120 37,203T189,599.5t147.5,75T513,698q95,0 175-21.5T827.5,610T920,493.5T953,321q0-68-14-118t-38-84.5t-53.5-56T787,31.5T728,22q-41,0-63.5,11T632,61T621,94h-6q-17-23-42-39.5t-56-25T449,21q-26,0-53,6.5t-49,21T311.5,89T298,153q0,50 23.5,81.5t66.5,49t101,25T615,316v54q0,26-9.5,45.5t-32.5,30T506,456q-41,0-64.5-10.5t-33-27.5T399,382V368H321q-1,5-1,9.5t0,10.5q0,44 24,73.5T411.5,506T513,521q60,0 100.5-16.5t61-48T695,379V129q0-23 11-33t35-10q36,0 69.5,22t56,73.5T889,322q0,112-48,182T708.5,607T512,640q-121,0-210.5-41.5T163.5,473T115,261Q115,84 203-5.5T476-95q26,0 61.5,4.5t68.5,11T659-64v-62q-23-8-56.5-14t-68-9.5T476-153ZM469,86q30,0 56,9.5T571.5,122t32,41T615,217v38q-74,0-126.5-8.5t-80-29T381,159q0-25 11-41t31-24t46-8Z" />
      <glyph unicode="A" glyph-name="gid1" horiz-adv-x="682" d="M7,0L278,686H403L675,0H572L505,170H171L105,0H7ZM202,251H473L390,466q-3,9-9,25t-13,35.5t-14,40T341,604h-6q-7-20-16-46t-18-50.5T286,466L202,251Z" />
      <glyph unicode="B" glyph-name="gid17" horiz-adv-x="698" d="M86,0V686H440q59,0 102-20.5T608.5,608T632,520q0-39-14-72t-39-55t-57-33v-4q36-8 65-29t46.5-55.5T651,187q0-67-28-108T548,19T440,0H86Zm95,82H439q51,0 83,26.5T554,197q0,38-14,63.5t-41,38T431,311H181V82Zm0,310H422q34,0 59,13.5t39.5,38T535,499q0,54-29,79.5T429,604H181V392Z" />
      <glyph unicode="C" glyph-name="gid18" horiz-adv-x="728" d="M379-12Q274-12 201,26.5T89.5,143.5T51,343q0,179 87,267t242,88q88,0 156-28.5t106.5-86T681,439H585q0,60-25.5,99T488,596.5T380,616q-72,0-124-28t-79-86.5T150,351V330q0-91 27-148.5T255.5,97T380,70q64,0 110.5,19t72,58.5T588,247h93q0-89-39.5-146T534,16T379-12Z" />
      <glyph unicode="D" glyph-name="gid24" horiz-adv-x="734" d="M86,0V686H342q108,0 184-36T642.5,538.5T683,343q0-118-40.5-194T526,36.5T342,0H86Zm95,82H340q57,0 102,14.5T519,141t48.5,77.5T584,332v20q0,68-16.5,115.5t-48,77.5T443,589.5T340,604H181V82Z" />
      <glyph unicode="E" glyph-name="gid30" horiz-adv-x="677" d="M86,0V686H614V604H181V392H570V310H181V82H620V0H86Z" />
      <glyph unicode="F" glyph-name="gid42" horiz-adv-x="612" d="M86,0V686H572V604H181V384H537V303H181V0H86Z" />
      <glyph unicode="G" glyph-name="gid43" horiz-adv-x="796" d="M395-12Q229-12 142.5,75T56,343q0,118 40,197T214,658.5T404,698q70,0 127-15t98.5-45.5t64-76.5T716,452H619q0,44-16,75.5T557.5,579T489,607.5T406,616q-60,0-107-15t-79-47t-49-82T154,353V332q0-93 28.5-151T265,96.5T395,70q77,0 127,21.5T596.5,157T621,268v12H379v81H717V0H645L635,87q-27-35-64-57T489.5-2T395-12Z" />
      <glyph unicode="H" glyph-name="gid49" horiz-adv-x="736" d="M86,0V686h95V392H554V686h96V0H554V309H181V0H86Z" />
      <glyph unicode="I" glyph-name="gid53" horiz-adv-x="267" d="M86,0V686h95V0H86Z" />
      <glyph unicode="J" glyph-name="gid67" horiz-adv-x="559" d="M254-12q-69,0-118.5,22.5t-75,66T35,186v30h95V181q0-54 32-82.5T254,70q61,0 93.5,39T380,225V686h95V230q0-81-26-135T373.5,14.5T254-12Z" />
      <glyph unicode="K" glyph-name="gid69" horiz-adv-x="662" d="M86,0V686h95V323L530,686H648L387,412L657,0H544L321,344L181,212V0H86Z" />
      <glyph unicode="L" glyph-name="gid71" horiz-adv-x="536" d="M86,0V686h95V83H522V0H86Z" />
      <glyph unicode="M" glyph-name="gid79" horiz-adv-x="847" d="M86,0V686H233L389,241q6-18 12.5-39.5t12-40.5t8.5-33h7q3,15 8,34.5T448,203t11,38L615,686H761V0H666V402q0,31 1,67.5t2,67t1,43.5h-8q-3-13-10-36.5t-14.5-49T624,449L463,0H381L220,449q-6,17-12.5,39.5t-13,46.5T182,580h-7q1-22 1.5-54.5t1-65T178,402V0H86Z" />
      <glyph unicode="N" glyph-name="gid80" horiz-adv-x="736" d="M86,0V686h92L511,234q5-6 13-18t16-23.5T553,172h4q0,16 0,31.5t0,30.5V686h93V0H563L226,460q-7,11-20.5,31T183,523h-5q0-16 0-31.5t0-31.5V0H86Z" />
      <glyph unicode="O" glyph-name="gid89" horiz-adv-x="788" d="M394-12Q287-12 210.5,27T92.5,145T51,343q0,120 41.5,198.5T210.5,659T394,698t183.5-39t118-117.5T737,343q0-119-41.5-198T577.5,27T394-12Zm0,82q56,0 101.5,15t77,47.5t48.5,82T638,332v21q0,69-17,118.5t-48.5,82t-77,47.5T394,616q-57,0-102-15t-77-47.5t-48.5-82T150,353V332q0-68 16.5-117.5t48.5-82T292,85T394,70Z" />
      <glyph unicode="P" glyph-name="gid109" horiz-adv-x="665" d="M86,0V686H425q71,0 118-26.5T613.5,586T637,477q0-63-26-111.5T537.5,290T424,263H181V0H86Zm95,345H418q56,0 89.5,35T541,476q0,41-14,69t-41,43.5T418,604H181V345Z" />
      <glyph unicode="Q" glyph-name="gid111" horiz-adv-x="788" d="M569-130L446-9q-13-2-26-2.5T394-12Q287-12 210.5,27T92.5,145T51,343q0,120 41.5,198.5T210.5,659T394,698t183.5-39t118-117.5T737,343q0-130-50-212T547,13L694-130H569ZM394,70q56,0 101.5,15t77,47.5t48.5,82T638,332v21q0,69-17,118.5t-48.5,82t-77,47.5T394,616q-57,0-102-15t-77-47.5t-48.5-82T150,353V332q0-68 16.5-117.5t48.5-82T292,85T394,70Z" />
      <glyph unicode="R" glyph-name="gid112" horiz-adv-x="727" d="M86,0V686H447q70,0 116.5-25.5t69.5-71T656,485q0-71-32-122t-88-73L680,0H576L442,273H181V0H86Zm95,354H438q57,0 89.5,35T560,485q0,38-14,64t-41,40.5T438,604H181V354Z" />
      <glyph unicode="S" glyph-name="gid118" horiz-adv-x="673" d="M338-12Q282-12 230.5-1T139,34.5T75.5,98T52,194q0,5 0.5,10T53,214h96q0-3-0.5-9.5T148,193q0-40 24-68t66.5-41.5T335,70q24,0 50.5,3t51,10.5t44,20t31,31T523,180q0,34-19.5,56.5t-51.5,37t-72.5,26T296,322t-83.5,25.5t-72.5,36T88.5,437T69,515q0,43 17.5,77t52,57.5t85.5,36T341,698q54,0 100.5-11.5t82-35T579,592t20-87V493H505v15q0,34-21,58t-57.5,37T344,616q-60,0-100-11.5t-59.5-33T165,523q0-31 19.5-52T236,436.5T309,412t83.5-22.5t83-26t73-36t51.5-54T619,194q0-73-36-118.5T484,9T338-12Z" />
      <glyph unicode="T" glyph-name="gid127" horiz-adv-x="606" d="M254,0V603H19v83H586V603H349V0H254Z" />
      <glyph unicode="U" glyph-name="gid133" horiz-adv-x="731" d="M364-12q-87,0-150,28t-96.5,88.5T84,260V686h95V250q0-90 48.5-135T364,70q89,0 139,45t50,135V686h94V260q0-95-34-155.5T515.5,16T364-12Z" />
      <glyph unicode="V" glyph-name="gid152" horiz-adv-x="648" d="M266,0L10,686H113L289,200q6-14 12-32t12-35t11-30h6q4,12 10,29t12,34.5T364,200L538,686H638L381,0H266Z" />
      <glyph unicode="W" glyph-name="gid153" horiz-adv-x="924" d="M203,0L12,686H114L236,223q3-11 7.5-31.5T253,149t8-39h7q3,13 5.5,29t6,32t6.5,30t4,22L404,686H527L641,223q3-11 7.5-31.5t9-42.5t7.5-39h7q3,13 6,28.5t7,31.5t7.5,30t5.5,23L821,686h90L720,0H606L487,466q-3,15-7,35.5T472,544t-7,38h-6q-2-17-6-39t-8.5-43T437,466L321,0H203Z" />
      <glyph unicode="X" glyph-name="gid158" horiz-adv-x="680" d="M11,0L279,360L36,686H153L340,431h5L530,686H641L401,361L669,0H552L340,289h-5L124,0H11Z" />
      <glyph unicode="Y" glyph-name="gid159" horiz-adv-x="655" d="M280,0V285L10,686H119L328,369h5L541,686H645L376,285V0H280Z" />
      <glyph unicode="Z" glyph-name="gid168" horiz-adv-x="635" d="M32,0V49L448,604H58v82H589V637L172,82H598V0H32Z" />
      <glyph unicode="[" glyph-name="gid446" horiz-adv-x="296" d="M93-161V735H281V670H172V-96H281v-65H93Z" />
      <glyph unicode="\" glyph-name="gid439" horiz-adv-x="294" d="M294-49H223L0,735H71L294-49Z" />
      <glyph unicode="]" glyph-name="gid447" horiz-adv-x="296" d="M203,735V-161H15v65H124V670H15v65H203Z" />
      <glyph unicode="^" glyph-name="gid503" horiz-adv-x="625" d="M107,294L269,686h86L518,294H437L311,606L187,294H107Z" />
      <glyph unicode="_" glyph-name="gid452" horiz-adv-x="485" d="M0-132v67H485v-67H0Z" />
      <glyph unicode="`" glyph-name="gid538" horiz-adv-x="187" d="M187,591H110L0,720l1,3h99l87-132Z" />
      <glyph unicode="a" glyph-name="gid184" horiz-adv-x="545" d="M201-12q-29,0-58,7T89,18T49,62.5T34,134q0,54 26,89t72.5,54.5t110.5,27T382,312v60q0,29-10,50t-35.5,32.5T264,466q-45,0-71.5-11.5t-37-29.5T145,385V370H60q-1,5-1,10t0,12q0,48 26.5,80.5t74.5,49T270,538q66,0 110.5-19t67-54T470,381V96q0-19 9-26.5T501,62h39V4Q526-2 509-6.5T470-11q-26,0-43,10.5t-26,29T389,70h-7q-18-25-45.5-43.5T275-2T201-12Zm22,74q32,0 60.5,10T334,100.5T369,145t13,57v44q-81,0-138-9t-87.5-32T126,140q0-27 12-44t34-25.5T223,62Z" />
      <glyph unicode="b" glyph-name="gid200" horiz-adv-x="567" d="M319-12q-53,0-95,21.5T155,75h-7L139,0H69V723h88V460h6q18,28 42,45t54,25t64,8q61,0 107-29t71.5-89T527,267q0-98-25-159.5T431,17T319-12ZM298,65q45,0 75.5,18T420,142.5T436,252v21q0,66-15,107.5t-46,61T295,461q-28,0-53-9t-44.5-31t-30-59T157,271V255q0-62 14.5-104t46-64T298,65Z" />
      <glyph unicode="c" glyph-name="gid201" horiz-adv-x="519" d="M269-12q-76,0-127.5,29.5t-78,91T37,263T63.5,417t79,91T272,538q54,0 93.5-14T431,483t38.5-65T482,331H393q0,46-12.5,75.5t-39.5,44T270,465t-76-19.5T145,384T128,273V252q0-65 16.5-108T193,81t78-20q45,0 72.5,16t40,46T396,195h86q0-44-12.5-82T431,47T365,3.5T269-12Z" />
      <glyph unicode="d" glyph-name="gid207" horiz-adv-x="567" d="M248-12q-65,0-111.5,29t-72,90.5T39,267q0,93 26,153t72,89t107,29q35,0 65-8t53.5-25T404,460h6V723h88V0H427l-8,75h-7Q385,31 342,9.5T248-12Zm21,77q50,0 81,22t45.5,64T410,255v16q0,54-11,91t-30,59t-44,31t-53,9q-49,0-80-19.5t-46-61T131,273V252q0-68 16-109.5T193.5,83T269,65Z" />
      <glyph unicode="e" glyph-name="gid212" horiz-adv-x="548" d="M279-12q-78,0-131.5,29.5T66.5,108T39,263q0,95 27.5,155.5t81.5,90T283,538q74,0 124-28.5t75.5-85T508,283V241H130q2-63 18.5-103.5t49.5-59T281,60q34,0 59.5,8.5t43,24.5T410,131t10,48h86q-1-42-16-77.5T446,41T375,2T279-12ZM132,307H417q0,44-10,74t-28.5,49t-43,27.5T280,466q-46,0-78-17t-49-52t-21-90Z" />
      <glyph unicode="f" glyph-name="gid225" horiz-adv-x="280" d="M90,0V452H12v74H90v84q0,31 9,58.5t34,45T203,731q14,0 27.5-1.5t26-4T279,720V657H226q-25,0-36.5-12.5T178,609V526H279V452H178V0H90Z" />
      <glyph unicode="g" glyph-name="gid226" horiz-adv-x="556" d="M158-182q-38,0-70,15.5T37-122T18-53Q18-9 42.5,20T101,63Q76,75 62,96.5T48,144q0,35 25.5,59T136,235q-34,22-53.5,56.5T63,368q0,50 23.5,88t72,60T277,538q32,0 60-4.5T387,519q35,16 52.5,41T461,611h87q0-30-13.5-56.5t-36.5-44T442,487q25-24 37.5-54T492,368q0-50-23.5-88.5T398,219T280,197H198q-27,0-44-10.5T137,153q0-20 17-32.5T198,108H412q58,0 95-38.5T544-29q0-43-21.5-77.5t-60-55T373-182H158Zm25,67H372q23,0 42,9.5T444-79t11,37q0,34-20,54T385,32H183q-32,0-54-21.5T107-42q0-33 22-53t54-20Zm95,378q64,0 95,28t31,77q0,48-31,76t-95,28t-95.5-28T151,368q0-31 14-55t42-37t71-13Z" />
      <glyph unicode="h" glyph-name="gid232" horiz-adv-x="563" d="M69,0V723h88V460h7q20,27 45,44t55.5,25.5T331,538q50,0 87.5-17t59-55T499,363V0H411V351q0,33-8.5,54t-23,33t-35,17T299,460q-37,0-70-17.5t-52.5-51T157,309V0H69Z" />
      <glyph unicode="i" glyph-name="gid236" horiz-adv-x="225" d="M69,625v98h88V625H69ZM69,0V526h88V0H69Z" />
      <glyph unicode="j" glyph-name="gid251" horiz-adv-x="223" d="M69,625v98h88V625H69ZM46-182q-11,0-24,1.5t-25,4T-23-171v61H22q23,0 35,12.5T69-62V526h88V-64q0-30-10-57t-33.5-44T46-182Z" />
      <glyph unicode="k" glyph-name="gid254" horiz-adv-x="514" d="M69,0V723h88V271L380,526H484L304,322L494,0H393L247,257l-90-91V0H69Z" />
      <glyph unicode="l" glyph-name="gid257" horiz-adv-x="225" d="M69,0V723h88V0H69Z" />
      <glyph unicode="m" glyph-name="gid264" horiz-adv-x="860" d="M69,0V526h71l8-79h7q20,32 45,52t55,29.5t65,9.5q51,0 88-20.5T463,447h6q19,32 44,51.5T569,528t66,10q48,0 84-16.5t56.5-54T796,367V0H708V353q0,32-7.5,53T679,438.5T646.5,455T607,460q-35,0-64.5-18T495,390t-18-81V0H389V353q0,32-8,53t-21,32.5T328.5,455T290,460q-36,0-66.5-18T175,390t-18-81V0H69Z" />
      <glyph unicode="n" glyph-name="gid265" horiz-adv-x="563" d="M69,0V526h71l8-79h7q21,32 47.5,52t59,29.5T331,538q50,0 87.5-17t59-55T499,363V0H411V351q0,33-8.5,54t-23,33t-35,17T299,460q-37,0-70-18t-52.5-52T157,309V0H69Z" />
      <glyph unicode="o" glyph-name="gid274" horiz-adv-x="570" d="M285-12q-80,0-134.5,29.5T67.5,108T39,263q0,95 28.5,155.5t83,90T285,538t134.5-29.5t82.5-90T530,263q0-94-28-155T419.5,17.5T285-12Zm0,74q51,0 85,20t51.5,62.5T439,252v22q0,66-17.5,108T370,444t-85,20t-85.5-20T148,382T131,274V252q0-65 17-107.5T199.5,82T285,62Z" />
      <glyph unicode="p" glyph-name="gid294" horiz-adv-x="567" d="M69-173V526h70l9-75h7q27,44 69,65.5T319,538q66,0 112-29t71-90.5T527,259q0-92-25.5-152.5T430,17T323-12q-34,0-64,8T205,21.5T163,66h-6V-173H69ZM295,65q49,0 80,19.5t46,61T436,252v21q0,69-16,110.5T373.5,443T298,461q-49,0-80.5-21.5t-46-64.5T157,270V255q0-55 10.5-91.5t30-58.5T242,74t53-9Z" />
      <glyph unicode="q" glyph-name="gid296" horiz-adv-x="567" d="M410-173V66h-6q-18-27-42.5-44.5T307-4t-63-8q-61,0-107,29T65,106.5T39,259q0,98 25.5,159.5t72,90.5T248,538q53,0 95-21.5T412,451h7l8,75h71V-173H410ZM272,65q29,0 54,9t43.5,31T399,163.5T410,255v15q0,62-14.5,105T350,439.5T269,461q-45,0-75.5-18T147,383.5T131,273V252q0-65 15-106.5t46-61T272,65Z" />
      <glyph unicode="r" glyph-name="gid297" horiz-adv-x="332" d="M69,0V526h71l8-87h7q8,25 22,47.5t38,37T274,538q15,0 27.5-2.5T320,530V449H287q-34,0-58.5-11.5T188,405t-23.5-50T157,293V0H69Z" />
      <glyph unicode="s" glyph-name="gid303" horiz-adv-x="510" d="M253-12q-54,0-95,11T90,31T49,81T35,147q0,5 0,9.5t1,7.5h87q-1-4-1-7t0-6q1-35 18.5-55T189,68t69-8q33,0 61,8.5t44.5,26T380,139q0,33-21.5,50.5T302,217t-73,21q-32,9-64,20t-57.5,27t-41,41.5T51,391q0,35 14.5,62T107,499t65.5,28.5T258,537q50,0 87.5-11T408,495t37-45.5T457,395q0-6 0-11.5t-1-8.5H370v11q0,20-10.5,38.5t-36,30T253,466q-29,0-50-4.5t-35-14t-21-22T140,397q0-26 17-40t45.5-23T264,314q35-10 71.5-20.5t67-26.5t49-43.5T470,151q0-42-16-73T408.5,27t-69-29.5T253-12Z" />
      <glyph unicode="t" glyph-name="gid312" horiz-adv-x="297" d="M192-12q-41,0-64,15.5t-33,41T85,99V452H17v74H87l16,147h70V526h99V452H173V112q0-25 9-37.5T216,62h56V4q-10-5-24-8T219.5-9.5T192-12Z" />
      <glyph unicode="u" glyph-name="gid318" horiz-adv-x="562" d="M232-12q-76,0-122,39T64,163V526h88V175q0-33 8-54t23-33t35.5-17T263,66q38,0 70,18t52.5,52.5T406,217V526h88V0H423l-8,79h-7q-21-32-47.5-52t-59-29.5T232-12Z" />
      <glyph unicode="v" glyph-name="gid337" horiz-adv-x="504" d="M208,0L13,526h92l96-263q7-19 16-47.5t18.5-58T251,105h5q7,22 16,51.5t18.5,58T307,263l95,263h89L296,0H208Z" />
      <glyph unicode="w" glyph-name="gid338" horiz-adv-x="723" d="M170,0L11,526h91l80-289q6-21 11.5-45.5t11-45T212,115h6q4,19 9.5,43t10,46t7.5,34l72,288h95l73-288q4-17 9-39.5T504.5,154t7.5-39h6q4,16 9,37.5t11,44T549,236l79,290h84L554,0H464L396,272q-4,19-10,44.5t-11.5,52T365,415h-6q-2-15-6.5-38T342,326.5T328,272L260,0H170Z" />
      <glyph unicode="x" glyph-name="gid343" horiz-adv-x="513" d="M14,0L203,269L23,526H129L257,338h5L390,526H490L310,272L500,0H395L257,203h-5L114,0H14Z" />
      <glyph unicode="y" glyph-name="gid344" horiz-adv-x="504" d="M114-182q-24,0-41.5,3.5T49-174v64H93q24,0 47,10t43,34T217,0L13,526h92L210,255q7-19 16.5-46.5t19-56.5T261,101h6q4,16 10,36t12.5,41.5t13,41T313,254l89,272h89L313,15q-15-43-33-79.5T240-127t-53-40.5T114-182Z" />
      <glyph unicode="z" glyph-name="gid353" horiz-adv-x="498" d="M31,0V47L324,452H52v74H450V480L156,74H466V0H31Z" />
      <glyph unicode="{" glyph-name="gid444" horiz-adv-x="353" d="M300-159q-34,0-65,5.5t-54.5,20t-37,40T130-28V186q0,22-13,35T84.5,239.5T45,245v85q20,0 39.5,5.5T117,354t13,34V604q0,40 13.5,65.5t37,40t54.5,20t65,5.5V679q-17,0-37.5-5t-35-18T212,617l-9-219q-2-50-23-78t-78-28v-9q38,0 59.5-13t31-36.5T203,177l9-218q1-25 15.5-38.5T262-98t38-5v-56Z" />
      <glyph unicode="|" glyph-name="gid518" horiz-adv-x="245" d="M86-183V723h73V-183H86Z" />
      <glyph unicode="}" glyph-name="gid445" horiz-adv-x="353" d="M52,735q35,0 65.5-5.5t54.5-20t37.5-40T223,604V390q0-21 13-34.5t32.5-19T308,331V246q-20,0-39.5-5.5T236,222t-13-34V-28q0-40-13.5-65.5t-37.5-40t-54.5-20T52-159v56q18,0 38,5t35,18.5T141-41l9,219q2,50 23,78t78,28v9q-38,0-59.5,13t-31,36.5T150,399l-9,218q-1,26-15.5,39T91,674t-39,5v56Z" />
      <glyph unicode="~" glyph-name="gid501" horiz-adv-x="625" d="M61,215v86q11,16 31.5,32.5T142,362t64,12q29,0 54.5-9T311,343.5T362.5,322t55.5-9q31,0 59,12t50.5,29T563,386V299q-10-15-31-32t-49.5-28.5T418,227q-28,0-54,9t-51,21t-51.5,21T206,287q-31,0-59-11.5t-50.5-28T61,215Z" />
      <glyph unicode="&#xa0;" glyph-name="gid466" horiz-adv-x="209" />
      <glyph unicode="&#xa1;" glyph-name="gid431" horiz-adv-x="273" d="M84-161l24,506h57l24-506H84Zm4,582V525h98V421H88Z" />
      <glyph unicode="&#xa2;" glyph-name="gid471" horiz-adv-x="567" d="M260-49V723h50V-49H260ZM285,68q-76,0-127.5,29.5T79.5,188T53,343q0,92 26.5,153t79,91.5T288,618q54,0 93.5-14T447,563t38.5-65.5T498,411H409q0,46-12.5,75.5T357,530t-71,14t-76-19.5t-49-61T144,353V332q0-66 16.5-108.5T209,161t79-20q45,0 72,15.5t40,46T413,274h85q0-44-12.5-81.5T447,127T381,83.5T285,68Z" />
      <glyph unicode="&#xa3;" glyph-name="gid489" horiz-adv-x="569" d="M41,0V77h75V302H27v76h89V510q0,62 25.5,104t71,63T318,698q59,0 103.5-20.5t70-61.5T517,512V497H429v17q0,38-14.5,62.5t-39,36.5T318,625t-59-12t-40.5-36T204,517V378H369V302H204L195,77H517V0H41Z" />
      <glyph unicode="&#xa4;" glyph-name="gid473" horiz-adv-x="569" d="M78,99L34,143l54,55q-26,32-38.5,71.5T37,350q0,42 12.5,82T88,502L33,556l46,45l56-56q31,26 69,39.5T283,598t80-13.5T432,545l56,56l45-45l-55-54q27-30 39.5-70T530,350q0-41-12.5-80.5T478,198l55-55L489,99l-55,57q-31-27-70-40.5T283,102q-41,0-80,13.5T133,156L78,99Zm205,67q50,0 90.5,25.5t65,67T463,350t-24.5,91t-65,66T283,532q-49,0-90-25t-65.5-66T103,350t24.5-91.5t65.5-67T283,166Z" />
      <glyph unicode="&#xa5;" glyph-name="gid491" horiz-adv-x="562" d="M236,0V159H39v63H236v70H39v63H205q-9,16-23,37t-22,36L10,686H113L233,469q7-13 15.5-29.5t17.5-33T282,377h5q6,13 15,29t17.5,33T335,469L453,686h99L406,433q-10-17-24-39.5T359,355H523V292H327V222H523V159H327V0H236Z" />
      <glyph unicode="&#xa6;" glyph-name="gid519" horiz-adv-x="245" d="M86,351V723h73V351H86Zm0-534V189h73V-183H86Z" />
      <glyph unicode="&#xa7;" glyph-name="gid511" horiz-adv-x="568" d="M281-182q-56,0-96.5,11.5t-67,31.5T78-92.5T65-37q0,6 0.5,11.5T66-17h92V-27q0-15 5.5-30t20-27T223-103t63-7q41,0 69,11t42.5,30.5T412-23q0,29-19.5,48.5T340.5,59t-71,26.5t-77,27t-70.5,35t-52,51T50,273q0,30 11.5,55.5T94,375t49,36q-34,21-56.5,51.5T64,541q0,37 15.5,65.5T124,656t70.5,31.5T288,698q56,0 96.5-11.5t67-31.5T491,608.5T504,553q0-5-0.5-11t-0.5-9H411v11q0,14-6,28.5T385,599t-39,19t-63,7q-41,0-69-10.5t-42.5-30T157,539q0-29 19.5-48.5t52-33.5t71-26.5t77-27t70.5-35T499,318t20-75q0-30-11.5-56T475,140.5T426,105q34-21 56-51.5T504-25q0-36-15-65t-44-50t-70.5-31.5T281-182Zm79,320q31,13 50,35t19,52q0,36-19.5,59T357,322.5t-71.5,28T208,377q-30-12-49-34t-19-53q0-35 19.5-58.5t52-39.5t71-28T360,138Z" />
      <glyph unicode="&#xa8;" glyph-name="gid537" horiz-adv-x="280" d="M0,629v92H89V629H0Zm191,0v92h89V629H191Z" />
      <glyph unicode="&#xa9;" glyph-name="gid512" horiz-adv-x="752" d="M376-12q-77,0-142,26.5t-112.5,74T47.5,201T21,343T47.5,485t74,112.5t112.5,74T376,698t142-26.5t112.5-74t74-112.5T731,343T704.5,201t-74-112.5T518,14.5T376-12Zm-3,143q-53,0-91.5,21T223,219.5T203,342t19.5,122t58,67.5T373,553q49,0 84-16.5T511,484t19-95H470q0,42-11.5,66.5t-33,35T373,501q-52,0-81-35.5T263,354V330q0-51 13-84t37.5-48T373,183q31,0 53.5,11.5t34.5,36T473,294h57q0-52-19-88t-53.5-55.5T373,131Zm3-97q89,0 158,40T642.5,184T682,343T642.5,501.5T534,611T376,651T217.5,611t-109-109.5T69,343t39.5-159t109-110T376,34Z" />
      <glyph unicode="&#xaa;" glyph-name="gid376" horiz-adv-x="385" d="M137,330q-25,0-50,9T45.5,369T29,428q0,37 16.5,60.5T92,525t70.5,18t88.5,5v41q0,17-6,30t-22,20.5T178,647q-28,0-44-7t-22.5-18.5T105,596V585H45q-1,2-1,7t0,8q0,49 38.5,73.5T181,698q43,0 72-12.5T296.5,650T311,594V405q0-13 6-18t14-5h26V341q-10-3-21-5.5T312,333q-27,0-40.5,14T255,384h-5q-17-25-46-39.5T137,330Zm13,51q27,0 50,12t37,33.5T251,476v25q-50,1-85.5-5T111,474.5T92,431q0-17 7.5-27.5T120,387t30-6Z" />
      <glyph unicode="&#xab;" glyph-name="gid459" horiz-adv-x="550" d="M219,126L62,326L219,526h71L161,326L290,126H219Zm195,0L257,326L414,526h72L356,326L486,126H414Z" />
      <glyph unicode="&#xac;" glyph-name="gid502" horiz-adv-x="625" d="M469,198V369H71v74H544V198H469Z" />
      <glyph unicode="&#xad;" glyph-name="gid449" horiz-adv-x="333" d="M40,226v89H293V226H40Z" />
      <glyph unicode="&#xae;" glyph-name="gid513" horiz-adv-x="752" d="M376-12q-77,0-142,26.5t-112.5,74T47.5,201T21,343T47.5,485t74,112.5t112.5,74T376,698t142-26.5t112.5-74t74-112.5T731,343T704.5,201t-74-112.5T518,14.5T376-12Zm0,46q89,0 158,40T642.5,184T682,343T642.5,501.5T534,611T376,651T217.5,611t-109-109.5T69,343t39.5-159t109-110T376,34ZM236,137V549H417q63,0 94.5-33T543,425q0-41-18.5-72T471,308l87-171H493L413,297H296V137H236Zm60,212H415q30,0 48.5,20T482,425q0,35-17.5,53.5T415,497H296V349Z" />
      <glyph unicode="&#xaf;" glyph-name="gid545" horiz-adv-x="300" d="M0,635v65H300V635H0Z" />
      <glyph unicode="&#xb0;" glyph-name="gid515" horiz-adv-x="400" d="M201,428q-37,0-68,18T83.5,495T65,563q0,38 18.5,68.5T133,680t68,18q38,0 68.5-18T318,631.5T336,563q0-37-18-68t-48.5-49T201,428Zm0,53q34,0 57.5,24.5T282,563q0,34-23.5,58T201,645t-58.5-24T118,563q0-33 24.5-57.5T201,481Z" />
      <glyph unicode="&#xb1;" glyph-name="gid500" horiz-adv-x="625" d="M275,127V344H76v76H275V638h75V420H548V344H350V127H275ZM76,0V76H548V0H76Z" />
      <glyph unicode="&#xb2;" glyph-name="gid419" horiz-adv-x="346" d="M45,440v23q0,30 14.5,52.5t38,40.5T145,591q36,25 63.5,49.5T236,697q0,20-14.5,34T176,745q-24,0-38.5-8t-21-21T110,686V662H51q-1,5-2,12.5T48,690q0,38 18,62t48,35t65,11q41,0 67-14t39-37t13-51q0-26-10-47t-27-38.5t-37-32T183,550q-20-14-38-27t-26-27H300V440H45Z" />
      <glyph unicode="&#xb3;" glyph-name="gid420" horiz-adv-x="346" d="M174,428q-65,0-99,29T41,537v10h61V536q0-27 18-41t50-14q22,0 38,5.5T232.5,504t8.5,33t-10,32.5t-27,16T168,590H126v53h44q18,0 32,5t22.5,17t8.5,31q0,17-7.5,28t-21,16.5T174,746t-32-6t-23.5-18T110,693V681H48v14q0,31 16.5,54t45,36T173,798q36,0 63.5-11.5T280,753t16-55q0-28-14.5-47T246,621v-3q26-10 42-31.5T304,533t-17-56t-46-36.5T174,428Z" />
      <glyph unicode="&#xb4;" glyph-name="gid539" horiz-adv-x="187" d="M0,591L87,723h99l1-3L77,591H0Z" />
      <glyph unicode="&#xb5;" glyph-name="gid504" horiz-adv-x="567" d="M69-179V526h88V175q0-33 8-54t22.5-33T223,71t45-5q37,0 69.5,18t53,52.5T411,217V526h88V0H427l-8,79h-7q-18-33-42.5-53T316-3t-62-9q-31,0-57.5,8T152,21q3-15 4-35t1-38V-179H69Z" />
      <glyph unicode="&#xb6;" glyph-name="gid510" horiz-adv-x="565" d="M254-170V251q-55,4-101,30.5t-74,74T51,467q0,75 31.5,123T167,662t117,24H522V631H459V-170H392V631H321V-170H254Z" />
      <glyph unicode="&#xb7;" glyph-name="gid434" horiz-adv-x="333" d="M117,303V410H217V303H117Z" />
      <glyph unicode="&#xb8;" glyph-name="gid546" horiz-adv-x="209" d="M91-176q-22,0-46,2T0-168v39H97q18,0 28.5,7T136-101q0,12-8.5,18T97-77H46L62,11h59l-7-50q26,0 47.5-6T196-64.5T209-101q0-22-10.5-36.5t-27.5-23t-38-12T91-176Z" />
      <glyph unicode="&#xb9;" glyph-name="gid418" horiz-adv-x="346" d="M59,440v56h89V711H59v41q21,2 42,6.5t41,13T178,793h31V496h81V440H59Z" />
      <glyph unicode="&#xba;" glyph-name="gid377" horiz-adv-x="379" d="M189,329q-51,0-86,20T50,410T32,514q0,64 18.5,104.5t54,60T191,698t86-19.5t53-60T348,514q0-63-18.5-104T276,349t-87-20Zm1,53q50,0 72,31.5T284,506v14q0,63-22.5,94T190,645q-48,0-70.5-31T97,521V507q0-61 22-93t71-32Z" />
      <glyph unicode="&#xbb;" glyph-name="gid460" horiz-adv-x="550" d="M331,526L488,326L331,126H259L389,326L259,526h72Zm-196,0L293,326L135,126H64L193,326L64,526h71Z" />
      <glyph unicode="&#xbc;" glyph-name="gid423" horiz-adv-x="845" d="M118-12L664,698h69L187-12H118ZM59,340v56h89V611H59v41q21,2 42,6.5t41,13T178,693h31V396h81V340H59ZM668,0V79H505v47q31,52 54,109.5T597,357h66q-8-33-20-67t-25.5-65T591,170t-22-38h99v89q4,12 8.5,24.5t8.5,25t6,24.5h37V132h46V79H728V0H668Z" />
      <glyph unicode="&#xbd;" glyph-name="gid422" horiz-adv-x="845" d="M118-12L664,698h69L187-12H118ZM531,0V23q0,30 15,52.5T584,116t48,35q35,25 63,49.5T723,257q0,20-15,34t-45,14q-24,0-38.5-8t-21-21T597,246V222H538q-1,5-2,12.5T535,250q0,38 18,62t47.5,35T665,358q41,0 67.5-14t39-37T784,256q0-26-10-47t-27-38.5t-37-32T670,110q-21-14-38.5-27T606,56H786V0H531ZM59,340v56h89V611H59v41q21,2 42,6.5t41,13T178,693h31V396h81V340H59Z" />
      <glyph unicode="&#xbe;" glyph-name="gid424" horiz-adv-x="845" d="M118-12L664,698h69L187-12H118Zm56,340q-65,0-99,29T41,437v10h61V436q0-27 18-41t50-14q22,0 38,5.5t24.5,18T241,437q0,21-10,32t-27,16t-36,5H126v53h44q18,0 32,5t22.5,17t8.5,31q0,17-7.5,28t-21,16.5T174,646t-32-6t-23.5-18T110,593V581H48v14q0,31 16.5,54t45,36T173,698q36,0 63.5-11.5T280,653t16-55q0-28-14.5-47T246,521v-3q26-10 42-31.5T304,433t-17-56t-46-36.5T174,328ZM668,0V79H505v47q31,52 54,109.5T597,357h66q-8-33-20-67t-25.5-65T591,170t-22-38h99v89q4,12 8.5,24.5t8.5,25t6,24.5h37V132h46V79H728V0H668Z" />
      <glyph unicode="&#xbf;" glyph-name="gid433" horiz-adv-x="578" d="M287-172q-49,0-85,11.5T142-130T103-87.5t-21.5,48T75,6q0,48 13,80.5T121.5,142T165,182t43.5,33T242,251.5T255,302v46h84V292q0-38-12-64t-31.5-45.5t-41-35.5t-41-34T182,72T170,15q0-12 4-30.5t16-36T227-81t67-12q45,0 72,14.5t40.5,36t18,43T429,35q0,9-0.5,16T428,63h89q2-4 3-13t1-21q0-22-7.5-49T490-74t-43-49t-66.5-35.5T287-172ZM248,421V526h98V421H248Z" />
      <glyph unicode="&#xc0;" glyph-name="gid8" horiz-adv-x="682" d="M7,0L278,686H403L675,0H572L505,170H171L105,0H7ZM202,251H473L390,466q-3,9-9,25t-13,35.5t-14,40T341,604h-6q-7-20-16-46t-18-50.5T286,466L202,251ZM390,736H309L199,865l1,3H304l86-132Z" />
      <glyph unicode="&#xc1;" glyph-name="gid2" horiz-adv-x="682" d="M7,0L278,686H403L675,0H572L505,170H171L105,0H7ZM202,251H473L390,466q-3,9-9,25t-13,35.5t-14,40T341,604h-6q-7-20-16-46t-18-50.5T286,466L202,251Zm97,485l86,132H489l1-3L380,736H299Z" />
      <glyph unicode="&#xc2;" glyph-name="gid5" horiz-adv-x="682" d="M7,0L278,686H403L675,0H572L505,170H171L105,0H7ZM202,251H473L390,466q-3,9-9,25t-13,35.5t-14,40T341,604h-6q-7-20-16-46t-18-50.5T286,466L202,251ZM190,736L296,868h91L492,736H407L319,845h44L275,736H190Z" />
      <glyph unicode="&#xc3;" glyph-name="gid14" horiz-adv-x="682" d="M7,0L278,686H403L675,0H572L505,170H171L105,0H7ZM202,251H473L390,466q-3,9-9,25t-13,35.5t-14,40T341,604h-6q-7-20-16-46t-18-50.5T286,466L202,251ZM182,767q1,27 10,49.5t28,36T268,866q26,0 50-8.5t47-17t45-8.5q15,0 23,9t10,25h56q0-27-9.5-49.5t-28.5-36T412,767q-24,0-48.5,9t-47,17.5T272,802q-16,0-24-9.5T238,767H182Z" />
      <glyph unicode="&#xc4;" glyph-name="gid7" horiz-adv-x="682" d="M7,0L278,686H403L675,0H572L505,170H171L105,0H7ZM202,251H473L390,466q-3,9-9,25t-13,35.5t-14,40T341,604h-6q-7-20-16-46t-18-50.5T286,466L202,251Zm-1,523v92h89V774H201Zm191,0v92h89V774H392Z" />
      <glyph unicode="&#xc5;" glyph-name="gid12" horiz-adv-x="682" d="M7,0L278,686H403L675,0H572L505,170H171L105,0H7ZM202,251H473L390,466q-3,9-9,25t-13,35.5t-14,40T341,604h-6q-7-20-16-46t-18-50.5T286,466L202,251ZM341,730q-43,0-70.5,26.5T243,823q0,41 27.5,67.5T341,917t71-26.5T440,823q0-40-28-66.5T341,730Zm0,46q22,0 35.5,13.5T390,823q0,21-13.5,34T341,870q-21,0-34.5-13T293,823q0-20 13.5-33.5T341,776Z" />
      <glyph unicode="&#xc6;" glyph-name="gid15" horiz-adv-x="1000" d="M-3,0L344,686H938V604H492l54-212H894V310H568L626,82H944V0H550L506,173H183L97,0H-3ZM222,254H485L417,526q-2,9-4.5,18t-5,18.5T403,581t-4,17h-6q-5-8-9.5-17t-9-18.5t-9-18.5T356,526L222,254Z" />
      <glyph unicode="&#xc7;" glyph-name="gid21" horiz-adv-x="728" d="M379-12Q274-12 201,26.5T89.5,143.5T51,343q0,179 87,267t242,88q88,0 156-28.5t106.5-86T681,439H585q0,60-25.5,99T488,596.5T380,616q-72,0-124-28t-79-86.5T150,351V330q0-91 27-148.5T255.5,97T380,70q64,0 110.5,19t72,58.5T588,247h93q0-89-39.5-146T534,16T379-12Zm1-164q-23,0-47,2t-44,6v39h96q19,0 29.5,7T425-101q0,12-8.5,18T385-77H335l16,88h59l-7-50q26,0 47.5-6t34-19.5T497-101q0-22-10.5-36.5t-27.5-23t-37.5-12T380-176Z" />
      <glyph unicode="&#xc8;" glyph-name="gid38" horiz-adv-x="677" d="M86,0V686H614V604H181V392H570V310H181V82H620V0H86ZM405,736H324L214,865l1,3H318l87-132Z" />
      <glyph unicode="&#xc9;" glyph-name="gid31" horiz-adv-x="677" d="M86,0V686H614V604H181V392H570V310H181V82H620V0H86ZM314,736l86,132H504l1-3L394,736H314Z" />
      <glyph unicode="&#xca;" glyph-name="gid34" horiz-adv-x="677" d="M86,0V686H614V604H181V392H570V310H181V82H620V0H86ZM205,736L311,868h91L507,736H422L334,845h44L290,736H205Z" />
      <glyph unicode="&#xcb;" glyph-name="gid36" horiz-adv-x="677" d="M86,0V686H614V604H181V392H570V310H181V82H620V0H86ZM216,774v92h89V774H216Zm191,0v92h89V774H407Z" />
      <glyph unicode="&#xcc;" glyph-name="gid62" horiz-adv-x="267" d="M86,0V686h95V0H86Zm97,736H102L-8,865l1,3H96l87-132Z" />
      <glyph unicode="&#xcd;" glyph-name="gid55" horiz-adv-x="267" d="M86,0V686h95V0H86Zm6,736l86,132H282l1-3L172,736H92Z" />
      <glyph unicode="&#xce;" glyph-name="gid58" horiz-adv-x="267" d="M86,0V686h95V0H86ZM-17,736L89,868h91L285,736H200L112,845h44L68,736H-17Z" />
      <glyph unicode="&#xcf;" glyph-name="gid60" horiz-adv-x="267" d="M86,0V686h95V0H86ZM-6,774v92H83V774H-6Zm191,0v92h89V774H185Z" />
      <glyph unicode="&#xd0;" glyph-name="gid26" horiz-adv-x="734" d="M0,310v76H375V310H0ZM86,0V686H342q108,0 184-36T642.5,538.5T683,343q0-118-40.5-194T526,36.5T342,0H86Zm95,82H340q57,0 102,14.5T519,141t48.5,77.5T584,332v20q0,68-16.5,115.5t-48,77.5T443,589.5T340,604H181V82Z" />
      <glyph unicode="&#xd1;" glyph-name="gid88" horiz-adv-x="736" d="M86,0V686h92L511,234q5-6 13-18t16-23.5T553,172h4q0,16 0,31.5t0,30.5V686h93V0H563L226,460q-7,11-20.5,31T183,523h-5q0-16 0-31.5t0-31.5V0H86ZM211,767q1,27 10,49.5t28,36T297,866q26,0 50-8.5t47-17t45-8.5q15,0 23,9t10,25h56q0-27-9.5-49.5t-28.5-36T441,767q-24,0-48.5,9t-47,17.5T301,802q-16,0-24-9.5T267,767H211Z" />
      <glyph unicode="&#xd2;" glyph-name="gid98" horiz-adv-x="788" d="M394-12Q287-12 210.5,27T92.5,145T51,343q0,120 41.5,198.5T210.5,659T394,698t183.5-39t118-117.5T737,343q0-119-41.5-198T577.5,27T394-12Zm0,82q56,0 101.5,15t77,47.5t48.5,82T638,332v21q0,69-17,118.5t-48.5,82t-77,47.5T394,616q-57,0-102-15t-77-47.5t-48.5-82T150,353V332q0-68 16.5-117.5t48.5-82T292,85T394,70Zm48,666H361L251,865l1,3H356l86-132Z" />
      <glyph unicode="&#xd3;" glyph-name="gid90" horiz-adv-x="788" d="M394-12Q287-12 210.5,27T92.5,145T51,343q0,120 41.5,198.5T210.5,659T394,698t183.5-39t118-117.5T737,343q0-119-41.5-198T577.5,27T394-12Zm0,82q56,0 101.5,15t77,47.5t48.5,82T638,332v21q0,69-17,118.5t-48.5,82t-77,47.5T394,616q-57,0-102-15t-77-47.5t-48.5-82T150,353V332q0-68 16.5-117.5t48.5-82T292,85T394,70ZM351,736l86,132H541l1-3L432,736H351Z" />
      <glyph unicode="&#xd4;" glyph-name="gid93" horiz-adv-x="788" d="M394-12Q287-12 210.5,27T92.5,145T51,343q0,120 41.5,198.5T210.5,659T394,698t183.5-39t118-117.5T737,343q0-119-41.5-198T577.5,27T394-12Zm0,82q56,0 101.5,15t77,47.5t48.5,82T638,332v21q0,69-17,118.5t-48.5,82t-77,47.5T394,616q-57,0-102-15t-77-47.5t-48.5-82T150,353V332q0-68 16.5-117.5t48.5-82T292,85T394,70ZM242,736L348,868h91L544,736H459L371,845h44L328,736H242Z" />
      <glyph unicode="&#xd5;" glyph-name="gid106" horiz-adv-x="788" d="M394-12Q287-12 210.5,27T92.5,145T51,343q0,120 41.5,198.5T210.5,659T394,698t183.5-39t118-117.5T737,343q0-119-41.5-198T577.5,27T394-12Zm0,82q56,0 101.5,15t77,47.5t48.5,82T638,332v21q0,69-17,118.5t-48.5,82t-77,47.5T394,616q-57,0-102-15t-77-47.5t-48.5-82T150,353V332q0-68 16.5-117.5t48.5-82T292,85T394,70ZM234,767q1,27 10,49.5t28,36T320,866q26,0 50-8.5t47-17t45-8.5q15,0 23,9t10,25h56q0-27-9.5-49.5t-28.5-36T464,767q-24,0-48,9t-47,17.5T324,802q-16,0-24-9.5T290,767H234Z" />
      <glyph unicode="&#xd6;" glyph-name="gid95" horiz-adv-x="788" d="M394-12Q287-12 210.5,27T92.5,145T51,343q0,120 41.5,198.5T210.5,659T394,698t183.5-39t118-117.5T737,343q0-119-41.5-198T577.5,27T394-12Zm0,82q56,0 101.5,15t77,47.5t48.5,82T638,332v21q0,69-17,118.5t-48.5,82t-77,47.5T394,616q-57,0-102-15t-77-47.5t-48.5-82T150,353V332q0-68 16.5-117.5t48.5-82T292,85T394,70ZM253,774v92h89V774H253Zm191,0v92h89V774H444Z" />
      <glyph unicode="&#xd7;" glyph-name="gid495" horiz-adv-x="625" d="M159,47l-54,54L259,255L105,409l53,54L312,309L467,463l54-54L366,254L520,102L466,48L312,202L159,47Z" />
      <glyph unicode="&#xd8;" glyph-name="gid104" horiz-adv-x="788" d="M394-12Q287-12 210.5,27T92.5,145T51,343q0,120 41.5,198.5T210.5,659T394,698t183.5-39t118-117.5T737,343q0-119-41.5-198T577.5,27T394-12Zm0,82q56,0 101.5,15t77,47.5t48.5,82T638,332v21q0,69-17,118.5t-48.5,82t-77,47.5T394,616q-57,0-102-15t-77-47.5t-48.5-82T150,353V332q0-68 16.5-117.5t48.5-82T292,85T394,70ZM57-49L648,735h80L138-49H57Z" />
      <glyph unicode="&#xd9;" glyph-name="gid144" horiz-adv-x="731" d="M364-12q-87,0-150,28t-96.5,88.5T84,260V686h95V250q0-90 48.5-135T364,70q89,0 139,45t50,135V686h94V260q0-95-34-155.5T515.5,16T364-12Zm51,748H334L223,865l1,3H328l87-132Z" />
      <glyph unicode="&#xda;" glyph-name="gid134" horiz-adv-x="731" d="M364-12q-87,0-150,28t-96.5,88.5T84,260V686h95V250q0-90 48.5-135T364,70q89,0 139,45t50,135V686h94V260q0-95-34-155.5T515.5,16T364-12ZM323,736l87,132H513l1-3L404,736H323Z" />
      <glyph unicode="&#xdb;" glyph-name="gid137" horiz-adv-x="731" d="M364-12q-87,0-150,28t-96.5,88.5T84,260V686h95V250q0-90 48.5-135T364,70q89,0 139,45t50,135V686h94V260q0-95-34-155.5T515.5,16T364-12ZM215,736L320,868h91L517,736H431L344,845h44L300,736H215Z" />
      <glyph unicode="&#xdc;" glyph-name="gid139" horiz-adv-x="731" d="M364-12q-87,0-150,28t-96.5,88.5T84,260V686h95V250q0-90 48.5-135T364,70q89,0 139,45t50,135V686h94V260q0-95-34-155.5T515.5,16T364-12ZM226,774v92h89V774H226Zm190,0v92h89V774H416Z" />
      <glyph unicode="&#xdd;" glyph-name="gid160" horiz-adv-x="655" d="M280,0V285L10,686H119L328,369h5L541,686H645L376,285V0H280Zm7,736l87,132H477l1-3L368,736H287Z" />
      <glyph unicode="&#xde;" glyph-name="gid110" horiz-adv-x="679" d="M85,0V686h95V567H418q72,0 119-26.5T608,467t24-109q0-64-26-112t-73.5-75T419,144H180V0H85Zm95,226H413q56,0 89.5,35T536,358q0,39-14,67.5t-41,44T413,485H180V226Z" />
      <glyph unicode="&#xdf;" glyph-name="gid310" horiz-adv-x="619" d="M79,0V516q0,59 19.5,100.5T151,684t76.5,38.5T320,735q55,0 97.5-13t71-37T532,629t15-71q0-57-32.5-100.5T428,396v-4q67-17 106-65.5T573,207q0-66-27.5-112.5T469,24T357,0H255V74h92q41,0 71.5,15.5T466,136t17,77q0,42-18,72t-49,46t-69,16H255v76h82q33,0 59.5,17t43,45T456,548q0,50-35,82T319,662q-46,0-80-16t-52.5-48T168,519V0H79Z" />
      <glyph unicode="&#xe0;" glyph-name="gid191" horiz-adv-x="545" d="M201-12q-29,0-58,7T89,18T49,62.5T34,134q0,54 26,89t72.5,54.5t110.5,27T382,312v60q0,29-10,50t-35.5,32.5T264,466q-45,0-71.5-11.5t-37-29.5T145,385V370H60q-1,5-1,10t0,12q0,48 26.5,80.5t74.5,49T270,538q66,0 110.5-19t67-54T470,381V96q0-19 9-26.5T501,62h39V4Q526-2 509-6.5T470-11q-26,0-43,10.5t-26,29T389,70h-7q-18-25-45.5-43.5T275-2T201-12Zm22,74q32,0 60.5,10T334,100.5T369,145t13,57v44q-81,0-138-9t-87.5-32T126,140q0-27 12-44t34-25.5T223,62Zm98,529H244L134,720l1,3h99l87-132Z" />
      <glyph unicode="&#xe1;" glyph-name="gid185" horiz-adv-x="545" d="M201-12q-29,0-58,7T89,18T49,62.5T34,134q0,54 26,89t72.5,54.5t110.5,27T382,312v60q0,29-10,50t-35.5,32.5T264,466q-45,0-71.5-11.5t-37-29.5T145,385V370H60q-1,5-1,10t0,12q0,48 26.5,80.5t74.5,49T270,538q66,0 110.5-19t67-54T470,381V96q0-19 9-26.5T501,62h39V4Q526-2 509-6.5T470-11q-26,0-43,10.5t-26,29T389,70h-7q-18-25-45.5-43.5T275-2T201-12Zm22,74q32,0 60.5,10T334,100.5T369,145t13,57v44q-81,0-138-9t-87.5-32T126,140q0-27 12-44t34-25.5T223,62Zm-9,529l87,132h99l1-3L291,591H214Z" />
      <glyph unicode="&#xe2;" glyph-name="gid188" horiz-adv-x="545" d="M201-12q-29,0-58,7T89,18T49,62.5T34,134q0,54 26,89t72.5,54.5t110.5,27T382,312v60q0,29-10,50t-35.5,32.5T264,466q-45,0-71.5-11.5t-37-29.5T145,385V370H60q-1,5-1,10t0,12q0,48 26.5,80.5t74.5,49T270,538q66,0 110.5-19t67-54T470,381V96q0-19 9-26.5T501,62h39V4Q526-2 509-6.5T470-11q-26,0-43,10.5t-26,29T389,70h-7q-18-25-45.5-43.5T275-2T201-12Zm22,74q32,0 60.5,10T334,100.5T369,145t13,57v44q-81,0-138-9t-87.5-32T126,140q0-27 12-44t34-25.5T223,62ZM119,591L225,723h83L414,591H332L245,700h44L201,591H119Z" />
      <glyph unicode="&#xe3;" glyph-name="gid197" horiz-adv-x="545" d="M201-12q-29,0-58,7T89,18T49,62.5T34,134q0,54 26,89t72.5,54.5t110.5,27T382,312v60q0,29-10,50t-35.5,32.5T264,466q-45,0-71.5-11.5t-37-29.5T145,385V370H60q-1,5-1,10t0,12q0,48 26.5,80.5t74.5,49T270,538q66,0 110.5-19t67-54T470,381V96q0-19 9-26.5T501,62h39V4Q526-2 509-6.5T470-11q-26,0-43,10.5t-26,29T389,70h-7q-18-25-45.5-43.5T275-2T201-12Zm22,74q32,0 60.5,10T334,100.5T369,145t13,57v44q-81,0-138-9t-87.5-32T126,140q0-27 12-44t34-25.5T223,62ZM107,622q1,27 10,49.5T145,707t49,13q26,0 49.5-8T290,695t45-9q16,0 23.5,9t9.5,25h57q-1-27-10.5-49t-28-35.5T338,622q-25,0-49,8.5t-46.5,17T197,656q-15,0-23-9t-10-25H107Z" />
      <glyph unicode="&#xe4;" glyph-name="gid190" horiz-adv-x="545" d="M201-12q-29,0-58,7T89,18T49,62.5T34,134q0,54 26,89t72.5,54.5t110.5,27T382,312v60q0,29-10,50t-35.5,32.5T264,466q-45,0-71.5-11.5t-37-29.5T145,385V370H60q-1,5-1,10t0,12q0,48 26.5,80.5t74.5,49T270,538q66,0 110.5-19t67-54T470,381V96q0-19 9-26.5T501,62h39V4Q526-2 509-6.5T470-11q-26,0-43,10.5t-26,29T389,70h-7q-18-25-45.5-43.5T275-2T201-12Zm22,74q32,0 60.5,10T334,100.5T369,145t13,57v44q-81,0-138-9t-87.5-32T126,140q0-27 12-44t34-25.5T223,62ZM126,629v92h89V629H126Zm191,0v92h89V629H317Z" />
      <glyph unicode="&#xe5;" glyph-name="gid195" horiz-adv-x="545" d="M201-12q-29,0-58,7T89,18T49,62.5T34,134q0,54 26,89t72.5,54.5t110.5,27T382,312v60q0,29-10,50t-35.5,32.5T264,466q-45,0-71.5-11.5t-37-29.5T145,385V370H60q-1,5-1,10t0,12q0,48 26.5,80.5t74.5,49T270,538q66,0 110.5-19t67-54T470,381V96q0-19 9-26.5T501,62h39V4Q526-2 509-6.5T470-11q-26,0-43,10.5t-26,29T389,70h-7q-18-25-45.5-43.5T275-2T201-12Zm22,74q32,0 60.5,10T334,100.5T369,145t13,57v44q-81,0-138-9t-87.5-32T126,140q0-27 12-44t34-25.5T223,62Zm44,518q-41,0-68,26.5T172,673q0,41 27,67.5T267,767t67.5-26.5T361,673q0-40-26.5-66.5T267,580Zm0,44q21,0 34.5,14T315,673t-13.5,35.5T267,723t-35-14.5T218,673t14-35t35-14Z" />
      <glyph unicode="&#xe6;" glyph-name="gid198" horiz-adv-x="894" d="M218-12q-31,0-63,7T95.5,18T51,62.5T34,134q0,54 26.5,88t75,53.5t114,27T393,310v62q0,29-10.5,50T345,454.5T268,466q-47,0-74-11.5T156,425t-11-40V370H60q-1,5-1,10t0,12q0,48 27,80.5t75.5,49T274,538q66,0 111-19.5T452,463q30,38 75,56.5T632,538q72,0 122-28t75-84t25-140V243H483q1-64 17.5-104.5t49-59.5T630,60q33,0 58,8.5T730.5,93t26,38t9.5,48h86q-1-42-16-77.5T792.5,41t-70-39T628-12q-69,0-117.5,24T434,86q-27-37-62-58.5T297.5-3T218-12Zm9,72q33,0 63,10t53.5,28.5t36.5,45T393,202v41q-83,0-143-8.5t-92-31T126,140q0-28 12.5-45.5t35.5-26T227,60ZM484,309H763q0,44-10.5,74t-28,48.5t-42,26.5T629,466q-45,0-76-16.5T505,399t-21-90Z" />
      <glyph unicode="&#xe7;" glyph-name="gid204" horiz-adv-x="519" d="M269-12q-76,0-127.5,29.5t-78,91T37,263T63.5,417t79,91T272,538q54,0 93.5-14T431,483t38.5-65T482,331H393q0,46-12.5,75.5t-39.5,44T270,465t-76-19.5T145,384T128,273V252q0-65 16.5-108T193,81t78-20q45,0 72.5,16t40,46T396,195h86q0-44-12.5-82T431,47T365,3.5T269-12Zm-9-164q-23,0-47,2t-45,6v39h97q19,0 29,7t10,21q0,12-8,18t-31,6H214l16,88h60l-7-50q26,0 47-6t34-19.5T377-101q0-22-10.5-36.5t-27.5-23t-37.5-12T260-176Z" />
      <glyph unicode="&#xe8;" glyph-name="gid220" horiz-adv-x="548" d="M279-12q-78,0-131.5,29.5T66.5,108T39,263q0,95 27.5,155.5t81.5,90T283,538q74,0 124-28.5t75.5-85T508,283V241H130q2-63 18.5-103.5t49.5-59T281,60q34,0 59.5,8.5t43,24.5T410,131t10,48h86q-1-42-16-77.5T446,41T375,2T279-12ZM132,307H417q0,44-10,74t-28.5,49t-43,27.5T280,466q-46,0-78-17t-49-52t-21-90ZM334,591H257L147,720l1,3H248l86-132Z" />
      <glyph unicode="&#xe9;" glyph-name="gid213" horiz-adv-x="548" d="M279-12q-78,0-131.5,29.5T66.5,108T39,263q0,95 27.5,155.5t81.5,90T283,538q74,0 124-28.5t75.5-85T508,283V241H130q2-63 18.5-103.5t49.5-59T281,60q34,0 59.5,8.5t43,24.5T410,131t10,48h86q-1-42-16-77.5T446,41T375,2T279-12ZM132,307H417q0,44-10,74t-28.5,49t-43,27.5T280,466q-46,0-78-17t-49-52t-21-90Zm96,284l86,132H414l1-3L304,591H228Z" />
      <glyph unicode="&#xea;" glyph-name="gid216" horiz-adv-x="548" d="M279-12q-78,0-131.5,29.5T66.5,108T39,263q0,95 27.5,155.5t81.5,90T283,538q74,0 124-28.5t75.5-85T508,283V241H130q2-63 18.5-103.5t49.5-59T281,60q34,0 59.5,8.5t43,24.5T410,131t10,48h86q-1-42-16-77.5T446,41T375,2T279-12ZM132,307H417q0,44-10,74t-28.5,49t-43,27.5T280,466q-46,0-78-17t-49-52t-21-90Zm1,284L238,723h84L427,591H346L258,700h44L214,591H133Z" />
      <glyph unicode="&#xeb;" glyph-name="gid218" horiz-adv-x="548" d="M279-12q-78,0-131.5,29.5T66.5,108T39,263q0,95 27.5,155.5t81.5,90T283,538q74,0 124-28.5t75.5-85T508,283V241H130q2-63 18.5-103.5t49.5-59T281,60q34,0 59.5,8.5t43,24.5T410,131t10,48h86q-1-42-16-77.5T446,41T375,2T279-12ZM132,307H417q0,44-10,74t-28.5,49t-43,27.5T280,466q-46,0-78-17t-49-52t-21-90Zm7,322v92h89V629H139Zm191,0v92h89V629H330Z" />
      <glyph unicode="&#xec;" glyph-name="gid245" horiz-adv-x="225" d="M69,0V526h88V0H69Zm98,591H90L-20,720l1,3H80l87-132Z" />
      <glyph unicode="&#xed;" glyph-name="gid238" horiz-adv-x="225" d="M69,0V526h88V0H69ZM60,591l87,132h99l1-3L137,591H60Z" />
      <glyph unicode="&#xee;" glyph-name="gid241" horiz-adv-x="225" d="M69,0V526h88V0H69ZM-35,591L71,723h83L260,591H178L91,700h44L47,591H-35Z" />
      <glyph unicode="&#xef;" glyph-name="gid243" horiz-adv-x="225" d="M69,0V526h88V0H69ZM-28,629v92H61V629H-28Zm191,0v92h89V629H163Z" />
      <glyph unicode="&#xf0;" glyph-name="gid208" horiz-adv-x="567" d="M282-12q-78,0-132,29T68.5,107T41,261q0,91 26,151.5t76,91T264,534q23,0 44-4t40-11l2,2q-17,25-36.5,48T272,615L125,604v57l93,6q-16,14-33,27t-34,25l3,4H262q11-8 21-16t20-16t19-16l144,11V629l-89-7q47-50 80.5-106T509,396.5T527,261q0-94-28.5-155T416,16.5T282-12Zm2,74q50,0 84,20t50.5,61.5T435,251v21q0,66-16.5,107.5t-50.5,61T284,460q-51,0-84.5-19.5t-50.5-61T132,272V252q0-67 17-108.5T199.5,82T284,62Z" />
      <glyph unicode="&#xf1;" glyph-name="gid273" horiz-adv-x="563" d="M69,0V526h71l8-79h7q21,32 47.5,52t59,29.5T331,538q50,0 87.5-17t59-55T499,363V0H411V351q0,33-8.5,54t-23,33t-35,17T299,460q-37,0-70-18t-52.5-52T157,309V0H69Zm55,622q1,27 10,49.5T162,707t48,13q26,0 50-8t47-17t45-9q15,0 23,9t10,25h56q0-27-9.5-49T403,635.5T354,622q-24,0-48.5,8.5t-47,17T214,656q-16,0-24-9t-10-25H124Z" />
      <glyph unicode="&#xf2;" glyph-name="gid283" horiz-adv-x="570" d="M285-12q-80,0-134.5,29.5T67.5,108T39,263q0,95 28.5,155.5t83,90T285,538t134.5-29.5t82.5-90T530,263q0-94-28-155T419.5,17.5T285-12Zm0,74q51,0 85,20t51.5,62.5T439,252v22q0,66-17.5,108T370,444t-85,20t-85.5-20T148,382T131,274V252q0-65 17-107.5T199.5,82T285,62Zm54,529H262L152,720l1,3h99l87-132Z" />
      <glyph unicode="&#xf3;" glyph-name="gid275" horiz-adv-x="570" d="M285-12q-80,0-134.5,29.5T67.5,108T39,263q0,95 28.5,155.5t83,90T285,538t134.5-29.5t82.5-90T530,263q0-94-28-155T419.5,17.5T285-12Zm0,74q51,0 85,20t51.5,62.5T439,252v22q0,66-17.5,108T370,444t-85,20t-85.5-20T148,382T131,274V252q0-65 17-107.5T199.5,82T285,62ZM233,591l86,132H419l1-3L309,591H233Z" />
      <glyph unicode="&#xf4;" glyph-name="gid278" horiz-adv-x="570" d="M285-12q-80,0-134.5,29.5T67.5,108T39,263q0,95 28.5,155.5t83,90T285,538t134.5-29.5t82.5-90T530,263q0-94-28-155T419.5,17.5T285-12Zm0,74q51,0 85,20t51.5,62.5T439,252v22q0,66-17.5,108T370,444t-85,20t-85.5-20T148,382T131,274V252q0-65 17-107.5T199.5,82T285,62ZM137,591L243,723h84L432,591H350L263,700h44L219,591H137Z" />
      <glyph unicode="&#xf5;" glyph-name="gid291" horiz-adv-x="570" d="M285-12q-80,0-134.5,29.5T67.5,108T39,263q0,95 28.5,155.5t83,90T285,538t134.5-29.5t82.5-90T530,263q0-94-28-155T419.5,17.5T285-12Zm0,74q51,0 85,20t51.5,62.5T439,252v22q0,66-17.5,108T370,444t-85,20t-85.5-20T148,382T131,274V252q0-65 17-107.5T199.5,82T285,62ZM126,622q0,27 9.5,49.5t28,35.5T212,720q26,0 50-8t46.5-17t44.5-9q16,0 23.5,9t9.5,25h57q-1-27-10.5-49t-28-35.5T356,622q-25,0-49,8.5t-46.5,17T216,656q-16,0-24-9t-10-25H126Z" />
      <glyph unicode="&#xf6;" glyph-name="gid280" horiz-adv-x="570" d="M285-12q-80,0-134.5,29.5T67.5,108T39,263q0,95 28.5,155.5t83,90T285,538t134.5-29.5t82.5-90T530,263q0-94-28-155T419.5,17.5T285-12Zm0,74q51,0 85,20t51.5,62.5T439,252v22q0,66-17.5,108T370,444t-85,20t-85.5-20T148,382T131,274V252q0-65 17-107.5T199.5,82T285,62ZM144,629v92h89V629H144Zm191,0v92h89V629H335Z" />
      <glyph unicode="&#xf7;" glyph-name="gid496" horiz-adv-x="625" d="M76,217v77H548V217H76ZM266,24v90h91V24H266Zm0,374v90h91V398H266Z" />
      <glyph unicode="&#xf8;" glyph-name="gid289" horiz-adv-x="570" d="M285-12q-80,0-134.5,29.5T67.5,108T39,263q0,95 28.5,155.5t83,90T285,538t134.5-29.5t82.5-90T530,263q0-94-28-155T419.5,17.5T285-12Zm0,74q51,0 85,20t51.5,62.5T439,252v22q0,66-17.5,108T370,444t-85,20t-85.5-20T148,382T131,274V252q0-65 17-107.5T199.5,82T285,62ZM27-48L475,576h67L96-48H27Z" />
      <glyph unicode="&#xf9;" glyph-name="gid329" horiz-adv-x="562" d="M232-12q-76,0-122,39T64,163V526h88V175q0-33 8-54t23-33t35.5-17T263,66q38,0 70,18t52.5,52.5T406,217V526h88V0H423l-8,79h-7q-21-32-47.5-52t-59-29.5T232-12ZM336,591H259L149,720l1,3h99l87-132Z" />
      <glyph unicode="&#xfa;" glyph-name="gid319" horiz-adv-x="562" d="M232-12q-76,0-122,39T64,163V526h88V175q0-33 8-54t23-33t35.5-17T263,66q38,0 70,18t52.5,52.5T406,217V526h88V0H423l-8,79h-7q-21-32-47.5-52t-59-29.5T232-12Zm-3,603l87,132h99l1-3L306,591H229Z" />
      <glyph unicode="&#xfb;" glyph-name="gid322" horiz-adv-x="562" d="M232-12q-76,0-122,39T64,163V526h88V175q0-33 8-54t23-33t35.5-17T263,66q38,0 70,18t52.5,52.5T406,217V526h88V0H423l-8,79h-7q-21-32-47.5-52t-59-29.5T232-12ZM134,591L240,723h83L429,591H347L259,700h44L216,591H134Z" />
      <glyph unicode="&#xfc;" glyph-name="gid324" horiz-adv-x="562" d="M232-12q-76,0-122,39T64,163V526h88V175q0-33 8-54t23-33t35.5-17T263,66q38,0 70,18t52.5,52.5T406,217V526h88V0H423l-8,79h-7q-21-32-47.5-52t-59-29.5T232-12ZM141,629v92h89V629H141Zm191,0v92h89V629H332Z" />
      <glyph unicode="&#xfd;" glyph-name="gid345" horiz-adv-x="504" d="M114-182q-24,0-41.5,3.5T49-174v64H93q24,0 47,10t43,34T217,0L13,526h92L210,255q7-19 16.5-46.5t19-56.5T261,101h6q4,16 10,36t12.5,41.5t13,41T313,254l89,272h89L313,15q-15-43-33-79.5T240-127t-53-40.5T114-182Zm96,773l86,132h99l1-3L286,591H210Z" />
      <glyph unicode="&#xfe;" glyph-name="gid295" horiz-adv-x="562" d="M69-173V728h88V460h6q18,28 42.5,45t55,25t63.5,8q60,0 105-29t69.5-89T523,266q0-97-25-158.5T427.5,17T320-12q-33,0-62.5,8.5T204,22.5T163,66h-6V-173H69ZM296,65q44,0 74,18t45.5,59.5T431,252v21q0,66-14,107.5t-44,61T296,461q-28,0-53-9t-44.5-30.5t-30.5-58T157,273V256q0-62 14.5-104.5T217,87t79-22Z" />
      <glyph unicode="&#xff;" glyph-name="gid347" horiz-adv-x="504" d="M114-182q-24,0-41.5,3.5T49-174v64H93q24,0 47,10t43,34T217,0L13,526h92L210,255q7-19 16.5-46.5t19-56.5T261,101h6q4,16 10,36t12.5,41.5t13,41T313,254l89,272h89L313,15q-15-43-33-79.5T240-127t-53-40.5T114-182Zm7,811v92h89V629H121Zm191,0v92h89V629H312Z" />
      <glyph unicode="&#x2013;" glyph-name="gid450" horiz-adv-x="500" d="M0,235v71H500V235H0Z" />
      <glyph unicode="&#x2014;" glyph-name="gid451" horiz-adv-x="1000" d="M0,235v71H1000V235H0Z" />
      <glyph unicode="&#x2018;" glyph-name="gid457" horiz-adv-x="239" d="M176,686V645q-19-4-31.5-19t-18-37.5T121,539h45V435H68v93q0,58 17,90.5t42,48T176,686Z" />
      <glyph unicode="&#x2019;" glyph-name="gid458" horiz-adv-x="239" d="M62,435v40q20,5 32.5,20t18,37t5.5,49H72V686h98V592q0-57-17-90t-41.5-47.5T62,435Z" />
      <glyph unicode="&#x201a;" glyph-name="gid453" horiz-adv-x="239" d="M62-147v41q20,4 32.5,19t18,37.5T118,0H72V105h98V11q0-58-17-90.5T111.5-127T62-147Z" />
      <glyph unicode="&#x201c;" glyph-name="gid455" horiz-adv-x="394" d="M331,686V645q-19-4-31.5-19t-18-37.5T276,539h46V435H224v93q0,58 16.5,90.5t41.5,48T331,686Zm-155,0V645q-19-4-31.5-19t-18-37.5T121,539h45V435H68v93q0,58 17,90.5t42,48T176,686Z" />
      <glyph unicode="&#x201d;" glyph-name="gid456" horiz-adv-x="394" d="M62,435v40q20,5 32.5,20t18,37t5.5,49H72V686h98V592q0-57-17-90t-41.5-47.5T62,435Zm156,0v40q19,5 31.5,20t18,37t5.5,49H227V686h98V592q0-57-16.5-90T267,454.5T218,435Z" />
      <glyph unicode="&#x201e;" glyph-name="gid454" horiz-adv-x="394" d="M62-147v41q20,4 32.5,19t18,37.5T118,0H72V105h98V11q0-58-17-90.5T111.5-127T62-147Zm156,0v41q19,4 31.5,19t18,37.5T273,0H227V105h98V11q0-58-16.5-90.5T267-127t-49-20Z" />
      <glyph unicode="&#x2022;" glyph-name="gid435" horiz-adv-x="391" d="M195,220q-36,0-63.5,16T88,279.5T72,343t16,64t43.5,44T195,467t64-16t44-44t16-64t-16-63.5T259,236t-64-16Z" />
      <glyph unicode="&#x2039;" glyph-name="gid461" horiz-adv-x="355" d="M219,126L62,326L219,526h71L161,326L290,126H219Z" />
      <glyph unicode="&#x203a;" glyph-name="gid462" horiz-adv-x="355" d="M135,526L293,326L135,126H64L193,326L64,526h71Z" />
    </font>
</defs>
</svg>
