<?xml version="1.0" standalone="no"?>
<!DOCTYPE svg PUBLIC "-//W3C//DTD SVG 1.1//EN" "http://www.w3.org/Graphics/SVG/1.1/DTD/svg11.dtd">
<svg xmlns="http://www.w3.org/2000/svg">
  <defs>
    <font id="OpenSans" horiz-adv-x="1178">
      <font-face font-family="Open Sans" units-per-em="2048" panose-1="0 0 0 0 0 0 0 0 0 0" ascent="2189" descent="-600" alphabetic="0" />
      <glyph unicode=" " glyph-name="space" horiz-adv-x="532" />
      <glyph unicode="!" glyph-name="exclam" horiz-adv-x="541" d="M325,406H216L170,1462H371L325,406ZM150,104q0,70 34,99.5T269,233q50,0 84.5-29.5T388,104q0-69-34.5-100.5T269-28q-51,0-85,31.5T150,104Z" />
      <glyph unicode="&quot;" glyph-name="quotedbl" horiz-adv-x="816" d="M315,1462L277,934H172l-37,528H315Zm366,0L644,934H539l-37,528H681Z" />
      <glyph unicode="#" glyph-name="numbersign" horiz-adv-x="1323" d="M980,899L915,559h283V432H890L805,0H670l85,432H450L368,0H235l79,432H52V559H339l67,340H128v125H429l83,438H649l-83-438H873l83,438h132l-83-438h265V899H980ZM474,559H779l66,340H540L474,559Z" />
      <glyph unicode="$" glyph-name="dollar" horiz-adv-x="1171" d="M518-119V91q-115,2-219.5,20T128,158V320q69-32 177-56t213-26V678q-132,37-218.5,84.5T170,879t-43,167q0,102 48.5,174.5T312,1334t206,47v173H640V1383q107-3 195-23.5T998,1307l-52-139q-68,27-147,46t-159,26V803q134-39 224.5-83T1001,611t46-168q0-146-107-235.5T640,99V-119H518ZM640,247q123,12 183.5,59.5T884,432q0,56-23.5,92T784,586.5T640,637V247ZM518,845v391q-75-5-126-28t-76.5-60T290,1060q0-59 22.5-98.5t73-67T518,845Z" />
      <glyph unicode="%" glyph-name="percent" horiz-adv-x="1693" d="M399,1483q150,0 227.5-119.5T704,1026T629,686.5T399,565q-144,0-220.5,121.5T102,1026t73,337.5T399,1483Zm0-119q-81,0-119-84.5T242,1026t38-255t119-86q84,0 125,86t41,255q0,168-40.5,253T399,1364Zm926,98L514,0H368l811,1462h146Zm-39-565q149,0 227-119.5T1591,440q0-217-75-338.5T1286-20q-145,0-221,121.5T989,440q0,218 72.5,337.5T1286,897Zm0-120q-81,0-119-84t-38-253t38-254.5T1286,100q84,0 125,84.5T1452,440q0,168-40.5,252.5T1286,777Z" />
      <glyph unicode="&amp;" glyph-name="ampersand" horiz-adv-x="1492" d="M623,1485q108,0 186.5-37.5t121-107.5T973,1171q0-130-84.5-220T674,787l406-394q55,64 90,148.5T1229,725h168q-32-132-82.5-243T1188,287L1481,0H1256L1075,177q-64-59-137.5-103.5t-163-69T570-20Q430-20 327,26T167.5,161T111,379q0,106 39,182T261,696T433,811q-47,52-89,105.5t-68,115T250,1167q0,100 45.5,171t129,109T623,1485ZM533,706q-78-45-133.5-89t-85-99T285,385q0-117 79-187.5T575,127q136,0 231.5,45T969,281L533,706Zm84,642q-91,0-147.5-47.5T413,1168q0-76 41-140T571,886q125,69 181.5,133.5T809,1171q0,79-52.5,128T617,1348Z" />
      <glyph unicode="&apos;" glyph-name="quotesingle" horiz-adv-x="449" d="M315,1462L277,934H172l-37,528H315Z" />
      <glyph unicode="(" glyph-name="parenleft" horiz-adv-x="604" d="M82,561q0,169 32.5,329T214,1195t169,267H542q-145-190-218-422T251,563q0-160 32.5-315.5T380.5-52T540-324H383Q281-204 214-62.5T114.5,237T82,561Z" />
      <glyph unicode=")" glyph-name="parenright" horiz-adv-x="604" d="M522,563q0-167-32.5-325.5T390.5-63T221-324H64Q160-197 224.5-52t97,300.5T354,564q0,163-33,321t-97.5,304T62,1462H221q103-123 169.5-267.5t99-304T522,563Z" />
      <glyph unicode="*" glyph-name="asterisk" horiz-adv-x="1128" d="M651,1556l-38-397l395,115l26-175l-378-39L900,735L738,646L557,1002L391,646L223,735l242,325L89,1099l28,175l389-115l-39,397H651Z" />
      <glyph unicode="+" glyph-name="plus" horiz-adv-x="1171" d="M652,790h412V654H652V230H515V654H103V790H515v426H652V790Z" />
      <glyph unicode="," glyph-name="comma" horiz-adv-x="530" d="M365,238l13-23q-18-73-45.5-156t-60-166.5T207-264H83q21,80 41,168.5t36.5,175T187,238H365Z" />
      <glyph unicode="-" glyph-name="hyphen" horiz-adv-x="659" d="M82,476V624H578V476H82Z" />
      <glyph unicode="." glyph-name="period" horiz-adv-x="538" d="M150,104q0,70 34,99.5T267,233q51,0 86-29.5T388,104q0-69-35-100.5T267-28q-49,0-83,31.5T150,104Z" />
      <glyph unicode="/" glyph-name="slash" horiz-adv-x="751" d="M729,1462L185,0H21L566,1462H729Z" />
      <glyph unicode="0" glyph-name="zero" horiz-adv-x="1171" d="M1067,733q0-178-27-318T955,178T805,30.5T584-20Q421-20 314.5,69t-159,257.5T103,733q0,234 47.5,402.5t153.5,259T584,1485q165,0 272-89.5t159-258T1067,733Zm-797,0q0-204 31-340T401.5,189.5T584,122t182.5,67t101,203T899,733q0,201-31,336.5t-100,204T584,1342t-184-68.5t-99.5-204T270,733Z" />
      <glyph unicode="1" glyph-name="one" horiz-adv-x="1171" d="M719,0H557V1036q0,59 0.5,101.5t2,78T564,1288q-31-32-58-54.5T439,1178L272,1044l-87,113l396,305H719V0Z" />
      <glyph unicode="2" glyph-name="two" horiz-adv-x="1171" d="M1059,0H101V139L492,536Q601,646 675.5,732T789,901.5T828,1085q0,124-73.5,189.5T561,1340q-105,0-186-36T209,1202l-89,112q58,49 126.5,87t147,60T561,1483q135,0 233-47t151.5-134T999,1095q0-116-46-215.5t-129-197T630,476L312,159v-7h747V0Z" />
      <glyph unicode="3" glyph-name="three" horiz-adv-x="1171" d="M1005,1121q0-98-38-170T861,833.5T701,770v-8q174-22 261.5-112T1050,414q0-127-59.5-225T808.5,35.5T495-20Q379-20 280.5-1.5T92,60V216q91-45 198-70.5T497,120q200,0 289,79.5T875,417q0,95-49.5,153.5t-142,86T461,684H315V826H462q119,0 202,35t126.5,98.5T834,1110q0,111-74,171.5T559,1342q-78,0-142-16t-120-44t-112-65l-84,114q80,62 195,107t261,45q224,0 336-102t112-260Z" />
      <glyph unicode="4" glyph-name="four" horiz-adv-x="1171" d="M1132,339H913V0H751V339H44V479l696,991H913V489h219V339ZM751,489V967q0,55 1,99.5t3,83t3.5,73.5t2.5,69h-8q-19-40-43.5-84.5T660,1128L209,489H751Z" />
      <glyph unicode="5" glyph-name="five" horiz-adv-x="1171" d="M563,894q149,0 259-50.5T992.5,697T1053,464q0-150-65-258.5T801,38.5T509-20Q395-20 297,0T132,60V218q73-44 177-70t202-26q111,0 194.5,35.5t130,108T882,448q0,146-89.5,225.5T510,753q-62,0-136-10T252,721l-84,55l56,686H951V1310H366L329,869q38,8 98,16.5T563,894Z" />
      <glyph unicode="6" glyph-name="six" horiz-adv-x="1171" d="M116,625q0,132 18.5,258T197,1117.5T317,1308t189.5,128.5T779,1483q45,0 97-4.5t86-14.5V1321q-37,13-84.5,19t-95.5,6q-186,0-292.5-81T336,1045.5T282,734h11q31,50 79,90.5T488.5,889T648,913q128,0 223.5-52t148-151T1072,470q0-151-56-261T856.5,39.5T610-20Q503-20 413,21T256.5,143T153,344.5T116,625ZM608,120q136,0 218,87t82,263q0,144-73,228T615,782q-100,0-174-41.5T326,636T285,508q0-66 19.5-134T364,248t101-93t143-35Z" />
      <glyph unicode="7" glyph-name="seven" horiz-adv-x="1171" d="M290,0L890,1310H93v152h975V1334L472,0H290Z" />
      <glyph unicode="8" glyph-name="eight" horiz-adv-x="1171" d="M584,1483q127,0 225-40t153.5-117.5T1018,1135q0-89-38.5-155.5T876,863.5T732,775q94-43 169.5-97T1021,551t44-173q0-123-59.5-212.5T839,28T588-20Q433-20 324.5,26.5t-165,134T103,371q0,101 43,175.5T260,675t155,91q-73,40-133.5,91t-96,119.5T150,1136q0,111 56.5,188.5t155,118T584,1483ZM266,370q0-112 79-184.5T584,113q152,0 235,72.5T902,376q0,73-38,128.5T756,604T591,684l-36,13q-92-38-156.5-84.5T300,507T266,370Zm316,977q-118,0-193-56.5T314,1128q0-76 36.5-128.5t99.5-90T591,840q76,32 135,70.5t93,91.5t34,127q0,106-74.5,162T582,1347Z" />
      <glyph unicode="9" glyph-name="nine" horiz-adv-x="1171" d="M1061,839q0-133-18.5-259t-63-235T859,154T668.5,25.5T395-21q-43,0-98,5.5T207,0V144q37-13 87-20.5t98-7.5q187,0 294,80.5t154,219T893,727H881q-30-48-78.5-88.5T685,573.5T524,549q-127,0-221.5,52t-147,151T103,991q0,151 57.5,261.5T322,1423t245,60q108,0 198-41t156.5-122.5t103-201.5T1061,839ZM567,1342q-133,0-215.5-87T269,993q0-145 71-229t219-84q102,0 176.5,41t115,104T891,954t-19.5,134T812,1213.5t-101,93T567,1342Z" />
      <glyph unicode=":" glyph-name="colon" horiz-adv-x="538" d="M150,104q0,70 34,99.5T267,233q51,0 86-29.5T388,104q0-69-35-100.5T267-28q-49,0-83,31.5T150,104Zm0,887q0,72 34,101.5t83,29.5q51,0 86-29.5T388,991q0-68-35-99t-86-31q-49,0-83,31t-34,99Z" />
      <glyph unicode=";" glyph-name="semicolon" horiz-adv-x="538" d="M348,238l14-23q-18-72-46-155.5t-60.5-167T191-264H65q21,79 41,167.5T143.5,79T171,238H348ZM146,991q0,72 34,101.5t83,29.5q53,0 87-29.5T384,991q0-68-34-99t-87-31q-49,0-83,31t-34,99Z" />
      <glyph unicode="&lt;" glyph-name="less" horiz-adv-x="1171" d="M1065,243L103,669v95l962,476V1092L283,723l782-333V243Z" />
      <glyph unicode="=" glyph-name="equal" horiz-adv-x="1171" d="M115,858V993h938V858H115Zm0-409V584h938V449H115Z" />
      <glyph unicode="&gt;" glyph-name="greater" horiz-adv-x="1171" d="M103,390L886,721L103,1092v148l962-476V669L103,243V390Z" />
      <glyph unicode="?" glyph-name="question" horiz-adv-x="884" d="M288,406v52q0,80 15,137.5T355.5,703T460,809q78,65 123.5,110.5T649,1011t20,111q0,104-67,159.5T413,1337q-99,0-176-25T89,1252L31,1386q82,43 178,70t214,27q193,0 299-95.5T828,1125q0-93-30-158.5t-85-120T583,731q-66-56-101-98.5t-48-87T421,439V406H288ZM244,104q0,70 33,99.5T362,233q49,0 83.5-29.5T480,104q0-69-34.5-100.5T362-28q-52,0-85,31.5T244,104Z" />
      <glyph unicode="@" glyph-name="at" horiz-adv-x="1836" d="M1719,730q0-95-21.5-185.5t-65.5-163T1522.5,266T1368,223q-93,0-148,54t-66,128h-9q-38-79-111.5-130.5T853,223q-156,0-240.5,103.5T528,602q0,134 53.5,237.5t151,163T963,1062q89,0 173-15t134-33l-20-403q-1-37-2-56.5t-1-30.5q0-108 38.5-145.5T1379,341q67,0 112.5,52.5t69.5,141T1585,731q0,191-77,326t-212.5,206T984,1334q-175,0-310.5-55t-229-155.5T303,885T255,580q0-204 72.5-347t213-217.5T883-59q122,0 235,27t202,61V-101q-88-37-197-60.5T883-185q-241,0-412,90.5T209,166T118,574q0,193 59.5,355t172,281t273,184.5T984,1460q215,0 380.5-88.5t260-252T1719,730ZM677,598q0-133 53-195t147-62q116,0 170.5,87T1110,658l12,261q-29,9-70.5,15.5T965,941q-103,0-166.5-49T706,765T677,598Z" />
      <glyph unicode="A" glyph-name="A" horiz-adv-x="1295" d="M1117,0L937,464H351L172,0H0L572,1468H725L1293,0H1117ZM886,615L715,1076q-6,18-19.5,59T668,1220t-23,71q-10-41-21.5-81.5t-22.5-75T582,1076L408,615H886Z" />
      <glyph unicode="B" glyph-name="B" horiz-adv-x="1323" d="M200,1462H614q274,0 412-82t138-279q0-85-32.5-152.5T1037,837T884,776V766q96-15 170-55t116-112t42-183q0-135-62.5-228T973,47.5T703,0H200V1462ZM370,835H650q191,0 264.5,63T988,1082q0,125-87.5,180T622,1317H370V835Zm0-143V145H674q195,0 276,76.5T1031,428q0,83-36.5,142t-118,90.5T659,692H370Z" />
      <glyph unicode="C" glyph-name="C" horiz-adv-x="1290" d="M825,1333q-121,0-217.5-41.5t-164-120T340,982T304,732q0-184 57.5-319.5T533.5,203T820,129q98,0 184.5,16.5T1173,187V39Q1093,9 1005-5.5T796-20Q573-20 423.5,72.5T199.5,334T125,733q0,166 46.5,303.5t136,237.5t220,154.5T827,1483q111,0 214-22t186-63l-68-144q-70,32-153.5,55.5T825,1333Z" />
      <glyph unicode="D" glyph-name="D" horiz-adv-x="1486" d="M1361,745q0-247-90-412.5t-260.5-249T597,0H200V1462H641q223,0 384-81.5t248.5-241T1361,745Zm-179-6q0,197-65.5,325t-192,190.5T615,1317H370V146H577q302,0 453.5,149T1182,739Z" />
      <glyph unicode="E" glyph-name="E" horiz-adv-x="1138" d="M1014,0H200V1462h814V1312H370V839H977V691H370V150h644V0Z" />
      <glyph unicode="F" glyph-name="F" horiz-adv-x="1057" d="M370,0H200V1462h814V1312H370V776H975V627H370V0Z" />
      <glyph unicode="G" glyph-name="G" horiz-adv-x="1489" d="M825,766h511V57Q1221,18 1099.5-1T828-20Q600-20 443.5,71T206,330.5T125,731q0,227 89.5,396t259,262.5T881,1483q122,0 231.5-22.5T1316,1397l-65-148q-81,35-178.5,60T871,1334q-179,0-306.5-74t-195-209T302,731q0-183 59-318.5T545,202t322-75q99,0 170,11.5T1166,166V614H825V766Z" />
      <glyph unicode="H" glyph-name="H" horiz-adv-x="1510" d="M1308,0H1138V689H370V0H200V1462H370V839h768v623h170V0Z" />
      <glyph unicode="I" glyph-name="I" horiz-adv-x="572" d="M200,0V1462H370V0H200Z" />
      <glyph unicode="J" glyph-name="J" horiz-adv-x="550" d="M-11-385q-50,0-88,7t-65,19v145q32-10 69-15.5t80-5.5q56,0 103,22t75,75T191,8V1462H362V21q0-137-45.5-227t-129-134.5T-11-385Z" />
      <glyph unicode="K" glyph-name="K" horiz-adv-x="1254" d="M1254,0H1053L526,711L370,571V0H200V1462H370V733q57,65 117,129.5T606,993l427,469h199L650,828L1254,0Z" />
      <glyph unicode="L" glyph-name="L" horiz-adv-x="1069" d="M200,0V1462H370V152h649V0H200Z" />
      <glyph unicode="M" glyph-name="M" horiz-adv-x="1842" d="M843,0L352,1294h-8q4-41 7-100t5-128.5T358,924V0H200V1462H452L915,246h7l470,1216h250V0H1474V936q0,65 2,130.5t5,124t6,101.5h-8L982,0H843Z" />
      <glyph unicode="N" glyph-name="N" horiz-adv-x="1542" d="M1343,0H1147L350,1228h-8q3-49 7-111.5t6.5-133T358,840V0H200V1462H395L1189,238h7q-2,35-5,99.5t-5.5,139T1183,615v847h160V0Z" />
      <glyph unicode="O" glyph-name="O" horiz-adv-x="1593" d="M1468,733q0-169-43-307.5t-127.5-238T1088,34T798-20Q628-20 501.5,34t-210,154t-125,239T125,735q0,224 74,393t224.5,263T801,1485q217,0 365.5-93t225-261.5T1468,733ZM304,733q0-186 53-322T519.5,201T798,127q170,0 278.5,74T1237,411t52,322q0,283-118.5,442.5T801,1335q-170,0-280-73T357.5,1054.5T304,733Z" />
      <glyph unicode="P" glyph-name="P" horiz-adv-x="1232" d="M582,1462q283,0 413.5-110.5T1126,1035q0-93-30.5-176.5T997,711.5t-178.5-100T548,575H370V0H200V1462H582Zm-16-145H370V721H529q140,0 233.5,30T903,848.5T950,1028q0,146-93,217.5T566,1317Z" />
      <glyph unicode="Q" glyph-name="Q" horiz-adv-x="1593" d="M1468,733q0-180-49-326T1273.5,160T1033,13l344-361H1134L851-18q-13,0-26.5-1T798-20Q628-20 501.5,34t-210,154t-125,239T125,735q0,224 74,393t224.5,263T801,1485q217,0 365.5-93t225-261.5T1468,733ZM304,733q0-186 53-322T519.5,201T798,127q170,0 278.5,74T1237,411t52,322q0,283-118.5,442.5T801,1335q-170,0-280-73T357.5,1054.5T304,733Z" />
      <glyph unicode="R" glyph-name="R" horiz-adv-x="1264" d="M595,1462q180,0 297.5-44.5T1068,1282t58-232q0-116-42-193.5T974,731T829,657L1230,0H1032L674,610H370V0H200V1462H595Zm-10-147H370V754H602q179,0 263.5,73T950,1042q0,149-89.5,211T585,1315Z" />
      <glyph unicode="S" glyph-name="S" horiz-adv-x="1123" d="M1025,389q0-130-64.5-221.5T780,28T507-20q-83,0-157,8T214,11T105,48V211q75-31 183-57.5T514,127q110,0 186,29.5t115.5,85T855,375q0,75-33,125.5t-109.5,92T504,681q-93,33-164,72.5T221,843T148.5,959T124,1110q0,117 59.5,200.5t165,128T591,1483q117,0 216.5-22T990,1402l-53-146q-79,33-167.5,55T587,1333t-158.5-27.5T330,1228t-34-119q0-77 32.5-128t104-90.5T622,808q129-47 219-99.5t137-128T1025,389Z" />
      <glyph unicode="T" glyph-name="T" horiz-adv-x="1128" d="M649,0H478V1312H18v150H1107V1312H649V0Z" />
      <glyph unicode="U" glyph-name="U" horiz-adv-x="1493" d="M1306,1462V516q0-155-62.5-276T1055,49.5T739-20Q468-20 326.5,127T185,520v942H356V515q0-186 98.5-287T749,127q134,0 219.5,48.5t127,136T1137,514v948h169Z" />
      <glyph unicode="V" glyph-name="V" horiz-adv-x="1221" d="M1221,1462L696,0H525L0,1462H178L520,499q21-58 37.5-111T587,286t23-95q10,46 23,95.5t30,103T701,502l340,960h180Z" />
      <glyph unicode="W" glyph-name="W" horiz-adv-x="1891" d="M1861,1462L1470,0H1299L1009,984q-13,42-24.5,84.5t-21.5,81t-16.5,68T937,1262q-2-15-7.5-44t-14-67t-20-81T871,983L589,0H418L30,1462H207L442,545q12-46 22.5-90.5t19-86.5T499,286t13-78q5,39 13,81.5T542.5,376t21,89T588,555l263,907h175l274-914q14-47 26-93t21.5-89.5t17-83T1378,208q7,49 17,103t23.5,113T1448,546l235,916h178Z" />
      <glyph unicode="X" glyph-name="X" horiz-adv-x="1183" d="M1176,0H983L588,644L187,0H6L493,762L40,1462H229L594,879l367,583h180L689,765L1176,0Z" />
      <glyph unicode="Y" glyph-name="Y" horiz-adv-x="1145" d="M573,729l389,733h183L658,567V0H488V559L0,1462H186L573,729Z" />
      <glyph unicode="Z" glyph-name="Z" horiz-adv-x="1172" d="M1093,0H78V128L865,1310H105v152h967V1334L284,152h809V0Z" />
      <glyph unicode="[" glyph-name="bracketleft" horiz-adv-x="670" d="M619-324H166V1462H619V1326H328V-186H619V-324Z" />
      <glyph unicode="\" glyph-name="backslash" horiz-adv-x="751" d="M185,1462L731,0H566L21,1462H185Z" />
      <glyph unicode="]" glyph-name="bracketright" horiz-adv-x="670" d="M51-186H342V1326H51v136H505V-324H51v138Z" />
      <glyph unicode="^" glyph-name="asciicircum" horiz-adv-x="1171" d="M80,549l439,924h96l477-924H943L569,1295L229,549H80Z" />
      <glyph unicode="_" glyph-name="underscore" horiz-adv-x="897" d="M901-307H-4v123H901V-307Z" />
      <glyph unicode="`" glyph-name="grave" horiz-adv-x="568" d="M280,1569q24-46 59.5-102.5t75-110T487,1265v-24H374q-36,29-78.5,69T211,1394.5t-76,85T82,1549v20H280Z" />
      <glyph unicode="a" glyph-name="a" horiz-adv-x="1138" d="M585,1114q196,0 291-88t95-281V0H850L818,162h-8q-46-60-96-100.5T598.5,0.5T438-20Q338-20 260.5,15t-122,106T94,301q0,164 130,252t396,96l189,8v67q0,142-61,199T576,980q-86,0-164-25T264,896l-51,126q74,38 170,65t202,27ZM807,540l-167-7q-205-8-289-67T267,299q0-94 57-139t151-45q146,0 239,81t93,243V540Z" />
      <glyph unicode="b" glyph-name="b" horiz-adv-x="1253" d="M341,1556V1167q0-67-3.5-130T332,939h9q45,74 130,125t217,51q206,0 328.5-142.5T1139,549q0-185-56-312T925,45T684-20Q554-20 470.5,28.5T342,147H329L295,0H175V1556H341ZM661,976q-119,0-189-46.5t-100.5-140T341,553v-9q0-207 69-316.5T661,118q153,0 229.5,112T967,550q0,212-75.5,319T661,976Z" />
      <glyph unicode="c" glyph-name="c" horiz-adv-x="981" d="M614-20Q466-20 353,41T177,227T114,542q0,199 66.5,325.5T364,1055t266,61q82,0 158.5-16.5T914,1058L864,919q-50,20-115.5,36T626,971q-114,0-189.5-49t-113-144T286,544q0-133 36.5-227t109-143.5T613,124q87,0 157,18.5T897,186V38Q842,10 774.5-5T614-20Z" />
      <glyph unicode="d" glyph-name="d" horiz-adv-x="1253" d="M565-20Q357-20 235.5,122T114,544q0,283 124,427.5T568,1116q87,0 152-23t112-61.5T911,944h12q-4,31-8,85t-4,88v439h166V0H943L918,156h-7q-31-49-78.5-89T719.5,3.5T565-20Zm26,138q176,0 249,100t73,297v30q0,209-69.5,321T591,978q-153,0-229-117.5T286,540q0-202 75.5-312T591,118Z" />
      <glyph unicode="e" glyph-name="e" horiz-adv-x="1150" d="M597,1116q140,0 240-62T990,880.5T1043,620V517H286q3-193 96-294T644,122q104,0 184,19t166,56V51Q911,14 829.5-3T637-20Q479-20 361.5,44.5T179,234T114,540q0,177 59.5,306.5t168,199.5T597,1116Zm-2-136q-133,0-212-87T289,650H869q-1,98-30.5,172.5T749,938.5T595,980Z" />
      <glyph unicode="f" glyph-name="f" horiz-adv-x="689" d="M663,966H390V0H224V966H30v80l194,55v73q0,138 41,224.5T384,1526t190,41q63,0 115.5-11t92.5-25l-43-131q-34,11-76.5,20.5T576,1430q-95,0-140.5-61.5T390,1176v-80H663V966Z" />
      <glyph unicode="g" glyph-name="g" horiz-adv-x="1112" d="M481-492q-216,0-333,80.5T31-186Q31-83 96.5-10T278,87q-43,20-73.5,60T174,239q0,60 33.5,105.5T310,432q-86,35-139.5,118.5T117,745q0,118 49,201.5T308,1074t225,44q29,0 58.5-2.5t56.5-7t47-10.5h376V991L869,966q30-39 50-94t20-122q0-164-111-260.5T523,393q-46,0-94,8q-49-27-74.5-60T329,265q0-32 19.5-51T405,186.5t89-8.5H687q179,0 274.5-75T1057-116q0-182-148-279T481-492Zm5,130q136,0 225.5,27.5t134,79T890-133q0,66-30,99.5t-88,45T630,23H440Q366,23 311,0T226.5-68T197-180q0-89 75-135.5T486-362Zm43,876q119,0 179,60t60,175q0,123-61,184.5T527,995q-114,0-175.5-63.5T290,746q0-112 62-172t177-60Z" />
      <glyph unicode="h" glyph-name="h" horiz-adv-x="1256" d="M341,1556V1091q0-40-2-80.5T332,936h11q34,58 86.5,97.5t119.5,60T691,1114q132,0 220.5-42t133-130T1089,714V0H925V703q0,137-62.5,205T671,976q-122,0-194.5-46.5T372.5,793T341,573V0H175V1556H341Z" />
      <glyph unicode="i" glyph-name="i" horiz-adv-x="517" d="M341,1096V0H175V1096H341Zm-81,410q41,0 70.5-26.5T360,1397q0-55-29.5-82T260,1288q-43,0-71.5,27T160,1397q0,56 28.5,82.5T260,1506Z" />
      <glyph unicode="j" glyph-name="j" horiz-adv-x="517" d="M43-492q-51,0-89,7.5T-112-467v135q31-10 63-15.5T23-353q68,0 110,38t42,138V1096H341V-173q0-100-32-171.5T211-454T43-492ZM160,1397q0,56 28.5,82.5T260,1506q41,0 70.5-26.5T360,1397q0-55-29.5-82T260,1288q-43,0-71.5,27T160,1397Z" />
      <glyph unicode="k" glyph-name="k" horiz-adv-x="1076" d="M340,1556V748q0-40-3-97.5T332,549h7q21,26 61.5,77T469,708l364,388h195L587,628L1060,0H860L473,519L340,397V0H175V1556H340Z" />
      <glyph unicode="l" glyph-name="l" horiz-adv-x="517" d="M342,0H175V1556H342V0Z" />
      <glyph unicode="m" glyph-name="m" horiz-adv-x="1896" d="M1365,1116q181,0 273-94.5T1730,718V0H1566V710q0,133-57.5,199.5T1338,976q-159,0-231-92t-72-271V0H870V710q0,89-25.5,148t-76,88.5T641,976q-109,0-175-45T370.5,797.5T341,580V0H175V1096H309l25-155h9q33,57 83,96t112,59t132,20q125,0 209.5-46.5T1002,928h9q54,95 148,141.5t206,46.5Z" />
      <glyph unicode="n" glyph-name="n" horiz-adv-x="1256" d="M694,1116q195,0 295-95.5T1089,714V0H925V703q0,137-62.5,205T671,976q-182,0-256-103T341,574V0H175V1096H309l25-158h9q35,58 89,97.5t121,60T694,1116Z" />
      <glyph unicode="o" glyph-name="o" horiz-adv-x="1232" d="M1120,550q0-135-35-241T984,130T824.5,18.5T613-20Q503-20 411.5,18.5T253.5,130t-103,179T114,550q0,180 61,306.5t174.5,193T620,1116q150,0 262.5-67t175-193.5T1120,550Zm-834,0q0-132 35-229T429,171t188-53q114,0 187.5,53T913,321t35,229q0,131-35,226.5T805,924T616,976q-171,0-250.5-113T286,550Z" />
      <glyph unicode="p" glyph-name="p" horiz-adv-x="1253" d="M690,1116q205,0 327-141t122-424q0-187-56-314T925.5,45T686-20Q599-20 533,3T420,65t-78,85H330q3-39 7.5-94T342-40V-490H175V1096H312l22-162h8q32,50 78,91.5t112.5,66T690,1116ZM661,976q-114,0-183.5-44T376,800.5T342,581V549q0-139 30.5-235t101-146T663,118q102,0 170,55T934.5,326.5T968,553q0,194-75.5,308.5T661,976Z" />
      <glyph unicode="q" glyph-name="q" horiz-adv-x="1253" d="M910-490V-20q0,39 2,90t7,88H908Q862,82 777,31T558-20Q357-20 235,122T113,546q0,185 56,312t158.5,192.5T567,1116q131,0 214-51.5T911,939h8l25,157h132V-490H910ZM589,118q116,0 186,43.5T877.5,293T912,512v35q0,212-72,321.5T589,978q-154,0-229-117.5T285,542t75-312.5T589,118Z" />
      <glyph unicode="r" glyph-name="r" horiz-adv-x="837" d="M673,1116q33,0 69-3.5t64-9.5L785,949q-27,7-60,11t-62,4q-66,0-124.5-26.5T436,861.5t-69-119T342,588V0H175V1096H313l18-202h7q34,61 82,111.5T531.5,1086T673,1116Z" />
      <glyph unicode="s" glyph-name="s" horiz-adv-x="976" d="M884,300q0-105-52.5-176.5T681.5,16T449-20Q334-20 250-2T103,49V202q67-33 160-60t190-27q142,0 206,46t64,125q0,45-25.5,79.5t-85.5,67T446,504q-105,40-181.5,79.5T146.5,680T105,828q0,139 112.5,213.5T513,1116q99,0 185.5-19.5T860,1044L804,911q-68,29-145,49T502,980q-115,0-176.5-38T264,838q0-51 28.5-84T384,692t166-68q103-38 178-78.5t115.5-98T884,300Z" />
      <glyph unicode="t" glyph-name="t" horiz-adv-x="730" d="M529,116q41,0 84,7t70,17V11Q654-2 602.5-11T502-20q-87,0-158,30.5T230.5,114T188,316V966H32v81l157,65l66,238H355V1096H676V966H355V321q0-103 47.5-154T529,116Z" />
      <glyph unicode="u" glyph-name="u" horiz-adv-x="1256" d="M1080,1096V0H944L920,154h-9q-34-57-88-96T701.5-0.5T558-20Q428-20 340,22T207.5,152T163,378v718H331V390q0-137 62-204.5T582,118q122,0 194.5,46T881,299.5T913,519v577h167Z" />
      <glyph unicode="v" glyph-name="v" horiz-adv-x="1023" d="M416,0L0,1096H178L419,433q25-68 51-150t36-132h7q12,50 40,132.5T604,433l241,663h178L606,0H416Z" />
      <glyph unicode="w" glyph-name="w" horiz-adv-x="1587" d="M1067,2L872,640q-13,41-24.5,80.5t-21,76t-17,68T797,919h-7q-4-23-11-54.5T762.5,796T742,718.5T717,637L513,2H326L24,1098H196L354,493q16-60 30.5-118.5t25-110T425,175h8q6,25 13.5,60t17,74.5t20.5,79T506,463l202,635H887l195-634q15-48 29.5-100T1138,263.5t17-86.5h8q4,34 15,84t25.5,110T1234,493l160,605h169L1260,2H1067Z" />
      <glyph unicode="x" glyph-name="x" horiz-adv-x="1072" d="M436,561L57,1096H247L536,674l288,422h188L633,561L1033,0H843L536,447L227,0H39L436,561Z" />
      <glyph unicode="y" glyph-name="y" horiz-adv-x="1026" d="M2,1096H180L422,460q21-56 39-107.5T493,254t22-91h7q14,50 40,131.5T618,461l229,635h179L549-161q-38-101-88.5-176T338-452.5T164-493q-47,0-83,5.5T19-475v133q22-5 53.5-9t65.5-4q62,0 107.5,23.5T324-263t57,107L441-2L2,1096Z" />
      <glyph unicode="z" glyph-name="z" horiz-adv-x="960" d="M879,0H80V110L681,966H118v130H866V973L273,129H879V0Z" />
      <glyph unicode="{" glyph-name="braceleft" horiz-adv-x="768" d="M702-324q-124,1-213.5,36.5T351.5-181T304-3V303q0,71-28,114.5T193,481T57,501V639q81,1 136,20.5T276,722t28,114v308q0,107 50,177.5T493.5,1427T702,1462V1326q-74-2-126.5-23t-80-64T468,1128V827q0-104-53-167T252,577V565q112-19 164-82t52-168V8q0-68 27-110.5T574.5-165T702-186V-324Z" />
      <glyph unicode="|" glyph-name="bar" horiz-adv-x="1125" d="M492,1557H631V-496H492V1557Z" />
      <glyph unicode="}" glyph-name="braceright" horiz-adv-x="768" d="M67-324v138q74,2 126,22.5t79.5,63T300,10V313q0,105 53.5,168T516,563v12q-111,20-163.5,83T300,825v304q0,69-27,112t-79,63.5T67,1326v136q124-1 213-36t136.5-105.5T464,1142V838q0-72 28-115.5T575.5,659T712,639V501q-81,0-136.5-20T492,418T464,305V-5q0-106-50-177T275-288.5T67-324Z" />
      <glyph unicode="~" glyph-name="asciitilde" horiz-adv-x="1171" d="M554,658q-71,32-120,44.5T338,715q-57,0-120.5-34T103,595V744q50,53 111.5,80T349,851q62,0 120.5-13.5T616,786q73-31 121-44t93-13q59,0 122,34t113,86V702q-48-52-109-80.5T821,593q-60,0-119,13T554,658Z" />
      <glyph unicode="&#xa0;" glyph-name="uni00A0" horiz-adv-x="532" />
      <glyph unicode="&#xa1;" glyph-name="exclamdown" horiz-adv-x="541" d="M212,681H323L369-374H166L212,681ZM388,985q0-70-34.5-99.5T269,856t-84.5,29.5T150,985q0,68 34.5,99.5T269,1116t84.5-31.5T388,985Z" />
      <glyph unicode="&#xa2;" glyph-name="cent" horiz-adv-x="1171" d="M720,1483V1318q77-3 147.5-19T989,1260l-48-139q-55,21-121.5,36.5T697,1173q-115,0-191-48T392.5,981.5T355,743q0-142 37-234.5t110.5-138T686,325q88,0 156,17t130,43V240q-55-27-114.5-43T718,179V-20H590V184q-125,18-216,80.5T234,444T185,741q0,183 50,302.5t141,184T590,1310v173H720Z" />
      <glyph unicode="&#xa3;" glyph-name="sterling" horiz-adv-x="1171" d="M686,1481q111,0 199-23.5t158-57.5l-60-134q-61,29-135.5,52.5T690,1342q-121,0-184-64t-63-206V785H859V658H443V436q0-84-20-139.5t-52.5-89T300,152h792V0H68V141q61,14 108,48t73.5,94T276,434V658H77V785H276v305q0,124 50.5,211T469,1434.5T686,1481Z" />
      <glyph unicode="&#xa4;" glyph-name="currency" horiz-adv-x="1171" d="M183,723q0,63 20.5,122.5T258,954L121,1095l92,90l138-134q49,35 109,54.5T586,1125q64,0 122-19.5T816,1051l139,134l92-90L912,955q33-48 54.5-107.5T988,723q0-64-19.5-124.5T912,489l133-138l-90-89L816,396q-48-34-107-53.5T586,323q-66,0-127,19.5T351,398L213,263l-91,89L258,491q-34,49-54.5,108.5T183,723Zm128,0q0-77 36.5-139.5t99-99T585,448q78,0 141,37t100,99.5T863,723q0,78-37,141T726,964.5T586,1002T446.5,964.5T347.5,864T311,723Z" />
      <glyph unicode="&#xa5;" glyph-name="yen" horiz-adv-x="1171" d="M584,741l377,721h175L716,691H980V568H665V394H980V271H665V0H503V271H187V394H503V568H187V691H447L31,1462H208L584,741Z" />
      <glyph unicode="&#xa6;" glyph-name="brokenbar" horiz-adv-x="1125" d="M492,1557H631V780H492v777Zm0-1275H631V-496H492V282Z" />
      <glyph unicode="&#xa7;" glyph-name="section" horiz-adv-x="1052" d="M140,809q0,101 51,164t118,94q-76,39-119,94.5T147,1302q0,122 103.5,193T546,1566q113,0 192-19.5T892,1497l-51-128q-69,28-139.5,47.5T535,1436q-125,0-179-34t-54-96q0-41 26-72t86.5-60T576,1108q104-37 179-80.5T870.5,926T911,784q0-104-47.5-171T754,511q73-37 113.5-91.5T908,285q0-139-115.5-216.5T468-9Q355-9 270.5,9T122,58V202q45-21 103-40.5T347,130t128-12q155,0 214.5,46T749,272q0,42-22,73t-80.5,61.5T479,477q-105,39-181,81T181,659.5T140,809Zm143,18q0-53 29-93t93.5-74.5T576,585l54-19q52,29 94.5,76.5T767,760q0,54-29.5,96T637,935t-196,75q-62-16-110-64T283,827Z" />
      <glyph unicode="&#xa8;" glyph-name="dieresis" horiz-adv-x="1187" d="M310,1394q0,50 26,73t64,23q39,0 65.5-23t26.5-73q0-49-26.5-73.5T400,1296q-38,0-64,24.5T310,1394Zm384,0q0,50 26,73t63,23q38,0 65-23t27-73q0-49-27-73.5T783,1296q-37,0-63,24.5T694,1394Z" />
      <glyph unicode="&#xa9;" glyph-name="copyright" horiz-adv-x="1704" d="M852-20Q689-20 551.5,36t-239,157t-157,238.5T100,731q0,163 56,300.5T313.5,1270t239,157T852,1483q157,0 293.5-56.5t239.5-158T1546,1030t58-299t-56-299.5T1390.5,193t-239-157T852-20Zm32,294q-202,0-304,124.5T478,731q0,133 48.5,235.5t141,161T892,1186q66,0 131-16t122-45l-56-116q-50,26-99,39.5T894,1062q-127,0-197-88.5T627,731q0-160 63.5-246T891,399q50,0 107.5,13T1108,446V324q-49-22-101-36T884,274ZM852,82q133,0 249.5,48T1306,265.5t138,206T1494,731q0,134-47.5,251T1313,1189t-203.5,140.5T852,1380t-257.5-48t-204-135.5t-134-206T209,731q0-134 47-251.5t133.5-207t204-140T852,82Z" />
      <glyph unicode="&#xaa;" glyph-name="ordfeminine" horiz-adv-x="723" d="M360,1479q130,0 196-55t66-174V800H531l-23,87q-39-43-96-71.5T278,787q-64,0-111.5,22t-73,67T68,988q0,68 35,114t107,71t181,29l112,4v47q0,69-42.5,97T356,1378q-55,0-106.5-14.5T152,1325l-43,95q52,26 117,42.5T360,1479Zm143-361l-98-4q-124-4-169-36t-45-90q0-53 31-77.5T306,886q104,0 150.5,49.5T503,1068v50Z" />
      <glyph unicode="&#xab;" glyph-name="guillemotleft" horiz-adv-x="1015" d="M79,556L419,965l119-68L251,544L538,191L419,122L79,529v27Zm398,0L822,965l117-68L653,544L939,191L822,122L477,529v27Z" />
      <glyph unicode="&#xac;" glyph-name="logicalnot" horiz-adv-x="1171" d="M1060,790V263H926V654H103V790h957Z" />
      <glyph unicode="&#xad;" glyph-name="uni00AD" horiz-adv-x="659" d="M82,476V624H578V476H82Z" />
      <glyph unicode="&#xae;" glyph-name="registered" horiz-adv-x="1704" d="M575,284v893H836q163,0 241-65.5T1155,914q0-97-49.5-153.5T992,679l237-395H1065L858,640H720V284H575ZM720,758H831q83,0 130.5,41T1009,910q0,77-44,111t-136,34H720V758ZM852-20Q689-20 551.5,36t-239,157t-157,238.5T100,731q0,163 56,300.5T313.5,1270t239,157T852,1483q157,0 293.5-56.5t239.5-158T1546,1030t58-299t-56-299.5T1390.5,193t-239-157T852-20Zm0,102q133,0 249.5,48T1306,265.5t138,206T1494,731q0,134-47.5,251T1313,1189t-203.5,140.5T852,1380t-257.5-48t-204-135.5t-134-206T209,731q0-134 47-251.5t133.5-207t204-140T852,82Z" />
      <glyph unicode="&#xaf;" glyph-name="overscore" horiz-adv-x="1024" d="M1030,1556H-6v127H1030V1556Z" />
      <glyph unicode="&#xb0;" glyph-name="degree" horiz-adv-x="877" d="M438,859q-96,0-168,39T157.5,1007.5T117,1170q0,93 39.5,163.5t111.5,110T438,1483q95,0 167.5-39.5t113.5-110T760,1170q0-92-41-162.5T605.5,898T438,859Zm2,114q98,0 147,54.5T636,1170q0,92-50.5,146.5T440,1371q-101,0-150-54.5T241,1170q0-88 48.5-142.5T440,973Z" />
      <glyph unicode="&#xb1;" glyph-name="plusminus" horiz-adv-x="1171" d="M103,0V135h963V0H103ZM652,795h412V659H652V235H515V659H103V795H515v426H652V795Z" />
      <glyph unicode="&#xb2;" glyph-name="uni00B2" horiz-adv-x="712" d="M627,852H50V956l237,232q82,80 126,131t60.5,92t16.5,88q0,66-39,101.5T346,1636q-61,0-112.5-23.5T129,1548l-67,89q60,50 130,80t156,30q130,0 204-64.5T626,1506q0-68-27.5-125t-81-115T387,1135L217,971H627V852Z" />
      <glyph unicode="&#xb3;" glyph-name="uni00B3" horiz-adv-x="712" d="M339,1747q143,0 216-63t73-161q0-84-44.5-137T477,1314v-6q81-16 128.5-68.5T653,1104q0-119-85.5-193T304,837q-75,0-140.5,13T37,893v121q68-32 137-50t131-18q108,0 159.5,43.5T516,1108q0,76-59.5,110.5T289,1253H170v106H289q104,0 152.5,41T490,1508q0,65-42.5,97T341,1637t-119.5-21.5T111,1559l-68,89q62,45 132,72t164,27Z" />
      <glyph unicode="&#xb4;" glyph-name="acute" horiz-adv-x="568" d="M487,1569v-20q-20-29-54.5-69.5t-76.5-85T271.5,1310T193,1241H82v24q32,38 70,91.5t74,110T286,1569H487Z" />
      <glyph unicode="&#xb5;" glyph-name="uni00B5" horiz-adv-x="1266" d="M1091,1096V0H956L930,152h-9q-34-54-81-92.5T730.5,0.5T587-20Q501-20 440.5,7T340,80h-8q3-24 5-59.5t3-80t1-97.5V-492H175V1096H341V388q0-133 64-201.5T598,118q124,0 195,46.5t101.5,136T925,519v577h166Z" />
      <glyph unicode="&#xb6;" glyph-name="paragraph" horiz-adv-x="1341" d="M1117-260H1006V1449H790V-260H678V577q-31-9-70-13.5T532,559q-125,0-217,48.5t-142.5,157T122,1053q0,189 55,299t154,157t232,47h554V-260Z" />
      <glyph unicode="&#xb7;" glyph-name="periodcentered" horiz-adv-x="538" d="M150,714q0,70 34,99.5T267,843q51,0 86-29.5T388,714q0-69-35-100.5T267,582q-49,0-83,31.5T150,714Z" />
      <glyph unicode="&#xb8;" glyph-name="cedilla" horiz-adv-x="454" d="M427-286q0-97-75-151.5T132-492q-31,0-59,3.5T28-481v105q19-4 49-7t60-3q75,0 115,22t40,74q0,55-53.5,80T102-176L191,0H302L248-112q50-10 90.5-31T403-199t24-87Z" />
      <glyph unicode="&#xb9;" glyph-name="uni00B9" horiz-adv-x="712" d="M481,1729V852H346v566q0,36 1,67.5t2.5,62T353,1607q-21-19-47-40t-55-40l-109-77l-66,94l267,185H481Z" />
      <glyph unicode="&#xba;" glyph-name="ordmasculine" horiz-adv-x="765" d="M701,1135q0-164-86.5-256T381,787q-139,0-226.5,89.5T67,1135q0,166 85,255.5T385,1480q97,0 167.5-40.5T662,1322t39-187Zm-513,0q0-121 46-183.5T382,889t148.5,62.5T577,1135q0,120-46,181t-148,61q-101,0-148-60t-47-182Z" />
      <glyph unicode="&#xbb;" glyph-name="guillemotright" horiz-adv-x="1015" d="M937,530L592,122L476,191L762,545L476,897l116,68L937,557V530Zm-401,0L194,122L77,191L363,545L77,897l117,68L536,557V530Z" />
      <glyph unicode="&#xbc;" glyph-name="onequarter" horiz-adv-x="1516" d="M263,0l878,1462h144L406,0H263Zm73,586v566q0,36 1,67.5t2.5,62T343,1341q-21-19-47-40t-55-41l-109-76l-66,94l267,184H470V586H336ZM1227,0V205H825v98l405,580h139V319h128V205H1369V0H1227ZM960,319h267V526q0,44 1,99t4,104q-11-25-41.5-72T1137,576L960,319Z" />
      <glyph unicode="&#xbd;" glyph-name="onehalf" horiz-adv-x="1573" d="M208,0l879,1462h143L351,0H208ZM313,586v566q0,27 0.5,51.5t2,47.5t3,45.5T321,1341q-22-19-47.5-40T219,1260l-109-76l-66,94l267,184H449V586H313ZM911,0V104l237,232q82,80 126,131t61,92t17,88q0,66-40,101.5T1207,784q-62,0-113-23.5T990,696l-66,89q59,50 129.5,80T1209,895q130,0 204-64.5T1487,654q0-68-28-125t-81-115T1248,283L1078,119h410V0H911Z" />
      <glyph unicode="&#xbe;" glyph-name="threequarters" horiz-adv-x="1594" d="M356,0l879,1462h143L500,0H356ZM300,570q-74,0-140,13.5T33,627V748q68-33 137.5-50.5T302,680q108,0 159.5,43T513,842T453,952.5T285,987H166v106H285q104,0 152.5,41T486,1242q0,65-42.5,97T337,1371t-119-21.5T107,1293l-68,88q62,46 132.5,73T336,1481q142,0 215-63.5T624,1256q0-83-44-136t-106-72v-7q80-16 128-68t48-135q0-119-86-193.5T300,570ZM1306,0V205H904v98l405,580h139V319h128V205H1448V0H1306ZM1040,319h266V526q0,44 1.5,99t4.5,104q-13-25-43-72t-53-81L1040,319Z" />
      <glyph unicode="&#xbf;" glyph-name="questiondown" horiz-adv-x="884" d="M593,684V632q0-79-15-137T525.5,387T421,281q-78-65-124-110.5T231.5,79T212-32q0-104 67.5-159.5T468-247q99,0 176,25.5T792-162l58-134q-82-43-177.5-70T458-393q-193,0-299,95.5T53-35q0,93 30,158.5t85.5,120T298,359q67,56 101.5,98.5t47.5,87T460,651v33H593Zm44,302q0-70-32.5-99.5T519,857q-49,0-83.5,29.5T401,986q0,69 34.5,100.5T519,1118q53,0 85.5-31.5T637,986Z" />
      <glyph unicode="&#xc0;" glyph-name="Agrave" horiz-adv-x="1295" d="M1117,0L937,464H351L172,0H0L572,1468H725L1293,0H1117ZM886,615L715,1076q-6,18-19.5,59T668,1220t-23,71q-10-41-21.5-81.5t-22.5-75T582,1076L408,615H886ZM577,1936q24-46 59.5-102.5t75-110T784,1632v-24H671q-36,29-78.5,69T508,1761.5t-76,85T379,1916v20H577Z" />
      <glyph unicode="&#xc1;" glyph-name="Aacute" horiz-adv-x="1295" d="M1117,0L937,464H351L172,0H0L572,1468H725L1293,0H1117ZM886,615L715,1076q-6,18-19.5,59T668,1220t-23,71q-10-41-21.5-81.5t-22.5-75T582,1076L408,615H886Zm49,1321v-20q-20-29-54.5-69.5t-76.5-85T719.5,1677T641,1608H530v24q32,38 70,91.5t74,110T734,1936H935Z" />
      <glyph unicode="&#xc2;" glyph-name="Acircumflex" horiz-adv-x="1295" d="M1117,0L937,464H351L172,0H0L572,1468H725L1293,0H1117ZM886,615L715,1076q-6,18-19.5,59T668,1220t-23,71q-10-41-21.5-81.5t-22.5-75T582,1076L408,615H886ZM732,1935q25-45 70-101.5T897,1723t89-93v-22H868q-54,35-111,86T646,1800q-54-55-109.5-105.5T427,1608H313v22q38,40 86.5,94t93,110T563,1935H732Z" />
      <glyph unicode="&#xc3;" glyph-name="Atilde" horiz-adv-x="1295" d="M1117,0L937,464H351L172,0H0L572,1468H725L1293,0H1117ZM886,615L715,1076q-6,18-19.5,59T668,1220t-23,71q-10-41-21.5-81.5t-22.5-75T582,1076L408,615H886ZM269,1611q6,60 23,107t45,80t66.5,50.5T489,1866q46,0 88-18.5t80-42t73.5-42T799,1745q48,0 74.5,29.5T914,1868h98q-13-117-69-186.5T792,1612q-44,0-85,18.5t-79,42t-74.5,42T482,1733q-49,0-75-29.5T367,1611H269Z" />
      <glyph unicode="&#xc4;" glyph-name="Adieresis" horiz-adv-x="1295" d="M1117,0L937,464H351L172,0H0L572,1468H725L1293,0H1117ZM886,615L715,1076q-6,18-19.5,59T668,1220t-23,71q-10-41-21.5-81.5t-22.5-75T582,1076L408,615H886ZM362,1761q0,50 26,73t64,23q39,0 65.5-23t26.5-73q0-49-26.5-73.5T452,1663q-38,0-64,24.5T362,1761Zm384,0q0,50 26,73t63,23q38,0 65-23t27-73q0-49-27-73.5T835,1663q-37,0-63,24.5T746,1761Z" />
      <glyph unicode="&#xc5;" glyph-name="Aring" horiz-adv-x="1295" d="M1117,0L937,464H351L172,0H0L572,1468H725L1293,0H1117ZM886,615L715,1076q-6,18-19.5,59T668,1220t-23,71q-10-41-21.5-81.5t-22.5-75T582,1076L408,615H886ZM643,1372q-97,0-159,57t-62,159q0,100 61.5,157T643,1802q95,0 160-57t65-155q0-103-64-160.5T643,1372Zm0,96q53,0 86.5,32.5T763,1588t-34.5,87T643,1707q-50,0-84.5-32T524,1588t31-87.5t88-32.5Z" />
      <glyph unicode="&#xc6;" glyph-name="AE" horiz-adv-x="1778" d="M1665,0H901V464H396L174,0H-2L685,1462h980V1312H1071V839h555V691H1071V150h594V0ZM462,615H901v695H786L462,615Z" />
      <glyph unicode="&#xc7;" glyph-name="Ccedilla" horiz-adv-x="1290" d="M825,1333q-121,0-217.5-41.5t-164-120T340,982T304,732q0-184 57.5-319.5T533.5,203T820,129q98,0 184.5,16.5T1173,187V39Q1093,9 1005-5.5T796-20Q573-20 423.5,72.5T199.5,334T125,733q0,166 46.5,303.5t136,237.5t220,154.5T827,1483q111,0 214-22t186-63l-68-144q-70,32-153.5,55.5T825,1333ZM961-286q0-97-75-151.5T666-492q-31,0-59,3.5T562-481v105q19-4 49-7t60-3q75,0 115,22t40,74q0,55-53.5,80T636-176L725,0H836L782-112q50-10 90.5-31T937-199t24-87Z" />
      <glyph unicode="&#xc8;" glyph-name="Egrave" horiz-adv-x="1138" d="M1014,0H200V1462h814V1312H370V839H977V691H370V150h644V0ZM557,1936q24-46 59.5-102.5t75-110T764,1632v-24H651q-36,29-78.5,69T488,1761.5t-76,85T359,1916v20H557Z" />
      <glyph unicode="&#xc9;" glyph-name="Eacute" horiz-adv-x="1138" d="M1014,0H200V1462h814V1312H370V839H977V691H370V150h644V0ZM916,1936v-20q-20-29-54.5-69.5t-76.5-85T700.5,1677T622,1608H511v24q32,38 70,91.5t74,110T715,1936H916Z" />
      <glyph unicode="&#xca;" glyph-name="Ecircumflex" horiz-adv-x="1138" d="M1014,0H200V1462h814V1312H370V839H977V691H370V150h644V0ZM712,1935q25-45 70-101.5T877,1723t89-93v-22H848q-54,35-111,86T626,1800q-54-55-109.5-105.5T407,1608H293v22q38,40 86.5,94t93,110T543,1935H712Z" />
      <glyph unicode="&#xcb;" glyph-name="Edieresis" horiz-adv-x="1138" d="M1014,0H200V1462h814V1312H370V839H977V691H370V150h644V0ZM343,1761q0,50 26,73t64,23q39,0 65.5-23t26.5-73q0-49-26.5-73.5T433,1663q-38,0-64,24.5T343,1761Zm384,0q0,50 26,73t63,23q38,0 65-23t27-73q0-49-27-73.5T816,1663q-37,0-63,24.5T727,1761Z" />
      <glyph unicode="&#xcc;" glyph-name="Igrave" horiz-adv-x="572" d="M200,0V1462H370V0H200ZM186,1936q24-46 59.5-102.5t75-110T393,1632v-24H280q-36,29-78.5,69T117,1761.5t-76,85T-12,1916v20H186Z" />
      <glyph unicode="&#xcd;" glyph-name="Iacute" horiz-adv-x="572" d="M200,0V1462H370V0H200ZM585,1936v-20q-20-29-54.5-69.5t-76.5-85T369.5,1677T291,1608H180v24q32,38 70,91.5t74,110T384,1936H585Z" />
      <glyph unicode="&#xce;" glyph-name="Icircumflex" horiz-adv-x="572" d="M200,0V1462H370V0H200ZM369,1935q25-45 70-101.5T534,1723t89-93v-22H505q-54,35-111,86T283,1800q-54-55-109.5-105.5T64,1608H-50v22q38,40 86.5,94t93,110T200,1935H369Z" />
      <glyph unicode="&#xcf;" glyph-name="Idieresis" horiz-adv-x="572" d="M200,0V1462H370V0H200ZM6,1761q0,50 26,73t64,23q39,0 65.5-23t26.5-73q0-49-26.5-73.5T96,1663q-38,0-64,24.5T6,1761Zm384,0q0,50 26,73t63,23q38,0 65-23t27-73q0-49-27-73.5T479,1663q-37,0-63,24.5T390,1761Z" />
      <glyph unicode="&#xd0;" glyph-name="Eth" horiz-adv-x="1486" d="M641,1462q222,0 383.5-81.5t249-241T1361,745q0-247-90-412.5t-261-249T595,0H213V649H58V798H213v664H641Zm-26-145H382V798H754V649H382V146H577q303,0 454,149t151,444q0,197-66,325T923.5,1254.5T615,1317Z" />
      <glyph unicode="&#xd1;" glyph-name="Ntilde" horiz-adv-x="1542" d="M1343,0H1147L350,1228h-8q3-49 7-111.5t6.5-133T358,840V0H200V1462H395L1189,238h7q-2,35-5,99.5t-5.5,139T1183,615v847h160V0ZM398,1611q6,60 23,107t45,80t66.5,50.5T618,1866q46,0 88-18.5t80-42t73.5-42T928,1745q48,0 74.5,29.5T1043,1868h98q-13-117-69-186.5T921,1612q-44,0-85,18.5t-79,42t-74.5,42T611,1733q-49,0-75-29.5T496,1611H398Z" />
      <glyph unicode="&#xd2;" glyph-name="Ograve" horiz-adv-x="1593" d="M1468,733q0-169-43-307.5t-127.5-238T1088,34T798-20Q628-20 501.5,34t-210,154t-125,239T125,735q0,224 74,393t224.5,263T801,1485q217,0 365.5-93t225-261.5T1468,733ZM304,733q0-186 53-322T519.5,201T798,127q170,0 278.5,74T1237,411t52,322q0,283-118.5,442.5T801,1335q-170,0-280-73T357.5,1054.5T304,733ZM730,1936q24-46 59.5-102.5t75-110T937,1632v-24H824q-36,29-78.5,69T661,1761.5t-76,85T532,1916v20H730Z" />
      <glyph unicode="&#xd3;" glyph-name="Oacute" horiz-adv-x="1593" d="M1468,733q0-169-43-307.5t-127.5-238T1088,34T798-20Q628-20 501.5,34t-210,154t-125,239T125,735q0,224 74,393t224.5,263T801,1485q217,0 365.5-93t225-261.5T1468,733ZM304,733q0-186 53-322T519.5,201T798,127q170,0 278.5,74T1237,411t52,322q0,283-118.5,442.5T801,1335q-170,0-280-73T357.5,1054.5T304,733Zm783,1203v-20q-20-29-54.5-69.5t-76.5-85T871.5,1677T793,1608H682v24q32,38 70,91.5t74,110T886,1936h201Z" />
      <glyph unicode="&#xd4;" glyph-name="Ocircumflex" horiz-adv-x="1593" d="M1468,733q0-169-43-307.5t-127.5-238T1088,34T798-20Q628-20 501.5,34t-210,154t-125,239T125,735q0,224 74,393t224.5,263T801,1485q217,0 365.5-93t225-261.5T1468,733ZM304,733q0-186 53-322T519.5,201T798,127q170,0 278.5,74T1237,411t52,322q0,283-118.5,442.5T801,1335q-170,0-280-73T357.5,1054.5T304,733ZM884,1935q25-45 70-101.5t95-110.5t89-93v-22H1020q-54,35-111,86T798,1800q-54-55-109.5-105.5T579,1608H465v22q38,40 86.5,94t93,110T715,1935H884Z" />
      <glyph unicode="&#xd5;" glyph-name="Otilde" horiz-adv-x="1593" d="M1468,733q0-169-43-307.5t-127.5-238T1088,34T798-20Q628-20 501.5,34t-210,154t-125,239T125,735q0,224 74,393t224.5,263T801,1485q217,0 365.5-93t225-261.5T1468,733ZM304,733q0-186 53-322T519.5,201T798,127q170,0 278.5,74T1237,411t52,322q0,283-118.5,442.5T801,1335q-170,0-280-73T357.5,1054.5T304,733Zm116,878q6,60 23,107t45,80t66.5,50.5T640,1866q46,0 88-18.5t80-42t73.5-42T950,1745q48,0 74.5,29.5T1065,1868h98q-13-117-69-186.5T943,1612q-44,0-85,18.5t-79,42t-74.5,42T633,1733q-49,0-75-29.5T518,1611H420Z" />
      <glyph unicode="&#xd6;" glyph-name="Odieresis" horiz-adv-x="1593" d="M1468,733q0-169-43-307.5t-127.5-238T1088,34T798-20Q628-20 501.5,34t-210,154t-125,239T125,735q0,224 74,393t224.5,263T801,1485q217,0 365.5-93t225-261.5T1468,733ZM304,733q0-186 53-322T519.5,201T798,127q170,0 278.5,74T1237,411t52,322q0,283-118.5,442.5T801,1335q-170,0-280-73T357.5,1054.5T304,733ZM514,1761q0,50 26,73t64,23q39,0 65.5-23t26.5-73q0-49-26.5-73.5T604,1663q-38,0-64,24.5T514,1761Zm384,0q0,50 26,73t63,23q38,0 65-23t27-73q0-49-27-73.5T987,1663q-37,0-63,24.5T898,1761Z" />
      <glyph unicode="&#xd7;" glyph-name="multiply" horiz-adv-x="1171" d="M940,1174l94-97L680,723l353-354l-95-97L582,624L233,272l-99,97L487,723L133,1075l99,99L584,818l356,356Z" />
      <glyph unicode="&#xd8;" glyph-name="Oslash" horiz-adv-x="1593" d="M1468,733q0-169-43-307.5t-127.5-238T1088,34T798-20Q680-20 584,5.5T414,82L312-62L196,14L306,170Q215,270 170,413.5T125,735q0,224 74,393t224.5,263T801,1485q107,0 200-25.5t168-71.5l98,139l115-79l-106-148q93-98 142.5-241.5T1468,733Zm-179,0q0,134-28,242.5T1178,1160L505,212q56-40 129-62.5T798,127q170,0 278.5,74T1237,411t52,322Zm-985,0q0-130 26-235.5T408,315l670,942q-54,38-123,58t-154,20q-170,0-280-73T357.5,1054.5T304,733Z" />
      <glyph unicode="&#xd9;" glyph-name="Ugrave" horiz-adv-x="1493" d="M1306,1462V516q0-155-62.5-276T1055,49.5T739-20Q468-20 326.5,127T185,520v942H356V515q0-186 98.5-287T749,127q134,0 219.5,48.5t127,136T1137,514v948h169ZM679,1936q24-46 59.5-102.5t75-110T886,1632v-24H773q-36,29-78.5,69T610,1761.5t-76,85T481,1916v20H679Z" />
      <glyph unicode="&#xda;" glyph-name="Uacute" horiz-adv-x="1493" d="M1306,1462V516q0-155-62.5-276T1055,49.5T739-20Q468-20 326.5,127T185,520v942H356V515q0-186 98.5-287T749,127q134,0 219.5,48.5t127,136T1137,514v948h169Zm-269,474v-20q-20-29-54.5-69.5t-76.5-85T821.5,1677T743,1608H632v24q32,38 70,91.5t74,110T836,1936h201Z" />
      <glyph unicode="&#xdb;" glyph-name="Ucircumflex" horiz-adv-x="1493" d="M1306,1462V516q0-155-62.5-276T1055,49.5T739-20Q468-20 326.5,127T185,520v942H356V515q0-186 98.5-287T749,127q134,0 219.5,48.5t127,136T1137,514v948h169ZM834,1935q25-45 70-101.5T999,1723t89-93v-22H970q-54,35-111,86T748,1800q-54-55-109.5-105.5T529,1608H415v22q38,40 86.5,94t93,110T665,1935H834Z" />
      <glyph unicode="&#xdc;" glyph-name="Udieresis" horiz-adv-x="1493" d="M1306,1462V516q0-155-62.5-276T1055,49.5T739-20Q468-20 326.5,127T185,520v942H356V515q0-186 98.5-287T749,127q134,0 219.5,48.5t127,136T1137,514v948h169ZM465,1761q0,50 26,73t64,23q39,0 65.5-23t26.5-73q0-49-26.5-73.5T555,1663q-38,0-64,24.5T465,1761Zm384,0q0,50 26,73t63,23q38,0 65-23t27-73q0-49-27-73.5T938,1663q-37,0-63,24.5T849,1761Z" />
      <glyph unicode="&#xdd;" glyph-name="Yacute" horiz-adv-x="1145" d="M573,729l389,733h183L658,567V0H488V559L0,1462H186L573,729ZM863,1936v-20q-20-29-54.5-69.5t-76.5-85T647.5,1677T569,1608H458v24q32,38 70,91.5t74,110T662,1936H863Z" />
      <glyph unicode="&#xde;" glyph-name="Thorn" horiz-adv-x="1232" d="M1127,782q0-94-30-177.5t-97.5-147t-179-100T546,321H370V0H200V1462H370V1206H579q290,0 419-110.5T1127,782ZM370,466H528q144,0 237.5,30.5t139.5,98T951,773q0,147-91.5,217.5T565,1061H370V466Z" />
      <glyph unicode="&#xdf;" glyph-name="germandbls" horiz-adv-x="1275" d="M1050,1268q0-71-29-122t-71.5-90t-85-72T793,918.5T764,846q0-31 14.5-55t54-54.5T946,657q72-48 125-97t81.5-108.5T1181,309q0-112-47-185T1002.5,15.5T805-20Q708-20 636-2.5T510,47V198q37-21 83.5-40T693,127t107-12q116,0 167.5,49.5T1019,298q0,53-18.5,92t-61,76.5T826,550q-83,54-132,98t-70,88.5T603,837q0,65 28,109.5t70,78.5t83.5,66t69.5,71.5t28,95.5q0,88-72.5,129T622,1428q-77,0-141-21.5t-102-73T341,1191V0H175V1191q0,137 58,219.5T392,1530t230,37t225-33.5t149.5-100T1050,1268Z" />
      <glyph unicode="&#xe0;" glyph-name="agrave" horiz-adv-x="1138" d="M585,1114q196,0 291-88t95-281V0H850L818,162h-8q-46-60-96-100.5T598.5,0.5T438-20Q338-20 260.5,15t-122,106T94,301q0,164 130,252t396,96l189,8v67q0,142-61,199T576,980q-86,0-164-25T264,896l-51,126q74,38 170,65t202,27ZM807,540l-167-7q-205-8-289-67T267,299q0-94 57-139t151-45q146,0 239,81t93,243V540ZM500,1569q24-46 59.5-102.5t75-110T707,1265v-24H594q-36,29-78.5,69T431,1394.5t-76,85T302,1549v20H500Z" />
      <glyph unicode="&#xe1;" glyph-name="aacute" horiz-adv-x="1138" d="M585,1114q196,0 291-88t95-281V0H850L818,162h-8q-46-60-96-100.5T598.5,0.5T438-20Q338-20 260.5,15t-122,106T94,301q0,164 130,252t396,96l189,8v67q0,142-61,199T576,980q-86,0-164-25T264,896l-51,126q74,38 170,65t202,27ZM807,540l-167-7q-205-8-289-67T267,299q0-94 57-139t151-45q146,0 239,81t93,243V540Zm52,1029v-20q-20-29-54.5-69.5t-76.5-85T643.5,1310T565,1241H454v24q32,38 70,91.5t74,110T658,1569H859Z" />
      <glyph unicode="&#xe2;" glyph-name="acircumflex" horiz-adv-x="1138" d="M585,1114q196,0 291-88t95-281V0H850L818,162h-8q-46-60-96-100.5T598.5,0.5T438-20Q338-20 260.5,15t-122,106T94,301q0,164 130,252t396,96l189,8v67q0,142-61,199T576,980q-86,0-164-25T264,896l-51,126q74,38 170,65t202,27ZM807,540l-167-7q-205-8-289-67T267,299q0-94 57-139t151-45q146,0 239,81t93,243V540ZM655,1568q25-45 70-101.5T820,1356t89-93v-22H791q-54,35-111,86T569,1433q-54-55-109.5-105.5T350,1241H236v22q38,40 86.5,94t93,110T486,1568H655Z" />
      <glyph unicode="&#xe3;" glyph-name="atilde" horiz-adv-x="1138" d="M585,1114q196,0 291-88t95-281V0H850L818,162h-8q-46-60-96-100.5T598.5,0.5T438-20Q338-20 260.5,15t-122,106T94,301q0,164 130,252t396,96l189,8v67q0,142-61,199T576,980q-86,0-164-25T264,896l-51,126q74,38 170,65t202,27ZM807,540l-167-7q-205-8-289-67T267,299q0-94 57-139t151-45q146,0 239,81t93,243V540ZM191,1244q6,60 23,107t45,80t66.5,50.5T411,1499q46,0 88-18.5t80-42t73.5-42T721,1378q48,0 74.5,29.5T836,1501h98q-13-117-69-186.5T714,1245q-44,0-85,18.5t-79,42t-74.5,42T404,1366q-49,0-75-29.5T289,1244H191Z" />
      <glyph unicode="&#xe4;" glyph-name="adieresis" horiz-adv-x="1138" d="M585,1114q196,0 291-88t95-281V0H850L818,162h-8q-46-60-96-100.5T598.5,0.5T438-20Q338-20 260.5,15t-122,106T94,301q0,164 130,252t396,96l189,8v67q0,142-61,199T576,980q-86,0-164-25T264,896l-51,126q74,38 170,65t202,27ZM807,540l-167-7q-205-8-289-67T267,299q0-94 57-139t151-45q146,0 239,81t93,243V540ZM286,1394q0,50 26,73t64,23q39,0 65.5-23t26.5-73q0-49-26.5-73.5T376,1296q-38,0-64,24.5T286,1394Zm384,0q0,50 26,73t63,23q38,0 65-23t27-73q0-49-27-73.5T759,1296q-37,0-63,24.5T670,1394Z" />
      <glyph unicode="&#xe5;" glyph-name="aring" horiz-adv-x="1138" d="M585,1114q196,0 291-88t95-281V0H850L818,162h-8q-46-60-96-100.5T598.5,0.5T438-20Q338-20 260.5,15t-122,106T94,301q0,164 130,252t396,96l189,8v67q0,142-61,199T576,980q-86,0-164-25T264,896l-51,126q74,38 170,65t202,27ZM807,540l-167-7q-205-8-289-67T267,299q0-94 57-139t151-45q146,0 239,81t93,243V540ZM569,1242q-97,0-159,57t-62,159q0,100 61.5,157T569,1672q95,0 160-57t65-155q0-103-64-160.5T569,1242Zm0,96q53,0 86.5,32.5T689,1458t-34.5,87T569,1577q-50,0-84.5-32T450,1458t31-87.5t88-32.5Z" />
      <glyph unicode="&#xe6;" glyph-name="ae" horiz-adv-x="1766" d="M1235,1116q133,0 228.5-62T1610,881t50-257V519H951q4-202 87-299.5T1277,122q100,0 177,19t158,56V51q-82-37-160.5-54T1272-20q-96,0-175.5,27.5t-140,81T856,220Q811,147 755.5,93T624,9.5T441-20Q341-20 262.5,15T139,121T94,301t55.5,184.5t167,117T595,649l186,8v71q0,139-63,195.5T547,980q-81,0-159.5-24.5T239,896l-52,126q74,39 173.5,65.5T560,1114q129,0 211.5-45T893,923q53,91 140,142t202,51ZM777,540l-157-7q-193-8-273-67T267,299q0-94 54.5-139T467,115q90,0 160,36T737,259t40,180V540Zm456,440q-121,0-194-84.5T955,650h529q1,99-26,173.5T1375,939t-142,41Z" />
      <glyph unicode="&#xe7;" glyph-name="ccedilla" horiz-adv-x="981" d="M614-20Q466-20 353,41T177,227T114,542q0,199 66.5,325.5T364,1055t266,61q82,0 158.5-16.5T914,1058L864,919q-50,20-115.5,36T626,971q-114,0-189.5-49t-113-144T286,544q0-133 36.5-227t109-143.5T613,124q87,0 157,18.5T897,186V38Q842,10 774.5-5T614-20ZM777-286q0-97-75-151.5T482-492q-31,0-59,3.5T378-481v105q19-4 49-7t60-3q75,0 115,22t40,74q0,55-53.5,80T452-176L541,0H652L598-112q50-10 90.5-31T753-199t24-87Z" />
      <glyph unicode="&#xe8;" glyph-name="egrave" horiz-adv-x="1150" d="M597,1116q140,0 240-62T990,880.5T1043,620V517H286q3-193 96-294T644,122q104,0 184,19t166,56V51Q911,14 829.5-3T637-20Q479-20 361.5,44.5T179,234T114,540q0,177 59.5,306.5t168,199.5T597,1116Zm-2-136q-133,0-212-87T289,650H869q-1,98-30.5,172.5T749,938.5T595,980Zm-81,589q24-46 59.5-102.5t75-110T721,1265v-24H608q-36,29-78.5,69T445,1394.5t-76,85T316,1549v20H514Z" />
      <glyph unicode="&#xe9;" glyph-name="eacute" horiz-adv-x="1150" d="M597,1116q140,0 240-62T990,880.5T1043,620V517H286q3-193 96-294T644,122q104,0 184,19t166,56V51Q911,14 829.5-3T637-20Q479-20 361.5,44.5T179,234T114,540q0,177 59.5,306.5t168,199.5T597,1116Zm-2-136q-133,0-212-87T289,650H869q-1,98-30.5,172.5T749,938.5T595,980Zm277,589v-20q-20-29-54.5-69.5t-76.5-85T656.5,1310T578,1241H467v24q32,38 70,91.5t74,110T671,1569H872Z" />
      <glyph unicode="&#xea;" glyph-name="ecircumflex" horiz-adv-x="1150" d="M597,1116q140,0 240-62T990,880.5T1043,620V517H286q3-193 96-294T644,122q104,0 184,19t166,56V51Q911,14 829.5-3T637-20Q479-20 361.5,44.5T179,234T114,540q0,177 59.5,306.5t168,199.5T597,1116Zm-2-136q-133,0-212-87T289,650H869q-1,98-30.5,172.5T749,938.5T595,980Zm74,588q25-45 70-101.5T834,1356t89-93v-22H805q-54,35-111,86T583,1433q-54-55-109.5-105.5T364,1241H250v22q38,40 86.5,94t93,110T500,1568H669Z" />
      <glyph unicode="&#xeb;" glyph-name="edieresis" horiz-adv-x="1150" d="M597,1116q140,0 240-62T990,880.5T1043,620V517H286q3-193 96-294T644,122q104,0 184,19t166,56V51Q911,14 829.5-3T637-20Q479-20 361.5,44.5T179,234T114,540q0,177 59.5,306.5t168,199.5T597,1116Zm-2-136q-133,0-212-87T289,650H869q-1,98-30.5,172.5T749,938.5T595,980ZM300,1394q0,50 26,73t64,23q39,0 65.5-23t26.5-73q0-49-26.5-73.5T390,1296q-38,0-64,24.5T300,1394Zm384,0q0,50 26,73t63,23q38,0 65-23t27-73q0-49-27-73.5T773,1296q-37,0-63,24.5T684,1394Z" />
      <glyph unicode="&#xec;" glyph-name="igrave" horiz-adv-x="517" d="M341,0H175V1096H341V0ZM190,1569q24-46 59.5-102.5t75-110T397,1265v-24H284q-36,29-78.5,69T121,1394.5t-76,85T-8,1549v20H190Z" />
      <glyph unicode="&#xed;" glyph-name="iacute" horiz-adv-x="517" d="M341,0H175V1096H341V0ZM548,1569v-20q-20-29-54.5-69.5t-76.5-85T332.5,1310T254,1241H143v24q32,38 70,91.5t74,110T347,1569H548Z" />
      <glyph unicode="&#xee;" glyph-name="icircumflex" horiz-adv-x="517" d="M341,0H175V1096H341V0Zm3,1568q25-45 70-101.5T509,1356t89-93v-22H480q-54,35-111,86T258,1433q-54-55-109.5-105.5T39,1241H-75v22q38,40 86.5,94t93,110T175,1568H344Z" />
      <glyph unicode="&#xef;" glyph-name="idieresis" horiz-adv-x="517" d="M341,0H175V1096H341V0ZM-25,1394q0,50 26,73t64,23q39,0 65.5-23t26.5-73q0-49-26.5-73.5T65,1296q-38,0-64,24.5T-25,1394Zm384,0q0,50 26,73t63,23q38,0 65-23t27-73q0-49-27-73.5T448,1296q-37,0-63,24.5T359,1394Z" />
      <glyph unicode="&#xf0;" glyph-name="eth" horiz-adv-x="1228" d="M439,1565q68-31 133-68t123-80l235,137l72-102L798,1333q95-89 166.5-205.5t111-258.5T1115,562q0-190-60-320T882,46T610-20Q464-20 351.5,40T176,211.5T113,475q0,153 59,263T338.5,907.5T591,967q75,0 136-13.5T835.5,913T915,845l9,3q-32,121-100.5,224T666,1256L399,1102l-71,104l231,133q-43,30-91,58.5T371,1451l68,114ZM616,832q-115,0-189-42T317.5,667T282,469q0-104 35.5-184t109-124.5T614,116q171,0 252,104t81,302q0,62-19.5,117.5t-59.5,99T765.5,807T616,832Z" />
      <glyph unicode="&#xf1;" glyph-name="ntilde" horiz-adv-x="1256" d="M694,1116q195,0 295-95.5T1089,714V0H925V703q0,137-62.5,205T671,976q-182,0-256-103T341,574V0H175V1096H309l25-158h9q35,58 89,97.5t121,60T694,1116ZM254,1244q6,60 23,107t45,80t66.5,50.5T474,1499q46,0 88-18.5t80-42t73.5-42T784,1378q48,0 74.5,29.5T899,1501h98q-13-117-69-186.5T777,1245q-44,0-85,18.5t-79,42t-74.5,42T467,1366q-49,0-75-29.5T352,1244H254Z" />
      <glyph unicode="&#xf2;" glyph-name="ograve" horiz-adv-x="1232" d="M1120,550q0-135-35-241T984,130T824.5,18.5T613-20Q503-20 411.5,18.5T253.5,130t-103,179T114,550q0,180 61,306.5t174.5,193T620,1116q150,0 262.5-67t175-193.5T1120,550Zm-834,0q0-132 35-229T429,171t188-53q114,0 187.5,53T913,321t35,229q0,131-35,226.5T805,924T616,976q-171,0-250.5-113T286,550ZM548,1569q24-46 59.5-102.5t75-110T755,1265v-24H642q-36,29-78.5,69T479,1394.5t-76,85T350,1549v20H548Z" />
      <glyph unicode="&#xf3;" glyph-name="oacute" horiz-adv-x="1232" d="M1120,550q0-135-35-241T984,130T824.5,18.5T613-20Q503-20 411.5,18.5T253.5,130t-103,179T114,550q0,180 61,306.5t174.5,193T620,1116q150,0 262.5-67t175-193.5T1120,550Zm-834,0q0-132 35-229T429,171t188-53q114,0 187.5,53T913,321t35,229q0,131-35,226.5T805,924T616,976q-171,0-250.5-113T286,550ZM907,1569v-20q-20-29-54.5-69.5t-76.5-85T691.5,1310T613,1241H502v24q32,38 70,91.5t74,110T706,1569H907Z" />
      <glyph unicode="&#xf4;" glyph-name="ocircumflex" horiz-adv-x="1232" d="M1120,550q0-135-35-241T984,130T824.5,18.5T613-20Q503-20 411.5,18.5T253.5,130t-103,179T114,550q0,180 61,306.5t174.5,193T620,1116q150,0 262.5-67t175-193.5T1120,550Zm-834,0q0-132 35-229T429,171t188-53q114,0 187.5,53T913,321t35,229q0,131-35,226.5T805,924T616,976q-171,0-250.5-113T286,550ZM703,1568q25-45 70-101.5T868,1356t89-93v-22H839q-54,35-111,86T617,1433q-54-55-109.5-105.5T398,1241H284v22q38,40 86.5,94t93,110T534,1568H703Z" />
      <glyph unicode="&#xf5;" glyph-name="otilde" horiz-adv-x="1232" d="M1120,550q0-135-35-241T984,130T824.5,18.5T613-20Q503-20 411.5,18.5T253.5,130t-103,179T114,550q0,180 61,306.5t174.5,193T620,1116q150,0 262.5-67t175-193.5T1120,550Zm-834,0q0-132 35-229T429,171t188-53q114,0 187.5,53T913,321t35,229q0,131-35,226.5T805,924T616,976q-171,0-250.5-113T286,550Zm-46,694q6,60 23,107t45,80t66.5,50.5T460,1499q46,0 88-18.5t80-42t73.5-42T770,1378q48,0 74.5,29.5T885,1501h98q-13-117-69-186.5T763,1245q-44,0-85,18.5t-79,42t-74.5,42T453,1366q-49,0-75-29.5T338,1244H240Z" />
      <glyph unicode="&#xf6;" glyph-name="odieresis" horiz-adv-x="1232" d="M1120,550q0-135-35-241T984,130T824.5,18.5T613-20Q503-20 411.5,18.5T253.5,130t-103,179T114,550q0,180 61,306.5t174.5,193T620,1116q150,0 262.5-67t175-193.5T1120,550Zm-834,0q0-132 35-229T429,171t188-53q114,0 187.5,53T913,321t35,229q0,131-35,226.5T805,924T616,976q-171,0-250.5-113T286,550Zm48,844q0,50 26,73t64,23q39,0 65.5-23t26.5-73q0-49-26.5-73.5T424,1296q-38,0-64,24.5T334,1394Zm384,0q0,50 26,73t63,23q38,0 65-23t27-73q0-49-27-73.5T807,1296q-37,0-63,24.5T718,1394Z" />
      <glyph unicode="&#xf7;" glyph-name="divide" horiz-adv-x="1171" d="M103,654V790h963V654H103ZM584,253q-46,0-77,28.5T476,371q0,65 31,91t77,26q44,0 75-26t31-91q0-61-31-89.5T584,253Zm0,702q-46,0-77,28.5T476,1073q0,64 31,90t77,26q44,0 75-26t31-90q0-61-31-89.5T584,955Z" />
      <glyph unicode="&#xf8;" glyph-name="oslash" horiz-adv-x="1232" d="M1120,550q0-180-61.5-307.5t-175-195T613-20Q534-20 466.5-1.5T342,54L254-67L145,8l97,132q-61,75-94.5,177.5T114,550q0,270 135.5,418T620,1116q78,0 147-20t125-58l85,119l112-73L992,952q60-73 94-174t34-228Zm-834,0q0-82 12.5-150.5T339,279L807,919q-37,27-85,42T616,976q-171,0-250.5-113T286,550Zm662,0q0,79-13,146T896,814L428,173q35-27 83.5-41T617,118q114,0 187.5,53T913,321t35,229Z" />
      <glyph unicode="&#xf9;" glyph-name="ugrave" horiz-adv-x="1256" d="M1080,1096V0H944L920,154h-9q-34-57-88-96T701.5-0.5T558-20Q428-20 340,22T207.5,152T163,378v718H331V390q0-137 62-204.5T582,118q122,0 194.5,46T881,299.5T913,519v577h167ZM560,1569q24-46 59.5-102.5t75-110T767,1265v-24H654q-36,29-78.5,69T491,1394.5t-76,85T362,1549v20H560Z" />
      <glyph unicode="&#xfa;" glyph-name="uacute" horiz-adv-x="1256" d="M1080,1096V0H944L920,154h-9q-34-57-88-96T701.5-0.5T558-20Q428-20 340,22T207.5,152T163,378v718H331V390q0-137 62-204.5T582,118q122,0 194.5,46T881,299.5T913,519v577h167ZM918,1569v-20q-20-29-54.5-69.5t-76.5-85T702.5,1310T624,1241H513v24q32,38 70,91.5t74,110T717,1569H918Z" />
      <glyph unicode="&#xfb;" glyph-name="ucircumflex" horiz-adv-x="1256" d="M1080,1096V0H944L920,154h-9q-34-57-88-96T701.5-0.5T558-20Q428-20 340,22T207.5,152T163,378v718H331V390q0-137 62-204.5T582,118q122,0 194.5,46T881,299.5T913,519v577h167ZM714,1568q25-45 70-101.5T879,1356t89-93v-22H850q-54,35-111,86T628,1433q-54-55-109.5-105.5T409,1241H295v22q38,40 86.5,94t93,110T545,1568H714Z" />
      <glyph unicode="&#xfc;" glyph-name="udieresis" horiz-adv-x="1256" d="M1080,1096V0H944L920,154h-9q-34-57-88-96T701.5-0.5T558-20Q428-20 340,22T207.5,152T163,378v718H331V390q0-137 62-204.5T582,118q122,0 194.5,46T881,299.5T913,519v577h167ZM345,1394q0,50 26,73t64,23q39,0 65.5-23t26.5-73q0-49-26.5-73.5T435,1296q-38,0-64,24.5T345,1394Zm384,0q0,50 26,73t63,23q38,0 65-23t27-73q0-49-27-73.5T818,1296q-37,0-63,24.5T729,1394Z" />
      <glyph unicode="&#xfd;" glyph-name="yacute" horiz-adv-x="1026" d="M2,1096H180L422,460q21-56 39-107.5T493,254t22-91h7q14,50 40,131.5T618,461l229,635h179L549-161q-38-101-88.5-176T338-452.5T164-493q-47,0-83,5.5T19-475v133q22-5 53.5-9t65.5-4q62,0 107.5,23.5T324-263t57,107L441-2L2,1096Zm800,473v-20q-20-29-54.5-69.5t-76.5-85T586.5,1310T508,1241H397v24q32,38 70,91.5t74,110T601,1569H802Z" />
      <glyph unicode="&#xfe;" glyph-name="thorn" horiz-adv-x="1253" d="M1139,551q0-187-56-314T926,45T688-20Q600-20 534,3T421,64.5T342,150H330q2-18 5-52.5T340,27t2-60V-490H175V1556H342V1095q0-31-2-80t-4-78h7q32,49 78.5,89.5t112.5,65T690,1116q205,0 327-143t122-422Zm-171,2q0,212-74.5,317.5T663,976q-172,0-245.5-98.5T342,585V549q0-208 71-319.5T663,118q103,0 170.5,50.5T934.5,316T968,553Z" />
      <glyph unicode="&#xff;" glyph-name="ydieresis" horiz-adv-x="1026" d="M2,1096H180L422,460q21-56 39-107.5T493,254t22-91h7q14,50 40,131.5T618,461l229,635h179L549-161q-38-101-88.5-176T338-452.5T164-493q-47,0-83,5.5T19-475v133q22-5 53.5-9t65.5-4q62,0 107.5,23.5T324-263t57,107L441-2L2,1096Zm227,298q0,50 26,73t64,23q39,0 65.5-23t26.5-73q0-49-26.5-73.5T319,1296q-38,0-64,24.5T229,1394Zm384,0q0,50 26,73t63,23q38,0 65-23t27-73q0-49-27-73.5T702,1296q-37,0-63,24.5T613,1394Z" />
      <glyph unicode="&#x2013;" glyph-name="endash" horiz-adv-x="1024" d="M82,476V624H942V476H82Z" />
      <glyph unicode="&#x2014;" glyph-name="emdash" horiz-adv-x="2048" d="M82,476V624H1966V476H82Z" />
      <glyph unicode="&#x2018;" glyph-name="quoteleft" horiz-adv-x="347" d="M39,961L27,983q18,73 46,156.5t61,167T200,1462H322q-20-77-40.5-166T244,1119.5T216,961H39Z" />
      <glyph unicode="&#x2019;" glyph-name="quoteright" horiz-adv-x="347" d="M306,1462l15-22q-18-73-46-156.5T214,1117T148,961H26q15,57 30.5,122T86,1215t25.5,130T131,1462H306Z" />
      <glyph unicode="&#x201a;" glyph-name="quotesinglbase" horiz-adv-x="501" d="M345,237l15-22q-18-73-46-156.5T253-108T187-264H65q15,57 30.5,122T125-10t25.5,130T170,237H345Z" />
      <glyph unicode="&#x201c;" glyph-name="quotedblleft" horiz-adv-x="714" d="M689,1462q-21-77-41.5-166.5T610,1119T583,961H406l-15,22q18,73 46.5,156t62,166.5T567,1462H689Zm-368,0q-21-77-41.5-166.5T242,1119T215,961H39L27,983q18,73 45.5,156T133,1305.5T200,1462H321Z" />
      <glyph unicode="&#x201d;" glyph-name="quotedblright" horiz-adv-x="714" d="M673,1462l15-22q-18-74-46-157.5t-61-166T515,961H390q21,76 42,165t38,177t27,159H673Zm-368,0l14-22q-17-74-45.5-157.5t-61.5-166T146,961H26q15,57 30.5,122t29,132t25,130T129,1462H305Z" />
      <glyph unicode="&#x201e;" glyph-name="quotedblbase" horiz-adv-x="837" d="M712,237l15-22q-18-74-46-157.5t-61-166T554-264H429q21,76 42,165T509,78t27,159H712Zm-368,0l14-22q-17-74-45.5-157.5T251-108.5T185-264H65q15,57 30.5,122t29,132t25,130T168,237H344Z" />
      <glyph unicode="&#x2022;" glyph-name="bullet" horiz-adv-x="770" d="M171,748q0,87 28,139.5T275.5,964T385,988t109.5-24T571,887t28-139q0-84-28-137.5T494.5,532T385,507T275.5,532T199,610T171,748Z" />
      <glyph unicode="&#x2039;" glyph-name="guilsinglleft" horiz-adv-x="615" d="M79,556L419,965l119-68L251,544L538,191L419,122L79,529v27Z" />
      <glyph unicode="&#x203a;" glyph-name="guilsinglright" horiz-adv-x="615" d="M194,965L536,557V530L194,122L77,191L363,545L77,897l117,68Z" />
    </font>
</defs>
</svg>
