<?xml version="1.0" standalone="no"?>
<!DOCTYPE svg PUBLIC "-//W3C//DTD SVG 1.1//EN" "http://www.w3.org/Graphics/SVG/1.1/DTD/svg11.dtd">
<svg xmlns="http://www.w3.org/2000/svg">
  <defs>
    <font id="NunitoSans" horiz-adv-x="559">
      <font-face font-family="Nunito Sans 12pt ExtraLight 12pt" units-per-em="1000" panose-1="0 0 0 0 0 0 0 0 0 0" ascent="1011" descent="-353" alphabetic="0" />
      <glyph unicode=" " glyph-name="gid453" horiz-adv-x="257" />
      <glyph unicode="!" glyph-name="gid462" horiz-adv-x="228" d="M89,184L64,705H164L139,184H89ZM63,0V102H165V0H63Z" />
      <glyph unicode="&quot;" glyph-name="gid494" horiz-adv-x="391" d="M84,428L63,705h95L139,428H84Zm171,0L234,705h95L310,428H255Z" />
      <glyph unicode="#" glyph-name="gid469" horiz-adv-x="600" d="M88,0l36,182H35v59H135l45,231H55v59H190l35,174h63L254,531H413l34,174h64L477,531h88V472H465L420,241H545V182H410L374,0H310l35,182H187L152,0H88ZM198,241H356l46,231H243L198,241Z" />
      <glyph unicode="$" glyph-name="gid515" horiz-adv-x="600" d="M276-115V12L294-5Q222-4 158,16.5T46,79l30,66q32-25 66-42.5t72.5-26T301,68q85,0 126.5,33T469,187q0,44-29.5,70T340,298L240,319q-90,20-134.5,65T61,504q0,58 28.5,103.5t79.5,72T288,709l-12-14V820h68V695l-13,14q53-2 108-23t93-63l-28-64q-40,41-89,59.5T306,637q-74,0-119-36t-45-95q0-46 28.5-73.5T261,392l100-22q97-20 144-63t47-115q0-57-29-99.5t-79-67T328-4l16,17V-115H276Z" />
      <glyph unicode="%" glyph-name="gid548" horiz-adv-x="930" d="M286-25L229,8L644,730l56-33L286-25ZM226,282q-53,0-91.5,25.5T76,381.5T56,498q0,102 45,158.5T226,713q53,0 91-25.5T375.5,614T396,498T375.5,382T317,308t-91-26Zm0,59q46,0 73,39.5T326,498T299,615t-73,39q-47,0-73.5-39T126,498t26.5-117.5T226,341ZM704-9q-52,0-90.5,25.5t-59,74T534,207q0,102 45.5,158.5T704,422q53,0 91-25.5T853.5,323T874,207T854,90.5t-58-74T704-9Zm0,59q47,0 73.5,39.5T804,207T777.5,324T704,363q-46,0-72.5-39T605,207q0-79 26.5-118T704,50Z" />
      <glyph unicode="&amp;" glyph-name="gid498" horiz-adv-x="693" d="M287-9Q217-9 166,13.5T88.5,76T62,169q0,45 16.5,81.5t49.5,69T210,384l32,21l-11-17q-48,52-67.5,90.5T144,558q0,46 21,81.5t60.5,55T317,714q47,0 82-17.5T454.5,647T475,571q0-36-14-67.5t-47-63T322,374l2,21L511,185H493q24,41 38.5,101.5T548,413h70q-2-83-22.5-154.5T540,132l-1,24L684,0H585L495,101h21Q474,49 415,20T287-9Zm4,67q57,0 101.5,24T470,152l-1-25L257,359l32-3l-31-20q-43-28-68.5-52.5T153,233t-11-58q0-55 38-86T291,58Zm26,593q-43,0-70-25t-27-66q0-22 6.5-40.5t23.5-41T297,421l-21-1q48,31 76,54.5T392,520t12,47q0,39-24,61.5T317,651Z" />
      <glyph unicode="&apos;" glyph-name="gid495" horiz-adv-x="221" d="M84,428L63,705h95L139,428H84Z" />
      <glyph unicode="(" glyph-name="gid478" horiz-adv-x="317" d="M224-192Q160-81 131,32T102,263t29,231t93,224l58-22q-31-74-52-145.5T198.5,408T188,263q0-73 10.5-144.5T230-24t52-146l-58-22Z" />
      <glyph unicode=")" glyph-name="gid479" horiz-adv-x="317" d="M93-192L35-170Q67-94 87.5-22.5t30.5,142T128,263T118,406.5T87.5,549T35,696l58,22q64-111 93-224.5T215,263q0-118-29-231T93-192Z" />
      <glyph unicode="*" glyph-name="gid468" horiz-adv-x="450" d="M155,353l-53,32l89,141l11-16L34,504v61l168-7l-11-15L102,685l53,30l75-144H220l74,144l54-31L259,543l-11,15l169,7V504l-169,6l11,16l89-141l-54-31L220,498h10L155,353Z" />
      <glyph unicode="+" glyph-name="gid536" horiz-adv-x="600" d="M268,40V256H56v62H268V528h64V318H544V256H332V40H268Z" />
      <glyph unicode="," glyph-name="gid458" horiz-adv-x="228" d="M105-114L67-85Q85-66 94.5-49.5t13,33T111,17L129,0H63V102H165V30q0-27-5.5-51.5T141-69t-36-45Z" />
      <glyph unicode="-" glyph-name="gid473" horiz-adv-x="424" d="M72,233v67H352V233H72Z" />
      <glyph unicode="." glyph-name="gid457" horiz-adv-x="228" d="M63,0V102H165V0H63Z" />
      <glyph unicode="/" glyph-name="gid470" horiz-adv-x="283" d="M45-63L-19-44L237,752l65-19L45-63Z" />
      <glyph unicode="0" glyph-name="gid414" horiz-adv-x="600" d="M300-9Q220-9 164.5,32.5T81,155T53,353q0,118 28,198.5T164.5,673T300,714q81,0 136-41t83-121t28-198T519,155T436,32.5T300-9Zm0,71q84,0 124.5,71T465,354T425,573.5T300,643q-83,0-124-70T135,354q0-150 40.5-221T300,62Z" />
      <glyph unicode="1" glyph-name="gid415" horiz-adv-x="600" d="M124,0V70H285V634h43L158,526l-35,61L308,705h59V70H518V0H124Z" />
      <glyph unicode="2" glyph-name="gid416" horiz-adv-x="600" d="M90,0V62L331,322q34,37 55,69.5T417,455t10,63q0,60-36.5,91.5T284,641q-54,0-100.5-19.5T95,561L64,625q39,40 99.5,64.5T291,714q71,0 120-22t74-64.5T510,524q0-32-7.5-62.5t-23-61t-39-62.5T384,272L172,47V70H539V0H90Z" />
      <glyph unicode="3" glyph-name="gid417" horiz-adv-x="600" d="M292-9Q245-9 201.5,1T120,29.5T53,75l30,65q49-40 99-58T290,64q51,0 86,15t53,44.5T447,196q0,62-41,94T287,322H183v71h97q46,0 78.5,16T409,454.5T427,526q0,56-36,85.5T287,641q-56,0-103-19.5T95,561L65,625q40,42 100.5,65.5T292,714q68,0 116.5-21.5t74.5-62T509,533q0-65-36-111.5T375,358v11q49-8 83.5-32T511,275.5T529,190q0-61-28.5-105.5T419,15.5T292-9Z" />
      <glyph unicode="4" glyph-name="gid418" horiz-adv-x="600" d="M377,0V151H52v62L391,705h69V221H565V151H460V0H377Zm0,221V606h24L122,199v22H377Z" />
      <glyph unicode="5" glyph-name="gid419" horiz-adv-x="600" d="M315-9Q270-9 227,1T146.5,30T80,75l31,65q48-39 97.5-57.5T314,64q74,0 115.5,41T471,213q0,69-40,113T321,370q-51,0-89.5-20.5T162,286H102V705H511V635H183V354H161q26,42 72,64.5T336,441q67,0 115.5-28t75-78.5T553,217q0-66-29-117T442,20T315-9Z" />
      <glyph unicode="6" glyph-name="gid420" horiz-adv-x="600" d="M325-9Q241-9 182.5,31.5T94,149T64,335q0,122 33.5,206.5t98,128.5T349,714q36,0 73-10.5T491.5,674T547,629l-30-64q-37,39-80.5,57.5T347,641q-49,0-86.5-18t-64-54.5t-39.5-91T144,351V258h-9q6,57 33.5,98.5T239,420t97,22q62,0 110-28t75-78.5T548,220q0-66-28-118T441,20.5T325-9Zm-6,70q44,0 78,19.5t53,55T469,217t-19,81t-52.5,55T319,373q-44,0-78-20t-53-55t-19-81t19-81.5t53-55T319,61Z" />
      <glyph unicode="7" glyph-name="gid421" horiz-adv-x="600" d="M112,0L458,670V634H67v71H533V643L203,0H112Z" />
      <glyph unicode="8" glyph-name="gid422" horiz-adv-x="600" d="M300-9Q181-9 115,42.5T49,187q0,49 20,87.5T125,337t83,30V352q-43,10-75,34.5T83.5,447T66,526q0,89 63.5,138.5T300,714q108,0 171.5-49.5T535,526q0-43-17.5-79.5T468,386t-75-33v14q47-6 82.5-30.5T531,274t20-87q0-93-66-144.5T300-9Zm0,68q85,0 128.5,33T472,192q0,66-43.5,98.5T300,323q-84,0-128-32.5T128,192q0-67 44-100T300,59Zm0,332q74,0 115,34t41,94t-41,93.5T300,646q-73,0-114-33.5T145,519t41-94t114-34Z" />
      <glyph unicode="9" glyph-name="gid423" horiz-adv-x="600" d="M252-9Q216-9 179,1.5T109.5,31T53,76l31,65q36-39 80-58t89-19q49,0 87,18t64,54.5t39.5,91T457,354v93h8q-6-56-33.5-98T361,285t-97-22q-62,0-109.5,28t-75,79T52,485q0,67 28.5,118.5t79,81T276,714q83,0 141.5-40.5T506,556t30-186q0-121-33.5-206t-97-129T252-9Zm30,341q44,0 78,20t53,55t19,81q0,47-19,82t-53,55t-78,20q-45,0-78.5-20t-53-55T131,488q0-46 19.5-81t53-55T282,332Z" />
      <glyph unicode=":" glyph-name="gid459" horiz-adv-x="228" d="M63,384V486H165V384H63ZM63,0V102H165V0H63Z" />
      <glyph unicode=";" glyph-name="gid460" horiz-adv-x="228" d="M105-114L67-85Q85-66 94.5-49.5t13,33T111,17L137,0H63V102H165V30q0-27-5.5-51.5T141-69t-36-45ZM63,384V486H165V384H63Z" />
      <glyph unicode="&lt;" glyph-name="gid542" horiz-adv-x="600" d="M544,35L56,255v64L544,539V471L89,267v40L544,104V35Z" />
      <glyph unicode="=" glyph-name="gid540" horiz-adv-x="600" d="M56,356v62H544V356H56Zm0-199v61H544V157H56Z" />
      <glyph unicode="&gt;" glyph-name="gid541" horiz-adv-x="600" d="M56,35v69L512,307V267L56,471v68L544,319V255L56,35Z" />
      <glyph unicode="?" glyph-name="gid464" horiz-adv-x="443" d="M182,184v29q0,34 8.5,64.5t27,62.5T268,409q25,30 40,53t21.5,44.5T336,550q0,29-13.5,49T284,630t-61,11q-55,0-102-20T32,561L2,625q26,27 62,46.5t77.5,31T227,714q57,0 100.5-19.5t67.5-55T419,556q0-31-9-59.5T381.5,439T327,373q-31-32-50-60t-28.5-53T236,209l-2-25H182ZM157,0V102H259V0H157Z" />
      <glyph unicode="@" glyph-name="gid497" horiz-adv-x="946" d="M485-163q-96,0-174,30.5T177-45T91,92.5T61,273q0,98 31.5,179t90,139.5T321,682t177,32q116,0 203-46.5T836.5,538T885,344q0-87-24-151T794.5,94T695,59q-60,0-90.5,34.5T578,187l19-5q-25-60-71-91.5T429,59q-77,0-119.5,48.5T267,241q0,73 28,130.5T372,462t111,33q54,0 89-27t45-76H606l16,94h66L643,227q-2-13-3-25t-1-22q0-33 15-50t45-17q39,0 67.5,29t45,81T828,344q0,95-41.5,165T671,618T497,657q-111,0-195-48T171,474.5T124,273q0-119 44.5-204T294-61.5T485-107q81,0 146.5,25.5T740-10l33-48q-32-34-76.5-57.5t-98-35.5T485-163ZM438,117q45,0 79.5,27T572,218t20,107q0,56-25,84t-77,28q-44,0-79-25t-55.5-69T335,241q0-60 27-92t76-32Z" />
      <glyph unicode="A" glyph-name="gid1" horiz-adv-x="729" d="M19,0L330,705h70L711,0H626L539,201l40-21H149l41,21L104,0H19ZM364,609L203,230l-24,19H549l-22-19L366,609h-2Z" />
      <glyph unicode="B" glyph-name="gid18" horiz-adv-x="676" d="M87,0V705H369q108,0 168-48t60-136q0-66-38.5-110T454,353v14q50-6 86-28.5t55-59T614,194q0-63-27.5-106.5T507,22T381,0H87Zm80,66H373q32,0 57.5,5T475,86.5T507,112t19.5,36t6.5,47q0,27-6.5,47.5t-19.5,36T475,304t-44.5,15T373,324H167V66Zm0,324H357q78,0 118.5,32T516,514q0,62-40.5,93.5T357,639H167V390Z" />
      <glyph unicode="C" glyph-name="gid20" horiz-adv-x="673" d="M392-9Q288-9 214,35T100.5,160T61,353t39.5,192.5T214,670t178,44q73,0 135-23t104-67l-32-67q-46,43-95.5,62.5T394,639q-119,0-182-75T149,353t63-211.5T394,66q60,0 109.5,19.5T599,148l32-67Q589,38 527,14.5T392-9Z" />
      <glyph unicode="D" glyph-name="gid27" horiz-adv-x="742" d="M87,0V705H325q115,0 194.5-40.5t121-119T682,353T640.5,160T519.5,40.5T325,0H87Zm82,70H319q139,0 207.5,71T595,353T526,564.5T319,635H169V70Z" />
      <glyph unicode="E" glyph-name="gid36" horiz-adv-x="583" d="M87,0V705H532V636H167V392H511V323H167V69H532V0H87Z" />
      <glyph unicode="F" glyph-name="gid53" horiz-adv-x="548" d="M87,0V705H523V636H169V390H503V321H169V0H87Z" />
      <glyph unicode="G" glyph-name="gid54" horiz-adv-x="726" d="M409-9Q296-9 218.5,34T101,158T61,352q0,112 40,193T216,670t181,44q50,0 94.5-10t83-29.5T642,626l-32-66q-48,42-99,61T396,640q-121,0-184.5-75T148,352q0-140 65.5-214T411,64q48,0 94,9.5T592,100L574,53V302H395v65H645V41q-27-14-67-25.5t-84-18T409-9Z" />
      <glyph unicode="H" glyph-name="gid61" horiz-adv-x="761" d="M87,0V705h82V393H592V705h82V0H592V322H169V0H87Z" />
      <glyph unicode="I" glyph-name="gid66" horiz-adv-x="256" d="M87,0V705h82V0H87Z" />
      <glyph unicode="J" glyph-name="gid80" horiz-adv-x="324" d="M-4-7l-6,69l60,4q35,3 58,17.5T143,125t12,63V705h82V187q0-57-20-98.5T158,24T61-3L-4-7Z" />
      <glyph unicode="K" glyph-name="gid82" horiz-adv-x="625" d="M87,0V705h82V385h2L513,705H618L226,340l1,44L640,0H532L171,332h-2V0H87Z" />
      <glyph unicode="L" glyph-name="gid84" horiz-adv-x="543" d="M87,0V705h82V72H528V0H87Z" />
      <glyph unicode="M" glyph-name="gid94" horiz-adv-x="855" d="M89,0V705h69L444,168H414L698,705h69V0H691V595h24L456,109H402L140,596h24V0H89Z" />
      <glyph unicode="N" glyph-name="gid96" horiz-adv-x="740" d="M87,0V705h64L600,106H576V705h76V0H590L141,599h23V0H87Z" />
      <glyph unicode="O" glyph-name="gid107" horiz-adv-x="767" d="M383-9Q310-9 250,16.5T148,89T83.5,203T61,353q0,84 22.5,150.5t64.5,113t101.5,72T383,714q75,0 134.5-25t102-72t65-113.5T707,354q0-84-23-151T619,89T517.5,16.5T383-9Zm0,73q76,0 128.5,34T592,197t28,156q0,92-28,156t-80.5,98T383,641q-74,0-126.5-34T176,508.5T148,353t28-155.5t80.5-99T383,64Z" />
      <glyph unicode="P" glyph-name="gid130" horiz-adv-x="633" d="M87,0V705H366q76,0 128.5-24.5t79.5-72T601,493q0-66-27-114t-79.5-73T366,281H169V0H87Zm82,350H356q81,0 122.5,36.5T520,493q0,71-41.5,107.5T356,637H169V350Z" />
      <glyph unicode="Q" glyph-name="gid132" horiz-adv-x="767" d="M578-201L494-66q-16,28-44,42.5T383-9l68,29q31,0 53.5-7T545-10.5T580-57l67-108l-69-36ZM383-9Q310-9 250,16.5T148,89T83.5,203T61,353q0,84 22.5,150.5t64.5,113t101.5,72T383,714q75,0 134.5-25t102-72t65-113.5T707,354q0-84-23-151T619,89T517.5,16.5T383-9Zm0,73q76,0 128.5,34T592,197t28,156q0,92-28,156t-80.5,98T383,641q-74,0-126.5-34T176,508.5T148,353t28-155.5t80.5-99T383,64Z" />
      <glyph unicode="R" glyph-name="gid133" horiz-adv-x="669" d="M87,0V705H366q113,0 174-53t61-151q0-62-27.5-107.5t-80.5-69T366,301l10,13h20q39,0 68-20t53-64L641,0H551L429,226q-15,28-33.5,44t-42,22T297,298H169V0H87Zm82,363H354q82,0 124,34.5T520,501q0,67-42,101.5T354,637H169V363Z" />
      <glyph unicode="S" glyph-name="gid141" horiz-adv-x="615" d="M315-9Q260-9 211.5,1t-89,28.5T49,75l29,66q34-25 69.5-42.5t77-26T315,64q90,0 133.5,33.5T492,186q0,29-13.5,50t-44,36T355,297L251,318q-94,20-140.5,65.5T64,505q0,63 32.5,110t91,73T321,714q48,0 91-10t79.5-29.5T556,627l-29-64q-45,41-95,59.5T320,641q-53,0-91.5-16t-60-46.5T147,508q0-48 29.5-76T273,391l104-22q101-21 149.5-63.5T575,190q0-58-31.5-103.5T453.5,16T315-9Z" />
      <glyph unicode="T" glyph-name="gid153" horiz-adv-x="602" d="M260,0V634H4v71H599V634H343V0H260Z" />
      <glyph unicode="U" glyph-name="gid160" horiz-adv-x="728" d="M365-9Q227-9 154.5,64.5T82,279V705h82V283q0-110 51-164.5T365,64t149,54.5T564,283V705h82V279q0-141-71.5-214.5T365-9Z" />
      <glyph unicode="V" glyph-name="gid176" horiz-adv-x="689" d="M307,0L-1,705H87L362,66H330L604,705h86L381,0H307Z" />
      <glyph unicode="W" glyph-name="gid177" horiz-adv-x="1101" d="M277,0L30,705h86L333,70H298L519,705h66L803,70H772L990,705h82L825,0H752L540,610h22L348,0H277Z" />
      <glyph unicode="X" glyph-name="gid182" horiz-adv-x="650" d="M10,0L290,376V345L23,705h96L339,404H313L531,705h97L361,345v31L640,0H543L309,319h32L108,0H10Z" />
      <glyph unicode="Y" glyph-name="gid183" horiz-adv-x="596" d="M257,0V365l18-57L-13,705H83L310,391H289L516,705h93L322,308l17,57V0H257Z" />
      <glyph unicode="Z" glyph-name="gid194" horiz-adv-x="589" d="M48,0V61L476,666V634H48v71H553V644L125,40V71H567V0H48Z" />
      <glyph unicode="[" glyph-name="gid482" horiz-adv-x="315" d="M109-180V705H308V641H190V-116H308v-64H109Z" />
      <glyph unicode="\" glyph-name="gid471" horiz-adv-x="283" d="M237-63L-19,733l64,19L302-44L237-63Z" />
      <glyph unicode="]" glyph-name="gid483" horiz-adv-x="315" d="M8-180v64H125V641H8v64H206V-180H8Z" />
      <glyph unicode="^" glyph-name="gid546" horiz-adv-x="600" d="M49,140L268,628h64L551,140H484L280,595h40L116,140H49Z" />
      <glyph unicode="_" glyph-name="gid477" horiz-adv-x="500" d="M20-53V0H480V-53H20Z" />
      <glyph unicode="`" glyph-name="gid621" horiz-adv-x="500" d="M221,551L90,753h86L279,551H221Z" />
      <glyph unicode="a" glyph-name="gid201" horiz-adv-x="530" d="M229-9q-50,0-89.5,19.5T77,64T54,140q0,54 27.5,85t91,44T346,282h45V229H347q-61,0-102-4t-65-14t-34-26t-10-40q0-41 28.5-67T242,52q40,0 70.5,19t48,52T378,199V313q0,62-25,89.5T271,430q-44,0-85-12.5T102,377L74,436q26,18 59,31.5T202,488t69,7q63,0 104-20.5t61-62T456,306V0H380V113h9q-8-38-30.5-65T303,6T229-9Z" />
      <glyph unicode="b" glyph-name="gid218" horiz-adv-x="583" d="M322-9Q256-9 208.5,25T145,116h10V0H76V705h81V373H145q17,56 64,89t113,33t114-30.5t74.5-87T537,243q0-77-26.5-133.5T435.5,22T322-9ZM305,56q69,0 109.5,48.5T455,243q0,91-40.5,139T305,430q-68,0-109-48T155,243q0-90 41-138.5T305,56Z" />
      <glyph unicode="c" glyph-name="gid220" horiz-adv-x="463" d="M282-9Q209-9 156,23T74.5,112.5T46,246q0,77 28.5,133T156,465t126,30q45,0 89-16t73-45l-28-59q-29,28-63.5,41T287,429q-76,0-117-47.5T129,245q0-87 41-137.5T287,57q31,0 65.5,13T416,112l28-59Q415,24 370.5,7.5T282-9Z" />
      <glyph unicode="d" glyph-name="gid227" horiz-adv-x="583" d="M261-9Q196-9 147.5,22t-75,87.5T46,243q0,78 26.5,134.5t75,87T261,495q66,0 113-33t63-89H426V705h81V0H428V116h10q-16-57-63.5-91T261-9Zm17,65q69,0 109.5,48.5T428,243q0,91-40.5,139T278,430q-68,0-109-48T128,243q0-90 41-138.5T278,56Z" />
      <glyph unicode="e" glyph-name="gid235" horiz-adv-x="532" d="M295-9Q218-9 162.5,21.5T76.5,108T46,242q0,76 30,132.5T158.5,463T280,495q66,0 113-29t72.5-82T491,257V226H108v53H437l-16-13q0,80-35.5,124.5T282,435q-51,0-86.5-23.5t-53.5-65T124,250v-6q0-61 19.5-103T202,77.5T295,56q43,0 83.5,13.5T455,114l28-57Q450,27 399,9T295-9Z" />
      <glyph unicode="f" glyph-name="gid253" horiz-adv-x="333" d="M102,0V423H6v63H124l-22-21v38q0,97 48.5,147T300,706l39,2l7-62l-46-3q-41-3-67-18t-38-43t-12-69V471l-12,15H323V423H183V0H102Z" />
      <glyph unicode="g" glyph-name="gid254" horiz-adv-x="586" d="M291-189q-63,0-118.5,16.5T74-123l27,59q30-21 59.5-34.5t61-19.5t65.5-6q71,0 107.5,38T431,24V137h10q-15-58-63.5-92T264,11q-67,0-116,30.5T72.5,127T46,254T72.5,380.5T148,465t116,30q66,0 114-33.5T440,371h-9V486h79V35q0-74-24.5-124T412-164T291-189ZM279,77q70,0 111,48t41,129T390,382.5T279,430q-69,0-110-47.5T128,254t41-129T279,77Z" />
      <glyph unicode="h" glyph-name="gid262" horiz-adv-x="568" d="M76,0V705h81V378H144q21,58 68.5,87.5T322,495q58,0 96.5-21T476,410.5T495,303V0H414V298q0,45-11.5,74t-36,43T303,429q-44,0-77-19t-51-53t-18-80V0H76Z" />
      <glyph unicode="i" glyph-name="gid268" horiz-adv-x="232" d="M66,607v91H166V607H66ZM76,0V486h81V0H76Z" />
      <glyph unicode="j" glyph-name="gid283" horiz-adv-x="236" d="M69,607v91H169V607H69ZM-50-193l-6,63l43,4q46,4 69,32T79-15V486h81V-7q0-44-10-76.5T119-139T67-174.5T-7-190l-43-3Z" />
      <glyph unicode="k" glyph-name="gid286" horiz-adv-x="500" d="M76,0V705h81V270h2L384,486H487L220,230v44L508,0H405L159,228h-2V0H76Z" />
      <glyph unicode="l" glyph-name="gid290" horiz-adv-x="296" d="M225-9Q151-9 113.5,35T76,161V705h81V167q0-35 9.5-59T195,72t47-12q12,0 23.5,1.5T287,66L285-2q-16-3-30.5-5T225-9Z" />
      <glyph unicode="m" glyph-name="gid299" horiz-adv-x="856" d="M78,0V486h79V378H146q12,37 35.5,63.5t56,40T309,495q62,0 100.5-29.5T461,374H446q18,56 64.5,88.5T619,495q55,0 90.5-21T763,410.5T781,303V0H700V299q0,67-23,98.5T599,429q-39,0-68.5-19t-45-53.5T470,275V0H389V299q0,67-23.5,98.5T288,429q-40,0-69-19t-44.5-53.5T159,275V0H78Z" />
      <glyph unicode="n" glyph-name="gid301" horiz-adv-x="568" d="M76,0V486h79V378H144q21,58 68.5,87.5T322,495q58,0 96.5-20.5T476,411t19-108V0H414V298q0,45-11.5,74t-36,43T303,429q-44,0-77-19t-51-53t-18-80V0H76Z" />
      <glyph unicode="o" glyph-name="gid312" horiz-adv-x="556" d="M278-9Q207-9 155,22T74.5,109.5T46,243T74.5,376.5T155,464t123,31t123-31t80.5-87.5T510,243T481.5,109.5T401,22T278-9Zm0,65q69,0 109.5,48.5T428,244q0,90-40.5,138T278,430q-68,0-109-48T128,244q0-91 41-139.5T278,56Z" />
      <glyph unicode="p" glyph-name="gid335" horiz-adv-x="583" d="M76-180V486h79V371H145q16,57 63.5,90.5T322,495q65,0 113.5-30.5t75-87T537,243q0-77-26.5-133.5T436,22T322-9T209,24.5T145,114h12V-180H76ZM305,56q69,0 109.5,48.5T455,243q0,91-40.5,139T305,430q-68,0-109-48T155,243q0-90 41-138.5T305,56Z" />
      <glyph unicode="q" glyph-name="gid337" horiz-adv-x="583" d="M426-180V114h11q-16-56-63-89.5T261-9Q196-9 147.5,22t-75,87.5T46,243q0,78 26.5,134.5t75,87T261,495q66,0 113.5-33.5T438,371H428V486h79V-180H426ZM278,56q69,0 109.5,48.5T428,243q0,91-40.5,139T278,430q-68,0-109-48T128,243q0-90 41-138.5T278,56Z" />
      <glyph unicode="r" glyph-name="gid338" horiz-adv-x="358" d="M76,0V486h79V371H145q17,59 59,89.5T315,496l29,3l6-70l-51-6q-68-6-104.5-43.5T158,277V0H76Z" />
      <glyph unicode="s" glyph-name="gid346" horiz-adv-x="481" d="M240-9q-38,0-73.5,7.5t-66,21T48,52l26,57q24-19 52-31.5T183,59t59-6q57,0 86,21t29,57q0,28-19,44.5T278,201l-91,20q-63,13-93.5,45T63,349q0,45 23.5,77.5T153,477t100,18q34,0 65-7t58.5-20.5T424,434l-27-57q-19,18-43,30.5t-49.5,19T253,433q-56,0-85-22t-29-58q0-28 18-46t56-26l91-19q65-14 97.5-44.5T434,135q0-44-24-76.5t-67.5-50T240-9Z" />
      <glyph unicode="t" glyph-name="gid358" horiz-adv-x="350" d="M271-9Q185-9 142,37T99,168V423H4v63H99V635h81V486H334V423H180V176q0-57 24-86.5T282,60q16,0 32,4t29,8l14-62Q344,3 319-3T271-9Z" />
      <glyph unicode="u" glyph-name="gid366" horiz-adv-x="561" d="M248-9q-59,0-97.5,21.5T92.5,77T73,184V486h81V185q0-43 11.5-71.5t36.5-42T264,58q42,0 73,19t49,53t18,80V486h81V0H406V112h13q-20-59-65.5-90T248-9Z" />
      <glyph unicode="v" glyph-name="gid383" horiz-adv-x="515" d="M219,0L10,486H98L272,60H245L422,486h83L295,0H219Z" />
      <glyph unicode="w" glyph-name="gid384" horiz-adv-x="841" d="M205,0L24,486h85L258,60H234L388,486h69L608,60H585L736,486h81L635,0H558L399,437h43L283,0H205Z" />
      <glyph unicode="x" glyph-name="gid389" horiz-adv-x="525" d="M14,0L232,272V230L26,486h96L277,289H249L405,486h95L295,232v37L512,0H416L248,211h29L110,0H14Z" />
      <glyph unicode="y" glyph-name="gid390" horiz-adv-x="514" d="M132-180L223,25V-10L10,486H98L272,60H245L421,486h85L217-180H132Z" />
      <glyph unicode="z" glyph-name="gid401" horiz-adv-x="463" d="M55,0V54L348,444V423H55v63H423V432L127,40V63H434V0H55Z" />
      <glyph unicode="{" glyph-name="gid480" horiz-adv-x="352" d="M247-180q-49,0-75,26T146-78V149q0,42-16,60T76,230l-27,2v62l27,2q38,2 54,20.5T146,376V603q0,50 26,76t75,26h98V641H271q-22,0-33-11t-11-34V368q0-30-12-54.5T183,275t-47-14v4q27,0 47-14t32-38.5T227,158V-71q0-23 11-34t33-11h74v-64H247Z" />
      <glyph unicode="|" glyph-name="gid507" horiz-adv-x="265" d="M92-180V705h81V-180H92Z" />
      <glyph unicode="}" glyph-name="gid481" horiz-adv-x="352" d="M8-180v64H82q22,0 32.5,11T125-71V158q0,30 12,54.5T169.5,251T216,265v-4q-26,0-46.5,14T137,313.5T125,368V596q0,23-10.5,34T82,641H8v64h98q49,0 74.5-26.5T206,603V376q0-41 16-59.5T276,296l27-2V232l-27-2q-38-2-54-20.5T206,149V-78q0-49-25.5-75.5T106-180H8Z" />
      <glyph unicode="~" glyph-name="gid544" horiz-adv-x="600" d="M415,217q-16,0-34.5,4t-41,13.5T289,259q-26,15-44.5,23T213,293.5T189,297q-29,0-49-16t-33-48L56,259q20,48 53,73.5T186,358q17,0 34.5-4t39-13T308,317q38-20 61.5-30T411,277q29,0 50,16.5T495,341l49-26q-19-47-52-72.5T415,217Z" />
      <glyph unicode="&#xa0;" glyph-name="gid454" horiz-adv-x="257" />
      <glyph unicode="&#xa1;" glyph-name="gid463" horiz-adv-x="228" d="M64-180L89,303h50l25-483H64ZM63,384V486H165V384H63Z" />
      <glyph unicode="&#xa2;" glyph-name="gid512" horiz-adv-x="600" d="M284-115V16L298-6Q237,1 190,34t-73,87T91,244q0,66 25.5,119t72,87T298,490l-14-26V606h68V467l-19,25q48,0 95-16.5T502,429l-27-58q-28,27-64.5,41T335,426q-74,0-117.5-50T174,244q0-83 43-133T334,61q39,0 76,14t65,40l27-57q-29-30-75.5-47.5T331-7l21,20V-115H284Z" />
      <glyph unicode="&#xa3;" glyph-name="gid530" horiz-adv-x="600" d="M48,0V70h98V323H48v61h98V510q0,64 24,109.5t72,70T362,714q57,0 112-20.5T566,636l-33-64q-31,38-76.5,55T361,644q-44,0-73.5-14.5T243,586t-15-72V384H408V323H228V70H553V0H48Z" />
      <glyph unicode="&#xa4;" glyph-name="gid514" horiz-adv-x="600" d="M78-26L35,18l74,75q-23,32-36.5,71T59,245q0,43 13,82t37,70L35,473l43,43l74-76q30,25 68,39t80,14t79-13.5T447,442l72,75l44-45l-73-74q24-32 37.5-71T541,245t-13.5-82T489,92l74-74L520-25L447,49q-30-24-67.5-38T300-3T220,11T151,49L78-26ZM300,67q46,0 84,24t60,64.5T466,245t-22,89.5t-60,65T300,423q-46,0-84.5-24t-61-64.5T132,245t22.5-89.5T215,91t85-24Z" />
      <glyph unicode="&#xa5;" glyph-name="gid534" horiz-adv-x="600" d="M259,0V175H72v60H259v93H72v60H233V374L-5,705H87L311,390H290L513,705h92L368,374v14H528V328H341V235H528V175H341V0H259Z" />
      <glyph unicode="&#xa6;" glyph-name="gid508" horiz-adv-x="265" d="M92,372V705h81V372H92Zm0-552V153h81V-180H92Z" />
      <glyph unicode="&#xa7;" glyph-name="gid500" horiz-adv-x="545" d="M248-189q-64,0-116,17T48-126L75-68q21-17 49-30.5T184.5-119t64.5-7q60,0 97,29t37,82q0,38-19.5,65.5T293,102L183,153q-53,26-84,51.5T55,260T42,327q0,41 21,79.5T117,469l-7-24q-11,14-19.5,35.5T82,534q0,57 27.5,96.5t75.5,61T293,713t109.5-16T483,652l-27-57q-31,26-75.5,41T291,651q-56,0-92.5-29T162,539q0-37 19.5-64.5T252,423l110-52q54-25 84.5-51T490,264.5T503,198q0-42-20.5-80T428,56l7,23q11-13 19.5-35T463-10q0-55-28-95.5t-76.5-62T248-189ZM116,338q0-24 9.5-44.5T158,254t64-38l94-44q37-17 61-36t38-37l-25-1q20,17 29.5,40t9.5,49q0,24-9.5,44T387,270.5T323,308l-94,45q-36,17-60.5,35.5T131,425l24,2q-19-17-29-40t-10-49Z" />
      <glyph unicode="&#xa8;" glyph-name="gid620" horiz-adv-x="500" d="M293,609v86h87V609H293Zm-173,0v86h87V609H120Z" />
      <glyph unicode="&#xa9;" glyph-name="gid501" horiz-adv-x="815" d="M408-9Q332-9 265.5,18.5T150,95T73.5,210.5T46,353q0,77 27.5,142.5T150,610t115,76.5T408,714t143-27.5T665.5,610t76-114.5T769,353q0-76-27.5-142.5T665,95T550.5,18.5T408-9Zm13,146q-64,0-110.5,27t-72,76.5T213,355q0,67 25.5,114.5t72,73T421,568q40,0 79-14t64-39l-24-52q-26,24-56,34.5T424,508q-65,0-102-40T285,355t37-115.5T424,197q30,0 60,11t56,35l24-53q-25-24-64.5-38.5T421,137ZM408,35q67,0 124.5,24t100,67.5t66.5,101T723,353T699,478.5T632.5,579t-100,67T408,670q-68,0-125.5-24t-100-67T116,478.5T92,353t24-125.5t66.5-101T283,59T408,35Z" />
      <glyph unicode="&#xaa;" glyph-name="gid411" horiz-adv-x="327" d="M136,411q-47,0-78,26T27,501q0,46 41.5,66T182,587h60V551H184q-33,0-55.5-5.5T95,529.5T84,502q0-20 15.5-34.5T149,453q25,0 44,11t30,32t11,50v57q0,33-18,49.5T162,669q-27,0-55-7T56,640L40,682q25,16 58.5,24t65.5,8q63,0 94.5-28.5T290,601V416H236v54h-2q-17-31-40-45t-58-14Z" />
      <glyph unicode="&#xab;" glyph-name="gid490" horiz-adv-x="441" d="M157,85L61,245v41l95,160l58-24L136,265l78-157L157,85Zm181,0L242,245v41l95,160l58-24L317,265l78-157L338,85Z" />
      <glyph unicode="&#xac;" glyph-name="gid545" horiz-adv-x="600" d="M480,149V358H56v62H544V149H480Z" />
      <glyph unicode="&#xad;" glyph-name="gid474" horiz-adv-x="424" d="M72,233v67H352V233H72Z" />
      <glyph unicode="&#xae;" glyph-name="gid502" horiz-adv-x="815" d="M408-9Q332-9 265.5,18.5T150,95T73.5,210.5T46,353q0,77 27.5,142.5T150,610t115,76.5T408,714t143-27.5T665.5,610t76-114.5T769,353q0-76-27.5-142.5T665,95T550.5,18.5T408-9Zm0,44q67,0 124.5,24t100,67.5t66.5,101T723,353T699,478.5T632.5,579t-100,67T408,670q-68,0-125.5-24t-100-67T116,478.5T92,353t24-125.5t66.5-101T283,59T408,35ZM264,142V564H435q68,0 104.5-32.5T576,442q0-58-36.5-88.5T437,323l12,10q31,0 51.5-13.5T533,270l48-128H512L464,272q-9,25-27.5,33.5T392,314H317l13,10V142H264Zm66,226h97q42,0 63,17t21,54t-20.5,54T427,510H330V368Z" />
      <glyph unicode="&#xaf;" glyph-name="gid631" horiz-adv-x="500" d="M102,625v55H398V625H102Z" />
      <glyph unicode="&#xb0;" glyph-name="gid504" horiz-adv-x="371" d="M186,418q-42,0-76,20T56.5,491T37,566t19.5,75.5t53.5,53T186,714t75-19.5T313.5,642T333,566q0-42-19.5-75.5t-52.5-53T186,418Zm0,55q40,0 64.5,26.5T275,566q0,41-24.5,67T186,659q-39,0-64.5-26T96,566q0-40 25-66.5T186,473Z" />
      <glyph unicode="&#xb1;" glyph-name="gid543" horiz-adv-x="600" d="M268,127V297H56v62H268V529h64V359H544V297H332V127H268ZM56,0V62H544V0H56Z" />
      <glyph unicode="&#xb2;" glyph-name="gid449" horiz-adv-x="380" d="M54,282v50L189,478q29,31 41.5,56T243,585q0,31-18,48t-52,17q-27,0-56.5-12T65,604L37,654q26,25 66,40t82,15q40,0 69.5-14.5T300,654t16-62q0-34-16-66.5T250,457L132,332v9H337V282H54Z" />
      <glyph unicode="&#xb3;" glyph-name="gid450" horiz-adv-x="380" d="M187,278q-49,0-88.5,15T35,334l28,49q20-22 51-34t67-12q35,0 58.5,16.5T263,405q0,33-23.5,47T177,466H100v59h66q39,0 62,16t23,49q0,28-19.5,44T176,650q-30,0-59.5-12T65,604L37,654q26,25 66,40t83,15q61,0 97-30t36-79q0-42-24.5-69T236,495v8q28-4 49-17.5T318.5,450T331,398q0-38-19-65t-51.5-41T187,278Z" />
      <glyph unicode="&#xb4;" glyph-name="gid622" horiz-adv-x="500" d="M221,551L324,753h87L279,551H221Z" />
      <glyph unicode="&#xb5;" glyph-name="gid547" horiz-adv-x="600" d="M95-180V486h81V186q0-43 11.5-71T223,73.5T284,60q42,0 74,18.5T408,131t18,80V486h81V0H428V112h8q-16-59-57.5-90T284-9Q240-9 207,7T156,67h13l7-247H95Z" />
      <glyph unicode="&#xb6;" glyph-name="gid499" horiz-adv-x="588" d="M244-180V310q-60,0-105,25.5t-69.5,70T45,508q0,57 24.5,102T139,680t106,25H501V-180H436V643H309V-180H244Z" />
      <glyph unicode="&#xb7;" glyph-name="gid466" horiz-adv-x="228" d="M63,215V317H165V215H63Z" />
      <glyph unicode="&#xb8;" glyph-name="gid632" horiz-adv-x="500" d="M253-192q-26,0-49.5,5T164-173l13,44q19-8 35-12t39-4q26,0 42,9.5T309-108q0,13-9,20.5T271-80q-11,0-21-1.5T224-89L208-73l14,93h51L260-55l-24,6q12,3 23.5,5T281-42q25,0 43.5-8T354-73t11-37q0-24-14-43t-39-29t-59-10Z" />
      <glyph unicode="&#xb9;" glyph-name="gid448" horiz-adv-x="380" d="M87,282v59h94V645h31L102,577L71,628l126,77h52V341h80V282H87Z" />
      <glyph unicode="&#xba;" glyph-name="gid412" horiz-adv-x="339" d="M170,411q-43,0-76,19T42,483T23,563t19,80t52,52.5T170,714q42,0 75-18.5T297,643t19-80t-19-80t-52-53t-75-19Zm0,46q41,0 64.5,27T258,563q0,51-23.5,78T169,668q-40,0-64-26.5T81,563t24-79t65-27Z" />
      <glyph unicode="&#xbb;" glyph-name="gid491" horiz-adv-x="441" d="M103,85L46,108l78,157L46,422l58,24l95-160V245L103,85Zm181,0l-57,23l78,157L227,422l58,24l95-160V245L284,85Z" />
      <glyph unicode="&#xbc;" glyph-name="gid446" horiz-adv-x="893" d="M87,282v59h94V645h31L102,577L71,628l126,77h52V341h80V282H87ZM290-24L236,8L652,729l54-32L290-24ZM741,0V83H548v50L747,423h61V142h60V83H808V0H741Zm0,142V346h16L605,125v17H741Z" />
      <glyph unicode="&#xbd;" glyph-name="gid445" horiz-adv-x="937" d="M87,282v59h94V645h31L102,577L71,628l126,77h52V341h80V282H87ZM290-24L236,8L652,729l54-32L290-24ZM611,0V50L746,196q29,31 41.5,56T800,303q0,31-18,48t-52,17q-27,0-56.5-12T622,322l-28,50q26,25 66,40t82,15q40,0 69.5-14.5T857,372t16-62q0-34-16-66.5T807,175L689,50v9H894V0H611Z" />
      <glyph unicode="&#xbe;" glyph-name="gid447" horiz-adv-x="893" d="M187,278q-49,0-88.5,15T35,334l28,49q20-22 51-34t67-12q35,0 58.5,16.5T263,405q0,33-23.5,47T177,466H100v59h66q39,0 62,16t23,49q0,28-19.5,44T176,650q-30,0-59.5-12T65,604L37,654q26,25 66,40t83,15q61,0 97-30t36-79q0-42-24.5-69T236,495v8q28-4 49-17.5T318.5,450T331,398q0-38-19-65t-51.5-41T187,278ZM290-24L236,8L652,729l54-32L290-24ZM741,0V83H548v50L747,423h61V142h60V83H808V0H741Zm0,142V346h16L605,125v17H741Z" />
      <glyph unicode="&#xbf;" glyph-name="gid465" horiz-adv-x="443" d="M216-189q-57,0-100,18.5T48.5-118T24-40q0,29 8.5,55t28,53.5T115,129q32,30 51,55t28.5,48T207,279l3,23h51V275q0-30-7.5-58.5T227,159T176,97q-40-40-54.5-68.5T107-29q0-27 13.5-46.5t39-30T220-116q55,0 102,18.5T411-43l31-64q-26-24-62-42.5t-78-29T216-189ZM185,384V486H286V384H185Z" />
      <glyph unicode="&#xc0;" glyph-name="gid9" horiz-adv-x="729" d="M19,0L330,705h70L711,0H626L539,201l40-21H149l41,21L104,0H19ZM364,609L203,230l-24,19H549l-22-19L366,609h-2ZM335,765L188,937h91L397,765H335Z" />
      <glyph unicode="&#xc1;" glyph-name="gid2" horiz-adv-x="729" d="M19,0L330,705h70L711,0H626L539,201l40-21H149l41,21L104,0H19ZM364,609L203,230l-24,19H549l-22-19L366,609h-2ZM335,765L453,937h91L397,765H335Z" />
      <glyph unicode="&#xc2;" glyph-name="gid5" horiz-adv-x="729" d="M19,0L330,705h70L711,0H626L539,201l40-21H149l41,21L104,0H19ZM364,609L203,230l-24,19H549l-22-19L366,609h-2ZM205,765L328,937h76L527,765H466L366,884L266,765H205Z" />
      <glyph unicode="&#xc3;" glyph-name="gid15" horiz-adv-x="729" d="M19,0L330,705h70L711,0H626L539,201l40-21H149l41,21L104,0H19ZM364,609L203,230l-24,19H549l-22-19L366,609h-2ZM203,783l-46,3q7,64 39,98.5T277,919q24,0 47.5-10T380,878t48-28t30-7q30,0 47,20.5T529,922l46-3q-6-64-38-98.5T456,786q-23,0-48,10.5T350,828q-28,19-45,26.5T274,862q-30,0-47-20.5T203,783Z" />
      <glyph unicode="&#xc4;" glyph-name="gid7" horiz-adv-x="729" d="M19,0L330,705h70L711,0H626L539,201l40-21H149l41,21L104,0H19ZM364,609L203,230l-24,19H549l-22-19L366,609h-2Zm45,197v86h87V806H409Zm-173,0v86h87V806H236Z" />
      <glyph unicode="&#xc5;" glyph-name="gid13" horiz-adv-x="729" d="M19,0L330,705h70L711,0H626L539,201l40-21H149l41,21L104,0H19ZM364,609L203,230l-24,19H549l-22-19L366,609h-2Zm2,149q-33,0-60,15.5t-43,42T247,874q0,33 16,58.5t43,41T366,989q34,0 60.5-15.5t42.5-41T485,874q0-32-16-58.5t-42.5-42T366,758Zm0,43q32,0 52,21t20,52q0,30-20,51t-52,21q-31,0-51.5-21T294,874q0-31 20.5-52T366,801Z" />
      <glyph unicode="&#xc6;" glyph-name="gid16" horiz-adv-x="981" d="M-16,0L413,705H930V636H480l17,29l63-295l-29,22H910V323H546l20,22L630,41L598,69H930V0H564L521,204l30-24H161l32,22L73,0H-16ZM433,608L208,229l-9,20H530l-14-22L435,608h-2Z" />
      <glyph unicode="&#xc7;" glyph-name="gid23" horiz-adv-x="673" d="M392-9Q288-9 214,35T100.5,160T61,353t39.5,192.5T214,670t178,44q73,0 135-23t104-67l-32-67q-46,43-95.5,62.5T394,639q-119,0-182-75T149,353t63-211.5T394,66q60,0 109.5,19.5T599,148l32-67Q589,38 527,14.5T392-9Zm-4-183q-26,0-49.5,5T299-173l13,44q19-8 35-12t39-4q26,0 42,9.5T444-108q0,13-9,20.5T406-80q-11,0-21-1.5T359-89L343-73l14,93h51L395-55l-24,6q12,3 23.5,5T416-42q25,0 43.5-8T489-73t11-37q0-24-14-43t-39-29t-59-10Z" />
      <glyph unicode="&#xc8;" glyph-name="gid46" horiz-adv-x="583" d="M87,0V705H532V636H167V392H511V323H167V69H532V0H87ZM293,765L146,937h91L355,765H293Z" />
      <glyph unicode="&#xc9;" glyph-name="gid37" horiz-adv-x="583" d="M87,0V705H532V636H167V392H511V323H167V69H532V0H87ZM293,765L411,937h91L355,765H293Z" />
      <glyph unicode="&#xca;" glyph-name="gid42" horiz-adv-x="583" d="M87,0V705H532V636H167V392H511V323H167V69H532V0H87Zm76,765L286,937h76L485,765H424L324,884L224,765H163Z" />
      <glyph unicode="&#xcb;" glyph-name="gid44" horiz-adv-x="583" d="M87,0V705H532V636H167V392H511V323H167V69H532V0H87ZM367,806v86h87V806H367Zm-173,0v86h87V806H194Z" />
      <glyph unicode="&#xcc;" glyph-name="gid75" horiz-adv-x="256" d="M87,0V705h82V0H87ZM97,765L-50,937H41L159,765H97Z" />
      <glyph unicode="&#xcd;" glyph-name="gid68" horiz-adv-x="256" d="M87,0V705h82V0H87ZM97,765L215,937h91L159,765H97Z" />
      <glyph unicode="&#xce;" glyph-name="gid70" horiz-adv-x="256" d="M87,0V705h82V0H87ZM-33,765L90,937h76L289,765H228L128,884L28,765H-33Z" />
      <glyph unicode="&#xcf;" glyph-name="gid72" horiz-adv-x="256" d="M87,0V705h82V0H87Zm84,806v86h87V806H171ZM-2,806v86H85V806H-2Z" />
      <glyph unicode="&#xd0;" glyph-name="gid29" horiz-adv-x="742" d="M87,0V705H325q115,0 194.5-40.5t121-119T682,353T640.5,160T519.5,40.5T325,0H87Zm82,70H319q139,0 207.5,71T595,353T526,564.5T319,635H169V70ZM-1,326v64H365V326H-1Z" />
      <glyph unicode="&#xd1;" glyph-name="gid105" horiz-adv-x="740" d="M87,0V705h64L600,106H576V705h76V0H590L141,599h23V0H87ZM207,783l-46,3q7,64 39,98.5T281,919q24,0 47.5-10T384,878t48-28t30-7q30,0 47,20.5T533,922l46-3q-6-64-38-98.5T460,786q-23,0-48,10.5T354,828q-28,19-45,26.5T278,862q-30,0-47-20.5T207,783Z" />
      <glyph unicode="&#xd2;" glyph-name="gid115" horiz-adv-x="767" d="M383-9Q310-9 250,16.5T148,89T83.5,203T61,353q0,84 22.5,150.5t64.5,113t101.5,72T383,714q75,0 134.5-25t102-72t65-113.5T707,354q0-84-23-151T619,89T517.5,16.5T383-9Zm0,73q76,0 128.5,34T592,197t28,156q0,92-28,156t-80.5,98T383,641q-74,0-126.5-34T176,508.5T148,353t28-155.5t80.5-99T383,64ZM352,765L205,937h91L414,765H352Z" />
      <glyph unicode="&#xd3;" glyph-name="gid108" horiz-adv-x="767" d="M383-9Q310-9 250,16.5T148,89T83.5,203T61,353q0,84 22.5,150.5t64.5,113t101.5,72T383,714q75,0 134.5-25t102-72t65-113.5T707,354q0-84-23-151T619,89T517.5,16.5T383-9Zm0,73q76,0 128.5,34T592,197t28,156q0,92-28,156t-80.5,98T383,641q-74,0-126.5-34T176,508.5T148,353t28-155.5t80.5-99T383,64ZM352,765L470,937h91L414,765H352Z" />
      <glyph unicode="&#xd4;" glyph-name="gid110" horiz-adv-x="767" d="M383-9Q310-9 250,16.5T148,89T83.5,203T61,353q0,84 22.5,150.5t64.5,113t101.5,72T383,714q75,0 134.5-25t102-72t65-113.5T707,354q0-84-23-151T619,89T517.5,16.5T383-9Zm0,73q76,0 128.5,34T592,197t28,156q0,92-28,156t-80.5,98T383,641q-74,0-126.5-34T176,508.5T148,353t28-155.5t80.5-99T383,64ZM222,765L345,937h76L544,765H483L383,884L283,765H222Z" />
      <glyph unicode="&#xd5;" glyph-name="gid125" horiz-adv-x="767" d="M383-9Q310-9 250,16.5T148,89T83.5,203T61,353q0,84 22.5,150.5t64.5,113t101.5,72T383,714q75,0 134.5-25t102-72t65-113.5T707,354q0-84-23-151T619,89T517.5,16.5T383-9Zm0,73q76,0 128.5,34T592,197t28,156q0,92-28,156t-80.5,98T383,641q-74,0-126.5-34T176,508.5T148,353t28-155.5t80.5-99T383,64ZM220,783l-46,3q7,64 39,98.5T294,919q24,0 47.5-10T397,878t48-28t30-7q30,0 47,20.5T546,922l46-3q-6-64-38-98.5T473,786q-23,0-48,10.5T367,828q-28,19-45,26.5T291,862q-30,0-47-20.5T220,783Z" />
      <glyph unicode="&#xd6;" glyph-name="gid112" horiz-adv-x="767" d="M383-9Q310-9 250,16.5T148,89T83.5,203T61,353q0,84 22.5,150.5t64.5,113t101.5,72T383,714q75,0 134.5-25t102-72t65-113.5T707,354q0-84-23-151T619,89T517.5,16.5T383-9Zm0,73q76,0 128.5,34T592,197t28,156q0,92-28,156t-80.5,98T383,641q-74,0-126.5-34T176,508.5T148,353t28-155.5t80.5-99T383,64Zm43,742v86h87V806H426Zm-173,0v86h87V806H253Z" />
      <glyph unicode="&#xd7;" glyph-name="gid538" horiz-adv-x="600" d="M110,51L66,94L256,284L66,474l44,45L300,329L490,519l44-45L344,284L534,94L490,51L300,241L110,51Z" />
      <glyph unicode="&#xd8;" glyph-name="gid123" horiz-adv-x="767" d="M383-9Q310-9 250,16.5T148,89T83.5,203T61,353q0,84 22.5,150.5t64.5,113t101.5,72T383,714q75,0 134.5-25t102-72t65-113.5T707,354q0-84-23-151T619,89T517.5,16.5T383-9Zm0,73q76,0 128.5,34T592,197t28,156q0,92-28,156t-80.5,98T383,641q-74,0-126.5-34T176,508.5T148,353t28-155.5t80.5-99T383,64ZM189-47L132-14l54,93l24,40L506,625l19,35l54,92l57-33l-55-93l-24-40L262,80L243,46L189-47Z" />
      <glyph unicode="&#xd9;" glyph-name="gid166" horiz-adv-x="728" d="M365-9Q227-9 154.5,64.5T82,279V705h82V283q0-110 51-164.5T365,64t149,54.5T564,283V705h82V279q0-141-71.5-214.5T365-9ZM334,765L187,937h91L396,765H334Z" />
      <glyph unicode="&#xda;" glyph-name="gid161" horiz-adv-x="728" d="M365-9Q227-9 154.5,64.5T82,279V705h82V283q0-110 51-164.5T365,64t149,54.5T564,283V705h82V279q0-141-71.5-214.5T365-9ZM334,765L452,937h91L396,765H334Z" />
      <glyph unicode="&#xdb;" glyph-name="gid163" horiz-adv-x="728" d="M365-9Q227-9 154.5,64.5T82,279V705h82V283q0-110 51-164.5T365,64t149,54.5T564,283V705h82V279q0-141-71.5-214.5T365-9ZM204,765L327,937h76L526,765H465L365,884L265,765H204Z" />
      <glyph unicode="&#xdc;" glyph-name="gid165" horiz-adv-x="728" d="M365-9Q227-9 154.5,64.5T82,279V705h82V283q0-110 51-164.5T365,64t149,54.5T564,283V705h82V279q0-141-71.5-214.5T365-9Zm43,815v86h87V806H408Zm-173,0v86h87V806H235Z" />
      <glyph unicode="&#xdd;" glyph-name="gid184" horiz-adv-x="596" d="M257,0V365l18-57L-13,705H83L310,391H289L516,705h93L322,308l17,57V0H257Zm10,765L385,937h91L329,765H267Z" />
      <glyph unicode="&#xde;" glyph-name="gid131" horiz-adv-x="634" d="M87,0V705h82V577H367q76,0 128.5-24.5T575,481t27-115q0-67-27-114.5T495.5,179T367,154H169V0H87Zm82,222H357q81,0 122,36.5T520,366T479,473T357,509H169V222Z" />
      <glyph unicode="&#xdf;" glyph-name="gid357" horiz-adv-x="615" d="M403-9q-34,0-68,7.5t-63.5,22T219,55l27,57q37-29 79-43t79-14q49,0 77,21.5T509,134q0,29-24,48.5T402,220q-53,17-85,36t-45.5,43.5T258,356q0,31 16.5,60T336,484q31,27 43.5,48.5T392,579q0,22-10.5,38T351,642t-49,9q-70,0-107.5-42T157,490V0H76V480q0,74 26.5,126.5t77,80T301,714q53,0 91-15.5T450,654t20-68q0-25-7-46.5t-24-43T394,451q-34-30-46.5-48.5T335,364q0-17 10-31.5T378.5,306T442,281q77-23 110-57.5T585,136q0-43-22.5-75.5T499,9.5T403-9Z" />
      <glyph unicode="&#xe0;" glyph-name="gid209" horiz-adv-x="530" d="M229-9q-50,0-89.5,19.5T77,64T54,140q0,54 27.5,85t91,44T346,282h45V229H347q-61,0-102-4t-65-14t-34-26t-10-40q0-41 28.5-67T242,52q40,0 70.5,19t48,52T378,199V313q0,62-25,89.5T271,430q-44,0-85-12.5T102,377L74,436q26,18 59,31.5T202,488t69,7q63,0 104-20.5t61-62T456,306V0H380V113h9q-8-38-30.5-65T303,6T229-9Zm14,560L112,753h86L301,551H243Z" />
      <glyph unicode="&#xe1;" glyph-name="gid202" horiz-adv-x="530" d="M229-9q-50,0-89.5,19.5T77,64T54,140q0,54 27.5,85t91,44T346,282h45V229H347q-61,0-102-4t-65-14t-34-26t-10-40q0-41 28.5-67T242,52q40,0 70.5,19t48,52T378,199V313q0,62-25,89.5T271,430q-44,0-85-12.5T102,377L74,436q26,18 59,31.5T202,488t69,7q63,0 104-20.5t61-62T456,306V0H380V113h9q-8-38-30.5-65T303,6T229-9Zm14,560L346,753h87L301,551H243Z" />
      <glyph unicode="&#xe2;" glyph-name="gid205" horiz-adv-x="530" d="M229-9q-50,0-89.5,19.5T77,64T54,140q0,54 27.5,85t91,44T346,282h45V229H347q-61,0-102-4t-65-14t-34-26t-10-40q0-41 28.5-67T242,52q40,0 70.5,19t48,52T378,199V313q0,62-25,89.5T271,430q-44,0-85-12.5T102,377L74,436q26,18 59,31.5T202,488t69,7q63,0 104-20.5t61-62T456,306V0H380V113h9q-8-38-30.5-65T303,6T229-9ZM124,551L233,753h78L420,551H364L272,699L180,551H124Z" />
      <glyph unicode="&#xe3;" glyph-name="gid215" horiz-adv-x="530" d="M229-9q-50,0-89.5,19.5T77,64T54,140q0,54 27.5,85t91,44T346,282h45V229H347q-61,0-102-4t-65-14t-34-26t-10-40q0-41 28.5-67T242,52q40,0 70.5,19t48,52T378,199V313q0,62-25,89.5T271,430q-44,0-85-12.5T102,377L74,436q26,18 59,31.5T202,488t69,7q63,0 104-20.5t61-62T456,306V0H380V113h9q-8-38-30.5-65T303,6T229-9ZM138,590l-46,3q5,63 33.5,98T199,726q22,0 40.5-10.5T282,684q22-19 35.5-26.5T344,650q26,0 41.5,20.5T406,729l46-3q-5-63-33-98t-73-35q-21,0-39.5,9.5T262,635q-21,19-34,26.5T201,669q-26,0-41.5-20T138,590Z" />
      <glyph unicode="&#xe4;" glyph-name="gid207" horiz-adv-x="530" d="M229-9q-50,0-89.5,19.5T77,64T54,140q0,54 27.5,85t91,44T346,282h45V229H347q-61,0-102-4t-65-14t-34-26t-10-40q0-41 28.5-67T242,52q40,0 70.5,19t48,52T378,199V313q0,62-25,89.5T271,430q-44,0-85-12.5T102,377L74,436q26,18 59,31.5T202,488t69,7q63,0 104-20.5t61-62T456,306V0H380V113h9q-8-38-30.5-65T303,6T229-9Zm86,618v86h87V609H315Zm-173,0v86h87V609H142Z" />
      <glyph unicode="&#xe5;" glyph-name="gid213" horiz-adv-x="530" d="M229-9q-50,0-89.5,19.5T77,64T54,140q0,54 27.5,85t91,44T346,282h45V229H347q-61,0-102-4t-65-14t-34-26t-10-40q0-41 28.5-67T242,52q40,0 70.5,19t48,52T378,199V313q0,62-25,89.5T271,430q-44,0-85-12.5T102,377L74,436q26,18 59,31.5T202,488t69,7q63,0 104-20.5t61-62T456,306V0H380V113h9q-8-38-30.5-65T303,6T229-9Zm43,556q-33,0-60,15.5t-43,42T153,663q0,33 16,58.5t43,41T272,778q34,0 60.5-15.5T375,721t16-58t-16-58.5t-42.5-42T272,547Zm0,43q32,0 52,21t20,52q0,30-20,51t-52,21q-31,0-51.5-21T200,663q0-31 20.5-52T272,590Z" />
      <glyph unicode="&#xe6;" glyph-name="gid216" horiz-adv-x="861" d="M234-9q-52,0-92.5,19.5T77.5,64T54,140q0,54 28,85t92,44t173,13h45V228H347q-81,0-127.5-7t-65-25T136,145q0-41 29-67t79-26q41,0 72,19.5t48,54T381,204V312q0,62-26.5,90T272,430q-44,0-85.5-12T102,378L74,436q26,18 59,31.5T202,488t71,7q73,0 115-30t56-91H421q25,59 76.5,90T613,495q63,0 110-29t71.5-82T819,257V228H451v54H765l-15-13q0,52-16,89t-46.5,57T612,435q-70,0-111-49T460,253v-7q0-92 42-141T626,56q43,0 82.5,14.5T784,115l27-58Q778,27 728,9T627-9Q571-9 525.5,8.5T449,60.5T404,145h20q-10-47-35.5-82T324,9.5T234-9Z" />
      <glyph unicode="&#xe7;" glyph-name="gid223" horiz-adv-x="463" d="M282-9Q209-9 156,23T74.5,112.5T46,246q0,77 28.5,133T156,465t126,30q45,0 89-16t73-45l-28-59q-29,28-63.5,41T287,429q-76,0-117-47.5T129,245q0-87 41-137.5T287,57q31,0 65.5,13T416,112l28-59Q415,24 370.5,7.5T282-9Zm-1-183q-26,0-49.5,5T192-173l13,44q19-8 35-12t39-4q26,0 42,9.5T337-108q0,13-9,20.5T299-80q-11,0-21-1.5T252-89L236-73l14,93h51L288-55l-24,6q12,3 23.5,5T309-42q25,0 43.5-8T382-73t11-37q0-24-14-43t-39-29t-59-10Z" />
      <glyph unicode="&#xe8;" glyph-name="gid244" horiz-adv-x="532" d="M295-9Q218-9 162.5,21.5T76.5,108T46,242q0,76 30,132.5T158.5,463T280,495q66,0 113-29t72.5-82T491,257V226H108v53H437l-16-13q0,80-35.5,124.5T282,435q-51,0-86.5-23.5t-53.5-65T124,250v-6q0-61 19.5-103T202,77.5T295,56q43,0 83.5,13.5T455,114l28-57Q450,27 399,9T295-9ZM251,551L120,753h86L309,551H251Z" />
      <glyph unicode="&#xe9;" glyph-name="gid236" horiz-adv-x="532" d="M295-9Q218-9 162.5,21.5T76.5,108T46,242q0,76 30,132.5T158.5,463T280,495q66,0 113-29t72.5-82T491,257V226H108v53H437l-16-13q0,80-35.5,124.5T282,435q-51,0-86.5-23.5t-53.5-65T124,250v-6q0-61 19.5-103T202,77.5T295,56q43,0 83.5,13.5T455,114l28-57Q450,27 399,9T295-9ZM251,551L354,753h87L309,551H251Z" />
      <glyph unicode="&#xea;" glyph-name="gid240" horiz-adv-x="532" d="M295-9Q218-9 162.5,21.5T76.5,108T46,242q0,76 30,132.5T158.5,463T280,495q66,0 113-29t72.5-82T491,257V226H108v53H437l-16-13q0,80-35.5,124.5T282,435q-51,0-86.5-23.5t-53.5-65T124,250v-6q0-61 19.5-103T202,77.5T295,56q43,0 83.5,13.5T455,114l28-57Q450,27 399,9T295-9ZM132,551L241,753h78L428,551H372L280,699L188,551H132Z" />
      <glyph unicode="&#xeb;" glyph-name="gid242" horiz-adv-x="532" d="M295-9Q218-9 162.5,21.5T76.5,108T46,242q0,76 30,132.5T158.5,463T280,495q66,0 113-29t72.5-82T491,257V226H108v53H437l-16-13q0,80-35.5,124.5T282,435q-51,0-86.5-23.5t-53.5-65T124,250v-6q0-61 19.5-103T202,77.5T295,56q43,0 83.5,13.5T455,114l28-57Q450,27 399,9T295-9Zm28,618v86h87V609H323Zm-173,0v86h87V609H150Z" />
      <glyph unicode="&#xec;" glyph-name="gid277" horiz-adv-x="232" d="M76,0V486h81V0H76ZM87,551L-44,753H42L145,551H87Z" />
      <glyph unicode="&#xed;" glyph-name="gid270" horiz-adv-x="232" d="M76,0V486h81V0H76ZM87,551L190,753h87L145,551H87Z" />
      <glyph unicode="&#xee;" glyph-name="gid272" horiz-adv-x="232" d="M76,0V486h81V0H76ZM-32,551L77,753h78L264,551H208L116,699L24,551H-32Z" />
      <glyph unicode="&#xef;" glyph-name="gid274" horiz-adv-x="232" d="M76,0V486h81V0H76Zm83,609v86h87V609H159Zm-173,0v86H73V609H-14Z" />
      <glyph unicode="&#xf0;" glyph-name="gid228" horiz-adv-x="559" d="M276-9Q207-9 155,20T74.5,101T46,223q0,69 28.5,120.5t79.5,80T272,452q71,0 120-36t67-116H436q1,99-39,173.5T288,593h22L136,517l-23,51l135,59l2-11q-21,11-48,22t-59,19l17,55q49-12 89.5-29T320,647l-24,2l146,63l23-51L351,611l3,12q53-38 88-89.5T495.5,420T514,284q0-94-27-159.5T406.5,25T276-9Zm1,66q70,0 110,44.5T427,223q0,76-39.5,120T277,387q-69,0-109-44T128,223q0-79 39.5-122.5T277,57Z" />
      <glyph unicode="&#xf1;" glyph-name="gid310" horiz-adv-x="568" d="M76,0V486h79V378H144q21,58 68.5,87.5T322,495q58,0 96.5-20.5T476,411t19-108V0H414V298q0,45-11.5,74t-36,43T303,429q-44,0-77-19t-51-53t-18-80V0H76Zm75,590l-46,3q5,63 33.5,98T212,726q22,0 40.5-10.5T295,684q22-19 35.5-26.5T357,650q26,0 41.5,20.5T419,729l46-3q-5-63-33-98t-73-35q-21,0-39.5,9.5T275,635q-21,19-34,26.5T214,669q-26,0-41.5-20T151,590Z" />
      <glyph unicode="&#xf2;" glyph-name="gid320" horiz-adv-x="556" d="M278-9Q207-9 155,22T74.5,109.5T46,243T74.5,376.5T155,464t123,31t123-31t80.5-87.5T510,243T481.5,109.5T401,22T278-9Zm0,65q69,0 109.5,48.5T428,244q0,90-40.5,138T278,430q-68,0-109-48T128,244q0-91 41-139.5T278,56ZM249,551L118,753h86L307,551H249Z" />
      <glyph unicode="&#xf3;" glyph-name="gid313" horiz-adv-x="556" d="M278-9Q207-9 155,22T74.5,109.5T46,243T74.5,376.5T155,464t123,31t123-31t80.5-87.5T510,243T481.5,109.5T401,22T278-9Zm0,65q69,0 109.5,48.5T428,244q0,90-40.5,138T278,430q-68,0-109-48T128,244q0-91 41-139.5T278,56ZM249,551L352,753h87L307,551H249Z" />
      <glyph unicode="&#xf4;" glyph-name="gid315" horiz-adv-x="556" d="M278-9Q207-9 155,22T74.5,109.5T46,243T74.5,376.5T155,464t123,31t123-31t80.5-87.5T510,243T481.5,109.5T401,22T278-9Zm0,65q69,0 109.5,48.5T428,244q0,90-40.5,138T278,430q-68,0-109-48T128,244q0-91 41-139.5T278,56ZM130,551L239,753h78L426,551H370L278,699L186,551H130Z" />
      <glyph unicode="&#xf5;" glyph-name="gid330" horiz-adv-x="556" d="M278-9Q207-9 155,22T74.5,109.5T46,243T74.5,376.5T155,464t123,31t123-31t80.5-87.5T510,243T481.5,109.5T401,22T278-9Zm0,65q69,0 109.5,48.5T428,244q0,90-40.5,138T278,430q-68,0-109-48T128,244q0-91 41-139.5T278,56ZM144,590l-46,3q5,63 33.5,98T205,726q22,0 40.5-10.5T288,684q22-19 35.5-26.5T350,650q26,0 41.5,20.5T412,729l46-3q-5-63-33-98t-73-35q-21,0-39.5,9.5T268,635q-21,19-34,26.5T207,669q-26,0-41.5-20T144,590Z" />
      <glyph unicode="&#xf6;" glyph-name="gid317" horiz-adv-x="556" d="M278-9Q207-9 155,22T74.5,109.5T46,243T74.5,376.5T155,464t123,31t123-31t80.5-87.5T510,243T481.5,109.5T401,22T278-9Zm0,65q69,0 109.5,48.5T428,244q0,90-40.5,138T278,430q-68,0-109-48T128,244q0-91 41-139.5T278,56Zm43,553v86h87V609H321Zm-173,0v86h87V609H148Z" />
      <glyph unicode="&#xf7;" glyph-name="gid539" horiz-adv-x="600" d="M56,256v62H544V256H56ZM251,45v86h86V45H251Zm0,398v86h86V443H251Z" />
      <glyph unicode="&#xf8;" glyph-name="gid328" horiz-adv-x="556" d="M278-9Q207-9 155,22T74.5,109.5T46,243T74.5,376.5T155,464t123,31t123-31t80.5-87.5T510,243T481.5,109.5T401,22T278-9Zm0,65q69,0 109.5,48.5T428,244q0,90-40.5,138T278,430q-68,0-109-48T128,244q0-91 41-139.5T278,56ZM141-48L92-20L415,535l49-29L141-48Z" />
      <glyph unicode="&#xf9;" glyph-name="gid373" horiz-adv-x="561" d="M248-9q-59,0-97.5,21.5T92.5,77T73,184V486h81V185q0-43 11.5-71.5t36.5-42T264,58q42,0 73,19t49,53t18,80V486h81V0H406V112h13q-20-59-65.5-90T248-9Zm4,561L121,754h86L310,552H252Z" />
      <glyph unicode="&#xfa;" glyph-name="gid367" horiz-adv-x="561" d="M248-9q-59,0-97.5,21.5T92.5,77T73,184V486h81V185q0-43 11.5-71.5t36.5-42T264,58q42,0 73,19t49,53t18,80V486h81V0H406V112h13q-20-59-65.5-90T248-9Zm4,561L355,754h87L310,552H252Z" />
      <glyph unicode="&#xfb;" glyph-name="gid370" horiz-adv-x="561" d="M248-9q-59,0-97.5,21.5T92.5,77T73,184V486h81V185q0-43 11.5-71.5t36.5-42T264,58q42,0 73,19t49,53t18,80V486h81V0H406V112h13q-20-59-65.5-90T248-9ZM133,552L242,754h78L429,552H373L281,700L189,552H133Z" />
      <glyph unicode="&#xfc;" glyph-name="gid372" horiz-adv-x="561" d="M248-9q-59,0-97.5,21.5T92.5,77T73,184V486h81V185q0-43 11.5-71.5t36.5-42T264,58q42,0 73,19t49,53t18,80V486h81V0H406V112h13q-20-59-65.5-90T248-9Zm76,619v86h87V610H324Zm-173,0v86h87V610H151Z" />
      <glyph unicode="&#xfd;" glyph-name="gid391" horiz-adv-x="514" d="M132-180L223,25V-10L10,486H98L272,60H245L421,486h85L217-180H132Zm97,731L332,753h87L287,551H229Z" />
      <glyph unicode="&#xfe;" glyph-name="gid336" horiz-adv-x="583" d="M76-180V705h81V371H145q16,57 63.5,90.5T322,495q65,0 113.5-30.5t75-87T537,243q0-77-26.5-133.5T436,22T322-9T209,24.5T145,114h12V-180H76ZM305,56q69,0 109.5,48.5T455,243q0,91-40.5,139T305,430q-68,0-109-48T155,243q0-90 41-138.5T305,56Z" />
      <glyph unicode="&#xff;" glyph-name="gid393" horiz-adv-x="514" d="M132-180L223,25V-10L10,486H98L272,60H245L421,486h85L217-180H132ZM301,609v86h87V609H301Zm-173,0v86h87V609H128Z" />
      <glyph unicode="&#x2013;" glyph-name="gid475" horiz-adv-x="500" d="M0,240v53H500V240H0Z" />
      <glyph unicode="&#x2014;" glyph-name="gid476" horiz-adv-x="1000" d="M0,240v53H1000V240H0Z" />
      <glyph unicode="&#x2018;" glyph-name="gid488" horiz-adv-x="228" d="M63,495v71q0,28 5.5,52t19,47.5T123,711l39-29q-17-19-27-36t-14-33t-4-33L93,597h72V495H63Z" />
      <glyph unicode="&#x2019;" glyph-name="gid489" horiz-adv-x="228" d="M105,488L68,518q18,18 27.5,35t13,33t3.5,33l25-16H64V705H166V633q0-27-5.5-51.5T142,534t-37-46Z" />
      <glyph unicode="&#x201a;" glyph-name="gid484" horiz-adv-x="228" d="M105-114L68-85Q83-68 93-52.5T107.5-20T112,17L137,0H64V102H166V30q0-29-6.5-54T140-71t-35-43Z" />
      <glyph unicode="&#x201c;" glyph-name="gid486" horiz-adv-x="394" d="M63,495v71q0,28 5.5,52t19,47.5T123,711l39-29q-17-19-27-36t-14-33t-4-33L93,597h72V495H63Zm166,0v71q0,28 5.5,52t19,47.5T289,711l39-29q-17-19-27-36t-14-33t-4-33l-24,17h72V495H229Z" />
      <glyph unicode="&#x201d;" glyph-name="gid487" horiz-adv-x="394" d="M105,488L68,518q18,18 27.5,35t13,33t3.5,33l25-16H64V705H166V633q0-27-5.5-51.5T142,534t-37-46Zm166,0l-37,30q18,18 27.5,35t13,33t3.5,33l25-16H230V705H332V633q0-27-5.5-51.5T308,534t-37-46Z" />
      <glyph unicode="&#x201e;" glyph-name="gid485" horiz-adv-x="394" d="M105-114L68-85Q83-68 93-52.5T107.5-20T112,17L137,0H64V102H166V30q0-29-6.5-54T140-71t-35-43Zm166,0L234-85q15,17 25,32.5T273.5-20T278,17L303,0H230V102H332V30q0-29-6.5-54T306-71t-35-43Z" />
      <glyph unicode="&#x2022;" glyph-name="gid467" horiz-adv-x="524" d="M262,88q-49,0-90,23.5T106,175T81,265q0,46 23.5,86.5t64.5,66T262,443q48,0 89.5-23T418,356.5T443,265q0-49-24.5-89T353,112T262,88Z" />
      <glyph unicode="&#x2039;" glyph-name="gid492" horiz-adv-x="260" d="M157,85L61,245v41l95,160l58-24L136,265l78-157L157,85Z" />
      <glyph unicode="&#x203a;" glyph-name="gid493" horiz-adv-x="260" d="M103,85L46,108l78,157L46,422l58,24l95-160V245L103,85Z" />
    </font>
</defs>
</svg>
