<?xml version="1.0" standalone="no"?>
<!DOCTYPE svg PUBLIC "-//W3C//DTD SVG 1.1//EN" "http://www.w3.org/Graphics/SVG/1.1/DTD/svg11.dtd">
<svg xmlns="http://www.w3.org/2000/svg">
<defs >
<font id="NunitoSans" horiz-adv-x="567" ><font-face
    font-family="Nunito Sans 12pt"
    units-per-em="1000"
    panose-1="0 0 0 0 0 0 0 0 0 0"
    ascent="1011"
    descent="-353"
    alphabetic="0" />
<glyph unicode=" " glyph-name="space" horiz-adv-x="257" />
<glyph unicode="!" glyph-name="exclam" horiz-adv-x="228" d="M89 184L64 705H164L139 184H89ZM63 0V102H165V0H63Z" />
<glyph unicode="&quot;" glyph-name="quotedbl" horiz-adv-x="391" d="M84 428L63 705H158L139 428H84ZM255 428L234 705H329L310 428H255Z" />
<glyph unicode="#" glyph-name="numbersign" horiz-adv-x="600" d="M88 0L124 182H35V241H135L180 472H55V531H190L225 705H288L254 531H413L447 705H511L477 531H565V472H465L420 241H545V182H410L374 0H310L345 182H187L152 0H88ZM198 241H356L402 472H243L198 241Z" />
<glyph unicode="$" glyph-name="dollar" horiz-adv-x="600" d="M276 -115V12L294 -5Q222 -4 158 16T46 79L76 145Q108 120 142 103T214 77T301 68Q386 68 427 101T469 187Q469 231 440 257T340 298L240 319Q150 339 106 384T61 504Q61 562 89 607T169 679T288
709L276 695V820H344V695L331 709Q384 707 439 686T532 623L504 559Q464 600 415 618T306 637Q232 637 187 601T142 506Q142 460 170 433T261 392L361 370Q458 350 505 307T552 192Q552 135 523 93T444 26T328 -4L344 13V-115H276Z" />
<glyph unicode="%" glyph-name="percent" horiz-adv-x="930" d="M286 -25L229 8L644 730L700 697L286 -25ZM226 282Q173 282 135 307T76 381T56 498Q56 600 101 656T226 713Q279 713 317 688T375 614T396 498Q396 430 376 382T317 308T226 282ZM226 341Q272 341
299 380T326 498Q326 576 299 615T226 654Q179 654 153 615T126 498Q126 420 152 381T226 341ZM704 -9Q652 -9 614 16T555 90T534 207Q534 309 579 365T704 422Q757 422 795 397T853 323T874 207Q874 139 854 91T796 17T704 -9ZM704 50Q751 50 777 89T804 207Q804
285 778 324T704 363Q658 363 632 324T605 207Q605 128 631 89T704 50Z" />
<glyph unicode="&amp;" glyph-name="ampersand" horiz-adv-x="693" d="M287 -9Q217 -9 166 13T89 76T62 169Q62 214 78 250T128 319T210 384L242 405L231 388Q183 440 164 478T144 558Q144 604 165 639T225 694T317 714Q364 714 399 697T454 647T475 571Q475 535
461 504T414 441T322 374L324 395L511 185H493Q517 226 531 286T548 413H618Q616 330 596 259T540 132L539 156L684 0H585L495 101H516Q474 49 415 20T287 -9ZM291 58Q348 58 392 82T470 152L469 127L257 359L289 356L258 336Q215 308 190 284T153 233T142 175Q142
120 180 89T291 58ZM317 651Q274 651 247 626T220 560Q220 538 226 520T250 479T297 421L276 420Q324 451 352 474T392 520T404 567Q404 606 380 628T317 651Z" />
<glyph unicode="&apos;" glyph-name="quotesingle" horiz-adv-x="221" d="M84 428L63 705H158L139 428H84Z" />
<glyph unicode="(" glyph-name="parenleft" horiz-adv-x="317" d="M224 -192Q160 -81 131 32T102 263Q102 381 131 494T224 718L282 696Q251 622 230 551T199 408T188 263Q188 190 198 119T230 -24T282 -170L224 -192Z" />
<glyph unicode=")" glyph-name="parenright" horiz-adv-x="317" d="M93 -192L35 -170Q67 -94 87 -23T118 119T128 263Q128 336 118 406T88 549T35 696L93 718Q157 607 186 494T215 263Q215 145 186 32T93 -192Z" />
<glyph unicode="*" glyph-name="asterisk" horiz-adv-x="450" d="M155 353L102 385L191 526L202 510L34 504V565L202 558L191 543L102 685L155 715L230 571H220L294 715L348 684L259 543L248 558L417 565V504L248 510L259 526L348 385L294 354L220 498H230L155 353Z" />
<glyph unicode="+" glyph-name="plus" horiz-adv-x="600" d="M268 40V256H56V318H268V528H332V318H544V256H332V40H268Z" />
<glyph unicode="," glyph-name="comma" horiz-adv-x="228" d="M105 -114L67 -85Q85 -66 94 -50T107 -17T111 17L129 0H63V102H165V30Q165 3 160 -21T141 -69T105 -114Z" />
<glyph unicode="-" glyph-name="hyphen" horiz-adv-x="424" d="M72 233V300H352V233H72Z" />
<glyph unicode="." glyph-name="period" horiz-adv-x="228" d="M63 0V102H165V0H63Z" />
<glyph unicode="/" glyph-name="slash" horiz-adv-x="283" d="M45 -63L-19 -44L237 752L302 733L45 -63Z" />
<glyph unicode="0" glyph-name="zero" horiz-adv-x="600" d="M300 -9Q220 -9 165 32T81 155T53 353Q53 471 81 551T164 673T300 714Q381 714 436 673T519 552T547 354Q547 236 519 155T436 33T300 -9ZM300 62Q384 62 424 133T465 354Q465 504 425 573T300 643Q217
643 176 573T135 354Q135 204 175 133T300 62Z" />
<glyph unicode="1" glyph-name="one" horiz-adv-x="600" d="M124 0V70H285V634H328L158 526L123 587L308 705H367V70H518V0H124Z" />
<glyph unicode="2" glyph-name="two" horiz-adv-x="600" d="M90 0V62L331 322Q365 359 386 391T417 455T427 518Q427 578 391 609T284 641Q230 641 184 622T95 561L64 625Q103 665 163 689T291 714Q362 714 411 692T485 628T510 524Q510 492 503 462T480 401T441
338T384 272L172 47V70H539V0H90Z" />
<glyph unicode="3" glyph-name="three" horiz-adv-x="600" d="M292 -9Q245 -9 202 1T120 29T53 75L83 140Q132 100 182 82T290 64Q341 64 376 79T429 123T447 196Q447 258 406 290T287 322H183V393H280Q326 393 358 409T409 454T427 526Q427 582 391 611T287 641Q231
641 184 622T95 561L65 625Q105 667 165 690T292 714Q360 714 408 693T483 631T509 533Q509 468 473 422T375 358V369Q424 361 458 337T511 276T529 190Q529 129 501 85T419 16T292 -9Z" />
<glyph unicode="4" glyph-name="four" horiz-adv-x="600" d="M377 0V151H52V213L391 705H460V221H565V151H460V0H377ZM377 221V606H401L122 199V221H377Z" />
<glyph unicode="5" glyph-name="five" horiz-adv-x="600" d="M315 -9Q270 -9 227 1T147 30T80 75L111 140Q159 101 208 83T314 64Q388 64 429 105T471 213Q471 282 431 326T321 370Q270 370 232 350T162 286H102V705H511V635H183V354H161Q187 396 233 418T336
441Q403 441 451 413T526 335T553 217Q553 151 524 100T442 20T315 -9Z" />
<glyph unicode="6" glyph-name="six" horiz-adv-x="600" d="M325 -9Q241 -9 183 31T94 149T64 335Q64 457 97 541T195 670T349 714Q385 714 422 704T491 674T547 629L517 565Q480 604 437 622T347 641Q298 641 261 623T197 569T157 478T144 351V258H135Q141 315
168 356T239 420T336 442Q398 442 446 414T521 336T548 220Q548 154 520 102T441 21T325 -9ZM319 61Q363 61 397 80T450 135T469 217Q469 263 450 298T398 353T319 373Q275 373 241 353T188 298T169 217Q169 171 188 136T241 81T319 61Z" />
<glyph unicode="7" glyph-name="seven" horiz-adv-x="600" d="M112 0L458 670V634H67V705H533V643L203 0H112Z" />
<glyph unicode="8" glyph-name="eight" horiz-adv-x="600" d="M300 -9Q181 -9 115 42T49 187Q49 236 69 274T125 337T208 367V352Q165 362 133 386T84 447T66 526Q66 615 129 664T300 714Q408 714 471 665T535 526Q535 483 518 447T468 386T393 353V367Q440 361
475 337T531 274T551 187Q551 94 485 43T300 -9ZM300 59Q385 59 428 92T472 192Q472 258 429 290T300 323Q216 323 172 291T128 192Q128 125 172 92T300 59ZM300 391Q374 391 415 425T456 519Q456 579 415 612T300 646Q227 646 186 613T145 519Q145 459 186 425T300
391Z" />
<glyph unicode="9" glyph-name="nine" horiz-adv-x="600" d="M252 -9Q216 -9 179 1T110 31T53 76L84 141Q120 102 164 83T253 64Q302 64 340 82T404 136T443 227T457 354V447H465Q459 391 432 349T361 285T264 263Q202 263 155 291T80 370T52 485Q52 552 80 603T159
684T276 714Q359 714 417 674T506 556T536 370Q536 249 503 164T406 35T252 -9ZM282 332Q326 332 360 352T413 407T432 488Q432 535 413 570T360 625T282 645Q237 645 204 625T151 570T131 488Q131 442 150 407T203 352T282 332Z" />
<glyph unicode=":" glyph-name="colon" horiz-adv-x="228" d="M63 384V486H165V384H63ZM63 0V102H165V0H63Z" />
<glyph unicode=";" glyph-name="semicolon" horiz-adv-x="228" d="M105 -114L67 -85Q85 -66 94 -50T107 -17T111 17L137 0H63V102H165V30Q165 3 160 -21T141 -69T105 -114ZM63 384V486H165V384H63Z" />
<glyph unicode="&lt;" glyph-name="less" horiz-adv-x="600" d="M544 35L56 255V319L544 539V471L89 267V307L544 104V35Z" />
<glyph unicode="=" glyph-name="equal" horiz-adv-x="600" d="M56 356V418H544V356H56ZM56 157V218H544V157H56Z" />
<glyph unicode="&gt;" glyph-name="greater" horiz-adv-x="600" d="M56 35V104L512 307V267L56 471V539L544 319V255L56 35Z" />
<glyph unicode="?" glyph-name="question" horiz-adv-x="443" d="M182 184V213Q182 247 190 277T217 340T268 409Q293 439 308 462T329 506T336 550Q336 579 323 599T284 630T223 641Q168 641 121 621T32 561L2 625Q28 652 64 671T141 702T227 714Q284 714 327
695T395 640T419 556Q419 525 410 497T382 439T327 373Q296 341 277 313T249 260T236 209L234 184H182ZM157 0V102H259V0H157Z" />
<glyph unicode="@" glyph-name="at" horiz-adv-x="946" d="M485 -163Q389 -163 311 -133T177 -45T91 92T61 273Q61 371 92 452T182 591T321 682T498 714Q614 714 701 668T836 538T885 344Q885 257 861 193T795 94T695 59Q635 59 605 93T578 187L597 182Q572 122
526 91T429 59Q352 59 310 107T267 241Q267 314 295 371T372 462T483 495Q537 495 572 468T617 392H606L622 486H688L643 227Q641 214 640 202T639 180Q639 147 654 130T699 113Q738 113 766 142T811 223T828 344Q828 439 787 509T671 618T497 657Q386 657 302
609T171 475T124 273Q124 154 168 69T294 -61T485 -107Q566 -107 631 -82T740 -10L773 -58Q741 -92 697 -115T599 -151T485 -163ZM438 117Q483 117 517 144T572 218T592 325Q592 381 567 409T490 437Q446 437 411 412T356 343T335 241Q335 181 362 149T438 117Z"
/>
<glyph unicode="A" glyph-name="A" horiz-adv-x="729" d="M19 0L330 705H400L711 0H626L539 201L579 180H149L190 201L104 0H19ZM364 609L203 230L179 249H549L527 230L366 609H364Z" />
<glyph unicode="B" glyph-name="B" horiz-adv-x="676" d="M87 0V705H369Q477 705 537 657T597 521Q597 455 559 411T454 353V367Q504 361 540 339T595 280T614 194Q614 131 587 88T507 22T381 0H87ZM167 66H373Q405 66 430 71T475 86T507 112T526 148T533 195Q533
222 527 242T507 278T475 304T431 319T373 324H167V66ZM167 390H357Q435 390 475 422T516 514Q516 576 476 607T357 639H167V390Z" />
<glyph unicode="C" glyph-name="C" horiz-adv-x="673" d="M392 -9Q288 -9 214 35T101 160T61 353Q61 465 100 545T214 670T392 714Q465 714 527 691T631 624L599 557Q553 600 504 619T394 639Q275 639 212 564T149 353Q149 217 212 142T394 66Q454 66 503 85T599
148L631 81Q589 38 527 15T392 -9Z" />
<glyph unicode="D" glyph-name="D" horiz-adv-x="742" d="M87 0V705H325Q440 705 519 665T640 546T682 353Q682 239 641 160T520 41T325 0H87ZM169 70H319Q458 70 526 141T595 353Q595 494 526 564T319 635H169V70Z" />
<glyph unicode="E" glyph-name="E" horiz-adv-x="583" d="M87 0V705H532V636H167V392H511V323H167V69H532V0H87Z" />
<glyph unicode="F" glyph-name="F" horiz-adv-x="548" d="M87 0V705H523V636H169V390H503V321H169V0H87Z" />
<glyph unicode="G" glyph-name="G" horiz-adv-x="726" d="M409 -9Q296 -9 219 34T101 158T61 352Q61 464 101 545T216 670T397 714Q447 714 491 704T574 675T642 626L610 560Q562 602 511 621T396 640Q275 640 212 565T148 352Q148 212 213 138T411 64Q459 64
505 73T592 100L574 53V302H395V367H645V41Q618 27 578 16T494 -2T409 -9Z" />
<glyph unicode="H" glyph-name="H" horiz-adv-x="761" d="M87 0V705H169V393H592V705H674V0H592V322H169V0H87Z" />
<glyph unicode="I" glyph-name="I" horiz-adv-x="256" d="M87 0V705H169V0H87Z" />
<glyph unicode="J" glyph-name="J" horiz-adv-x="324" d="M-4 -7L-10 62L50 66Q85 69 108 83T143 125T155 188V705H237V187Q237 130 217 89T158 24T61 -3L-4 -7Z" />
<glyph unicode="K" glyph-name="K" horiz-adv-x="625" d="M87 0V705H169V385H171L513 705H618L226 340L227 384L640 0H532L171 332H169V0H87Z" />
<glyph unicode="L" glyph-name="L" horiz-adv-x="543" d="M87 0V705H169V72H528V0H87Z" />
<glyph unicode="M" glyph-name="M" horiz-adv-x="855" d="M89 0V705H158L444 168H414L698 705H767V0H691V595H715L456 109H402L140 596H164V0H89Z" />
<glyph unicode="N" glyph-name="N" horiz-adv-x="740" d="M87 0V705H151L600 106H576V705H652V0H590L141 599H164V0H87Z" />
<glyph unicode="O" glyph-name="O" horiz-adv-x="767" d="M383 -9Q310 -9 250 16T148 89T84 203T61 353Q61 437 83 503T148 616T249 688T383 714Q458 714 517 689T619 617T684 504T707 354Q707 270 684 203T619 89T518 17T383 -9ZM383 64Q459 64 511 98T592 197T620
353Q620 445 592 509T512 607T383 641Q309 641 257 607T176 509T148 353Q148 262 176 198T256 99T383 64Z" />
<glyph unicode="P" glyph-name="P" horiz-adv-x="633" d="M87 0V705H366Q442 705 494 681T574 609T601 493Q601 427 574 379T495 306T366 281H169V0H87ZM169 350H356Q437 350 478 386T520 493Q520 564 479 600T356 637H169V350Z" />
<glyph unicode="Q" glyph-name="Q" horiz-adv-x="767" d="M578 -201L494 -66Q478 -38 450 -24T383 -9L451 20Q482 20 504 13T545 -10T580 -57L647 -165L578 -201ZM383 -9Q310 -9 250 16T148 89T84 203T61 353Q61 437 83 503T148 616T249 688T383 714Q458 714 517
689T619 617T684 504T707 354Q707 270 684 203T619 89T518 17T383 -9ZM383 64Q459 64 511 98T592 197T620 353Q620 445 592 509T512 607T383 641Q309 641 257 607T176 509T148 353Q148 262 176 198T256 99T383 64Z" />
<glyph unicode="R" glyph-name="R" horiz-adv-x="669" d="M87 0V705H366Q479 705 540 652T601 501Q601 439 574 394T493 325T366 301L376 314H396Q435 314 464 294T517 230L641 0H551L429 226Q414 254 396 270T354 292T297 298H169V0H87ZM169 363H354Q436 363
478 397T520 501Q520 568 478 602T354 637H169V363Z" />
<glyph unicode="S" glyph-name="S" horiz-adv-x="615" d="M315 -9Q260 -9 212 1T123 29T49 75L78 141Q112 116 147 99T224 73T315 64Q405 64 448 97T492 186Q492 215 479 236T435 272T355 297L251 318Q157 338 111 383T64 505Q64 568 96 615T187 688T321 714Q369
714 412 704T491 675T556 627L527 563Q482 604 432 622T320 641Q267 641 229 625T169 579T147 508Q147 460 176 432T273 391L377 369Q478 348 526 306T575 190Q575 132 544 87T454 16T315 -9Z" />
<glyph unicode="T" glyph-name="T" horiz-adv-x="602" d="M260 0V634H4V705H599V634H343V0H260Z" />
<glyph unicode="U" glyph-name="U" horiz-adv-x="728" d="M365 -9Q227 -9 155 64T82 279V705H164V283Q164 173 215 119T365 64Q464 64 514 118T564 283V705H646V279Q646 138 575 65T365 -9Z" />
<glyph unicode="V" glyph-name="V" horiz-adv-x="689" d="M307 0L-1 705H87L362 66H330L604 705H690L381 0H307Z" />
<glyph unicode="W" glyph-name="W" horiz-adv-x="1101" d="M277 0L30 705H116L333 70H298L519 705H585L803 70H772L990 705H1072L825 0H752L540 610H562L348 0H277Z" />
<glyph unicode="X" glyph-name="X" horiz-adv-x="650" d="M10 0L290 376V345L23 705H119L339 404H313L531 705H628L361 345V376L640 0H543L309 319H341L108 0H10Z" />
<glyph unicode="Y" glyph-name="Y" horiz-adv-x="596" d="M257 0V365L275 308L-13 705H83L310 391H289L516 705H609L322 308L339 365V0H257Z" />
<glyph unicode="Z" glyph-name="Z" horiz-adv-x="589" d="M48 0V61L476 666V634H48V705H553V644L125 40V71H567V0H48Z" />
<glyph unicode="[" glyph-name="bracketleft" horiz-adv-x="315" d="M109 -180V705H308V641H190V-116H308V-180H109Z" />
<glyph unicode="\" glyph-name="backslash" horiz-adv-x="283" d="M237 -63L-19 733L45 752L302 -44L237 -63Z" />
<glyph unicode="]" glyph-name="bracketright" horiz-adv-x="315" d="M8 -180V-116H125V641H8V705H206V-180H8Z" />
<glyph unicode="^" glyph-name="asciicircum" horiz-adv-x="600" d="M49 140L268 628H332L551 140H484L280 595H320L116 140H49Z" />
<glyph unicode="_" glyph-name="underscore" horiz-adv-x="500" d="M20 -53V0H480V-53H20Z" />
<glyph unicode="`" glyph-name="grave" horiz-adv-x="500" d="M221 551L90 753H176L279 551H221Z" />
<glyph unicode="a" glyph-name="a" horiz-adv-x="530" d="M229 -9Q179 -9 140 10T77 64T54 140Q54 194 81 225T172 269T346 282H391V229H347Q286 229 245 225T180 211T146 185T136 145Q136 104 164 78T242 52Q282 52 312 71T360 123T378 199V313Q378 375 353 402T271
430Q227 430 186 418T102 377L74 436Q100 454 133 467T202 488T271 495Q334 495 375 475T436 413T456 306V0H380V113H389Q381 75 359 48T303 6T229 -9Z" />
<glyph unicode="b" glyph-name="b" horiz-adv-x="583" d="M322 -9Q256 -9 209 25T145 116H155V0H76V705H157V373H145Q162 429 209 462T322 495Q388 495 436 465T510 378T537 243Q537 166 511 110T436 22T322 -9ZM305 56Q374 56 414 104T455 243Q455 334 415 382T305
430Q237 430 196 382T155 243Q155 153 196 105T305 56Z" />
<glyph unicode="c" glyph-name="c" horiz-adv-x="463" d="M282 -9Q209 -9 156 23T75 112T46 246Q46 323 74 379T156 465T282 495Q327 495 371 479T444 434L416 375Q387 403 353 416T287 429Q211 429 170 382T129 245Q129 158 170 108T287 57Q318 57 352 70T416
112L444 53Q415 24 371 8T282 -9Z" />
<glyph unicode="d" glyph-name="d" horiz-adv-x="583" d="M261 -9Q196 -9 148 22T73 109T46 243Q46 321 72 377T147 464T261 495Q327 495 374 462T437 373H426V705H507V0H428V116H438Q422 59 375 25T261 -9ZM278 56Q347 56 387 104T428 243Q428 334 388 382T278
430Q210 430 169 382T128 243Q128 153 169 105T278 56Z" />
<glyph unicode="e" glyph-name="e" horiz-adv-x="532" d="M295 -9Q218 -9 163 21T77 108T46 242Q46 318 76 374T158 463T280 495Q346 495 393 466T465 384T491 257V226H108V279H437L421 266Q421 346 386 390T282 435Q231 435 196 412T142 347T124 250V244Q124
183 143 141T202 78T295 56Q338 56 378 69T455 114L483 57Q450 27 399 9T295 -9Z" />
<glyph unicode="f" glyph-name="f" horiz-adv-x="333" d="M102 0V423H6V486H124L102 465V503Q102 600 150 650T300 706L339 708L346 646L300 643Q259 640 233 625T195 582T183 513V471L171 486H323V423H183V0H102Z" />
<glyph unicode="g" glyph-name="g" horiz-adv-x="586" d="M291 -189Q228 -189 173 -173T74 -123L101 -64Q131 -85 160 -98T221 -118T287 -124Q358 -124 394 -86T431 24V137H441Q426 79 378 45T264 11Q197 11 148 41T73 127T46 254Q46 326 72 380T148 465T264 495Q330
495 378 462T440 371H431V486H510V35Q510 -39 486 -89T412 -164T291 -189ZM279 77Q349 77 390 125T431 254Q431 335 390 382T279 430Q210 430 169 383T128 254Q128 173 169 125T279 77Z" />
<glyph unicode="h" glyph-name="h" horiz-adv-x="568" d="M76 0V705H157V378H144Q165 436 212 465T322 495Q380 495 418 474T476 411T495 303V0H414V298Q414 343 403 372T367 415T303 429Q259 429 226 410T175 357T157 277V0H76Z" />
<glyph unicode="i" glyph-name="i" horiz-adv-x="232" d="M66 607V698H166V607H66ZM76 0V486H157V0H76Z" />
<glyph unicode="j" glyph-name="j" horiz-adv-x="236" d="M69 607V698H169V607H69ZM-50 -193L-56 -130L-13 -126Q33 -122 56 -94T79 -15V486H160V-7Q160 -51 150 -83T119 -139T67 -174T-7 -190L-50 -193Z" />
<glyph unicode="k" glyph-name="k" horiz-adv-x="500" d="M76 0V705H157V270H159L384 486H487L220 230V274L508 0H405L159 228H157V0H76Z" />
<glyph unicode="l" glyph-name="l" horiz-adv-x="296" d="M225 -9Q151 -9 114 35T76 161V705H157V167Q157 132 166 108T195 72T242 60Q254 60 265 61T287 66L285 -2Q269 -5 255 -7T225 -9Z" />
<glyph unicode="m" glyph-name="m" horiz-adv-x="856" d="M78 0V486H157V378H146Q158 415 181 441T237 481T309 495Q371 495 409 466T461 374H446Q464 430 510 462T619 495Q674 495 709 474T763 411T781 303V0H700V299Q700 366 677 397T599 429Q560 429 531 410T486
357T470 275V0H389V299Q389 366 366 397T288 429Q248 429 219 410T175 357T159 275V0H78Z" />
<glyph unicode="n" glyph-name="n" horiz-adv-x="568" d="M76 0V486H155V378H144Q165 436 212 465T322 495Q380 495 418 475T476 411T495 303V0H414V298Q414 343 403 372T367 415T303 429Q259 429 226 410T175 357T157 277V0H76Z" />
<glyph unicode="o" glyph-name="o" horiz-adv-x="556" d="M278 -9Q207 -9 155 22T75 109T46 243Q46 320 74 376T155 464T278 495Q349 495 401 464T481 377T510 243Q510 166 482 110T401 22T278 -9ZM278 56Q347 56 387 104T428 244Q428 334 388 382T278 430Q210
430 169 382T128 244Q128 153 169 105T278 56Z" />
<glyph unicode="p" glyph-name="p" horiz-adv-x="583" d="M76 -180V486H155V371H145Q161 428 208 461T322 495Q387 495 435 465T510 378T537 243Q537 166 511 110T436 22T322 -9Q256 -9 209 24T145 114H157V-180H76ZM305 56Q374 56 414 104T455 243Q455 334 415
382T305 430Q237 430 196 382T155 243Q155 153 196 105T305 56Z" />
<glyph unicode="q" glyph-name="q" horiz-adv-x="583" d="M426 -180V114H437Q421 58 374 25T261 -9Q196 -9 148 22T73 109T46 243Q46 321 72 377T147 464T261 495Q327 495 374 462T438 371H428V486H507V-180H426ZM278 56Q347 56 387 104T428 243Q428 334 388 382T278
430Q210 430 169 382T128 243Q128 153 169 105T278 56Z" />
<glyph unicode="r" glyph-name="r" horiz-adv-x="358" d="M76 0V486H155V371H145Q162 430 204 460T315 496L344 499L350 429L299 423Q231 417 195 380T158 277V0H76Z" />
<glyph unicode="s" glyph-name="s" horiz-adv-x="481" d="M240 -9Q202 -9 167 -2T101 19T48 52L74 109Q98 90 126 78T183 59T242 53Q299 53 328 74T357 131Q357 159 338 175T278 201L187 221Q124 234 94 266T63 349Q63 394 86 426T153 477T253 495Q287 495 318
488T376 468T424 434L397 377Q378 395 354 407T305 426T253 433Q197 433 168 411T139 353Q139 325 157 307T213 281L304 262Q369 248 401 218T434 135Q434 91 410 59T343 9T240 -9Z" />
<glyph unicode="t" glyph-name="t" horiz-adv-x="350" d="M271 -9Q185 -9 142 37T99 168V423H4V486H99V635H180V486H334V423H180V176Q180 119 204 90T282 60Q298 60 314 64T343 72L357 10Q344 3 319 -3T271 -9Z" />
<glyph unicode="u" glyph-name="u" horiz-adv-x="561" d="M248 -9Q189 -9 151 12T93 77T73 184V486H154V185Q154 142 165 114T202 72T264 58Q306 58 337 77T386 130T404 210V486H485V0H406V112H419Q399 53 354 22T248 -9Z" />
<glyph unicode="v" glyph-name="v" horiz-adv-x="515" d="M219 0L10 486H98L272 60H245L422 486H505L295 0H219Z" />
<glyph unicode="w" glyph-name="w" horiz-adv-x="841" d="M205 0L24 486H109L258 60H234L388 486H457L608 60H585L736 486H817L635 0H558L399 437H442L283 0H205Z" />
<glyph unicode="x" glyph-name="x" horiz-adv-x="525" d="M14 0L232 272V230L26 486H122L277 289H249L405 486H500L295 232V269L512 0H416L248 211H277L110 0H14Z" />
<glyph unicode="y" glyph-name="y" horiz-adv-x="514" d="M132 -180L223 25V-10L10 486H98L272 60H245L421 486H506L217 -180H132Z" />
<glyph unicode="z" glyph-name="z" horiz-adv-x="463" d="M55 0V54L348 444V423H55V486H423V432L127 40V63H434V0H55Z" />
<glyph unicode="{" glyph-name="braceleft" horiz-adv-x="352" d="M247 -180Q198 -180 172 -154T146 -78V149Q146 191 130 209T76 230L49 232V294L76 296Q114 298 130 316T146 376V603Q146 653 172 679T247 705H345V641H271Q249 641 238 630T227 596V368Q227 338
215 314T183 275T136 261V265Q163 265 183 251T215 213T227 158V-71Q227 -94 238 -105T271 -116H345V-180H247Z" />
<glyph unicode="|" glyph-name="bar" horiz-adv-x="265" d="M92 -180V705H173V-180H92Z" />
<glyph unicode="}" glyph-name="braceright" horiz-adv-x="352" d="M8 -180V-116H82Q104 -116 114 -105T125 -71V158Q125 188 137 212T169 251T216 265V261Q190 261 170 275T137 313T125 368V596Q125 619 115 630T82 641H8V705H106Q155 705 180 679T206 603V376Q206
335 222 317T276 296L303 294V232L276 230Q238 228 222 210T206 149V-78Q206 -127 181 -153T106 -180H8Z" />
<glyph unicode="~" glyph-name="asciitilde" horiz-adv-x="600" d="M415 217Q399 217 381 221T340 234T289 259Q263 274 245 282T213 293T189 297Q160 297 140 281T107 233L56 259Q76 307 109 332T186 358Q203 358 220 354T259 341T308 317Q346 297 369 287T411
277Q440 277 461 293T495 341L544 315Q525 268 492 243T415 217Z" />
<glyph unicode="&#xa0;" glyph-name="uni00A0" horiz-adv-x="257" />
<glyph unicode="&#xa1;" glyph-name="exclamdown" horiz-adv-x="228" d="M64 -180L89 303H139L164 -180H64ZM63 384V486H165V384H63Z" />
<glyph unicode="&#xa2;" glyph-name="cent" horiz-adv-x="600" d="M284 -115V16L298 -6Q237 1 190 34T117 121T91 244Q91 310 116 363T188 450T298 490L284 464V606H352V467L333 492Q381 492 428 476T502 429L475 371Q447 398 411 412T335 426Q261 426 218 376T174
244Q174 161 217 111T334 61Q373 61 410 75T475 115L502 58Q473 28 427 11T331 -7L352 13V-115H284Z" />
<glyph unicode="&#xa3;" glyph-name="sterling" horiz-adv-x="600" d="M48 0V70H146V323H48V384H146V510Q146 574 170 619T242 689T362 714Q419 714 474 694T566 636L533 572Q502 610 457 627T361 644Q317 644 288 630T243 586T228 514V384H408V323H228V70H553V0H48Z" />
<glyph unicode="&#xa4;" glyph-name="currency" horiz-adv-x="600" d="M78 -26L35 18L109 93Q86 125 73 164T59 245Q59 288 72 327T109 397L35 473L78 516L152 440Q182 465 220 479T300 493Q342 493 379 480T447 442L519 517L563 472L490 398Q514 366 527 327T541
245Q541 202 528 163T489 92L563 18L520 -25L447 49Q417 25 380 11T300 -3Q258 -3 220 11T151 49L78 -26ZM300 67Q346 67 384 91T444 155T466 245Q466 294 444 334T384 399T300 423Q254 423 216 399T155 335T132 245Q132 196 154 156T215 91T300 67Z" />
<glyph unicode="&#xa5;" glyph-name="yen" horiz-adv-x="600" d="M259 0V175H72V235H259V328H72V388H233V374L-5 705H87L311 390H290L513 705H605L368 374V388H528V328H341V235H528V175H341V0H259Z" />
<glyph unicode="&#xa6;" glyph-name="brokenbar" horiz-adv-x="265" d="M92 372V705H173V372H92ZM92 -180V153H173V-180H92Z" />
<glyph unicode="&#xa7;" glyph-name="section" horiz-adv-x="545" d="M248 -189Q184 -189 132 -172T48 -126L75 -68Q96 -85 124 -98T184 -119T249 -126Q309 -126 346 -97T383 -15Q383 23 364 50T293 102L183 153Q130 179 99 204T55 260T42 327Q42 368 63 406T117
469L110 445Q99 459 91 480T82 534Q82 591 109 630T185 691T293 713Q353 713 402 697T483 652L456 595Q425 621 381 636T291 651Q235 651 199 622T162 539Q162 502 181 475T252 423L362 371Q416 346 446 320T490 265T503 198Q503 156 483 118T428 56L435 79Q446
66 454 44T463 -10Q463 -65 435 -105T359 -167T248 -189ZM116 338Q116 314 125 294T158 254T222 216L316 172Q353 155 377 136T415 99L390 98Q410 115 419 138T429 187Q429 211 420 231T387 270T323 308L229 353Q193 370 169 388T131 425L155 427Q136 410 126 387T116
338Z" />
<glyph unicode="&#xa8;" glyph-name="dieresis" horiz-adv-x="500" d="M293 609V695H380V609H293ZM120 609V695H207V609H120Z" />
<glyph unicode="&#xa9;" glyph-name="copyright" horiz-adv-x="815" d="M408 -9Q332 -9 266 18T150 95T74 210T46 353Q46 430 73 495T150 610T265 686T408 714Q485 714 551 687T665 610T741 496T769 353Q769 277 742 211T665 95T551 19T408 -9ZM421 137Q357 137
311 164T239 240T213 355Q213 422 238 469T310 542T421 568Q461 568 500 554T564 515L540 463Q514 487 484 497T424 508Q359 508 322 468T285 355Q285 282 322 240T424 197Q454 197 484 208T540 243L564 190Q539 166 500 152T421 137ZM408 35Q475 35 532 59T632
126T699 227T723 353Q723 421 699 478T633 579T533 646T408 670Q340 670 283 646T183 579T116 479T92 353Q92 285 116 228T182 127T283 59T408 35Z" />
<glyph unicode="&#xaa;" glyph-name="ordfeminine" horiz-adv-x="327" d="M136 411Q89 411 58 437T27 501Q27 547 68 567T182 587H242V551H184Q151 551 129 546T95 530T84 502Q84 482 99 468T149 453Q174 453 193 464T223 496T234 546V603Q234 636 216 652T162
669Q135 669 107 662T56 640L40 682Q65 698 98 706T164 714Q227 714 258 686T290 601V416H236V470H234Q217 439 194 425T136 411Z" />
<glyph unicode="&#xab;" glyph-name="guillemotleft" horiz-adv-x="441" d="M157 85L61 245V286L156 446L214 422L136 265L214 108L157 85ZM338 85L242 245V286L337 446L395 422L317 265L395 108L338 85Z" />
<glyph unicode="&#xac;" glyph-name="logicalnot" horiz-adv-x="600" d="M480 149V358H56V420H544V149H480Z" />
<glyph unicode="&#xad;" glyph-name="uni00AD" horiz-adv-x="424" d="M72 233V300H352V233H72Z" />
<glyph unicode="&#xae;" glyph-name="registered" horiz-adv-x="815" d="M408 -9Q332 -9 266 18T150 95T74 210T46 353Q46 430 73 495T150 610T265 686T408 714Q485 714 551 687T665 610T741 496T769 353Q769 277 742 211T665 95T551 19T408 -9ZM408 35Q475 35
532 59T632 126T699 227T723 353Q723 421 699 478T633 579T533 646T408 670Q340 670 283 646T183 579T116 479T92 353Q92 285 116 228T182 127T283 59T408 35ZM264 142V564H435Q503 564 539 532T576 442Q576 384 540 354T437 323L449 333Q480 333 500 320T533 270L581
142H512L464 272Q455 297 437 305T392 314H317L330 324V142H264ZM330 368H427Q469 368 490 385T511 439Q511 476 491 493T427 510H330V368Z" />
<glyph unicode="&#xaf;" glyph-name="overscore" horiz-adv-x="500" d="M102 625V680H398V625H102Z" />
<glyph unicode="&#xb0;" glyph-name="degree" horiz-adv-x="371" d="M186 418Q144 418 110 438T57 491T37 566Q37 608 56 641T110 694T186 714Q228 714 261 695T313 642T333 566Q333 524 314 491T261 438T186 418ZM186 473Q226 473 250 499T275 566Q275 607 251
633T186 659Q147 659 122 633T96 566Q96 526 121 500T186 473Z" />
<glyph unicode="&#xb1;" glyph-name="plusminus" horiz-adv-x="600" d="M268 127V297H56V359H268V529H332V359H544V297H332V127H268ZM56 0V62H544V0H56Z" />
<glyph unicode="&#xb2;" glyph-name="uni00B2" horiz-adv-x="380" d="M54 282V332L189 478Q218 509 230 534T243 585Q243 616 225 633T173 650Q146 650 117 638T65 604L37 654Q63 679 103 694T185 709Q225 709 254 695T300 654T316 592Q316 558 300 526T250 457L132
332V341H337V282H54Z" />
<glyph unicode="&#xb3;" glyph-name="uni00B3" horiz-adv-x="380" d="M187 278Q138 278 99 293T35 334L63 383Q83 361 114 349T181 337Q216 337 239 353T263 405Q263 438 240 452T177 466H100V525H166Q205 525 228 541T251 590Q251 618 232 634T176 650Q146 650
117 638T65 604L37 654Q63 679 103 694T186 709Q247 709 283 679T319 600Q319 558 295 531T236 495V503Q264 499 285 486T318 450T331 398Q331 360 312 333T261 292T187 278Z" />
<glyph unicode="&#xb4;" glyph-name="acute" horiz-adv-x="500" d="M221 551L324 753H411L279 551H221Z" />
<glyph unicode="&#xb5;" glyph-name="uni00B5" horiz-adv-x="600" d="M95 -180V486H176V186Q176 143 187 115T223 74T284 60Q326 60 358 78T408 131T426 211V486H507V0H428V112H436Q420 53 379 22T284 -9Q240 -9 207 7T156 67H169L176 -180H95Z" />
<glyph unicode="&#xb6;" glyph-name="paragraph" horiz-adv-x="588" d="M244 -180V310Q184 310 139 335T70 405T45 508Q45 565 69 610T139 680T245 705H501V-180H436V643H309V-180H244Z" />
<glyph unicode="&#xb7;" glyph-name="middot" horiz-adv-x="228" d="M63 215V317H165V215H63Z" />
<glyph unicode="&#xb8;" glyph-name="cedilla" horiz-adv-x="500" d="M253 -192Q227 -192 204 -187T164 -173L177 -129Q196 -137 212 -141T251 -145Q277 -145 293 -136T309 -108Q309 -95 300 -88T271 -80Q260 -80 250 -81T224 -89L208 -73L222 20H273L260 -55L236
-49Q248 -46 259 -44T281 -42Q306 -42 324 -50T354 -73T365 -110Q365 -134 351 -153T312 -182T253 -192Z" />
<glyph unicode="&#xb9;" glyph-name="uni00B9" horiz-adv-x="380" d="M87 282V341H181V645H212L102 577L71 628L197 705H249V341H329V282H87Z" />
<glyph unicode="&#xba;" glyph-name="ordmasculine" horiz-adv-x="339" d="M170 411Q127 411 94 430T42 483T23 563Q23 609 42 643T94 695T170 714Q212 714 245 696T297 643T316 563Q316 517 297 483T245 430T170 411ZM170 457Q211 457 234 484T258 563Q258 614
235 641T169 668Q129 668 105 642T81 563Q81 511 105 484T170 457Z" />
<glyph unicode="&#xbb;" glyph-name="guillemotright" horiz-adv-x="441" d="M103 85L46 108L124 265L46 422L104 446L199 286V245L103 85ZM284 85L227 108L305 265L227 422L285 446L380 286V245L284 85Z" />
<glyph unicode="&#xbc;" glyph-name="onequarter" horiz-adv-x="893" d="M87 282V341H181V645H212L102 577L71 628L197 705H249V341H329V282H87ZM290 -24L236 8L652 729L706 697L290 -24ZM741 0V83H548V133L747 423H808V142H868V83H808V0H741ZM741 142V346H757L605
125V142H741Z" />
<glyph unicode="&#xbd;" glyph-name="onehalf" horiz-adv-x="937" d="M87 282V341H181V645H212L102 577L71 628L197 705H249V341H329V282H87ZM290 -24L236 8L652 729L706 697L290 -24ZM611 0V50L746 196Q775 227 787 252T800 303Q800 334 782 351T730 368Q703
368 674 356T622 322L594 372Q620 397 660 412T742 427Q782 427 811 413T857 372T873 310Q873 276 857 244T807 175L689 50V59H894V0H611Z" />
<glyph unicode="&#xbe;" glyph-name="threequarters" horiz-adv-x="893" d="M187 278Q138 278 99 293T35 334L63 383Q83 361 114 349T181 337Q216 337 239 353T263 405Q263 438 240 452T177 466H100V525H166Q205 525 228 541T251 590Q251 618 232 634T176 650Q146
650 117 638T65 604L37 654Q63 679 103 694T186 709Q247 709 283 679T319 600Q319 558 295 531T236 495V503Q264 499 285 486T318 450T331 398Q331 360 312 333T261 292T187 278ZM290 -24L236 8L652 729L706 697L290 -24ZM741 0V83H548V133L747 423H808V142H868V83H808V0H741ZM741
142V346H757L605 125V142H741Z" />
<glyph unicode="&#xbf;" glyph-name="questiondown" horiz-adv-x="443" d="M216 -189Q159 -189 116 -171T49 -118T24 -40Q24 -11 32 15T60 68T115 129Q147 159 166 184T194 232T207 279L210 302H261V275Q261 245 254 217T227 159T176 97Q136 57 122 29T107 -29Q107
-56 120 -75T159 -105T220 -116Q275 -116 322 -98T411 -43L442 -107Q416 -131 380 -149T302 -178T216 -189ZM185 384V486H286V384H185Z" />
<glyph unicode="&#xc0;" glyph-name="Agrave" horiz-adv-x="729" d="M19 0L330 705H400L711 0H626L539 201L579 180H149L190 201L104 0H19ZM364 609L203 230L179 249H549L527 230L366 609H364ZM335 765L188 937H279L397 765H335Z" />
<glyph unicode="&#xc1;" glyph-name="Aacute" horiz-adv-x="729" d="M19 0L330 705H400L711 0H626L539 201L579 180H149L190 201L104 0H19ZM364 609L203 230L179 249H549L527 230L366 609H364ZM335 765L453 937H544L397 765H335Z" />
<glyph unicode="&#xc2;" glyph-name="Acircumflex" horiz-adv-x="729" d="M19 0L330 705H400L711 0H626L539 201L579 180H149L190 201L104 0H19ZM364 609L203 230L179 249H549L527 230L366 609H364ZM205 765L328 937H404L527 765H466L366 884L266 765H205Z" />
<glyph unicode="&#xc3;" glyph-name="Atilde" horiz-adv-x="729" d="M19 0L330 705H400L711 0H626L539 201L579 180H149L190 201L104 0H19ZM364 609L203 230L179 249H549L527 230L366 609H364ZM203 783L157 786Q164 850 196 884T277 919Q301 919 324 909T380 878Q412
857 428 850T458 843Q488 843 505 863T529 922L575 919Q569 855 537 821T456 786Q433 786 408 796T350 828Q322 847 305 854T274 862Q244 862 227 842T203 783Z" />
<glyph unicode="&#xc4;" glyph-name="Adieresis" horiz-adv-x="729" d="M19 0L330 705H400L711 0H626L539 201L579 180H149L190 201L104 0H19ZM364 609L203 230L179 249H549L527 230L366 609H364ZM409 806V892H496V806H409ZM236 806V892H323V806H236Z" />
<glyph unicode="&#xc5;" glyph-name="Aring" horiz-adv-x="729" d="M19 0L330 705H400L711 0H626L539 201L579 180H149L190 201L104 0H19ZM364 609L203 230L179 249H549L527 230L366 609H364ZM366 758Q333 758 306 773T263 815T247 874Q247 907 263 932T306 973T366
989Q400 989 426 974T469 933T485 874Q485 842 469 816T427 774T366 758ZM366 801Q398 801 418 822T438 874Q438 904 418 925T366 946Q335 946 315 925T294 874Q294 843 314 822T366 801Z" />
<glyph unicode="&#xc6;" glyph-name="AE" horiz-adv-x="981" d="M-16 0L413 705H930V636H480L497 665L560 370L531 392H910V323H546L566 345L630 41L598 69H930V0H564L521 204L551 180H161L193 202L73 0H-16ZM433 608L208 229L199 249H530L516 227L435 608H433Z" />
<glyph unicode="&#xc7;" glyph-name="Ccedilla" horiz-adv-x="673" d="M392 -9Q288 -9 214 35T101 160T61 353Q61 465 100 545T214 670T392 714Q465 714 527 691T631 624L599 557Q553 600 504 619T394 639Q275 639 212 564T149 353Q149 217 212 142T394 66Q454
66 503 85T599 148L631 81Q589 38 527 15T392 -9ZM388 -192Q362 -192 339 -187T299 -173L312 -129Q331 -137 347 -141T386 -145Q412 -145 428 -136T444 -108Q444 -95 435 -88T406 -80Q395 -80 385 -81T359 -89L343 -73L357 20H408L395 -55L371 -49Q383 -46 394
-44T416 -42Q441 -42 459 -50T489 -73T500 -110Q500 -134 486 -153T447 -182T388 -192Z" />
<glyph unicode="&#xc8;" glyph-name="Egrave" horiz-adv-x="583" d="M87 0V705H532V636H167V392H511V323H167V69H532V0H87ZM293 765L146 937H237L355 765H293Z" />
<glyph unicode="&#xc9;" glyph-name="Eacute" horiz-adv-x="583" d="M87 0V705H532V636H167V392H511V323H167V69H532V0H87ZM293 765L411 937H502L355 765H293Z" />
<glyph unicode="&#xca;" glyph-name="Ecircumflex" horiz-adv-x="583" d="M87 0V705H532V636H167V392H511V323H167V69H532V0H87ZM163 765L286 937H362L485 765H424L324 884L224 765H163Z" />
<glyph unicode="&#xcb;" glyph-name="Edieresis" horiz-adv-x="583" d="M87 0V705H532V636H167V392H511V323H167V69H532V0H87ZM367 806V892H454V806H367ZM194 806V892H281V806H194Z" />
<glyph unicode="&#xcc;" glyph-name="Igrave" horiz-adv-x="256" d="M87 0V705H169V0H87ZM97 765L-50 937H41L159 765H97Z" />
<glyph unicode="&#xcd;" glyph-name="Iacute" horiz-adv-x="256" d="M87 0V705H169V0H87ZM97 765L215 937H306L159 765H97Z" />
<glyph unicode="&#xce;" glyph-name="Icircumflex" horiz-adv-x="256" d="M87 0V705H169V0H87ZM-33 765L90 937H166L289 765H228L128 884L28 765H-33Z" />
<glyph unicode="&#xcf;" glyph-name="Idieresis" horiz-adv-x="256" d="M87 0V705H169V0H87ZM171 806V892H258V806H171ZM-2 806V892H85V806H-2Z" />
<glyph unicode="&#xd0;" glyph-name="Eth" horiz-adv-x="742" d="M87 0V705H325Q440 705 519 665T640 546T682 353Q682 239 641 160T520 41T325 0H87ZM169 70H319Q458 70 526 141T595 353Q595 494 526 564T319 635H169V70ZM-1 326V390H365V326H-1Z" />
<glyph unicode="&#xd1;" glyph-name="Ntilde" horiz-adv-x="740" d="M87 0V705H151L600 106H576V705H652V0H590L141 599H164V0H87ZM207 783L161 786Q168 850 200 884T281 919Q305 919 328 909T384 878Q416 857 432 850T462 843Q492 843 509 863T533 922L579 919Q573
855 541 821T460 786Q437 786 412 796T354 828Q326 847 309 854T278 862Q248 862 231 842T207 783Z" />
<glyph unicode="&#xd2;" glyph-name="Ograve" horiz-adv-x="767" d="M383 -9Q310 -9 250 16T148 89T84 203T61 353Q61 437 83 503T148 616T249 688T383 714Q458 714 517 689T619 617T684 504T707 354Q707 270 684 203T619 89T518 17T383 -9ZM383 64Q459 64 511
98T592 197T620 353Q620 445 592 509T512 607T383 641Q309 641 257 607T176 509T148 353Q148 262 176 198T256 99T383 64ZM352 765L205 937H296L414 765H352Z" />
<glyph unicode="&#xd3;" glyph-name="Oacute" horiz-adv-x="767" d="M383 -9Q310 -9 250 16T148 89T84 203T61 353Q61 437 83 503T148 616T249 688T383 714Q458 714 517 689T619 617T684 504T707 354Q707 270 684 203T619 89T518 17T383 -9ZM383 64Q459 64 511
98T592 197T620 353Q620 445 592 509T512 607T383 641Q309 641 257 607T176 509T148 353Q148 262 176 198T256 99T383 64ZM352 765L470 937H561L414 765H352Z" />
<glyph unicode="&#xd4;" glyph-name="Ocircumflex" horiz-adv-x="767" d="M383 -9Q310 -9 250 16T148 89T84 203T61 353Q61 437 83 503T148 616T249 688T383 714Q458 714 517 689T619 617T684 504T707 354Q707 270 684 203T619 89T518 17T383 -9ZM383 64Q459 64
511 98T592 197T620 353Q620 445 592 509T512 607T383 641Q309 641 257 607T176 509T148 353Q148 262 176 198T256 99T383 64ZM222 765L345 937H421L544 765H483L383 884L283 765H222Z" />
<glyph unicode="&#xd5;" glyph-name="Otilde" horiz-adv-x="767" d="M383 -9Q310 -9 250 16T148 89T84 203T61 353Q61 437 83 503T148 616T249 688T383 714Q458 714 517 689T619 617T684 504T707 354Q707 270 684 203T619 89T518 17T383 -9ZM383 64Q459 64 511
98T592 197T620 353Q620 445 592 509T512 607T383 641Q309 641 257 607T176 509T148 353Q148 262 176 198T256 99T383 64ZM220 783L174 786Q181 850 213 884T294 919Q318 919 341 909T397 878Q429 857 445 850T475 843Q505 843 522 863T546 922L592 919Q586 855
554 821T473 786Q450 786 425 796T367 828Q339 847 322 854T291 862Q261 862 244 842T220 783Z" />
<glyph unicode="&#xd6;" glyph-name="Odieresis" horiz-adv-x="767" d="M383 -9Q310 -9 250 16T148 89T84 203T61 353Q61 437 83 503T148 616T249 688T383 714Q458 714 517 689T619 617T684 504T707 354Q707 270 684 203T619 89T518 17T383 -9ZM383 64Q459 64
511 98T592 197T620 353Q620 445 592 509T512 607T383 641Q309 641 257 607T176 509T148 353Q148 262 176 198T256 99T383 64ZM426 806V892H513V806H426ZM253 806V892H340V806H253Z" />
<glyph unicode="&#xd7;" glyph-name="multiply" horiz-adv-x="600" d="M110 51L66 94L256 284L66 474L110 519L300 329L490 519L534 474L344 284L534 94L490 51L300 241L110 51Z" />
<glyph unicode="&#xd8;" glyph-name="Oslash" horiz-adv-x="767" d="M383 -9Q310 -9 250 16T148 89T84 203T61 353Q61 437 83 503T148 616T249 688T383 714Q458 714 517 689T619 617T684 504T707 354Q707 270 684 203T619 89T518 17T383 -9ZM383 64Q459 64 511
98T592 197T620 353Q620 445 592 509T512 607T383 641Q309 641 257 607T176 509T148 353Q148 262 176 198T256 99T383 64ZM189 -47L132 -14L186 79L210 119L506 625L525 660L579 752L636 719L581 626L557 586L262 80L243 46L189 -47Z" />
<glyph unicode="&#xd9;" glyph-name="Ugrave" horiz-adv-x="728" d="M365 -9Q227 -9 155 64T82 279V705H164V283Q164 173 215 119T365 64Q464 64 514 118T564 283V705H646V279Q646 138 575 65T365 -9ZM334 765L187 937H278L396 765H334Z" />
<glyph unicode="&#xda;" glyph-name="Uacute" horiz-adv-x="728" d="M365 -9Q227 -9 155 64T82 279V705H164V283Q164 173 215 119T365 64Q464 64 514 118T564 283V705H646V279Q646 138 575 65T365 -9ZM334 765L452 937H543L396 765H334Z" />
<glyph unicode="&#xdb;" glyph-name="Ucircumflex" horiz-adv-x="728" d="M365 -9Q227 -9 155 64T82 279V705H164V283Q164 173 215 119T365 64Q464 64 514 118T564 283V705H646V279Q646 138 575 65T365 -9ZM204 765L327 937H403L526 765H465L365 884L265 765H204Z" />
<glyph unicode="&#xdc;" glyph-name="Udieresis" horiz-adv-x="728" d="M365 -9Q227 -9 155 64T82 279V705H164V283Q164 173 215 119T365 64Q464 64 514 118T564 283V705H646V279Q646 138 575 65T365 -9ZM408 806V892H495V806H408ZM235 806V892H322V806H235Z" />
<glyph unicode="&#xdd;" glyph-name="Yacute" horiz-adv-x="596" d="M257 0V365L275 308L-13 705H83L310 391H289L516 705H609L322 308L339 365V0H257ZM267 765L385 937H476L329 765H267Z" />
<glyph unicode="&#xde;" glyph-name="Thorn" horiz-adv-x="634" d="M87 0V705H169V577H367Q443 577 495 553T575 481T602 366Q602 299 575 252T496 179T367 154H169V0H87ZM169 222H357Q438 222 479 258T520 366Q520 437 479 473T357 509H169V222Z" />
<glyph unicode="&#xdf;" glyph-name="germandbls" horiz-adv-x="615" d="M403 -9Q369 -9 335 -2T272 20T219 55L246 112Q283 83 325 69T404 55Q453 55 481 76T509 134Q509 163 485 182T402 220Q349 237 317 256T272 299T258 356Q258 387 274 416T336 484Q367 511
379 532T392 579Q392 601 382 617T351 642T302 651Q232 651 195 609T157 490V0H76V480Q76 554 102 606T179 686T301 714Q354 714 392 699T450 654T470 586Q470 561 463 540T439 497T394 451Q360 421 348 403T335 364Q335 347 345 333T378 306T442 281Q519 258 552
224T585 136Q585 93 563 61T499 10T403 -9Z" />
<glyph unicode="&#xe0;" glyph-name="agrave" horiz-adv-x="530" d="M229 -9Q179 -9 140 10T77 64T54 140Q54 194 81 225T172 269T346 282H391V229H347Q286 229 245 225T180 211T146 185T136 145Q136 104 164 78T242 52Q282 52 312 71T360 123T378 199V313Q378
375 353 402T271 430Q227 430 186 418T102 377L74 436Q100 454 133 467T202 488T271 495Q334 495 375 475T436 413T456 306V0H380V113H389Q381 75 359 48T303 6T229 -9ZM243 551L112 753H198L301 551H243Z" />
<glyph unicode="&#xe1;" glyph-name="aacute" horiz-adv-x="530" d="M229 -9Q179 -9 140 10T77 64T54 140Q54 194 81 225T172 269T346 282H391V229H347Q286 229 245 225T180 211T146 185T136 145Q136 104 164 78T242 52Q282 52 312 71T360 123T378 199V313Q378
375 353 402T271 430Q227 430 186 418T102 377L74 436Q100 454 133 467T202 488T271 495Q334 495 375 475T436 413T456 306V0H380V113H389Q381 75 359 48T303 6T229 -9ZM243 551L346 753H433L301 551H243Z" />
<glyph unicode="&#xe2;" glyph-name="acircumflex" horiz-adv-x="530" d="M229 -9Q179 -9 140 10T77 64T54 140Q54 194 81 225T172 269T346 282H391V229H347Q286 229 245 225T180 211T146 185T136 145Q136 104 164 78T242 52Q282 52 312 71T360 123T378 199V313Q378
375 353 402T271 430Q227 430 186 418T102 377L74 436Q100 454 133 467T202 488T271 495Q334 495 375 475T436 413T456 306V0H380V113H389Q381 75 359 48T303 6T229 -9ZM124 551L233 753H311L420 551H364L272 699L180 551H124Z" />
<glyph unicode="&#xe3;" glyph-name="atilde" horiz-adv-x="530" d="M229 -9Q179 -9 140 10T77 64T54 140Q54 194 81 225T172 269T346 282H391V229H347Q286 229 245 225T180 211T146 185T136 145Q136 104 164 78T242 52Q282 52 312 71T360 123T378 199V313Q378
375 353 402T271 430Q227 430 186 418T102 377L74 436Q100 454 133 467T202 488T271 495Q334 495 375 475T436 413T456 306V0H380V113H389Q381 75 359 48T303 6T229 -9ZM138 590L92 593Q97 656 125 691T199 726Q221 726 239 716T282 684Q304 665 317 658T344 650Q370
650 385 670T406 729L452 726Q447 663 419 628T346 593Q325 593 307 602T262 635Q241 654 228 661T201 669Q175 669 160 649T138 590Z" />
<glyph unicode="&#xe4;" glyph-name="adieresis" horiz-adv-x="530" d="M229 -9Q179 -9 140 10T77 64T54 140Q54 194 81 225T172 269T346 282H391V229H347Q286 229 245 225T180 211T146 185T136 145Q136 104 164 78T242 52Q282 52 312 71T360 123T378 199V313Q378
375 353 402T271 430Q227 430 186 418T102 377L74 436Q100 454 133 467T202 488T271 495Q334 495 375 475T436 413T456 306V0H380V113H389Q381 75 359 48T303 6T229 -9ZM315 609V695H402V609H315ZM142 609V695H229V609H142Z" />
<glyph unicode="&#xe5;" glyph-name="aring" horiz-adv-x="530" d="M229 -9Q179 -9 140 10T77 64T54 140Q54 194 81 225T172 269T346 282H391V229H347Q286 229 245 225T180 211T146 185T136 145Q136 104 164 78T242 52Q282 52 312 71T360 123T378 199V313Q378
375 353 402T271 430Q227 430 186 418T102 377L74 436Q100 454 133 467T202 488T271 495Q334 495 375 475T436 413T456 306V0H380V113H389Q381 75 359 48T303 6T229 -9ZM272 547Q239 547 212 562T169 604T153 663Q153 696 169 721T212 762T272 778Q306 778 332
763T375 721T391 663Q391 631 375 605T333 563T272 547ZM272 590Q304 590 324 611T344 663Q344 693 324 714T272 735Q241 735 221 714T200 663Q200 632 220 611T272 590Z" />
<glyph unicode="&#xe6;" glyph-name="ae" horiz-adv-x="861" d="M234 -9Q182 -9 142 10T78 64T54 140Q54 194 82 225T174 269T347 282H392V228H347Q266 228 220 221T155 196T136 145Q136 104 165 78T244 52Q285 52 316 71T364 125T381 204V312Q381 374 355 402T272
430Q228 430 187 418T102 378L74 436Q100 454 133 467T202 488T273 495Q346 495 388 465T444 374H421Q446 433 497 464T613 495Q676 495 723 466T794 384T819 257V228H451V282H765L750 269Q750 321 734 358T688 415T612 435Q542 435 501 386T460 253V246Q460 154
502 105T626 56Q669 56 708 70T784 115L811 57Q778 27 728 9T627 -9Q571 -9 526 8T449 60T404 145H424Q414 98 389 63T324 10T234 -9Z" />
<glyph unicode="&#xe7;" glyph-name="ccedilla" horiz-adv-x="463" d="M282 -9Q209 -9 156 23T75 112T46 246Q46 323 74 379T156 465T282 495Q327 495 371 479T444 434L416 375Q387 403 353 416T287 429Q211 429 170 382T129 245Q129 158 170 108T287 57Q318 57
352 70T416 112L444 53Q415 24 371 8T282 -9ZM281 -192Q255 -192 232 -187T192 -173L205 -129Q224 -137 240 -141T279 -145Q305 -145 321 -136T337 -108Q337 -95 328 -88T299 -80Q288 -80 278 -81T252 -89L236 -73L250 20H301L288 -55L264 -49Q276 -46 287 -44T309
-42Q334 -42 352 -50T382 -73T393 -110Q393 -134 379 -153T340 -182T281 -192Z" />
<glyph unicode="&#xe8;" glyph-name="egrave" horiz-adv-x="532" d="M295 -9Q218 -9 163 21T77 108T46 242Q46 318 76 374T158 463T280 495Q346 495 393 466T465 384T491 257V226H108V279H437L421 266Q421 346 386 390T282 435Q231 435 196 412T142 347T124 250V244Q124
183 143 141T202 78T295 56Q338 56 378 69T455 114L483 57Q450 27 399 9T295 -9ZM251 551L120 753H206L309 551H251Z" />
<glyph unicode="&#xe9;" glyph-name="eacute" horiz-adv-x="532" d="M295 -9Q218 -9 163 21T77 108T46 242Q46 318 76 374T158 463T280 495Q346 495 393 466T465 384T491 257V226H108V279H437L421 266Q421 346 386 390T282 435Q231 435 196 412T142 347T124 250V244Q124
183 143 141T202 78T295 56Q338 56 378 69T455 114L483 57Q450 27 399 9T295 -9ZM251 551L354 753H441L309 551H251Z" />
<glyph unicode="&#xea;" glyph-name="ecircumflex" horiz-adv-x="532" d="M295 -9Q218 -9 163 21T77 108T46 242Q46 318 76 374T158 463T280 495Q346 495 393 466T465 384T491 257V226H108V279H437L421 266Q421 346 386 390T282 435Q231 435 196 412T142 347T124
250V244Q124 183 143 141T202 78T295 56Q338 56 378 69T455 114L483 57Q450 27 399 9T295 -9ZM132 551L241 753H319L428 551H372L280 699L188 551H132Z" />
<glyph unicode="&#xeb;" glyph-name="edieresis" horiz-adv-x="532" d="M295 -9Q218 -9 163 21T77 108T46 242Q46 318 76 374T158 463T280 495Q346 495 393 466T465 384T491 257V226H108V279H437L421 266Q421 346 386 390T282 435Q231 435 196 412T142 347T124
250V244Q124 183 143 141T202 78T295 56Q338 56 378 69T455 114L483 57Q450 27 399 9T295 -9ZM323 609V695H410V609H323ZM150 609V695H237V609H150Z" />
<glyph unicode="&#xec;" glyph-name="igrave" horiz-adv-x="232" d="M76 0V486H157V0H76ZM87 551L-44 753H42L145 551H87Z" />
<glyph unicode="&#xed;" glyph-name="iacute" horiz-adv-x="232" d="M76 0V486H157V0H76ZM87 551L190 753H277L145 551H87Z" />
<glyph unicode="&#xee;" glyph-name="icircumflex" horiz-adv-x="232" d="M76 0V486H157V0H76ZM-32 551L77 753H155L264 551H208L116 699L24 551H-32Z" />
<glyph unicode="&#xef;" glyph-name="idieresis" horiz-adv-x="232" d="M76 0V486H157V0H76ZM159 609V695H246V609H159ZM-14 609V695H73V609H-14Z" />
<glyph unicode="&#xf0;" glyph-name="eth" horiz-adv-x="559" d="M276 -9Q207 -9 155 20T75 101T46 223Q46 292 74 343T154 423T272 452Q343 452 392 416T459 300H436Q437 399 397 473T288 593H310L136 517L113 568L248 627L250 616Q229 627 202 638T143 657L160
712Q209 700 249 683T320 647L296 649L442 712L465 661L351 611L354 623Q407 585 442 534T495 420T514 284Q514 190 487 125T407 25T276 -9ZM277 57Q347 57 387 101T427 223Q427 299 388 343T277 387Q208 387 168 343T128 223Q128 144 167 101T277 57Z" />
<glyph unicode="&#xf1;" glyph-name="ntilde" horiz-adv-x="568" d="M76 0V486H155V378H144Q165 436 212 465T322 495Q380 495 418 475T476 411T495 303V0H414V298Q414 343 403 372T367 415T303 429Q259 429 226 410T175 357T157 277V0H76ZM151 590L105 593Q110
656 138 691T212 726Q234 726 252 716T295 684Q317 665 330 658T357 650Q383 650 398 670T419 729L465 726Q460 663 432 628T359 593Q338 593 320 602T275 635Q254 654 241 661T214 669Q188 669 173 649T151 590Z" />
<glyph unicode="&#xf2;" glyph-name="ograve" horiz-adv-x="556" d="M278 -9Q207 -9 155 22T75 109T46 243Q46 320 74 376T155 464T278 495Q349 495 401 464T481 377T510 243Q510 166 482 110T401 22T278 -9ZM278 56Q347 56 387 104T428 244Q428 334 388 382T278
430Q210 430 169 382T128 244Q128 153 169 105T278 56ZM249 551L118 753H204L307 551H249Z" />
<glyph unicode="&#xf3;" glyph-name="oacute" horiz-adv-x="556" d="M278 -9Q207 -9 155 22T75 109T46 243Q46 320 74 376T155 464T278 495Q349 495 401 464T481 377T510 243Q510 166 482 110T401 22T278 -9ZM278 56Q347 56 387 104T428 244Q428 334 388 382T278
430Q210 430 169 382T128 244Q128 153 169 105T278 56ZM249 551L352 753H439L307 551H249Z" />
<glyph unicode="&#xf4;" glyph-name="ocircumflex" horiz-adv-x="556" d="M278 -9Q207 -9 155 22T75 109T46 243Q46 320 74 376T155 464T278 495Q349 495 401 464T481 377T510 243Q510 166 482 110T401 22T278 -9ZM278 56Q347 56 387 104T428 244Q428 334 388
382T278 430Q210 430 169 382T128 244Q128 153 169 105T278 56ZM130 551L239 753H317L426 551H370L278 699L186 551H130Z" />
<glyph unicode="&#xf5;" glyph-name="otilde" horiz-adv-x="556" d="M278 -9Q207 -9 155 22T75 109T46 243Q46 320 74 376T155 464T278 495Q349 495 401 464T481 377T510 243Q510 166 482 110T401 22T278 -9ZM278 56Q347 56 387 104T428 244Q428 334 388 382T278
430Q210 430 169 382T128 244Q128 153 169 105T278 56ZM144 590L98 593Q103 656 131 691T205 726Q227 726 245 716T288 684Q310 665 323 658T350 650Q376 650 391 670T412 729L458 726Q453 663 425 628T352 593Q331 593 313 602T268 635Q247 654 234 661T207 669Q181
669 166 649T144 590Z" />
<glyph unicode="&#xf6;" glyph-name="odieresis" horiz-adv-x="556" d="M278 -9Q207 -9 155 22T75 109T46 243Q46 320 74 376T155 464T278 495Q349 495 401 464T481 377T510 243Q510 166 482 110T401 22T278 -9ZM278 56Q347 56 387 104T428 244Q428 334 388 382T278
430Q210 430 169 382T128 244Q128 153 169 105T278 56ZM321 609V695H408V609H321ZM148 609V695H235V609H148Z" />
<glyph unicode="&#xf7;" glyph-name="divide" horiz-adv-x="600" d="M56 256V318H544V256H56ZM251 45V131H337V45H251ZM251 443V529H337V443H251Z" />
<glyph unicode="&#xf8;" glyph-name="oslash" horiz-adv-x="556" d="M278 -9Q207 -9 155 22T75 109T46 243Q46 320 74 376T155 464T278 495Q349 495 401 464T481 377T510 243Q510 166 482 110T401 22T278 -9ZM278 56Q347 56 387 104T428 244Q428 334 388 382T278
430Q210 430 169 382T128 244Q128 153 169 105T278 56ZM141 -48L92 -20L415 535L464 506L141 -48Z" />
<glyph unicode="&#xf9;" glyph-name="ugrave" horiz-adv-x="561" d="M248 -9Q189 -9 151 12T93 77T73 184V486H154V185Q154 142 165 114T202 72T264 58Q306 58 337 77T386 130T404 210V486H485V0H406V112H419Q399 53 354 22T248 -9ZM252 552L121 754H207L310 552H252Z" />
<glyph unicode="&#xfa;" glyph-name="uacute" horiz-adv-x="561" d="M248 -9Q189 -9 151 12T93 77T73 184V486H154V185Q154 142 165 114T202 72T264 58Q306 58 337 77T386 130T404 210V486H485V0H406V112H419Q399 53 354 22T248 -9ZM252 552L355 754H442L310 552H252Z" />
<glyph unicode="&#xfb;" glyph-name="ucircumflex" horiz-adv-x="561" d="M248 -9Q189 -9 151 12T93 77T73 184V486H154V185Q154 142 165 114T202 72T264 58Q306 58 337 77T386 130T404 210V486H485V0H406V112H419Q399 53 354 22T248 -9ZM133 552L242 754H320L429
552H373L281 700L189 552H133Z" />
<glyph unicode="&#xfc;" glyph-name="udieresis" horiz-adv-x="561" d="M248 -9Q189 -9 151 12T93 77T73 184V486H154V185Q154 142 165 114T202 72T264 58Q306 58 337 77T386 130T404 210V486H485V0H406V112H419Q399 53 354 22T248 -9ZM324 610V696H411V610H324ZM151
610V696H238V610H151Z" />
<glyph unicode="&#xfd;" glyph-name="yacute" horiz-adv-x="514" d="M132 -180L223 25V-10L10 486H98L272 60H245L421 486H506L217 -180H132ZM229 551L332 753H419L287 551H229Z" />
<glyph unicode="&#xfe;" glyph-name="thorn" horiz-adv-x="583" d="M76 -180V705H157V371H145Q161 428 208 461T322 495Q387 495 435 465T510 378T537 243Q537 166 511 110T436 22T322 -9Q256 -9 209 24T145 114H157V-180H76ZM305 56Q374 56 414 104T455 243Q455
334 415 382T305 430Q237 430 196 382T155 243Q155 153 196 105T305 56Z" />
<glyph unicode="&#xff;" glyph-name="ydieresis" horiz-adv-x="514" d="M132 -180L223 25V-10L10 486H98L272 60H245L421 486H506L217 -180H132ZM301 609V695H388V609H301ZM128 609V695H215V609H128Z" />
<glyph unicode="&#x2013;" glyph-name="endash" horiz-adv-x="500" d="M0 240V293H500V240H0Z" />
<glyph unicode="&#x2014;" glyph-name="emdash" horiz-adv-x="1000" d="M0 240V293H1000V240H0Z" />
<glyph unicode="&#x2018;" glyph-name="quoteleft" horiz-adv-x="228" d="M63 495V566Q63 594 68 618T87 665T123 711L162 682Q145 663 135 646T121 613T117 580L93 597H165V495H63Z" />
<glyph unicode="&#x2019;" glyph-name="quoteright" horiz-adv-x="228" d="M105 488L68 518Q86 536 95 553T108 586T112 619L137 603H64V705H166V633Q166 606 161 582T142 534T105 488Z" />
<glyph unicode="&#x201a;" glyph-name="quotesinglbase" horiz-adv-x="228" d="M105 -114L68 -85Q83 -68 93 -53T107 -20T112 17L137 0H64V102H166V30Q166 1 160 -24T140 -71T105 -114Z" />
<glyph unicode="&#x201c;" glyph-name="quotedblleft" horiz-adv-x="394" d="M63 495V566Q63 594 68 618T87 665T123 711L162 682Q145 663 135 646T121 613T117 580L93 597H165V495H63ZM229 495V566Q229 594 234 618T253 665T289 711L328 682Q311 663 301 646T287
613T283 580L259 597H331V495H229Z" />
<glyph unicode="&#x201d;" glyph-name="quotedblright" horiz-adv-x="394" d="M105 488L68 518Q86 536 95 553T108 586T112 619L137 603H64V705H166V633Q166 606 161 582T142 534T105 488ZM271 488L234 518Q252 536 261 553T274 586T278 619L303 603H230V705H332V633Q332
606 327 582T308 534T271 488Z" />
<glyph unicode="&#x201e;" glyph-name="quotedblbase" horiz-adv-x="394" d="M105 -114L68 -85Q83 -68 93 -53T107 -20T112 17L137 0H64V102H166V30Q166 1 160 -24T140 -71T105 -114ZM271 -114L234 -85Q249 -68 259 -53T273 -20T278 17L303 0H230V102H332V30Q332
1 326 -24T306 -71T271 -114Z" />
<glyph unicode="&#x2022;" glyph-name="bullet" horiz-adv-x="524" d="M262 88Q213 88 172 111T106 175T81 265Q81 311 104 351T169 417T262 443Q310 443 351 420T418 357T443 265Q443 216 419 176T353 112T262 88Z" />
<glyph unicode="&#x2039;" glyph-name="guilsinglleft" horiz-adv-x="260" d="M157 85L61 245V286L156 446L214 422L136 265L214 108L157 85Z" />
<glyph unicode="&#x203a;" glyph-name="guilsinglright" horiz-adv-x="260" d="M103 85L46 108L124 265L46 422L104 446L199 286V245L103 85Z" />
</font>
</defs>
</svg>
