<?xml version="1.0" standalone="no"?>
<!DOCTYPE svg PUBLIC "-//W3C//DTD SVG 1.1//EN" "http://www.w3.org/Graphics/SVG/1.1/DTD/svg11.dtd">
<svg xmlns="http://www.w3.org/2000/svg">
  <defs>
    <font id="Poppins" horiz-adv-x="851">
      <font-face font-family="Poppins" units-per-em="1000" panose-1="0 0 5 0 0 0 0 0 0 0" ascent="1050" descent="-350" alphabetic="0" />
      <glyph unicode=" " glyph-name="space" horiz-adv-x="267" />
      <glyph unicode="!" glyph-name="exclam" horiz-adv-x="298" d="M195,697L184,197H108L97,697h98ZM150-6q-26,0-44,18T88,56t18,44t44,18q25,0 42.5-18T210,56T192.5,12T150-6Z" />
      <glyph unicode="&quot;" glyph-name="quotedbl" horiz-adv-x="292" d="M121,796L110,597H47L35,796h86Zm135,0L245,597H182L170,796h86Z" />
      <glyph unicode="#" glyph-name="numbersign" horiz-adv-x="840" d="M629,460L591,280H729V200H574L531,0H444l43,200H277L234,0H147l43,200H33v80H207l38,180H90v80H262l43,200h87L349,540H559l43,200h87L646,540H785V460H629Zm-87,0H332L294,280H504l38,180Z" />
      <glyph unicode="$" glyph-name="dollar" horiz-adv-x="622" d="M527,191q0-48-24-91.5T432.5,27T321-6V-87H267V-6Q176,2 119,52.5T61,181h97q4-42 31.5-73T267,69V319q-67,17-108,35T89,410T60,512q0,81 56.5,134T267,705v83h54V705q85-7 137-54.5T518,527H421q-5,35-31,63.5T321,628V384q66-17 107.5-34.5t70-55.5T527,191ZM153,517q0-49 29-75t85-43V630q-52-5-83-33.5T153,517ZM321,68q54,6 84.5,39T436,186q0,49-30,75.5T321,304V68Z" />
      <glyph unicode="%" glyph-name="percent" horiz-adv-x="759" d="M42,560q0,68 41,108.5T188,709t105-40.5T334,560q0-69-41-109.5T188,410T83,450.5T42,560ZM626,698L221,0H131L536,698h90ZM188,653q-34,0-53.5-23.5T115,560t19.5-70T188,466t54,24.5T262,560q0,46-20,69.5T188,653ZM425,138q0,69 41,109.5T571,288t104.5-40.5T716,138q0-68-40.5-109T571-12T466,28.5T425,138Zm145,93q-34,0-54-23.5T496,138q0-45 20-68.5T570,46t54,23.5T644,138q0,46-20,69.5T570,231Z" />
      <glyph unicode="&amp;" glyph-name="ampersand" horiz-adv-x="739" d="M612,0L521,92Q470,39 412,13.5T281-12q-72,0-127.5,26t-86,74T37,200q0,73 41.5,128.5T201,416q-32,38-46,70t-14,70q0,44 22.5,79.5T228,691t97,20q54,0 94-21t60-58.5T497,548H406q1,41-23,64.5T321,636q-40,0-64.5-22.5T232,556q0-30 16.5-58T304,429L512,220l18,28l68,114h98L614,220q-17-30-40-63L731,0H612ZM281,66q54,0 97.5,21T461,152L256,358Q128,309 128,203q0-59 42.5-98T281,66Z" />
      <glyph unicode="&apos;" glyph-name="quotesingle" horiz-adv-x="159" d="M123,796L111,597H48L35,796h88Z" />
      <glyph unicode="(" glyph-name="parenleft" horiz-adv-x="454" d="M311-186Q215-92 161.5,53T108,366q0,172 56.5,321.5T326,934h95v-9Q309,820 252.5,672.5T196,366q0-155 53.5-296T406-177v-9H311Z" />
      <glyph unicode=")" glyph-name="parenright" horiz-adv-x="454" d="M48-186v9Q151-71 204.5,70T258,366q0,159-56.5,306.5T33,925v9h95q105-97 161.5-246.5T346,366q0-168-53.5-313T143-186H48Z" />
      <glyph unicode="*" glyph-name="asterisk" horiz-adv-x="486" d="M387,670l36-65L284,547l140-57l-38-67L265,511l16-151H206l15,151L100,422L61,490l139,58L61,604l37,67l124-89L206,734h76L265,582l122,88Z" />
      <glyph unicode="+" glyph-name="plus" horiz-adv-x="683" d="M597,327H384V111H299V327H87v77H299V621h85V404H597V327Z" />
      <glyph unicode="," glyph-name="comma" horiz-adv-x="198" d="M171,126L59-143H-2L71,126H171Z" />
      <glyph unicode="-" glyph-name="hyphen" horiz-adv-x="551" d="M457,405V328H58v77H457Z" />
      <glyph unicode="." glyph-name="period" horiz-adv-x="210" d="M106-6Q80-6 62,12T44,56t18,44t44,18q25,0 42.5-18T166,56T148.5,12T106-6Z" />
      <glyph unicode="/" glyph-name="slash" horiz-adv-x="476" d="M417,942L143-170H53L326,942h91Z" />
      <glyph unicode="0" glyph-name="zero" horiz-adv-x="628" d="M62,369q0,172 56,268.5T314,734q139,0 195-96.5T565,369q0-175-56-272T314,0Q174,0 118,97T62,369Zm413,0q0,87-11.5,147.5t-47,97.5T314,651q-68,0-103.5-37t-47-97.5T152,369q0-90 11.5-151t47-98T314,83q67,0 102.5,37t47,98T475,369Z" />
      <glyph unicode="1" glyph-name="one" horiz-adv-x="320" d="M38,640v83H226V0H134V640H38Z" />
      <glyph unicode="2" glyph-name="two" horiz-adv-x="575" d="M51,73Q178,175 250,240.5t121.5,137T421,518q0,65-31.5,102.5T288,658q-68,0-105.5-42.5T142,502H54q4,112 68,173t165,61q103,0 163.5-57T511,522q0-83-49.5-161.5T349,222.5T188,84H532V8H51V73Z" />
      <glyph unicode="3" glyph-name="three" horiz-adv-x="589" d="M60,541q7,92 71,144t166,52q68,0 117.5-24.5t75-66.5T515,551q0-62-35.5-107T387,386v-5q65-16 103-63t38-123q0-57-26-102.5T424,21T299-5Q193-5 125,50.5T49,208h88q7-60 49-98T298,72t106.5,36.5T441,203q0,75-50,108T240,344H217v76h24q92,1 139,30.5T427,542q0,53-34.5,85T294,659q-62,0-100-32t-45-86H60Z" />
      <glyph unicode="4" glyph-name="four" horiz-adv-x="629" d="M40,161v69L391,716H500V240H600V161H500V0H410V161H40ZM414,621L145,240H414V621Z" />
      <glyph unicode="5" glyph-name="five" horiz-adv-x="628" d="M523,644H172V416q23,32 68,52.5T337,489q83,0 135-34.5t74.5-89T569,250q0-72-27-129T459.5,31T322-2Q217-2 152,52T73,196h89q13-57 55-89T323,75q79,0 119,47.5T482,248T442,368.5T324,411q-53,0-92.5-25.5T174,316H88V724H523V644Z" />
      <glyph unicode="6" glyph-name="six" horiz-adv-x="635" d="M465,551Q443,662 328,662q-89,0-133-68.5T152,368q23,52 76.5,81.5T348,479q103,0 164.5-64T574,238q0-68-26.5-122t-80-86T338-2Q235-2 177,44T96,171T73,371q0,367 256,367q98,0 154-53t66-134H465ZM329,402q-43,0-81-17.5t-61.5-53T163,245q0-76 44-123.5T333,74q70,0 111.5,43.5T486,235q0,78-40,122.5T329,402Z" />
      <glyph unicode="7" glyph-name="seven" horiz-adv-x="546" d="M507,652L229,0H137L419,643H33v78H507V652Z" />
      <glyph unicode="8" glyph-name="eight" horiz-adv-x="631" d="M194,376q-56,22-86,64T78,542q0,54 27,97.5t80.5,69T315,734t129.5-25.5t81-69T553,542q0-58-31-101.5T437,376q62-19 98.5-66.5T572,195q0-65-32-113.5t-90.5-75T315-20T181.5,6.5T92,81.5T60,195q0,67 36,115t98,66ZM465,531q0,61-40,94T315,658q-69,0-109-33t-40-95q0-56 41.5-90T315,406q67,0 108.5,34.5T465,531ZM315,336q-74,0-121-34.5T147,198q0-64 45.5-103T315,56T437,95t45,103q0,67-46,102.5T315,336Z" />
      <glyph unicode="9" glyph-name="nine" horiz-adv-x="630" d="M179,194q10-57 46.5-88T324,75q83,0 122.5,65T484,359q-21-45-70-70.5T305,263q-67,0-119.5,27.5T103,371T73,499q0,107 62,172.5T311,737q140,0 196.5-91T564,375q0-126-22.5-208t-76-125T319-1Q217-1 160,54T95,194h84ZM320,340q67,0 110,41.5T473,494q0,75-42,121T313,661q-70,0-111.5-44T160,501q0-73 41-117t119-44Z" />
      <glyph unicode=":" glyph-name="colon" horiz-adv-x="213" d="M106-6Q80-6 62,12T44,56t18,44t44,18q25,0 42.5-18T166,56T148.5,12T106-6Zm0,428q-26,0-44,18T44,484t18,44t44,18q25,0 42.5-18T166,484t-17.5-44T106,422Z" />
      <glyph unicode=";" glyph-name="semicolon" horiz-adv-x="264" d="M130,423q-26,0-44,18T68,485t18,44t44,18q25,0 42.5-18T190,485t-17.5-44T130,423Zm66-297L84-143H23L96,126H196Z" />
      <glyph unicode="&lt;" glyph-name="less" horiz-adv-x="555" d="M325,136L84,366L325,595H440L198,366L440,136H325Z" />
      <glyph unicode="=" glyph-name="equal" horiz-adv-x="723" d="M621,512V435H101v77H621Zm0-215V220H101v77H621Z" />
      <glyph unicode="&gt;" glyph-name="greater" horiz-adv-x="539" d="M94,595H209L451,366L209,136H94L336,366L94,595Z" />
      <glyph unicode="?" glyph-name="question" horiz-adv-x="524" d="M255,706q99,0 160-56t61-150q0-105-65-155.5T235,294l-3-95H153l-4,158h29q99,0 155,30t56,113q0,60-36,95t-97,35q-62,0-97.5-33.5T123,505H37q0,60 27,105.5T140.5,681T255,706ZM192-6q-26,0-44,18T130,56t18,44t44,18q25,0 42.5-18T252,56T234.5,12T192-6Z" />
      <glyph unicode="@" glyph-name="at" horiz-adv-x="1013" d="M577,641q111,0 193-42T896,481.5T940,307q0-79-26-151.5T838.5,38T723-7q-50,0-77,25T615,86q-31-43-78.5-68T436-7Q360-7 316.5,39.5T273,165q0,75 31.5,140T392,409.5T519,449q95,0 128-72l11,62h79L687,150q-3-19-3-35q0-60 53-60q40,0 69.5,38T851,188.5T866,302q0,131-78.5,203T566,577q-119,0-214.5-57.5T202,362T148,141Q147,9 227-62.5T449-134q94,0 166,34l12-62q-89-37-196-37T242.5-158.5t-126,116T72,133q0,141 65,257.5T317.5,574T577,641ZM463,64q45,0 83,26.5t60,72T628,262q0,52-28.5,84.5T519,379q-48,0-84.5-28.5t-56.5-75T358,179q0-53 27-84t78-31Z" />
      <glyph unicode="A" glyph-name="A" horiz-adv-x="674" d="M489,155H185L129,0H33L285,693H390L641,0H545L489,155Zm-26,74L337,581L211,229H463Z" />
      <glyph unicode="B" glyph-name="B" horiz-adv-x="613" d="M426,359q38-6 69.5-31t50-62T564,187q0-53-27-95.5t-78.5-67T337,0H77V697H327q71,0 121-23.5T523,610t25-90q0-62-33.5-102.5T426,359ZM168,396H321q64,0 99,30t35,83t-35,83T319,622H168V396ZM329,75q68,0 106,32t38,89q0,58-40,91.5T326,321H168V75H329Z" />
      <glyph unicode="C" glyph-name="C" horiz-adv-x="772" d="M43,349q0,102 46,183.5T214.5,660T391,706q114,0 199-55T714,495H605q-29,63-83.5,97T391,626q-73,0-131-34t-91-96.5T136,349q0-83 33-145.5T260,107T391,73q76,0 130.5,33.5T605,203H714Q675,103 590,48.5T391-6Q294-6 214.5,39.5T89,166T43,349Z" />
      <glyph unicode="D" glyph-name="D" horiz-adv-x="707" d="M294,697q114,0 197.5-42.5T619.5,533T664,347T619.5,161.5t-128-120T294,0H77V697H294Zm0-622q135,0 206,71.5T571,347q0,130-71.5,203T294,623H168V75H294Z" />
      <glyph unicode="E" glyph-name="E" horiz-adv-x="513" d="M168,623V390H422V315H168V75H452V0H77V698H452V623H168Z" />
      <glyph unicode="F" glyph-name="F" horiz-adv-x="504" d="M471,697V623H168V388H414V314H168V0H77V697H471Z" />
      <glyph unicode="G" glyph-name="G" horiz-adv-x="778" d="M605,495q-29,61-84,94.5T393,623T261.5,589.5t-92-96T136,349t33.5-144t92-95.5T393,76q102,0 168,61t77,165H360v74H735V306q-8-86-54-157.5T560,35.5T393-6Q296-6 216,39.5T89.5,166T43,349T89.5,532.5T216,659.5T393,705q111,0 196.5-55T714,495H605Z" />
      <glyph unicode="H" glyph-name="H" horiz-adv-x="692" d="M614,697V0H523V316H168V0H77V697h91V391H523V697h91Z" />
      <glyph unicode="I" glyph-name="I" horiz-adv-x="246" d="M168,697V0H77V697h91Z" />
      <glyph unicode="J" glyph-name="J" horiz-adv-x="530" d="M428,697V182q0-86-53-137.5T235-7Q147-7 94,45.5T41,189h91q1-51 26.5-83T235,74t76,30.5T336,182V697h92Z" />
      <glyph unicode="K" glyph-name="K" horiz-adv-x="599" d="M455,0L168,318V0H77V697h91V374L456,697H571L255,348L574,0H455Z" />
      <glyph unicode="L" glyph-name="L" horiz-adv-x="432" d="M168,74H412V0H77V697h91V74Z" />
      <glyph unicode="M" glyph-name="M" horiz-adv-x="861" d="M784,692V0H693V516L463,0H399L168,517V0H77V692h98L431,120L687,692h97Z" />
      <glyph unicode="N" glyph-name="N" horiz-adv-x="703" d="M625,0H534L168,555V0H77V698h91L534,144V698h91V0Z" />
      <glyph unicode="O" glyph-name="O" horiz-adv-x="786" d="M393-7Q296-7 216,38.5T89.5,165.5T43,349T89.5,532.5T216,659.5T393,705q98,0 178-45.5T697,533t46-184T697,165T571,38.5T393-7Zm0,79q73,0 131.5,34t92,97T650,349q0,84-33.5,146.5T525,592T393,626T261,592t-91.5-96.5T136,349q0-83 33.5-146t92-97T393,72Z" />
      <glyph unicode="P" glyph-name="P" horiz-adv-x="579" d="M543,493q0-87-59.5-144.5T302,291H168V0H77V697H302q118,0 179.5-57T543,493ZM302,366q76,0 112,33t36,94q0,129-148,129H168V366H302Z" />
      <glyph unicode="Q" glyph-name="Q" horiz-adv-x="788" d="M636-132L497,7Q446-7 393-7Q296-7 216,38.5T89.5,165.5T43,349T89.5,532.5T216,659.5T393,705q98,0 178-45.5T697,533t46-184q0-100-44-180T578,43L754-132H636ZM136,349q0-83 33.5-146t92-97T393,72t131.5,34t92,97T650,349q0,84-33.5,146.5T525,592T393,626T261,592t-91.5-96.5T136,349Z" />
      <glyph unicode="R" glyph-name="R" horiz-adv-x="608" d="M444,0L278,285H168V0H77V697H302q79,0 133.5-27T517,597t27-105q0-72-41.5-127T378,292L553,0H444ZM168,358H302q74,0 111,36.5T450,492q0,62-36.5,96T302,622H168V358Z" />
      <glyph unicode="S" glyph-name="S" horiz-adv-x="587" d="M298-7Q229-7 174.5,17.5T89,85.5T57,186h97q5-49 40.5-82.5T298,70q65,0 102.5,32.5T438,186q0,40-22,65t-55,38t-89,28q-69,18-110.5,36t-71,56.5T61,513q0,57 29,101t81.5,68T292,706q98,0 160.5-49T523,527H423q-5,40-42,70.5T283,628q-57,0-93-29.5T154,516q0-38 21.5-62t53-36.5T317,389q69-19 111-37.5t72-57T530,190q0-51-27-96T423,21T298-7Z" />
      <glyph unicode="T" glyph-name="T" horiz-adv-x="541" d="M506,697V623H316V0H225V623H34v74H506Z" />
      <glyph unicode="U" glyph-name="U" horiz-adv-x="675" d="M166,697V256q0-93 45.5-138T338,73q80,0 125.5,45T509,256V697h91V257q0-87-35-146.5T470.5,22T337-7T203.5,22t-94,88.5T75,257V697h91Z" />
      <glyph unicode="V" glyph-name="V" horiz-adv-x="676" d="M653,697L390,0H285L22,697h97L338,96L557,697h96Z" />
      <glyph unicode="W" glyph-name="W" horiz-adv-x="976" d="M953,697L751,0H649L487,561L319,0L218-1L23,697h97L272,106L440,697H542L702,108L855,697h98Z" />
      <glyph unicode="X" glyph-name="X" horiz-adv-x="621" d="M362,348L576,0H473L306,272L147,0H46L259,348L45,697H147L315,424L475,697H577L362,348Z" />
      <glyph unicode="Y" glyph-name="Y" horiz-adv-x="584" d="M565,697L338,263V0H247V263L19,697H120L292,344L464,697H565Z" />
      <glyph unicode="Z" glyph-name="Z" horiz-adv-x="541" d="M154,79H494V0H46V72L384,618H50v79H492V625L154,79Z" />
      <glyph unicode="[" glyph-name="bracketleft" horiz-adv-x="423" d="M313,934V859H218V-110h95v-76H133V934H313Z" />
      <glyph unicode="\" glyph-name="backslash" horiz-adv-x="658" d="M444-170L131,942h90L534-170H444Z" />
      <glyph unicode="]" glyph-name="bracketright" horiz-adv-x="423" d="M290-186H110v76h95V859H110v75H290V-186Z" />
      <glyph unicode="^" glyph-name="asciicircum" horiz-adv-x="629" d="M131,169H37L272,693h85L593,169H498L316,581L131,169Z" />
      <glyph unicode="_" glyph-name="underscore" horiz-adv-x="733" d="M637-38v-84H105v84H637Z" />
      <glyph unicode="`" glyph-name="grave" horiz-adv-x="257" d="M230,657V589L17,703v79L230,657Z" />
      <glyph unicode="a" glyph-name="a" horiz-adv-x="676" d="M43,276q0,84 34,147.5T170.5,522T303,557q72,0 125-31t79-78V548h92V0H507V102q-27-48-80.5-79.5T302-9Q229-9 170,27T77,128T43,276Zm464-1q0,62-25,108t-67.5,70.5T321,478t-93-24t-67-70T136,276q0-63 25-109.5t67-71T321,71t93.5,24.5t67.5,71T507,275Z" />
      <glyph unicode="b" glyph-name="b" horiz-adv-x="676" d="M168,446q28,49 82,80t123,31q74,0 133-35t93-98.5T633,276q0-83-34-148T505.5,27T373-9Q302-9 248.5,22T168,101V0H77V740h91V446ZM540,276q0,62-25,108t-67.5,70T354,478q-50,0-92.5-24.5t-68-71T168,275q0-62 25.5-108.5t68-71T354,71q51,0 93.5,24.5t67.5,71T540,276Z" />
      <glyph unicode="c" glyph-name="c" horiz-adv-x="607" d="M43,275q0,85 34,148.5T171.5,522T310,557q101,0 166.5-49T563,372H465q-14,50-54.5,79T310,480q-78,0-126-53.5T136,275q0-99 48-153T310,68q60,0 100,28t55,80h98Q541,92 475,41.5T310-9Q232-9 171.5,26T77,125T43,275Z" />
      <glyph unicode="d" glyph-name="d" horiz-adv-x="676" d="M43,276q0,84 34,147.5T170.5,522T304,557q64,0 119-29.5T507,450V740h92V0H507V103q-27-49-80-80.5T303-9Q230-9 170.5,27T77,128T43,276Zm464-1q0,62-25,108t-67.5,70.5T321,478t-93-24t-67-70T136,276q0-63 25-109.5t67-71T321,71t93.5,24.5t67.5,71T507,275Z" />
      <glyph unicode="e" glyph-name="e" horiz-adv-x="620" d="M577,295q0-26-3-55H136q5-81 55.5-126.5T314,68q59,0 98.5,27.5T468,169h98Q544,90 478,40.5T314-9Q236-9 174.5,26T78,125.5T43,275T77,424t95.5,98.5T314,557q78,0 138-34t92.5-93.5T577,295Zm-94,19q0,52-23,89.5t-62.5,57T310,480q-69,0-117.5-44T137,314H483Z" />
      <glyph unicode="f" glyph-name="f" horiz-adv-x="329" d="M300,473H185V0H94V473H23v75H94v39q0,92 47.5,134.5T294,764V688q-60,0-84.5-23.5T185,587V548H300V473Z" />
      <glyph unicode="g" glyph-name="g" horiz-adv-x="676" d="M303,557q71,0 124.5-31T507,448V548h92V-12q0-75-32-133.5T475.5-237T337-270q-108,0-180,51T72-80h90q15-50 62-80.5T337-191q75,0 122.5,47T507-12V103q-27-48-80-80T303-9Q230-9 170.5,27T77,128T43,276q0,84 34,147.5T170.5,522T303,557ZM507,275q0,62-25,108t-67.5,70.5T321,478t-93-24t-67-70T136,276q0-63 25-109.5t67-71T321,71t93.5,24.5t67.5,71T507,275Z" />
      <glyph unicode="h" glyph-name="h" horiz-adv-x="640" d="M349,558q62,0 112-26.5T539.5,452T568,323V0H478V310q0,82-41,125.5T325,479q-72,0-114.5-45T168,303V0H77V740h91V470q27,42 74.5,65T349,558Z" />
      <glyph unicode="i" glyph-name="i" horiz-adv-x="246" d="M124,637q-26,0-44,18T62,699t18,44t44,18q25,0 42.5-18T184,699t-17.5-44T124,637Zm44-89V0H77V548h91Z" />
      <glyph unicode="j" glyph-name="j" horiz-adv-x="248" d="M126,637q-26,0-43.5,18T65,699t17.5,44T126,761t43.5-18T187,699t-17.5-44T126,637Zm45-756q0-73-37-107T26-260H-27v77H11q38,0 53.5,15T80-117V548h91V-119Z" />
      <glyph unicode="k" glyph-name="k" horiz-adv-x="515" d="M383,0L168,242V0H77V740h91V305L379,548H506L248,275L507,0H383Z" />
      <glyph unicode="l" glyph-name="l" horiz-adv-x="246" d="M168,740V0H77V740h91Z" />
      <glyph unicode="m" glyph-name="m" horiz-adv-x="1030" d="M736,558q64,0 114-26.5T929,452t29-129V0H868V310q0,82-40.5,125.5T718,479q-71,0-113-45.5T563,302V0H473V310q0,82-40.5,125.5T323,479q-71,0-113-45.5T168,302V0H77V548h91V469q27,43 72.5,66T341,558q69,0 122-31t79-91q23,58 76,90t118,32Z" />
      <glyph unicode="n" glyph-name="n" horiz-adv-x="640" d="M344,558q100,0 162-60.5T568,323V0H478V310q0,82-41,125.5T325,479q-72,0-114.5-45T168,303V0H77V548h91V470q27,42 73.5,65T344,558Z" />
      <glyph unicode="o" glyph-name="o" horiz-adv-x="640" d="M316-9Q239-9 176.5,26t-98,99.5T43,275q0,84 36.5,148.5t99.5,99T320,557t141-34.5T560.5,424T597,275T559.5,125.5T458,26T316-9Zm0,80q49,0 92,23t69.5,69T504,275T478,387t-68,68.5T319,478q-50,0-91.5-22.5T161,387T136,275q0-67 24.5-113T226,93.5T316,71Z" />
      <glyph unicode="p" glyph-name="p" horiz-adv-x="676" d="M168,447q27,47 80.5,78.5T373,557q73,0 132.5-35T599,423.5T633,276q0-83-34-148T505.5,27T373-9Q303-9 249.5,22.5T168,101V-260H77V548h91V447ZM540,276q0,62-25,108t-67.5,70T354,478q-50,0-92.5-24.5t-68-71T168,275q0-62 25.5-108.5t68-71T354,71q51,0 93.5,24.5t67.5,71T540,276Z" />
      <glyph unicode="q" glyph-name="q" horiz-adv-x="676" d="M43,276q0,84 34,147.5T170.5,522T304,557q71,0 124.5-31.5T507,448V548h92V-260H507V101q-26-46-80-78T301-9T170,27T77,128T43,276Zm464-1q0,62-25,108t-67.5,70.5T321,478t-93-24t-67-70T136,276q0-63 25-109.5t67-71T321,71t93.5,24.5t67.5,71T507,275Z" />
      <glyph unicode="r" glyph-name="r" horiz-adv-x="373" d="M168,459q24,47 68.5,73T345,558V464H321q-153,0-153-166V0H77V548h91V459Z" />
      <glyph unicode="s" glyph-name="s" horiz-adv-x="522" d="M271-9Q208-9 158,12.5t-79,60T47,161h94q4-41 38.5-67T270,68q52,0 82,23t30,58q0,36-32,53.5T251,237q-61,16-99.5,32.5t-66,49T58,404q0,42 25,77t71,55.5T259,557q91,0 147-46t60-126H375q-3,43-34.5,69T256,480q-49,0-78-21t-29-55q0-27 17.5-44.5t44-28T284,308q59-16 96-31.5T443.5,230T471,149q0-45-25-81T375.5,11.5T271-9Z" />
      <glyph unicode="t" glyph-name="t" horiz-adv-x="364" d="M188,473V150q0-40 17-56.5T264,77h67V0H249Q173,0 135,35T97,150V473H26v75H97V686h91V548H331V473H188Z" />
      <glyph unicode="u" glyph-name="u" horiz-adv-x="640" d="M563,548V0H472V81q-26-42-72.5-65.5T297-8Q233-8 182,18.5T101.5,98T72,227V548h90V239q0-81 41-124.5T315,71q73,0 115,45t42,131V548h91Z" />
      <glyph unicode="v" glyph-name="v" horiz-adv-x="561" d="M281,84L451,548h97L333,0H227L12,548h98L281,84Z" />
      <glyph unicode="w" glyph-name="w" horiz-adv-x="820" d="M807,548L636,0H542L410,435L278,0H184L12,548h93L231,88L367,548h93L593,87L717,548h90Z" />
      <glyph unicode="x" glyph-name="x" horiz-adv-x="479" d="M363,0L233,204L108,0H13L190,272L13,548H116L246,345L370,548h95L289,277L466,0H363Z" />
      <glyph unicode="y" glyph-name="y" horiz-adv-x="563" d="M549,548L219-258H125L233,6L12,548H113L285,104L455,548h94Z" />
      <glyph unicode="z" glyph-name="z" horiz-adv-x="455" d="M145,75H414V0H41V75L307,474H43v74H412V474L145,75Z" />
      <glyph unicode="{" glyph-name="braceleft" horiz-adv-x="462" d="M105,409q102,19 102,105q0,38-10,130q-10,98-10,142q0,72 40.5,110T336,934h58V855H353q-39,0-58-17.5T276,780q0-29 4-71.5t5-57.5q10-96 10-140q0-53-26.5-88.5T187,375v-2q55-12 81.5-48T295,236q0-44-10-140q-1-15-5-57.5T276-33q0-40 19-57.5T353-108h41v-79H336q-68,0-108.5,38T187-39q0,44 10,142q10,92 10,130q0,86-102,105v71Z" />
      <glyph unicode="|" glyph-name="bar" horiz-adv-x="291" d="M191-106H100V795h91V-106Z" />
      <glyph unicode="}" glyph-name="braceright" horiz-adv-x="462" d="M357,338Q255,319 255,233q0-38 10-130Q275,5 275-39q0-72-40.5-110T126-187H68v79h41q39,0 58,17.5T186-33q0,29-4,71.5T177,96q-10,96-10,140q0,53 26.5,89T275,373v2q-55,12-81.5,47.5T167,511q0,44 10,140q1,15 5,57.5t4,71.5q0,40-19,57.5T109,855H68v79h58q68,0 108.5-38T275,786q0-44-10-142q-10-92-10-130q0-86 102-105V338Z" />
      <glyph unicode="~" glyph-name="asciitilde" horiz-adv-x="519" d="M37,248Q63,394 178,394q27,0 48.5-9.5T275,357q24-15 39.5-22t32.5-7q26,0 44.5,17.5T414,393h68Q457,247 340,247q-26,0-46,9t-49,27q-24,15-39,22.5T172,313q-26,0-45-17.5T104,248H37Z" />
      <glyph unicode="&#xa0;" glyph-name="uni00A0" horiz-adv-x="267" />
      <glyph unicode="&#xa1;" glyph-name="exclamdown" horiz-adv-x="298" d="M150,564q25,0 42.5-18T210,502t-17.5-44T150,440q-26,0-44,18T88,502t18,44t44,18ZM108,361h76l11-500H97l11,500Z" />
      <glyph unicode="&#xa2;" glyph-name="cent" horiz-adv-x="665" d="M322,80q61,0 99.5,27.5T471,184h85q-9-74-65.5-123T347,5V-89H293V5Q185,14 125,84.5T65,262t60,177.5T293,519v92h54V519q87-7 143.5-56T556,341H471q-12,48-50,76t-99,28q-76,0-123.5-48.5T151,262t47.5-134T322,80Z" />
      <glyph unicode="&#xa3;" glyph-name="sterling" horiz-adv-x="620" d="M545,74V-2H99L83,50q42,47 62.5,90T166,246q0,26-9,62H44v64h91q-13,35-20,66.5T108,508q0,64 27.5,111.5t77,73.5T326,719q102,0 157-59t59-149H458q-2,59-35.5,95T326,642q-58,0-94.5-34T195,504q0-33 7-62.5T223,372H417V308H243q9-36 9-62q0-95-71-172H545Z" />
      <glyph unicode="&#xa4;" glyph-name="currency" horiz-adv-x="537" d="M446,377q0-60-32-106l59-59l-41-42l-60,60q-47-30-105-30q-60,0-103,29l-59-59L63,212l59,59Q92,317 92,377q0,62 32,107L63,544l42,42l61-61q43,29 102,29t103-29l61,61l41-42l-60-60q33-44 33-107ZM267,259q42,0 72,31.5T369,377t-29.5,87T267,496q-42,0-70.5-31.5T168,377t28-87t71-31Z" />
      <glyph unicode="&#xa5;" glyph-name="yen" horiz-adv-x="595" d="M407,383H544V317l-173-2l-27-52V224H544V157H344V0H253V157H53v67H253v39l-28,52L53,317v66H190L25,697H127L298,345L469,697H571L407,383Z" />
      <glyph unicode="&#xa6;" glyph-name="brokenbar" horiz-adv-x="291" d="M100,795h91V417H100V795Zm91-901H100V273h91V-106Z" />
      <glyph unicode="&#xa7;" glyph-name="section" horiz-adv-x="575" d="M391,95q51-23 79.5-55T499-39q0-43-24.5-79t-71-57T295-196q-92,0-150.5,43.5T84-31h91q4-45 33.5-73T295-132q54,0 83.5,21.5T408-46q0,25-14.5,43.5T345,32.5T247,70Q145,104 95.5,146T46,258q0,56 35.5,99.5T184,420q-51,25-79.5,56.5T76,555q0,43 24.5,79t71,57T281,712q92,0 150-44t60-122H400q-3,44-32.5,72.5T281,647q-54,0-84-21.5T167,563q0-26 14.5-44.5T230,483t98-38q101-33 151-75t50-112q0-56-35-99T391,95ZM139,258q0-49 41-82t110-33q67,0 106.5,33.5T436,258q0,50-41,82T286,372T178.5,339T139,258Z" />
      <glyph unicode="&#xa8;" glyph-name="dieresis" horiz-adv-x="314" d="M76,622q-22,0-37.5,15T23,674t15.5,37.5T76,727q21,0 36.5-15.5T128,674t-15.5-37T76,622Zm162,0q-22,0-37,15t-15,37t15,37.5T238,727t37.5-15.5T291,674t-15.5-37T238,622Z" />
      <glyph unicode="&#xa9;" glyph-name="copyright" horiz-adv-x="792" d="M397,704q101,0 180-45.5t122.5-126T743,349T699.5,165.5T577,39.5T397-6Q295-6 216,39.5T93,165.5T49,349T93,532.5t123,126T397,704Zm0-40q-93,0-162-39.5T129,514T92,349q0-93 37-164.5T235,73T397,33q92,0 160.5,40T663,184.5T700,349q0,94-37,165T557.5,624.5T397,664Zm-2-83q-60,0-109.5-28T207,472.5T178,350t29-122.5t78.5-81T395,118q75,0 130,40.5T600,267H516q-30-83-121-83q-60,0-98,43T259,349q0,80 38,123t98,43q44,0 76-21.5T516,432h84q-19,71-74,110T395,581Z" />
      <glyph unicode="&#xaa;" glyph-name="ordfeminine" horiz-adv-x="450" d="M33,530q0,52 22,93t60,63.5T200,709t80.5-18.5T331,642v61h72V353H331v60q-16-29-49.5-47.5T202,347q-48,0-86.5,23.5T55,435.5T33,530Zm75-1q0-57 32-91t79-34q48,0 80,33.5T331,528t-32,90.5T219,652q-47,0-79-33t-32-90Z" />
      <glyph unicode="&#xab;" glyph-name="guillemotleft" horiz-adv-x="461" d="M141,120L45,295l96,175h89L131,295l99-175H141Zm180,0L226,295l95,175h90L312,295l99-175H321Z" />
      <glyph unicode="&#xac;" glyph-name="logicalnot" horiz-adv-x="650" d="M606,432V220H515V360H41v72H606Z" />
      <glyph unicode="&#xad;" glyph-name="uni00AD" horiz-adv-x="551" d="M457,405V328H58v77H457Z" />
      <glyph unicode="&#xae;" glyph-name="registered" horiz-adv-x="509" d="M255,706q58,0 104-26.5t72-73T457,502T431,397t-72-73.5T255,297q-59,0-105,26.5T78,397T52,502T78,606.5t72,73T255,706Zm0-369q72,0 116.5,46T416,502T371.5,621T255,667q-73,0-116.5-46T95,502t43.5-119T255,337Zm90,207q0-24-12.5-40.5T298,480l56-83l-63-1l-48,80H226V396H174V611h96q34,0 54.5-18T345,544ZM226,519h41q11,0 18.5,6t7.5,17t-7.5,16.5T267,564H226V519Z" />
      <glyph unicode="&#xaf;" glyph-name="macron" horiz-adv-x="387" d="M369,709V641H17v68H369Z" />
      <glyph unicode="&#xb0;" glyph-name="degree" horiz-adv-x="410" d="M28,524q0,79 49.5,127T205,699t127-48t49-127q0-53-23-93t-63.5-62T203,347q-78,0-126.5,48.5T28,524Zm280,0q0,57-29.5,89.5T204,646q-44,0-73.5-32.5T101,524q0-59 28.5-90.5T203,402t75,32t30,90Z" />
      <glyph unicode="&#xb1;" glyph-name="plusminus" horiz-adv-x="686" d="M386,377V195H597V118H88v77H301V377H88v77H301V624h85V454H597V377H386Z" />
      <glyph unicode="&#xb2;" glyph-name="twosuperior" horiz-adv-x="330" d="M289,411V352H32v52l109,88q33,27 50.5,51.5T209,597q0,27-14.5,42T157,654q-24,0-37.5-13.5T103,603H30q2,47 36,77t93,30q57,0 91.5-32T285,600q0-38-22-67.5T192,467l-79-56H289Z" />
      <glyph unicode="&#xb3;" glyph-name="threesuperior" horiz-adv-x="332" d="M27,611q5,44 41.5,71.5T163,710q56,0 94-30t38-73q0-30-17-50t-45-28v-2q28-10 46.5-31.5T298,444q0-41-38.5-69T160,347q-60,0-96.5,28T23,454H95q4-27 20.5-40T159,401q28,0 44.5,14T220,453t-17.5,38T157,505H114v48h41q29,0 46,13t17,37q0,23-16,37.5T158,655q-26,0-41.5-12T96,611H27Z" />
      <glyph unicode="&#xb4;" glyph-name="acute" horiz-adv-x="247" d="M230,703L17,589v68L230,782V703Z" />
      <glyph unicode="&#xb5;" glyph-name="uni00B5" horiz-adv-x="645" d="M568,548V0H477V100q-26-54-73.5-81.5T295-9Q255-9 221.5,6T167,54V-260H77V548h90V248q0-87 42.5-133T323,69t112.5,45T477,245V548h91Z" />
      <glyph unicode="&#xb6;" glyph-name="paragraph" horiz-adv-x="596" d="M518,0H437V621H360V0H279V286H268q-117,0-177,56T31,488T91.5,635T268,692H518V0Z" />
      <glyph unicode="&#xb7;" glyph-name="periodcentered" horiz-adv-x="212" d="M109,279q-26,0-44,18T47,341t18,44t44,18q25,0 42.5-18T169,341t-17.5-44T109,279Z" />
      <glyph unicode="&#xb8;" glyph-name="cedilla" horiz-adv-x="272" d="M125-58q59,1 94-25t35-74q0-47-34-75t-88-28H17v59h97q33,0 48.5,10T178-157q0,23-15.5,33T114-114H64V7h61V-58Z" />
      <glyph unicode="&#xb9;" glyph-name="onesuperior" horiz-adv-x="196" d="M25,648v56H151V352H79V648H25Z" />
      <glyph unicode="&#xba;" glyph-name="ordmasculine" horiz-adv-x="436" d="M33,528q0,54 24,95t66.5,63.5T218,709q53,0 95-22.5T379,623t24-95q0-53-24.5-94.5t-67-64.5T217,346q-53,0-94.5,23T57,433T33,528Zm296-1q0,59-32.5,92T218,652q-47,0-78.5-33T108,527q0-58 31-90.5T217,404q46,0 79,33t33,90Z" />
      <glyph unicode="&#xbb;" glyph-name="guillemotright" horiz-adv-x="461" d="M149,295L50,470h89l96-175L139,120H50l99,175Zm180,0L231,470h89l96-175L320,120H231l98,175Z" />
      <glyph unicode="&#xbc;" glyph-name="onequarter" horiz-adv-x="640" d="M38,648v56H164V352H92V648H38Zm484,50L148,0H62L436,698h86ZM604,69H556V0H484V69H301v42L459,353h97V116h48V69ZM486,291L375,116H486V291Z" />
      <glyph unicode="&#xbd;" glyph-name="onehalf" horiz-adv-x="675" d="M90,648H36v56H162V352H90V648Zm419,50L144,0H57L423,698h86ZM627,58V-1H370V51l109,88q33,27 50.5,51.5T547,244q0,27-14.5,42T495,301q-24,0-37.5-13.5T441,250H368q2,47 36,77t93,30q57,0 91.5-32T623,247q0-38-22-67.5T530,114L451,58H627Z" />
      <glyph unicode="&#xbe;" glyph-name="threequarters" horiz-adv-x="709" d="M39,611q5,44 41.5,71.5T175,710q56,0 94-30t38-73q0-30-17-50t-45-28v-2q28-10 46.5-31.5T310,444q0-41-38.5-69T172,347q-60,0-96.5,28T35,454h72q4-27 20.5-40T171,401q28,0 44.5,14T232,453t-17.5,38T169,505H126v48h41q29,0 46,13t17,37q0,23-16,37.5T170,655q-26,0-41.5-12T108,611H39Zm578,87L228,0H143L531,698h86ZM682,69H635V0H563V69H380v42L538,353h97V116h47V69ZM564,291L453,116H564V291Z" />
      <glyph unicode="&#xbf;" glyph-name="questiondown" horiz-adv-x="519" d="M330,556q26,0 44-18t18-44t-18-44t-44-18q-25,0-42.5,18T270,494t17.5,44T330,556ZM267-156q-99,0-160,56T46,50q0,105 65,155.5T287,256l3,95h79l4-158H344q-99,0-155-30T133,50q0-60 36-95t97-35q62,0 97.5,33.5T399,45h86q0-60-27-105.5T381.5-131T267-156Z" />
      <glyph unicode="&#xc0;" glyph-name="Agrave" horiz-adv-x="674" d="M489,155H185L129,0H33L285,693H390L641,0H545L489,155Zm-26,74L337,581L211,229H463ZM435,802V734L222,848v79L435,802Z" />
      <glyph unicode="&#xc1;" glyph-name="Aacute" horiz-adv-x="674" d="M489,155H185L129,0H33L285,693H390L641,0H545L489,155Zm-26,74L337,581L211,229H463ZM435,848L222,734v68L435,927V848Z" />
      <glyph unicode="&#xc2;" glyph-name="Acircumflex" horiz-adv-x="674" d="M489,155H185L129,0H33L285,693H390L641,0H545L489,155Zm-26,74L337,581L211,229H463ZM338,827L199,742v72l139,83l138-83V742L338,827Z" />
      <glyph unicode="&#xc3;" glyph-name="Atilde" horiz-adv-x="674" d="M489,155H185L129,0H33L285,693H390L641,0H545L489,155Zm-26,74L337,581L211,229H463ZM190,752q7,51 33.5,78T290,857q19,0 32.5-6.5T355,832q14-10 25-15.5t24-5.5q17,0 29,11t15,32h52q-6-50-33-77t-67-27q-19,0-33.5,6.5T334,776q-16,10-25.5,15T286,796q-17,0-28.5-11T243,752H190Z" />
      <glyph unicode="&#xc4;" glyph-name="Adieresis" horiz-adv-x="674" d="M489,155H185L129,0H33L285,693H390L641,0H545L489,155Zm-26,74L337,581L211,229H463ZM257,767q-22,0-37.5,15T204,819t15.5,37.5T257,872q21,0 36.5-15.5T309,819t-15.5-37T257,767Zm162,0q-22,0-37,15t-15,37t15,37.5T419,872t37.5-15.5T472,819t-15.5-37T419,767Z" />
      <glyph unicode="&#xc5;" glyph-name="Aring" horiz-adv-x="674" d="M489,155H185L129,0H33L285,693H390L641,0H545L489,155Zm-26,74L337,581L211,229H463ZM445,857q0-48-30.5-76.5T338,752q-45,0-76,29t-31,76t31,76t76,29q46,0 76.5-28.5T445,857Zm-53,1q0,25-15.5,40.5T338,914t-38.5-15.5T284,858t15.5-41T338,801t38.5,16T392,858Z" />
      <glyph unicode="&#xc6;" glyph-name="AE" horiz-adv-x="900" d="M556,626V387H808V317H556V72H838V0H465V155H198L111,0H12L407,698H838V626H556ZM465,226V629L238,226H465Z" />
      <glyph unicode="&#xc7;" glyph-name="Ccedilla" horiz-adv-x="772" d="M391,73q76,0 130.5,33.5T605,203H714Q678,111 602.5,57T426-5V-58q59,1 94-25t35-74q0-47-34-75t-88-28H318v59h97q33,0 48.5,10T479-157q0,23-15.5,33T415-114H365V-5Q274,1 200.5,47.5T85,172.5T43,349q0,102 46,183.5T214.5,660T391,706q114,0 199-55T714,495H605q-29,63-83.5,97T391,626q-73,0-131-34t-91-96.5T136,349q0-83 33-145.5T260,107T391,73Z" />
      <glyph unicode="&#xc8;" glyph-name="Egrave" horiz-adv-x="513" d="M168,623V390H422V315H168V75H452V0H77V698H452V623H168ZM352,802V734L139,848v79L352,802Z" />
      <glyph unicode="&#xc9;" glyph-name="Eacute" horiz-adv-x="513" d="M168,623V390H422V315H168V75H452V0H77V698H452V623H168ZM352,848L139,734v68L352,927V848Z" />
      <glyph unicode="&#xca;" glyph-name="Ecircumflex" horiz-adv-x="513" d="M168,623V390H422V315H168V75H452V0H77V698H452V623H168Zm87,204L116,742v72l139,83l138-83V742L255,827Z" />
      <glyph unicode="&#xcb;" glyph-name="Edieresis" horiz-adv-x="513" d="M168,623V390H422V315H168V75H452V0H77V698H452V623H168Zm6,144q-22,0-37.5,15T121,819t15.5,37.5T174,872q21,0 36.5-15.5T226,819t-15.5-37T174,767Zm162,0q-22,0-37,15t-15,37t15,37.5T336,872t37.5-15.5T389,819t-15.5-37T336,767Z" />
      <glyph unicode="&#xcc;" glyph-name="Igrave" horiz-adv-x="246" d="M168,697V0H77V697h91Zm52,105V734L7,848v79L220,802Z" />
      <glyph unicode="&#xcd;" glyph-name="Iacute" horiz-adv-x="246" d="M168,697V0H77V697h91Zm52,151L7,734v68L220,927V848Z" />
      <glyph unicode="&#xce;" glyph-name="Icircumflex" horiz-adv-x="246" d="M168,697V0H77V697h91ZM123,827L-16,742v72l139,83l138-83V742L123,827Z" />
      <glyph unicode="&#xcf;" glyph-name="Idieresis" horiz-adv-x="246" d="M168,697V0H77V697h91ZM42,767q-22,0-37.5,15T-11,819T4.5,856.5T42,872q21,0 36.5-15.5T94,819T78.5,782T42,767Zm162,0q-22,0-37,15t-15,37t15,37.5T204,872t37.5-15.5T257,819t-15.5-37T204,767Z" />
      <glyph unicode="&#xd0;" glyph-name="Eth" horiz-adv-x="725" d="M313,697q113,0 196.5-42.5T637.5,533T682,347T637.5,161.5t-128-120T313,0H96V305H9v84H96V697H313Zm0-627q134,0 205,73.5T589,347T518,550T313,623H187V389H379V305H187V70H313Z" />
      <glyph unicode="&#xd1;" glyph-name="Ntilde" horiz-adv-x="703" d="M625,0H534L168,555V0H77V698h91L534,144V698h91V0ZM205,752q7,51 33.5,78T305,857q19,0 32.5-6.5T370,832q14-10 25-15.5t24-5.5q17,0 29,11t15,32h52q-6-50-33-77t-67-27q-19,0-33.5,6.5T349,776q-16,10-25.5,15T301,796q-17,0-28.5-11T258,752H205Z" />
      <glyph unicode="&#xd2;" glyph-name="Ograve" horiz-adv-x="786" d="M393-7Q296-7 216,38.5T89.5,165.5T43,349T89.5,532.5T216,659.5T393,705q98,0 178-45.5T697,533t46-184T697,165T571,38.5T393-7Zm0,79q73,0 131.5,34t92,97T650,349q0,84-33.5,146.5T525,592T393,626T261,592t-91.5-96.5T136,349q0-83 33.5-146t92-97T393,72ZM493,802V734L280,848v79L493,802Z" />
      <glyph unicode="&#xd3;" glyph-name="Oacute" horiz-adv-x="786" d="M393-7Q296-7 216,38.5T89.5,165.5T43,349T89.5,532.5T216,659.5T393,705q98,0 178-45.5T697,533t46-184T697,165T571,38.5T393-7Zm0,79q73,0 131.5,34t92,97T650,349q0,84-33.5,146.5T525,592T393,626T261,592t-91.5-96.5T136,349q0-83 33.5-146t92-97T393,72ZM493,848L280,734v68L493,927V848Z" />
      <glyph unicode="&#xd4;" glyph-name="Ocircumflex" horiz-adv-x="786" d="M393-7Q296-7 216,38.5T89.5,165.5T43,349T89.5,532.5T216,659.5T393,705q98,0 178-45.5T697,533t46-184T697,165T571,38.5T393-7Zm0,79q73,0 131.5,34t92,97T650,349q0,84-33.5,146.5T525,592T393,626T261,592t-91.5-96.5T136,349q0-83 33.5-146t92-97T393,72Zm3,755L257,742v72l139,83l138-83V742L396,827Z" />
      <glyph unicode="&#xd5;" glyph-name="Otilde" horiz-adv-x="786" d="M393-7Q296-7 216,38.5T89.5,165.5T43,349T89.5,532.5T216,659.5T393,705q98,0 178-45.5T697,533t46-184T697,165T571,38.5T393-7Zm0,79q73,0 131.5,34t92,97T650,349q0,84-33.5,146.5T525,592T393,626T261,592t-91.5-96.5T136,349q0-83 33.5-146t92-97T393,72ZM249,752q7,51 33.5,78T349,857q19,0 32.5-6.5T414,832q14-10 25-15.5t24-5.5q17,0 29,11t15,32h52q-6-50-33-77t-67-27q-19,0-33.5,6.5T393,776q-16,10-25.5,15T345,796q-17,0-28.5-11T302,752H249Z" />
      <glyph unicode="&#xd6;" glyph-name="Odieresis" horiz-adv-x="786" d="M393-7Q296-7 216,38.5T89.5,165.5T43,349T89.5,532.5T216,659.5T393,705q98,0 178-45.5T697,533t46-184T697,165T571,38.5T393-7Zm0,79q73,0 131.5,34t92,97T650,349q0,84-33.5,146.5T525,592T393,626T261,592t-91.5-96.5T136,349q0-83 33.5-146t92-97T393,72ZM315,767q-22,0-37.5,15T262,819t15.5,37.5T315,872q21,0 36.5-15.5T367,819t-15.5-37T315,767Zm162,0q-22,0-37,15t-15,37t15,37.5T477,872t37.5-15.5T530,819t-15.5-37T477,767Z" />
      <glyph unicode="&#xd7;" glyph-name="multiply" horiz-adv-x="643" d="M481,150L322,309L163,150l-60,60L262,369L106,525l58,59L321,427L478,584l60-60L381,367L539,208l-58-58Z" />
      <glyph unicode="&#xd8;" glyph-name="Oslash" horiz-adv-x="786" d="M654,593q43-47 66-109.5T743,349q0-103-46-184T571,38.5T393-7Q330-7 273.5,12.5T172,68L109,0H35l97,106Q90,154 66.5,216T43,349q0,102 46.5,183.5T216,659.5T393,705q63,0 119.5-19.5T614,630l63,68h74L654,593ZM136,349q0-108 55-180L558,569q-68,57-165,57q-74,0-132-34t-91.5-96.5T136,349Zm514,0q0,107-54,180L228,129q68-57 165-57q73,0 131.5,34t92,97T650,349Z" />
      <glyph unicode="&#xd9;" glyph-name="Ugrave" horiz-adv-x="675" d="M166,697V256q0-93 45.5-138T338,73q80,0 125.5,45T509,256V697h91V257q0-87-35-146.5T470.5,22T337-7T203.5,22t-94,88.5T75,257V697h91ZM435,802V734L222,848v79L435,802Z" />
      <glyph unicode="&#xda;" glyph-name="Uacute" horiz-adv-x="675" d="M166,697V256q0-93 45.5-138T338,73q80,0 125.5,45T509,256V697h91V257q0-87-35-146.5T470.5,22T337-7T203.5,22t-94,88.5T75,257V697h91ZM435,848L222,734v68L435,927V848Z" />
      <glyph unicode="&#xdb;" glyph-name="Ucircumflex" horiz-adv-x="675" d="M166,697V256q0-93 45.5-138T338,73q80,0 125.5,45T509,256V697h91V257q0-87-35-146.5T470.5,22T337-7T203.5,22t-94,88.5T75,257V697h91ZM338,827L199,742v72l139,83l138-83V742L338,827Z" />
      <glyph unicode="&#xdc;" glyph-name="Udieresis" horiz-adv-x="675" d="M166,697V256q0-93 45.5-138T338,73q80,0 125.5,45T509,256V697h91V257q0-87-35-146.5T470.5,22T337-7T203.5,22t-94,88.5T75,257V697h91Zm91,70q-22,0-37.5,15T204,819t15.5,37.5T257,872q21,0 36.5-15.5T309,819t-15.5-37T257,767Zm162,0q-22,0-37,15t-15,37t15,37.5T419,872t37.5-15.5T472,819t-15.5-37T419,767Z" />
      <glyph unicode="&#xdd;" glyph-name="Yacute" horiz-adv-x="584" d="M565,697L338,263V0H247V263L19,697H120L292,344L464,697H565ZM390,848L177,734v68L390,927V848Z" />
      <glyph unicode="&#xde;" glyph-name="Thorn" horiz-adv-x="579" d="M543,349q0-88-59.5-145.5T302,146H168V0H77V698h91V553H302q118,0 179.5-57T543,349ZM302,219q75,0 111.5,34.5T450,349q0,62-36.5,97T302,481H168V219H302Z" />
      <glyph unicode="&#xdf;" glyph-name="germandbls" horiz-adv-x="681" d="M60,561q0,93 59.5,151.5T295,771q69,0 118.5-23t75-61T514,605q0-48-24-81.5T424,455q-27-23-39-37.5T373,387q0-22 23-38t88-38q73-24 106-62.5T623,151q0-72-50.5-116.5T433-10q-87,0-142,48T229,170h92q3-49 32.5-78T433,63q47,0 72,21t25,60q0,36-22,58t-77,40q-81,27-115.5,57T281,375q0,35 19,61t56,59q34,31 50.5,53T423,598q0,45-34.5,70.5T294,694q-143,0-143-144V0H60V561Z" />
      <glyph unicode="&#xe0;" glyph-name="agrave" horiz-adv-x="676" d="M43,276q0,84 34,147.5T170.5,522T303,557q72,0 125-31t79-78V548h92V0H507V102q-27-48-80.5-79.5T302-9Q229-9 170,27T77,128T43,276Zm464-1q0,62-25,108t-67.5,70.5T321,478t-93-24t-67-70T136,276q0-63 25-109.5t67-71T321,71t93.5,24.5t67.5,71T507,275ZM436,657V589L223,703v79L436,657Z" />
      <glyph unicode="&#xe1;" glyph-name="aacute" horiz-adv-x="676" d="M43,276q0,84 34,147.5T170.5,522T303,557q72,0 125-31t79-78V548h92V0H507V102q-27-48-80.5-79.5T302-9Q229-9 170,27T77,128T43,276Zm464-1q0,62-25,108t-67.5,70.5T321,478t-93-24t-67-70T136,276q0-63 25-109.5t67-71T321,71t93.5,24.5t67.5,71T507,275ZM436,703L223,589v68L436,782V703Z" />
      <glyph unicode="&#xe2;" glyph-name="acircumflex" horiz-adv-x="676" d="M43,276q0,84 34,147.5T170.5,522T303,557q72,0 125-31t79-78V548h92V0H507V102q-27-48-80.5-79.5T302-9Q229-9 170,27T77,128T43,276Zm464-1q0,62-25,108t-67.5,70.5T321,478t-93-24t-67-70T136,276q0-63 25-109.5t67-71T321,71t93.5,24.5t67.5,71T507,275ZM339,682L200,597v72l139,83l138-83V597L339,682Z" />
      <glyph unicode="&#xe3;" glyph-name="atilde" horiz-adv-x="676" d="M43,276q0,84 34,147.5T170.5,522T303,557q72,0 125-31t79-78V548h92V0H507V102q-27-48-80.5-79.5T302-9Q229-9 170,27T77,128T43,276Zm464-1q0,62-25,108t-67.5,70.5T321,478t-93-24t-67-70T136,276q0-63 25-109.5t67-71T321,71t93.5,24.5t67.5,71T507,275ZM192,607q7,51 33.5,78T292,712q19,0 32.5-6.5T357,687q14-10 25-15.5t24-5.5q17,0 29,11t15,32h52q-6-50-33-77t-67-27q-19,0-33.5,6.5T336,631q-16,10-25.5,15T288,651q-17,0-28.5-11T245,607H192Z" />
      <glyph unicode="&#xe4;" glyph-name="adieresis" horiz-adv-x="676" d="M43,276q0,84 34,147.5T170.5,522T303,557q72,0 125-31t79-78V548h92V0H507V102q-27-48-80.5-79.5T302-9Q229-9 170,27T77,128T43,276Zm464-1q0,62-25,108t-67.5,70.5T321,478t-93-24t-67-70T136,276q0-63 25-109.5t67-71T321,71t93.5,24.5t67.5,71T507,275ZM258,622q-22,0-37.5,15T205,674t15.5,37.5T258,727q21,0 36.5-15.5T310,674t-15.5-37T258,622Zm162,0q-22,0-37,15t-15,37t15,37.5T420,727t37.5-15.5T473,674t-15.5-37T420,622Z" />
      <glyph unicode="&#xe5;" glyph-name="aring" horiz-adv-x="676" d="M43,276q0,84 34,147.5T170.5,522T303,557q72,0 125-31t79-78V548h92V0H507V102q-27-48-80.5-79.5T302-9Q229-9 170,27T77,128T43,276Zm464-1q0,62-25,108t-67.5,70.5T321,478t-93-24t-67-70T136,276q0-63 25-109.5t67-71T321,71t93.5,24.5t67.5,71T507,275ZM446,712q0-48-30.5-76.5T339,607q-45,0-76,29t-31,76t31,76t76,29q46,0 76.5-28.5T446,712Zm-53,1q0,25-15.5,40.5T339,769t-38.5-15.5T285,713t15.5-41T339,656t38.5,16T393,713Z" />
      <glyph unicode="&#xe6;" glyph-name="ae" horiz-adv-x="1097" d="M1055,297q0-29-4-54H600q5-56 32-95.5T699,88t84-20q64,0 106,27.5T945,169h98q-22-79-86-128.5T798-9Q731-9 674.5,22T589,106V0H510V105q-30-51-84-82.5T303-9Q230-9 170.5,27T77,128T43,276q0,84 34.5,147.5T172,522t136,35q67,0 119.5-28.5T513,447V548h76V447q71,110 209,110q76,0 134.5-34.5t90.5-94T1055,297Zm-94,12q0,53-23.5,91.5t-64,59T784,480q-72,0-124.5-46T600,309H961ZM321,71q51,0 93.5,24.5t67.5,71T507,275T482,383t-67.5,70.5T321,478t-93-24t-67-70T136,276q0-63 25-109.5t67-71T321,71Z" />
      <glyph unicode="&#xe7;" glyph-name="ccedilla" horiz-adv-x="607" d="M310,68q60,0 100,28t55,80h98Q543,98 484.5,48.5T338-8V-58q59,1 94-25t35-74q0-47-34-75t-88-28H230v59h97q33,0 48.5,10T391-157q0,23-15.5,33T327-114H277V-7Q208,0 155,36.5t-82.5,98T43,275q0,85 34,148.5T171.5,522T310,557q101,0 166.5-49T563,372H465q-14,50-54.5,79T310,480q-78,0-126-53.5T136,275q0-99 48-153T310,68Z" />
      <glyph unicode="&#xe8;" glyph-name="egrave" horiz-adv-x="620" d="M577,295q0-26-3-55H136q5-81 55.5-126.5T314,68q59,0 98.5,27.5T468,169h98Q544,90 478,40.5T314-9Q236-9 174.5,26T78,125.5T43,275T77,424t95.5,98.5T314,557q78,0 138-34t92.5-93.5T577,295Zm-94,19q0,52-23,89.5t-62.5,57T310,480q-69,0-117.5-44T137,314H483ZM408,657V589L195,703v79L408,657Z" />
      <glyph unicode="&#xe9;" glyph-name="eacute" horiz-adv-x="620" d="M577,295q0-26-3-55H136q5-81 55.5-126.5T314,68q59,0 98.5,27.5T468,169h98Q544,90 478,40.5T314-9Q236-9 174.5,26T78,125.5T43,275T77,424t95.5,98.5T314,557q78,0 138-34t92.5-93.5T577,295Zm-94,19q0,52-23,89.5t-62.5,57T310,480q-69,0-117.5-44T137,314H483ZM408,703L195,589v68L408,782V703Z" />
      <glyph unicode="&#xea;" glyph-name="ecircumflex" horiz-adv-x="620" d="M577,295q0-26-3-55H136q5-81 55.5-126.5T314,68q59,0 98.5,27.5T468,169h98Q544,90 478,40.5T314-9Q236-9 174.5,26T78,125.5T43,275T77,424t95.5,98.5T314,557q78,0 138-34t92.5-93.5T577,295Zm-94,19q0,52-23,89.5t-62.5,57T310,480q-69,0-117.5-44T137,314H483ZM311,682L172,597v72l139,83l138-83V597L311,682Z" />
      <glyph unicode="&#xeb;" glyph-name="edieresis" horiz-adv-x="620" d="M577,295q0-26-3-55H136q5-81 55.5-126.5T314,68q59,0 98.5,27.5T468,169h98Q544,90 478,40.5T314-9Q236-9 174.5,26T78,125.5T43,275T77,424t95.5,98.5T314,557q78,0 138-34t92.5-93.5T577,295Zm-94,19q0,52-23,89.5t-62.5,57T310,480q-69,0-117.5-44T137,314H483ZM229,622q-22,0-37.5,15T176,674t15.5,37.5T229,727q21,0 36.5-15.5T281,674t-15.5-37T229,622Zm162,0q-22,0-37,15t-15,37t15,37.5T391,727t37.5-15.5T444,674t-15.5-37T391,622Z" />
      <glyph unicode="&#xec;" glyph-name="igrave" horiz-adv-x="246" d="M168,548V0H77V548h91Zm52,109V589L7,703v79L220,657Z" />
      <glyph unicode="&#xed;" glyph-name="iacute" horiz-adv-x="246" d="M168,548V0H77V548h91Zm52,155L7,589v68L220,782V703Z" />
      <glyph unicode="&#xee;" glyph-name="icircumflex" horiz-adv-x="246" d="M168,548V0H77V548h91ZM123,682L-16,597v72l139,83l138-83V597L123,682Z" />
      <glyph unicode="&#xef;" glyph-name="idieresis" horiz-adv-x="246" d="M168,548V0H77V548h91ZM42,622q-22,0-37.5,15T-11,674T4.5,711.5T42,727q21,0 36.5-15.5T94,674T78.5,637T42,622Zm162,0q-22,0-37,15t-15,37t15,37.5T204,727t37.5-15.5T257,674t-15.5-37T204,622Z" />
      <glyph unicode="&#xf0;" glyph-name="eth" horiz-adv-x="638" d="M458,660Q596,507 596,315q0-105-36-177.5T460.5,28T316-9Q237-9 174.5,26.5t-97,101T43,278q0,83 35,146.5T174,523t137,35q119,0 181-92q-32,95-101,172L261,594v50l94,32q-32,31-73,64h93q40-35 46-41l131,44V692l-94-32ZM316,68q50,0 92.5,24t68,71T502,275T477,387t-67,70.5T318,481t-91.5-23.5t-66-69T136,278q0-66 24-113.5t65-72T316,68Z" />
      <glyph unicode="&#xf1;" glyph-name="ntilde" horiz-adv-x="640" d="M344,558q100,0 162-60.5T568,323V0H478V310q0,82-41,125.5T325,479q-72,0-114.5-45T168,303V0H77V548h91V470q27,42 73.5,65T344,558ZM175,607q7,51 33.5,78T275,712q19,0 32.5-6.5T340,687q14-10 25-15.5t24-5.5q17,0 29,11t15,32h52q-6-50-33-77t-67-27q-19,0-33.5,6.5T319,631q-16,10-25.5,15T271,651q-17,0-28.5-11T228,607H175Z" />
      <glyph unicode="&#xf2;" glyph-name="ograve" horiz-adv-x="640" d="M316-9Q239-9 176.5,26t-98,99.5T43,275q0,84 36.5,148.5t99.5,99T320,557t141-34.5T560.5,424T597,275T559.5,125.5T458,26T316-9Zm0,80q49,0 92,23t69.5,69T504,275T478,387t-68,68.5T319,478q-50,0-91.5-22.5T161,387T136,275q0-67 24.5-113T226,93.5T316,71ZM418,664V596L205,710v79L418,664Z" />
      <glyph unicode="&#xf3;" glyph-name="oacute" horiz-adv-x="640" d="M316-9Q239-9 176.5,26t-98,99.5T43,275q0,84 36.5,148.5t99.5,99T320,557t141-34.5T560.5,424T597,275T559.5,125.5T458,26T316-9Zm0,80q49,0 92,23t69.5,69T504,275T478,387t-68,68.5T319,478q-50,0-91.5-22.5T161,387T136,275q0-67 24.5-113T226,93.5T316,71ZM418,710L205,596v68L418,789V710Z" />
      <glyph unicode="&#xf4;" glyph-name="ocircumflex" horiz-adv-x="640" d="M316-9Q239-9 176.5,26t-98,99.5T43,275q0,84 36.5,148.5t99.5,99T320,557t141-34.5T560.5,424T597,275T559.5,125.5T458,26T316-9Zm0,80q49,0 92,23t69.5,69T504,275T478,387t-68,68.5T319,478q-50,0-91.5-22.5T161,387T136,275q0-67 24.5-113T226,93.5T316,71Zm5,618L182,604v72l139,83l138-83V604L321,689Z" />
      <glyph unicode="&#xf5;" glyph-name="otilde" horiz-adv-x="640" d="M316-9Q239-9 176.5,26t-98,99.5T43,275q0,84 36.5,148.5t99.5,99T320,557t141-34.5T560.5,424T597,275T559.5,125.5T458,26T316-9Zm0,80q49,0 92,23t69.5,69T504,275T478,387t-68,68.5T319,478q-50,0-91.5-22.5T161,387T136,275q0-67 24.5-113T226,93.5T316,71ZM174,614q7,51 33.5,78T274,719q19,0 32.5-6.5T339,694q14-10 25-15.5t24-5.5q17,0 29,11t15,32h52q-6-50-33-77t-67-27q-19,0-33.5,6.5T318,638q-16,10-25.5,15T270,658q-17,0-28.5-11T227,614H174Z" />
      <glyph unicode="&#xf6;" glyph-name="odieresis" horiz-adv-x="640" d="M316-9Q239-9 176.5,26t-98,99.5T43,275q0,84 36.5,148.5t99.5,99T320,557t141-34.5T560.5,424T597,275T559.5,125.5T458,26T316-9Zm0,80q49,0 92,23t69.5,69T504,275T478,387t-68,68.5T319,478q-50,0-91.5-22.5T161,387T136,275q0-67 24.5-113T226,93.5T316,71ZM240,629q-22,0-37.5,15T187,681t15.5,37.5T240,734q21,0 36.5-15.5T292,681t-15.5-37T240,629Zm162,0q-22,0-37,15t-15,37t15,37.5T402,734t37.5-15.5T455,681t-15.5-37T402,629Z" />
      <glyph unicode="&#xf7;" glyph-name="divide" horiz-adv-x="657" d="M335,520q-26,0-44,18t-18,44t18,44t44,18q25,0 42.5-18T395,582t-17.5-44T335,520ZM588,405V328H78v77H588ZM335,91q-26,0-44,18t-18,44t18,44t44,18q25,0 42.5-18T395,153t-17.5-44T335,91Z" />
      <glyph unicode="&#xf8;" glyph-name="oslash" horiz-adv-x="640" d="M530,468q32-37 49.5-86T597,275q0-85-37.5-149.5T458,26T316-9Q219-9 145,46L103,0H38l72,79q-32,38-49.5,87.5T43,275q0,84 36.5,148.5t99.5,99T320,557q101,0 175-57l43,48h65l-73-80ZM136,275q0-77 35-130L437,437q-48,41-118,41q-50,0-91.5-22.5T161,387T136,275Zm368,0q0,77-35,126L203,109q47-38 113-38q49,0 92,23t69.5,69T504,275Z" />
      <glyph unicode="&#xf9;" glyph-name="ugrave" horiz-adv-x="640" d="M563,548V0H472V81q-26-42-72.5-65.5T297-8Q233-8 182,18.5T101.5,98T72,227V548h90V239q0-81 41-124.5T315,71q73,0 115,45t42,131V548h91ZM418,657V589L205,703v79L418,657Z" />
      <glyph unicode="&#xfa;" glyph-name="uacute" horiz-adv-x="640" d="M563,548V0H472V81q-26-42-72.5-65.5T297-8Q233-8 182,18.5T101.5,98T72,227V548h90V239q0-81 41-124.5T315,71q73,0 115,45t42,131V548h91ZM418,703L205,589v68L418,782V703Z" />
      <glyph unicode="&#xfb;" glyph-name="ucircumflex" horiz-adv-x="640" d="M563,548V0H472V81q-26-42-72.5-65.5T297-8Q233-8 182,18.5T101.5,98T72,227V548h90V239q0-81 41-124.5T315,71q73,0 115,45t42,131V548h91ZM321,682L182,597v72l139,83l138-83V597L321,682Z" />
      <glyph unicode="&#xfc;" glyph-name="udieresis" horiz-adv-x="640" d="M563,548V0H472V81q-26-42-72.5-65.5T297-8Q233-8 182,18.5T101.5,98T72,227V548h90V239q0-81 41-124.5T315,71q73,0 115,45t42,131V548h91ZM240,622q-22,0-37.5,15T187,674t15.5,37.5T240,727q21,0 36.5-15.5T292,674t-15.5-37T240,622Zm162,0q-22,0-37,15t-15,37t15,37.5T402,727t37.5-15.5T455,674t-15.5-37T402,622Z" />
      <glyph unicode="&#xfd;" glyph-name="yacute" horiz-adv-x="563" d="M549,548L219-258H125L233,6L12,548H113L285,104L455,548h94ZM379,703L166,589v68L379,782V703Z" />
      <glyph unicode="&#xfe;" glyph-name="thorn" horiz-adv-x="676" d="M168,432q26,56 79.5,90.5T373,557q73,0 132.5-35T599,423.5T633,276q0-83-34-148T505.5,27T373-9Q301-9 248,26.5T168,120V-260H77V740h91V432ZM540,276q0,62-25,108t-67.5,70T354,478q-50,0-92.5-24.5t-68-71T168,275q0-62 25.5-108.5t68-71T354,71q51,0 93.5,24.5t67.5,71T540,276Z" />
      <glyph unicode="&#xff;" glyph-name="ydieresis" horiz-adv-x="563" d="M549,548L219-258H125L233,6L12,548H113L285,104L455,548h94ZM201,622q-22,0-37.5,15T148,674t15.5,37.5T201,727q21,0 36.5-15.5T253,674t-15.5-37T201,622Zm162,0q-22,0-37,15t-15,37t15,37.5T363,727t37.5-15.5T416,674t-15.5-37T363,622Z" />
      <glyph unicode="&#x2013;" glyph-name="endash" horiz-adv-x="677" d="M602,405V328H76v77H602Z" />
      <glyph unicode="&#x2014;" glyph-name="emdash" horiz-adv-x="885" d="M809,405V328H76v77H809Z" />
      <glyph unicode="&#x2018;" glyph-name="quoteleft" horiz-adv-x="219" d="M126,470H24l96,227h65L126,470Z" />
      <glyph unicode="&#x2019;" glyph-name="quoteright" horiz-adv-x="219" d="M91,697H192L96,470H32L91,697Z" />
      <glyph unicode="&#x201a;" glyph-name="quotesinglbase" horiz-adv-x="186" d="M58,115H159L63-112H-2L58,115Z" />
      <glyph unicode="&#x201c;" glyph-name="quotedblleft" horiz-adv-x="380" d="M126,470H24l96,227h65L126,470Zm162,0H186l96,227h65L288,470Z" />
      <glyph unicode="&#x201d;" glyph-name="quotedblright" horiz-adv-x="380" d="M91,697H192L96,470H32L91,697Zm162,0H354L258,470H193l60,227Z" />
      <glyph unicode="&#x201e;" glyph-name="quotedblbase" horiz-adv-x="350" d="M57,115H159L63-112H-2L57,115Zm165,0H323L227-112H162l60,227Z" />
      <glyph unicode="&#x2022;" glyph-name="bullet" horiz-adv-x="412" d="M205,211q-51,0-86.5,35.5T83,333q0,52 35.5,87.5T205,456q52,0 88-35.5T329,333q0-51-36-86.5T205,211Z" />
      <glyph unicode="&#x2039;" glyph-name="guilsinglleft" horiz-adv-x="280" d="M141,120L45,295l96,175h89L131,295l99-175H141Z" />
      <glyph unicode="&#x203a;" glyph-name="guilsinglright" horiz-adv-x="280" d="M149,295L50,470h89l96-175L139,120H50l99,175Z" />
    </font>
</defs>
</svg>
