<?xml version="1.0" standalone="no"?>
<!DOCTYPE svg PUBLIC "-//W3C//DTD SVG 1.1//EN" "http://www.w3.org/Graphics/SVG/1.1/DTD/svg11.dtd">
<svg xmlns="http://www.w3.org/2000/svg">
<defs >
<font id="Gabriela" horiz-adv-x="590" ><font-face
    font-family="Gabriela"
    units-per-em="1000"
    panose-1="0 0 0 0 0 0 0 0 0 0"
    ascent="986"
    descent="-295"
    alphabetic="0" />
<glyph unicode=" " glyph-name="space" horiz-adv-x="275" />
<glyph unicode="!" glyph-name="exclam" horiz-adv-x="246" d="M123 198Q103 198 98 243Q91 318 84 393T72 537T63 659T60 742Q82 767 123 767Q162 767 186 742Q186 712 183 659T175 538T163 394T148 243Q143 198 123 198ZM123 -14Q112 -14 98 -3T73 23T62 51Q62
64 72 79T97 106T123 117Q136 117 150 106T175 80T186 51Q186 38 176 23T151 -3T123 -14Z" />
<glyph unicode="&quot;" glyph-name="quotedbl" horiz-adv-x="343" d="M254 572Q239 572 234 591Q226 627 219 668T207 746T203 804Q221 834 254 834Q287 834 305 804Q305 786 302 752T291 676T274 591Q269 572 254 572ZM89 572Q74 572 69 591Q61 627 54 668T42
746T38 804Q56 834 89 834Q122 834 140 804Q140 786 137 752T126 676T109 591Q104 572 89 572Z" />
<glyph unicode="#" glyph-name="numbersign" horiz-adv-x="696" d="M88 0L150 224H50L68 290H168L205 424H106L124 490H224L287 718H359L296 490H474L537 718H609L546 490H646L627 424H527L490 290H590L571 224H471L409 0H338L400 224H221L159 0H88ZM240 290H418L455
424H277L240 290Z" />
<glyph unicode="$" glyph-name="dollar" horiz-adv-x="581" d="M253 -153V1Q200 6 155 25T82 78T54 162Q54 209 84 238T161 268Q172 268 177 267T182 256Q182 252 175 242T160 214T152 170Q152 133 171 108T221 69T286 56Q318 56 345 69T390 108T408 169Q408 204
390 228T341 270T274 303T201 337T134 379T85 440T66 529Q66 572 86 613T147 684T253 717V848Q264 862 282 867T316 872V715Q360 710 397 694T456 649T478 581Q478 535 447 505T371 475Q361 475 356 476T350 487Q350 492 357 502T372 529T380 573Q380 617 348 639T277
662Q237 662 212 646T174 606T161 555Q161 511 180 483T230 434T298 398T372 366T440 326T490 270T509 186Q509 112 457 61T316 1V-129Q306 -142 288 -147T253 -153Z" />
<glyph unicode="%" glyph-name="percent" horiz-adv-x="923" d="M255 0L554 718H626L326 0H255ZM186 281Q138 281 105 301T53 354T24 428T15 508Q15 570 37 621T101 702T201 733Q258 733 296 705T354 628T374 520Q374 455 352 401T288 314T186 281ZM194 328Q226
328 247 352T278 417T289 507Q289 556 279 596T247 661T194 686Q162 686 141 662T109 597T99 507Q99 458 109 417T140 352T194 328ZM710 -14Q662 -14 629 6T577 59T548 133T539 213Q539 275 561 326T625 407T725 438Q782 438 820 410T878 333T898 225Q898 160 876
106T812 19T710 -14ZM718 33Q750 33 771 57T802 122T813 212Q813 261 803 301T771 366T718 391Q686 391 665 367T633 302T623 212Q623 163 633 122T664 57T718 33Z" />
<glyph unicode="&amp;" glyph-name="ampersand" horiz-adv-x="668" d="M285 -14Q170 -14 100 39T30 192Q30 259 76 311T212 386Q148 402 109 442T70 552Q70 597 97 638T180 705T317 732Q364 732 402 717T462 675T485 612Q485 574 462 550T398 525Q377 525 377
535Q377 541 387 554T398 602Q398 640 374 663T306 686Q265 686 237 668T194 620T180 558Q180 488 216 453T302 418Q309 418 312 411T316 396Q316 390 313 383T303 376Q220 355 182 303T144 193Q144 155 161 120T212 62T291 39Q357 39 401 74T445 176Q445 205 438
225T421 258Q410 258 401 258T383 257Q335 253 313 241T282 217T266 205Q258 205 251 215T244 237Q244 266 267 278T328 295T407 301T486 309T547 333T571 387Q571 419 558 437T532 465T518 482Q518 490 533 493T562 497Q604 497 636 469T668 394Q668 357 650 333T603
294T538 272T470 262Q492 243 505 216T518 158Q518 120 496 80T423 13T285 -14Z" />
<glyph unicode="&apos;" glyph-name="quotesingle" horiz-adv-x="178" d="M89 572Q74 572 69 591Q61 627 54 668T42 746T38 804Q56 834 89 834Q122 834 140 804Q140 786 137 752T126 676T109 591Q104 572 89 572Z" />
<glyph unicode="(" glyph-name="parenleft" horiz-adv-x="352" d="M321 -112Q197 -60 128 51T58 331Q58 501 127 611T321 774V729Q254 685 210 584T166 331Q166 180 210 79T321 -67V-112Z" />
<glyph unicode=")" glyph-name="parenright" horiz-adv-x="352" d="M31 -112V-67Q99 -23 142 78T186 331Q186 482 143 583T31 729V774Q156 722 225 612T294 331Q294 162 225 51T31 -112Z" />
<glyph unicode="*" glyph-name="asterisk" horiz-adv-x="574" d="M386 411Q373 411 361 417Q336 470 317 508T287 571Q275 546 256 509T213 418Q200 412 187 412Q159 412 145 433T131 477Q174 516 204 545T254 594Q226 598 185 604T86 617Q70 634 70 655Q70 678
83 694T117 714Q167 686 204 667T267 633Q262 660 255 701T236 800Q254 830 287 830Q320 830 338 800Q327 743 320 702T307 633Q331 646 368 665T457 713Q479 708 491 693T504 657Q504 635 489 617Q431 610 389 604T319 594Q339 575 369 546T442 477Q442 448 426
430T386 411Z" />
<glyph unicode="+" glyph-name="plus" horiz-adv-x="621" d="M273 146V319H99V395H273V569H348V395H522V319H348V146H273Z" />
<glyph unicode="," glyph-name="comma" horiz-adv-x="191" d="M36 -123L7 -104L53 -14Q65 10 65 27Q65 47 42 64L24 76L19 100L36 107Q50 112 64 115T92 119Q119 119 138 104T157 52Q157 21 134 -11T75 -81L36 -123Z" />
<glyph unicode="-" glyph-name="hyphen" horiz-adv-x="355" d="M33 252Q33 270 39 290T59 322L322 332Q322 314 317 294T296 262L33 252Z" />
<glyph unicode="." glyph-name="period" horiz-adv-x="191" d="M94 -14Q83 -14 69 -3T44 23T33 51Q33 64 43 79T68 106T94 117Q107 117 121 106T146 80T157 51Q157 38 147 23T122 -3T94 -14Z" />
<glyph unicode="/" glyph-name="slash" horiz-adv-x="371" d="M0 -63L299 781H371L71 -63H0Z" />
<glyph unicode="0" glyph-name="zero" horiz-adv-x="693" d="M334 -14Q257 -14 205 19T120 106T74 227T60 360Q60 437 80 504T140 623T234 703T359 732Q450 732 510 685T602 559T633 380Q633 300 613 229T555 103T461 17T334 -14ZM346 43Q406 43 446 85T506 199T526
358Q526 445 506 517T446 632T346 675Q285 675 245 632T186 517T166 358Q166 271 185 200T245 86T346 43Z" />
<glyph unicode="1" glyph-name="one" horiz-adv-x="418" d="M97 0L85 34L128 45Q154 52 167 60T186 85T192 133V615L69 537Q46 542 28 563T0 605L277 734Q291 730 301 719T317 697L291 680V201Q291 140 301 104T336 34L349 16L336 0H97Z" />
<glyph unicode="2" glyph-name="two" horiz-adv-x="596" d="M64 0L37 51Q135 131 202 193T313 305T380 396T413 473T422 546Q422 590 403 619T355 662T292 676Q259 676 229 662T179 619T159 549Q159 523 166 506T181 478T189 463Q189 454 184 453T168 451Q122
451 92 480T61 557Q61 616 94 654T181 712T293 732Q403 732 470 684T537 545Q537 491 508 435T428 322T313 206T177 91H556Q556 68 549 42T522 0H64Z" />
<glyph unicode="3" glyph-name="three" horiz-adv-x="596" d="M289 -14Q230 -14 177 4T91 58T57 148Q57 195 87 224T164 254Q175 254 180 253T185 242Q185 238 178 228T163 200T155 156Q155 122 174 98T223 62T286 49Q322 49 355 64T410 110T432 190Q432 210 426
236T403 286T351 325T261 341Q225 341 206 336T180 331Q166 331 166 349Q166 361 174 368T221 382Q285 394 323 414T380 459T405 507T411 553Q411 595 393 622T345 663T285 677Q242 677 208 651T174 573Q174 547 181 530T196 502T204 487Q204 475 183 475Q137 475
107 504T76 581Q76 632 106 665T185 715T287 732Q344 732 397 713T485 656T520 559Q520 492 481 447T372 376Q457 357 499 305T541 184Q541 88 472 37T289 -14Z" />
<glyph unicode="4" glyph-name="four" horiz-adv-x="608" d="M291 0L279 34L322 45Q348 52 361 60T380 85T385 133V162H30L262 718H325L344 702L128 225H385V361Q385 393 381 411T363 452L375 467L485 479V225H578Q578 209 574 191T555 162H486Q488 119 499 90T530
34L543 16L530 0H291Z" />
<glyph unicode="5" glyph-name="five" horiz-adv-x="596" d="M289 -14Q230 -14 177 4T91 58T57 148Q57 195 87 224T164 254Q175 254 180 253T185 242Q185 238 178 228T163 200T155 156Q155 122 174 98T223 62T286 49Q322 49 355 65T410 113T432 193Q432 217 425
245T396 300T334 344T224 361Q201 361 175 358T119 348L98 385L116 718H505Q505 695 498 669T471 627H177L165 402Q199 410 229 413T288 416Q378 416 433 384T515 301T541 193Q541 129 510 83T422 11T289 -14Z" />
<glyph unicode="6" glyph-name="six" horiz-adv-x="646" d="M335 -14Q266 -14 214 13T128 88T76 197T58 328Q58 411 77 484T134 612T229 700T363 732Q421 732 465 715T535 667T561 597Q561 545 531 513T454 480Q433 480 433 492Q433 497 440 507T455 534T463 574Q463
621 435 648T360 675Q305 675 268 643T208 559T176 446T166 326Q166 314 166 302T167 279Q186 340 237 379T371 419Q440 419 485 392T552 320T574 218Q574 155 548 102T468 18T335 -14ZM321 49Q386 49 419 93T453 203Q453 264 425 307T335 351Q292 351 263 329T220
272T205 195Q205 134 232 92T321 49Z" />
<glyph unicode="7" glyph-name="seven" horiz-adv-x="496" d="M80 0L68 34L91 40Q131 51 152 72T191 139L381 627H36Q17 643 10 669T2 718H487L283 200Q270 167 265 142T260 95Q260 61 274 34L283 16L264 0H80Z" />
<glyph unicode="8" glyph-name="eight" horiz-adv-x="616" d="M300 -17Q233 -17 177 1T88 59T54 166Q54 210 73 245T124 307T187 354Q131 385 102 426T72 532Q72 583 96 629T171 705T301 735Q368 735 423 717T511 658T544 551Q544 511 526 478T480 418T421 373Q562
301 562 179Q562 91 493 37T300 -17ZM369 398Q403 437 419 476T436 552Q436 607 401 643T301 679Q263 679 235 663T191 619T175 562Q175 522 204 491T307 426L369 398ZM301 39Q366 39 409 68T452 153Q452 204 425 231T342 284L235 331Q197 291 179 249T160 169Q160
113 197 76T301 39Z" />
<glyph unicode="9" glyph-name="nine" horiz-adv-x="646" d="M292 -14Q234 -14 189 4T119 53T93 126Q93 167 121 192T193 217Q215 217 215 205Q215 198 203 181T190 132Q190 91 218 67T291 43Q342 43 376 68T430 136T459 230T468 337Q468 351 468 364T467 391Q442
340 393 308T272 276Q208 276 165 306T99 384T77 485Q77 530 92 574T137 653T214 710T321 732Q389 732 437 701T515 616T560 491T574 340Q574 241 544 161T451 34T292 -14ZM318 348Q364 348 394 371T439 430T454 506Q454 546 440 583T399 643T329 667Q285 667 256
644T212 584T197 507Q197 467 210 431T251 371T318 348Z" />
<glyph unicode=":" glyph-name="colon" horiz-adv-x="191" d="M94 -14Q83 -14 69 -3T44 23T33 51Q33 64 43 79T68 106T94 117Q107 117 121 106T146 80T157 51Q157 38 147 23T122 -3T94 -14ZM94 346Q83 346 69 357T44 383T33 411Q33 424 43 439T68 466T94 477Q107
477 121 466T146 440T157 411Q157 398 147 383T122 357T94 346Z" />
<glyph unicode=";" glyph-name="semicolon" horiz-adv-x="191" d="M36 -123L7 -104L53 -14Q65 10 65 27Q65 47 42 64L24 76L19 100L36 107Q50 112 64 115T92 119Q119 119 138 104T157 52Q157 21 134 -11T75 -81L36 -123ZM94 346Q83 346 69 357T44 383T33 411Q33
424 43 439T68 466T94 477Q107 477 121 466T146 440T157 411Q157 398 147 383T122 357T94 346Z" />
<glyph unicode="&lt;" glyph-name="less" horiz-adv-x="621" d="M522 148L99 319V395L522 566V490L184 357L522 224V148Z" />
<glyph unicode="=" glyph-name="equal" horiz-adv-x="621" d="M99 427V503H522V427H99ZM99 211V287H522V211H99Z" />
<glyph unicode="&gt;" glyph-name="greater" horiz-adv-x="621" d="M99 148V224L437 357L99 490V566L522 395V319L99 148Z" />
<glyph unicode="?" glyph-name="question" horiz-adv-x="538" d="M226 216L165 278Q230 335 269 379T327 459T353 524T360 578Q360 640 326 671T238 702Q195 702 170 679T144 615Q144 587 150 571T162 546T168 533Q168 522 149 522Q106 522 79 549T51 620Q51 661
78 692T153 741T262 759Q320 759 368 739T445 680T474 584Q474 527 437 467T333 343Q299 311 279 288T250 235L245 216H226ZM233 -14Q222 -14 208 -3T183 23T172 51Q172 64 182 79T207 106T233 117Q246 117 260 106T285 80T296 51Q296 38 286 23T261 -3T233 -14Z"
/>
<glyph unicode="@" glyph-name="at" horiz-adv-x="892" d="M414 -110Q332 -110 266 -83T152 -6T80 109T55 250Q55 337 87 413T178 549T313 641T479 675Q561 675 627 648T740 571T812 456T837 315Q837 269 824 220T783 130T716 62T621 36Q569 36 535 69T500 168Q469
131 431 111T357 91Q306 91 270 132T233 256Q233 334 261 391T338 479T453 510Q490 510 536 502T619 490L627 478L618 462Q614 457 611 450T606 433Q598 339 594 287T587 210T585 179T584 170Q584 130 599 109T636 88Q656 88 680 112T722 188T740 318Q740 404 709
472T618 579T474 618Q402 618 343 590T241 510T175 392T151 248Q151 162 182 94T274 -14T419 -53Q470 -53 513 -43T599 -8L623 -50Q574 -79 524 -94T414 -110ZM408 167Q428 167 452 182T499 229L516 429Q500 442 485 447T452 452Q411 452 384 426T344 361T331 281Q331
229 353 198T408 167Z" />
<glyph unicode="A" glyph-name="A" horiz-adv-x="706" d="M-4 0L-16 34L7 40Q34 47 50 57T77 84T99 133L256 585Q261 601 264 612T267 634Q267 653 256 662T222 678L199 684L211 718H404L605 138Q617 105 629 84T658 48T695 16L682 0H457L445 34L468 40Q491 46
502 55T513 84Q513 94 510 105T502 133L454 273H223L199 200Q188 166 182 141T176 95Q176 61 190 34L199 16L180 0H-4ZM244 335H433L337 615L244 335Z" />
<glyph unicode="B" glyph-name="B" horiz-adv-x="651" d="M57 0L45 34L68 40Q106 51 119 69T132 133V627Q132 651 110 651H52L40 688Q66 698 106 708T194 725T288 732Q385 732 444 706T531 634T559 535Q559 482 534 436T454 364Q522 342 559 297T596 197Q596 140
571 96T488 26T336 0H57ZM342 52Q414 52 453 94T492 202Q492 240 473 271T419 322T333 341Q315 341 297 345T268 354Q260 358 257 364T253 376Q253 394 267 394Q273 394 283 391T317 387Q386 387 423 428T460 533Q460 594 419 635T298 676Q268 676 254 669T236
650T231 630V183Q231 136 242 110T272 71T308 55T342 52Z" />
<glyph unicode="C" glyph-name="C" horiz-adv-x="617" d="M355 -14Q274 -14 214 15T114 95T55 213T35 358Q35 435 54 503T114 622T215 703T358 732Q424 732 475 714T554 662T583 585Q583 533 553 501T476 468Q455 468 455 480Q455 485 462 495T477 524T485 571Q485
618 450 647T358 676Q299 676 259 648T195 574T159 471T148 358Q148 275 174 206T248 96T364 55Q430 55 477 79T552 145Q555 149 559 149Q568 149 579 140T591 121Q591 118 588 113Q549 55 492 21T355 -14Z" />
<glyph unicode="D" glyph-name="D" horiz-adv-x="733" d="M52 0L40 34L63 40Q91 48 109 64T127 122V627Q127 651 105 651H47L35 688Q63 698 107 708T203 725T306 732Q418 732 493 702T614 620T678 500T698 358Q698 259 662 178T552 48T366 0H52ZM334 51Q465 51
527 130T589 360Q589 420 574 476T526 578T443 649T324 676Q280 676 259 669T232 650T226 630V175Q226 123 241 97T282 61T334 51Z" />
<glyph unicode="E" glyph-name="E" horiz-adv-x="610" d="M527 -25L519 -14Q508 0 477 0H56L45 32L66 38Q102 49 114 65T127 126V517Q127 578 117 614T82 684L69 702L82 718H388Q474 718 502 739L520 752L536 739V561L502 549L496 572Q487 608 475 627T443 653T387
661H290Q251 661 239 647T226 585V393H353Q376 393 394 403T432 439L440 450L460 439V268L426 256L420 279Q411 314 388 325T311 336H226V133Q226 87 238 72T290 57H398Q434 57 454 64T486 91T507 146L513 169L547 157V-14L527 -25Z" />
<glyph unicode="F" glyph-name="F" horiz-adv-x="547" d="M58 0L45 16L58 34Q83 67 93 103T103 201V517Q103 578 93 614T58 684L45 702L58 718H354Q440 718 468 739L486 752L502 739V561L468 549L462 572Q453 608 441 627T409 653T353 661H266Q227 661 215 647T202
585V383H319Q342 383 360 393T398 429L406 440L426 429V258L392 246L386 269Q377 304 354 315T277 326H202V133Q202 87 215 69T266 40L289 34L277 0H58Z" />
<glyph unicode="G" glyph-name="G" horiz-adv-x="691" d="M373 -278Q312 -278 272 -257T211 -203T191 -135Q191 -104 205 -77T248 -32T318 -14Q329 -14 333 -17T337 -25Q337 -31 325 -42T301 -75T288 -133Q288 -171 314 -198T390 -226Q453 -226 487 -178T521 -12V82Q485
52 442 35T345 17Q240 17 172 65T69 195T35 376Q35 447 55 511T116 624T220 703T366 732Q437 732 491 712T576 657T607 575Q607 523 577 491T500 458Q484 458 482 460T479 470Q479 475 486 485T501 514T509 561Q509 612 470 644T366 676Q303 676 260 649T192 577T155
481T143 381Q143 299 168 231T240 122T354 81Q406 81 447 99T521 149V200Q521 247 508 265T457 293L434 299L446 333H656L669 317L656 299Q632 265 622 229T611 132V16Q611 -90 582 -155T499 -249T373 -278Z" />
<glyph unicode="H" glyph-name="H" horiz-adv-x="779" d="M52 0L40 34L63 40Q101 51 114 69T127 133V585Q127 632 114 649T63 678L40 684L52 718H271L284 702L271 684Q246 651 236 615T226 517V395H553V585Q553 632 540 649T489 678L466 684L478 718H697L710 702L697
684Q672 651 662 615T652 517V126Q652 82 664 66T713 38L734 32L723 0H478L466 34L489 40Q527 51 540 69T553 133V334H226V126Q226 82 238 66T287 38L308 32L297 0H52Z" />
<glyph unicode="I" glyph-name="I" horiz-adv-x="353" d="M52 0L40 34L63 40Q101 50 114 68T127 133V585Q127 632 114 650T63 678L40 684L52 718H271L284 702L271 684Q247 650 237 614T226 517V126Q226 82 238 66T287 38L308 32L297 0H52Z" />
<glyph unicode="J" glyph-name="J" horiz-adv-x="469" d="M162 -14Q101 -14 61 7T0 61T-20 129Q-20 160 -6 187T37 232T107 250Q118 250 122 247T126 239Q126 233 114 222T90 189T77 131Q77 93 101 66T169 38Q196 38 219 49T257 90T272 175V585Q272 632 259 649T208
678L185 684L197 718H416L429 702L416 684Q391 651 381 615T371 517V236Q371 146 345 91T271 11T162 -14Z" />
<glyph unicode="K" glyph-name="K" horiz-adv-x="668" d="M559 -14Q512 -14 482 11T425 83L306 301Q295 321 285 329T255 346Q250 349 250 357Q250 364 253 372T270 381Q276 381 282 381T294 380L430 583Q444 604 447 615T451 639Q451 651 447 663T438 684L429
702L448 718H629L641 684L618 678Q596 672 577 661T540 624L360 364Q380 355 397 340T429 299L557 72Q565 59 573 50T595 41Q614 41 634 55L651 26Q629 5 606 -4T559 -14ZM52 0L40 34L63 40Q101 51 114 69T127 133V585Q127 632 114 649T63 678L40 684L52 718H271L284
702L271 684Q246 651 236 615T226 517V126Q226 82 238 66T287 38L308 32L297 0H52Z" />
<glyph unicode="L" glyph-name="L" horiz-adv-x="550" d="M506 -25L498 -14Q487 0 456 0H56L45 32L66 38Q102 49 114 65T127 126V585Q127 632 114 650T63 678L40 684L52 718H271L284 702L271 684Q247 650 237 614T226 517V133Q226 87 238 72T290 57H377Q413 57
433 64T465 91T486 146L492 169L526 157V-14L506 -25Z" />
<glyph unicode="M" glyph-name="M" horiz-adv-x="921" d="M26 0L15 34L38 40Q76 51 91 69T109 133L136 529Q137 533 138 548T140 581T141 606Q141 641 129 655T83 678L60 684L71 718H253L459 215L671 718H815L830 702L818 684Q799 657 791 629T782 558Q782 552
783 533T785 495T787 468L807 194Q812 133 827 92T876 16L863 0H644L632 34L655 40Q687 50 699 65T712 112Q712 119 712 130T710 149L681 566L472 72H418L209 566L187 258Q186 241 185 220T182 183T181 160Q181 118 189 90T217 34L229 16L214 0H26Z" />
<glyph unicode="N" glyph-name="N" horiz-adv-x="779" d="M46 0L34 34L57 40Q95 50 108 68T121 133V585Q121 632 108 650T57 678L34 684L46 718H207L589 151V585Q589 632 576 650T525 678L502 684L514 718H704L717 702L704 684Q680 650 670 614T659 517V88Q659
69 662 57T673 34L686 16L673 0H572L191 565V201Q191 140 201 104T236 34L249 16L236 0H46Z" />
<glyph unicode="O" glyph-name="O" horiz-adv-x="733" d="M366 -14Q254 -14 181 36T71 170T35 358Q35 435 55 503T116 622T220 703T366 732Q450 732 512 703T615 623T677 503T698 358Q698 255 662 171T552 36T366 -14ZM362 45Q434 45 485 86T562 198T589 355Q589
392 583 435T561 521T521 598T459 654T371 675Q298 675 247 631T170 513T143 350Q143 265 167 196T241 86T362 45Z" />
<glyph unicode="P" glyph-name="P" horiz-adv-x="596" d="M52 0L40 34L63 40Q101 50 114 68T127 133V627Q127 651 105 651H47L35 688Q61 698 101 708T189 725T284 732Q388 732 452 700T546 613T576 494Q576 432 551 379T472 293T336 261Q302 261 275 269T248 296Q248
305 252 312T264 320Q270 320 280 317T313 313Q390 313 431 362T472 491Q472 543 453 585T396 651T302 676Q268 676 252 669T231 650T226 630V201Q226 140 236 104T271 34L284 16L271 0H52Z" />
<glyph unicode="Q" glyph-name="Q" horiz-adv-x="733" d="M690 -222Q648 -222 618 -202T565 -150T526 -80L487 5Q460 -4 430 -9T366 -14Q254 -14 181 36T71 170T35 358Q35 435 55 503T116 622T220 703T366 732Q450 732 512 703T615 623T677 503T698 358Q698 260
665 178T564 46L614 -65Q632 -105 657 -123T719 -142Q742 -142 755 -136T774 -129Q783 -129 783 -139Q783 -176 754 -199T690 -222ZM522 126Q589 215 589 355Q589 392 583 435T561 521T521 598T459 654T371 675Q298 675 247 631T170 513T143 350Q143 283 158 226T203
127Q202 132 202 137T201 147Q201 197 235 225T327 254Q380 254 430 223T522 126ZM362 45Q414 45 458 70Q424 140 384 168T310 196Q282 196 263 179T244 133Q244 102 261 83T306 54T362 45Z" />
<glyph unicode="R" glyph-name="R" horiz-adv-x="640" d="M529 -14Q477 -14 447 16T391 103L315 264Q305 286 291 295T247 314Q228 321 228 337Q228 346 232 353T244 361Q250 361 260 358T293 354Q370 354 411 397T452 510Q452 580 409 628T282 676Q248 676 232
669T211 650T206 630V201Q206 140 216 104T251 34L264 16L251 0H32L20 34L43 40Q81 50 94 68T107 133V627Q107 651 85 651H27L15 688Q41 698 81 708T169 725T264 732Q368 732 432 703T526 623T556 513Q556 443 517 387T394 310Q408 301 417 289T434 261L527 72Q534
59 543 50T565 41Q584 41 604 55L621 26Q599 5 576 -4T529 -14Z" />
<glyph unicode="S" glyph-name="S" horiz-adv-x="572" d="M292 -14Q220 -14 164 6T77 63T45 147Q45 199 77 231T159 264Q180 264 180 252Q180 248 172 237T156 208T148 161Q148 109 188 76T292 42Q348 42 384 71T421 155Q421 197 402 225T350 274T280 311T203
346T132 389T81 450T61 538Q61 587 84 631T156 704T279 732Q345 732 396 714T475 662T504 585Q504 533 474 501T397 468Q376 468 376 480Q376 485 383 495T398 524T406 571Q406 618 371 647T279 676Q217 676 187 641T156 561Q156 524 176 498T228 453T300 416T378
380T449 334T502 271T522 181Q522 94 464 40T292 -14Z" />
<glyph unicode="T" glyph-name="T" horiz-adv-x="595" d="M203 0L190 16L203 34Q228 67 238 103T248 201V585Q248 632 242 646T214 661H169Q134 661 114 654T82 627T60 572L54 549L20 561V739L36 752L54 739Q82 718 168 718H427Q513 718 541 739L559 752L575 739V561L541
549L535 572Q526 608 514 627T482 653T426 661H381Q360 661 354 647T347 585V133Q347 87 360 69T411 40L434 34L422 0H203Z" />
<glyph unicode="U" glyph-name="U" horiz-adv-x="739" d="M373 -14Q300 -14 241 10T146 86T111 220V585Q111 632 98 650T47 678L24 684L36 718H255L268 702L255 684Q231 650 221 614T210 517V220Q210 166 233 128T297 69T386 49Q435 49 475 69T538 127T562 220V585Q562
632 549 650T498 678L475 684L487 718H677L690 702L677 684Q653 650 643 614T632 517V220Q632 138 598 86T504 10T373 -14Z" />
<glyph unicode="V" glyph-name="V" horiz-adv-x="682" d="M290 0L95 580Q84 613 72 634T43 670T5 702L18 718H243L255 684L232 678Q209 672 198 663T187 634Q187 624 190 613T198 585L361 83L501 518Q510 547 515 570T520 611Q518 666 475 678L452 684L464 718H654L667
702L652 684Q633 661 620 637T597 584L404 0H290Z" />
<glyph unicode="W" glyph-name="W" horiz-adv-x="1087" d="M290 0L95 580Q84 613 72 634T43 670T5 702L18 718H243L255 684L232 678Q209 672 198 663T187 634Q187 624 190 613T198 585L361 83L510 548L500 580Q489 613 477 634T448 670T410 702L423 718H648L660
684L637 678Q614 672 603 663T592 634Q592 624 595 613T603 585L766 83L906 518Q915 547 920 570T925 611Q923 666 880 678L857 684L869 718H1059L1072 702L1057 684Q1038 661 1025 637T1002 584L809 0H695L548 436L404 0H290Z" />
<glyph unicode="X" glyph-name="X" horiz-adv-x="680" d="M22 0L10 34L33 40Q55 46 74 57T111 94L290 353L119 596Q100 622 77 651T28 702L41 718H278L290 684L267 678Q245 672 237 661T228 635Q228 619 235 603T250 576L353 429L456 583Q470 604 473 615T477
639Q477 651 473 663T464 684L455 702L474 718H658L670 684L647 678Q625 672 606 661T569 624L394 371L574 116Q594 88 613 64T661 16L648 0H411L399 34L422 40Q444 46 452 57T461 83Q461 99 454 115T439 142L330 295L224 135Q211 114 207 103T203 79Q203 67 207
55T216 34L225 16L206 0H22Z" />
<glyph unicode="Y" glyph-name="Y" horiz-adv-x="626" d="M218 0L205 16L218 34Q242 67 253 103T265 201V295L105 576Q80 621 59 649T5 702L18 718H243L255 684L232 678Q209 672 198 663T187 634Q187 624 198 605T218 571L326 382L439 584Q451 607 451 625Q451
647 438 660T409 678L386 684L398 718H588L601 702L586 684Q567 661 548 633T515 578L360 303V133Q360 87 374 69T426 40L449 34L437 0H218Z" />
<glyph unicode="Z" glyph-name="Z" d="M530 -25L522 -14Q511 0 480 0H20L417 661H206Q171 661 151 654T119 627T97 572L91 549L57 561V739L73 752L91 739Q119 718 205 718H570L175 57H401Q437 57 457 64T489 91T510 146L516 169L550 157V-14L530 -25Z" />
<glyph unicode="[" glyph-name="bracketleft" horiz-adv-x="387" d="M126 -112V774H360V726L280 714Q252 710 239 700T225 661V1Q225 -27 238 -37T280 -52L360 -64V-112H126Z" />
<glyph unicode="\" glyph-name="backslash" horiz-adv-x="371" d="M300 -63L0 781H72L371 -63H300Z" />
<glyph unicode="]" glyph-name="bracketright" horiz-adv-x="387" d="M261 -112H27V-64L107 -52Q135 -47 148 -37T162 1V661Q162 689 149 699T107 714L27 726V774H261V-112Z" />
<glyph unicode="^" glyph-name="asciicircum" horiz-adv-x="621" d="M96 398L267 718H353L524 398H443L309 653L177 398H96Z" />
<glyph unicode="_" glyph-name="underscore" horiz-adv-x="355" d="M-26 -84Q-26 -66 -20 -46T0 -14H381Q381 -32 376 -52T355 -84H-26Z" />
<glyph unicode="`" glyph-name="grave" horiz-adv-x="288" d="M223 569L110 625Q79 640 67 657T54 697Q54 719 65 735T96 760L252 604L223 569Z" />
<glyph unicode="a" glyph-name="a" horiz-adv-x="604" d="M224 -14Q177 -14 136 13T70 94T45 229Q45 316 76 379T166 476T304 510Q351 510 402 500T504 485L515 472L503 454Q497 445 494 437T490 415V88Q490 57 520 57Q545 57 570 75L589 49Q563 20 534 3T478
-14Q437 -14 419 11T401 92Q358 31 315 9T224 -14ZM264 63Q302 63 337 85T401 154V424Q355 455 303 455Q230 455 190 401T150 248Q150 180 166 140T208 81T264 63Z" />
<glyph unicode="b" glyph-name="b" d="M285 -14Q227 -14 177 3T98 49V674Q98 696 78 696H34L25 722Q54 748 91 765T157 782Q171 782 180 773T189 750V74Q212 58 237 50T294 42Q361 42 400 98T439 248Q439 309 422 355T373 428T301 454Q270 454 258 448T237 441Q231
441 227 448T222 463Q222 475 231 481Q256 497 281 503T332 510Q395 510 443 479T518 394T545 268Q545 187 511 124T419 23T285 -14Z" />
<glyph unicode="c" glyph-name="c" horiz-adv-x="509" d="M286 -14Q216 -14 162 20T76 113T45 247Q45 327 75 386T159 477T287 510Q364 510 413 473T463 376Q463 333 436 306T365 278Q346 278 346 289Q346 294 352 302T364 326T370 371Q370 411 345 434T276 458Q219
458 184 402T149 255Q149 162 190 108T303 53Q375 53 435 103Q438 106 444 106Q452 106 460 97T469 78Q469 72 466 69Q431 29 385 8T286 -14Z" />
<glyph unicode="d" glyph-name="d" horiz-adv-x="604" d="M224 -14Q177 -14 136 13T70 94T45 229Q45 316 76 379T166 476T304 510Q356 510 399 497V674Q399 696 379 696H335L326 722Q355 748 392 765T458 782Q472 782 481 773T490 750V88Q490 57 520 57Q545 57
570 75L589 49Q563 20 534 3T478 -14Q437 -14 419 11T401 92Q358 31 315 9T224 -14ZM264 63Q302 63 337 85T401 154V424Q355 455 303 455Q230 455 190 401T150 248Q150 180 166 140T208 81T264 63Z" />
<glyph unicode="e" glyph-name="e" horiz-adv-x="529" d="M275 -14Q205 -14 154 18T74 107T45 242Q45 323 77 383T167 476T304 510Q362 510 399 489T455 435T474 363Q474 322 453 283T389 219T283 194Q273 194 255 196T218 204T186 219T173 241Q173 249 177 256T188
263Q196 263 208 257T252 250Q295 250 323 266T365 309T379 364Q379 401 355 430T284 460Q220 460 184 404T148 242Q148 154 185 103T296 52Q338 52 375 66T442 109Q446 113 451 113Q459 113 468 104T477 84Q477 79 473 75Q396 -14 275 -14Z" />
<glyph unicode="f" glyph-name="f" horiz-adv-x="334" d="M19 -238Q-33 -238 -69 -211T-105 -136Q-105 -98 -78 -72T-7 -46Q12 -46 12 -57Q12 -61 5 -69T-9 -91T-16 -129Q-16 -160 0 -177T39 -195Q67 -195 88 -170T109 -90V434H21Q21 461 25 469T45 481L109 497Q109
627 155 704T295 782Q360 782 402 751T444 671Q444 628 417 601T346 573Q327 573 327 584Q327 589 333 597T345 621T351 666Q351 698 333 717T284 737Q238 737 219 692T199 573V497H339Q339 452 316 434H199V-13Q199 -113 155 -175T19 -238Z" />
<glyph unicode="g" glyph-name="g" horiz-adv-x="602" d="M283 -278Q225 -278 187 -257T131 -203T112 -135Q112 -104 126 -77T169 -32T239 -14Q250 -14 254 -17T258 -25Q258 -31 246 -42T222 -75T209 -133Q209 -171 232 -198T296 -226Q339 -226 365 -202T404 -135T416
-38V121Q373 60 330 38T239 15Q192 15 151 38T85 110T60 229Q60 316 91 379T181 476T319 510Q366 510 417 500T519 485L530 472L518 454Q512 445 509 437T505 415V-22Q505 -146 445 -212T283 -278ZM279 92Q317 92 352 114T416 183V424Q370 455 318 455Q245 455
205 401T165 248Q165 191 181 157T223 107T279 92Z" />
<glyph unicode="h" glyph-name="h" horiz-adv-x="639" d="M507 -16Q466 -16 448 9T430 90V328Q430 379 411 405T344 432Q301 432 269 398T218 303T199 160Q199 113 206 85T231 31L243 15L231 0H56L45 31L66 36Q92 42 100 58T108 111V674Q108 696 88 696H44L35
722Q64 748 101 765T167 782Q181 782 190 773T199 750V361Q216 405 245 438T311 491T386 510Q461 510 490 466T520 328V86Q520 52 550 52Q575 52 600 73L619 47Q593 18 563 1T507 -16Z" />
<glyph unicode="i" glyph-name="i" horiz-adv-x="312" d="M185 -14Q144 -14 126 11T108 92V402Q108 424 88 424H44L35 450Q64 476 101 493T167 510Q181 510 189 501T198 478V88Q198 54 228 54Q253 54 278 75L297 49Q271 20 241 3T185 -14ZM411 593Q400 593 386
604T361 630T350 658Q350 671 360 686T385 713T411 724Q424 724 438 713T463 687T474 658Q474 645 464 630T439 604T411 593Z" />
<glyph unicode="j" glyph-name="j" horiz-adv-x="274" d="M13 -278Q-39 -278 -75 -251T-111 -176Q-111 -138 -84 -112T-13 -86Q6 -86 6 -97Q6 -101 -1 -109T-15 -131T-22 -169Q-22 -200 -6 -217T33 -235Q61 -235 82 -210T103 -130V402Q103 424 83 424H39L30 450Q59
476 96 493T162 510Q176 510 185 501T194 478V-53Q194 -153 150 -215T13 -278ZM404 593Q393 593 379 604T354 630T343 658Q343 671 353 686T378 713T404 724Q417 724 431 713T456 687T467 658Q467 645 457 630T432 604T404 593Z" />
<glyph unicode="k" glyph-name="k" horiz-adv-x="584" d="M457 -14Q410 -14 386 14T336 92L262 233L253 236Q242 239 238 244T234 257Q234 264 237 270T249 276Q257 276 269 272T313 267Q352 267 377 283T415 322T428 370Q428 399 412 420T361 441Q311 441 275
406T219 307T199 160Q199 113 205 85T231 31L243 15L231 0H56L45 31L66 36Q92 42 100 58T108 111V674Q108 696 88 696H44L35 722Q64 748 101 765T167 782Q181 782 190 773T199 750V361Q216 405 244 438T307 491T380 510Q427 510 457 492T503 443T518 379Q518 345
501 312T451 255T370 225L448 77Q456 61 466 55T490 49Q504 49 518 56T543 75L564 49Q539 15 512 1T457 -14Z" />
<glyph unicode="l" glyph-name="l" horiz-adv-x="302" d="M175 -14Q134 -14 116 11T98 92V674Q98 696 78 696H34L25 722Q54 748 91 765T157 782Q171 782 179 773T188 750V88Q188 54 218 54Q243 54 268 75L287 49Q261 20 231 3T175 -14Z" />
<glyph unicode="m" glyph-name="m" horiz-adv-x="941" d="M809 -14Q768 -14 750 11T732 92V330Q732 432 658 432Q616 432 584 400T534 309T513 172V160Q513 112 521 81T557 15L545 0H423V330Q423 432 349 432Q306 432 274 398T223 303T204 160Q204 113 211 85T236
31L248 15L236 0H61L50 31L71 36Q97 42 105 58T113 111V392Q113 414 93 414H49L40 440Q69 466 106 483T172 500Q186 500 195 491T204 468V361Q221 405 249 438T313 491T385 510Q446 510 477 474T513 361Q530 405 558 438T622 491T694 510Q761 510 791 467T822 330V88Q822
54 852 54Q875 54 902 75L921 49Q895 20 865 3T809 -14Z" />
<glyph unicode="n" glyph-name="n" horiz-adv-x="644" d="M512 -14Q471 -14 453 11T435 92V330Q435 432 349 432Q306 432 274 398T223 303T204 160Q204 113 211 85T236 31L248 15L236 0H61L50 31L71 36Q97 42 105 58T113 111V392Q113 414 93 414H49L40 440Q69
466 106 483T172 500Q186 500 195 491T204 468V361Q221 405 250 438T316 491T391 510Q461 510 493 467T525 330V88Q525 54 555 54Q578 54 605 75L624 49Q598 20 568 3T512 -14Z" />
<glyph unicode="o" glyph-name="o" horiz-adv-x="578" d="M289 -14Q214 -14 160 18T75 109T45 248Q45 329 75 387T159 478T289 510Q364 510 418 478T503 388T533 248Q533 168 503 109T419 18T289 -14ZM286 40Q348 40 388 96T428 245Q428 275 422 312T400 382T358
436T292 458Q250 458 218 432T167 358T149 247Q149 153 186 97T286 40Z" />
<glyph unicode="p" glyph-name="p" horiz-adv-x="595" d="M71 -266L59 -251L71 -235Q89 -209 96 -181T103 -106V381Q103 396 99 403T82 414L30 425V458Q41 468 65 477T118 492T169 498Q193 498 193 452V447Q258 510 337 510Q400 510 448 479T523 394T550 268Q550
187 522 124T444 23T330 -14Q271 -14 230 13Q221 19 221 31Q221 40 224 48T236 56Q244 56 258 48T307 40Q347 40 378 67T426 141T444 248Q444 306 427 350T378 419T305 444Q244 444 193 405V-155Q193 -192 201 -208T235 -230L256 -235L245 -266H71Z" />
<glyph unicode="q" glyph-name="q" horiz-adv-x="589" d="M328 -266V-233L359 -219Q382 -208 391 -194T401 -146V92Q358 31 315 9T224 -14Q177 -14 136 13T70 94T45 229Q45 316 76 379T166 476T304 510Q351 510 403 500T506 485L517 472L505 454Q500 445 496 437T492
415V-118Q492 -165 497 -190T516 -235L526 -251L514 -266H328ZM264 63Q302 63 337 85T401 154V424Q355 455 303 455Q230 455 190 401T150 248Q150 180 166 140T208 81T264 63Z" />
<glyph unicode="r" glyph-name="r" horiz-adv-x="437" d="M61 0L50 31L71 36Q97 42 105 58T113 111V392Q113 414 93 414H49L40 440Q69 466 106 483T172 500Q186 500 195 491T204 468V361H210Q227 428 262 469T340 510Q381 510 409 483T437 408Q437 370 410 344T339
318Q320 318 320 329Q320 334 327 343T341 366T348 398Q348 416 339 426T315 437Q294 437 268 411T223 323T204 156Q204 111 211 84T236 31L248 15L236 0H61Z" />
<glyph unicode="s" glyph-name="s" horiz-adv-x="481" d="M228 -14Q179 -14 140 1T77 44T54 111Q54 145 77 167T137 189Q145 189 151 187T158 177Q158 171 152 159T146 121Q146 91 161 72T198 44T241 35Q282 35 308 57T335 116Q335 140 320 156T279 186T226 211Q190
226 153 246T91 296T66 375Q66 416 90 446T155 493T248 510Q318 510 365 483T413 407Q413 370 390 345T329 320Q308 320 308 333Q308 341 315 353T323 389Q323 416 310 432T279 455T241 462Q199 462 176 442T153 389Q153 362 169 343T213 310T270 283Q307 268 342
250T402 204T426 136Q426 68 372 27T228 -14Z" />
<glyph unicode="t" glyph-name="t" horiz-adv-x="341" d="M185 -14Q144 -14 122 11T99 82V434H11Q11 461 15 469T35 481Q74 491 95 510T127 555T143 608Q146 624 153 628T190 632V497H320Q320 452 297 434H190V112Q190 81 199 68T228 55Q258 55 296 87L315 61Q289
27 253 7T185 -14Z" />
<glyph unicode="u" glyph-name="u" horiz-adv-x="632" d="M256 -14Q184 -14 144 29T103 152V402Q103 424 83 424H39L30 450Q56 476 93 493T162 510Q176 510 185 501T194 478V175Q194 53 290 53Q357 53 394 111T432 271Q432 320 430 355T419 416T393 466L381 482L393
497L515 510V88Q515 57 544 57Q567 57 593 75L612 49Q589 21 559 4T502 -14Q425 -14 425 82Q403 38 358 12T256 -14Z" />
<glyph unicode="v" glyph-name="v" horiz-adv-x="553" d="M268 -14Q217 -14 185 5T134 69T104 190L73 402Q71 415 67 419T53 424H9L0 450Q26 476 62 493T126 510Q153 510 158 478L203 166Q212 105 229 78T279 51Q323 51 351 86T392 177T406 294Q406 341 396 386T362
467L352 483L364 496L483 510Q485 482 486 456T488 404Q488 266 457 173T376 33T268 -14Z" />
<glyph unicode="w" glyph-name="w" horiz-adv-x="813" d="M268 -14Q217 -14 185 5T134 69T104 190L73 402Q71 415 67 419T53 424H9L0 450Q26 476 62 493T126 510Q153 510 158 478L203 166Q212 105 229 78T279 51Q313 51 337 86T374 178T388 295Q388 342 378 387T344
468L334 484L346 497L463 510Q465 482 466 456T468 404Q468 378 467 354T463 306L484 166Q493 105 511 78T564 51Q598 51 622 86T659 178T673 295Q673 342 663 387T629 468L619 484L631 497L748 510Q750 482 751 456T753 404Q753 266 726 173T653 33T557 -14Q499
-14 467 14T416 112Q388 49 350 18T268 -14Z" />
<glyph unicode="x" glyph-name="x" horiz-adv-x="553" d="M440 -14Q373 -14 333 56L252 194Q214 150 189 115T164 63Q164 53 169 46T183 31L202 15L190 0H35L24 21Q46 43 79 76T152 150T231 231L122 419Q112 436 103 441T80 447Q62 447 42 434L20 464Q43 489 66
499T113 510Q180 510 220 440L298 304Q336 348 361 383T386 434Q386 445 381 452T367 466L348 482L360 497H515L526 476Q505 454 471 421T398 348T320 267L431 77Q441 61 450 55T473 49Q492 49 511 62L533 32Q510 7 487 -3T440 -14Z" />
<glyph unicode="y" glyph-name="y" horiz-adv-x="610" d="M291 -278Q233 -278 195 -257T139 -203T120 -135Q120 -104 134 -77T177 -32T247 -14Q258 -14 262 -17T266 -25Q266 -31 254 -42T230 -75T217 -133Q217 -171 240 -198T304 -226Q347 -226 373 -202T412 -135T424
-38V110Q401 67 356 41T254 15Q183 15 143 58T103 181V403Q103 425 83 425H39L30 451Q56 477 93 494T162 511Q176 511 185 502T194 479V204Q194 82 288 82Q355 82 392 132T430 272Q430 321 428 356T417 417T391 467L379 483L391 498L513 511V-22Q513 -146 453 -212T291
-278Z" />
<glyph unicode="z" glyph-name="z" horiz-adv-x="479" d="M419 -24Q397 -10 372 -5T300 0H44L33 31L314 439H164Q127 439 111 431T89 397L77 344L46 355V509L58 521Q80 507 105 502T177 497H426Q446 480 446 454L419 438L156 58H313Q351 58 366 66T388 100L400
153L431 142V-12L419 -24Z" />
<glyph unicode="{" glyph-name="braceleft" horiz-adv-x="316" d="M282 -112Q207 -103 162 -65T97 32T76 160Q76 238 60 271T0 312V350Q43 358 59 391T76 502Q76 571 96 629T162 726T282 774L289 729Q253 721 231 689T198 608T187 502Q187 418 157 380T77 331Q126
321 156 283T187 160Q187 103 197 55T230 -26T289 -67L282 -112Z" />
<glyph unicode="|" glyph-name="bar" horiz-adv-x="351" d="M126 -82V744H225V-82H126Z" />
<glyph unicode="}" glyph-name="braceright" horiz-adv-x="316" d="M34 -112L27 -67Q63 -58 85 -26T118 54T129 160Q129 244 159 282T239 331Q190 342 160 380T129 502Q129 559 119 607T86 688T27 729L34 774Q109 765 154 727T220 630T240 502Q240 424 256 391T316
350V312Q273 304 257 271T240 160Q240 91 220 33T155 -64T34 -112Z" />
<glyph unicode="~" glyph-name="asciitilde" horiz-adv-x="621" d="M196 290Q170 290 145 298T99 322V398Q145 366 200 366Q231 366 258 375T312 398T365 420T425 430Q451 430 476 423T522 398V322Q475 355 421 355Q390 355 363 345T309 323T256 300T196 290Z" />
<glyph unicode="&#xa0;" glyph-name="uni00A0" horiz-adv-x="275" />
<glyph unicode="&#xa1;" glyph-name="exclamdown" horiz-adv-x="246" d="M123 299Q143 299 148 254Q156 179 162 104T174 -40T183 -162T186 -245Q164 -270 123 -270Q84 -270 60 -245Q60 -215 63 -162T71 -41T84 103T98 254Q103 299 123 299ZM123 511Q135 511 149
500T173 474T184 446Q184 433 174 418T150 391T123 380Q111 380 96 391T71 417T60 446Q60 459 70 474T96 500T123 511Z" />
<glyph unicode="&#xa2;" glyph-name="cent" horiz-adv-x="486" d="M238 -83V100Q180 109 136 143T68 233T43 358Q43 463 96 532T238 618V778Q249 792 267 797T301 802V621Q372 617 416 581T461 488Q461 445 434 418T363 390Q344 390 344 401Q344 406 350 414T362
438T368 483Q368 523 343 546T274 570Q217 570 182 512T147 360Q147 272 186 219T290 165Q361 165 421 215Q424 218 430 218Q438 218 446 209T455 190Q455 184 452 181Q421 146 383 126T301 100V-59Q291 -72 273 -77T238 -83Z" />
<glyph unicode="&#xa3;" glyph-name="sterling" horiz-adv-x="596" d="M56 0L31 43Q86 81 116 137T147 247Q147 261 146 274T142 302H30Q30 319 35 337T53 365H127Q117 403 108 440T99 511Q99 574 123 624T201 703T340 732Q392 732 438 717T513 672T542 595Q542
549 511 519T435 489Q425 489 420 490T414 501Q414 506 421 516T436 543T444 587Q444 631 412 653T341 676Q317 676 293 670T249 644T217 590T205 496Q205 463 211 431T224 365H441Q441 349 437 331T418 302H230Q230 249 213 194T159 91H556Q556 68 549 42T522
0H56Z" />
<glyph unicode="&#xa4;" glyph-name="currency" horiz-adv-x="625" d="M69 60Q57 71 49 87T41 119L140 219Q124 245 115 277T105 347Q105 386 114 418T140 475L25 593Q49 620 84 620L182 521Q234 561 310 561Q350 561 383 551T441 520L556 635Q568 625 576 609T584
576L482 473Q497 448 506 417T516 347Q516 310 507 280T482 223L600 104Q589 94 573 85T539 76L441 177Q416 155 383 145T310 135Q234 135 184 174L69 60ZM303 189Q353 189 385 231T417 350Q417 427 390 467T316 508Q267 508 236 465T204 345Q204 269 231 229T303
189Z" />
<glyph unicode="&#xa5;" glyph-name="yen" horiz-adv-x="626" d="M227 0L214 16L227 34Q251 67 262 103T274 201V233H66Q66 250 71 268T89 296H273L217 395H66Q66 412 71 430T89 458H181L114 576Q89 621 68 649T14 702L27 718H252L264 684L241 678Q218 672 207
663T196 634Q196 624 207 605T227 571L335 382L448 584Q460 607 460 625Q460 647 447 660T418 678L395 684L407 718H597L610 702L595 684Q576 661 557 633T524 578L456 458H579Q579 442 574 424T555 395H421L369 303V296H579Q579 280 574 262T555 233H369V133Q369
87 383 69T435 40L458 34L446 0H227Z" />
<glyph unicode="&#xa6;" glyph-name="brokenbar" horiz-adv-x="351" d="M126 453V744H225V453H126ZM126 -82V210H225V-82H126Z" />
<glyph unicode="&#xa7;" glyph-name="section" horiz-adv-x="439" d="M312 171L158 356Q116 406 94 456T72 549Q72 592 89 634T147 703T256 731Q321 731 363 700T405 620Q405 577 377 550T307 522Q288 522 288 533Q288 538 294 546T306 570T312 615Q312 647 290
666T236 686Q196 686 167 661T138 588Q138 553 158 513T231 410Q273 361 296 313T319 222Q319 195 312 171ZM183 -256Q118 -256 76 -225T34 -145Q34 -101 62 -74T132 -47Q151 -47 151 -58Q151 -62 145 -70T133 -95T127 -140Q127 -172 149 -191T203 -211Q244 -211
272 -186T301 -113Q301 -78 281 -38T208 65Q166 115 143 162T120 253Q120 280 127 304L281 119Q323 69 345 19T367 -74Q367 -117 350 -159T292 -228T183 -256Z" />
<glyph unicode="&#xa8;" glyph-name="dieresis" horiz-adv-x="421" d="M304 593Q293 593 279 604T254 630T243 658Q243 671 253 686T278 713T304 724Q317 724 331 713T356 687T367 658Q367 645 357 630T332 604T304 593ZM115 593Q104 593 90 604T65 630T54 658Q54
671 64 686T89 713T115 724Q128 724 142 713T167 687T178 658Q178 645 168 630T143 604T115 593Z" />
<glyph unicode="&#xa9;" glyph-name="copyright" horiz-adv-x="778" d="M389 209Q329 209 277 231T185 294T123 386T100 498Q100 558 122 610T185 702T277 764T389 787Q449 787 501 765T593 702T655 610T678 498Q678 438 656 386T593 294T501 232T389 209ZM389
235Q443 235 491 255T575 312T631 396T652 498Q652 552 632 600T575 684T491 740T389 761Q335 761 287 741T203 684T147 600T126 498Q126 444 146 396T203 312T287 256T389 235ZM393 298Q333 298 294 325T236 399T216 501Q216 556 235 602T294 675T394 703Q443
703 482 679L491 697H516V588Q512 581 501 578T482 574L469 626Q440 666 394 666Q353 666 329 641T295 578T285 501Q285 457 298 421T337 364T397 342Q432 342 457 356T499 396L525 373Q503 339 471 319T393 298Z" />
<glyph unicode="&#xaa;" glyph-name="ordfeminine" horiz-adv-x="398" d="M142 361Q100 361 73 386T45 452Q45 503 84 532T190 562Q201 562 214 562T244 558V615Q244 689 196 689Q142 689 142 613Q124 598 102 598Q86 598 75 608T63 636Q63 662 81 683T130 718T196
731Q261 731 290 700T319 602V437Q319 420 333 420Q347 420 369 435L388 409Q368 387 346 374T303 361Q252 361 245 414Q229 389 202 375T142 361ZM171 416Q203 416 223 444T244 518Q238 520 228 521T205 522Q126 522 126 462Q126 416 171 416Z" />
<glyph unicode="&#xab;" glyph-name="guillemotleft" horiz-adv-x="506" d="M370 72Q330 137 306 178T270 242T259 279Q259 291 269 313T303 377T370 486Q390 485 412 477T456 440Q446 421 424 394T374 337T319 279Q346 251 373 221T423 164T456 118Q434 89 412
82T370 72ZM161 72Q121 137 97 178T61 242T50 279Q50 291 60 313T95 377T161 486Q181 485 203 477T247 440Q237 421 215 394T165 337T110 279Q137 251 164 221T214 164T247 118Q225 89 203 82T161 72Z" />
<glyph unicode="&#xac;" glyph-name="logicalnot" horiz-adv-x="621" d="M454 168V319H99V395H522V168H454Z" />
<glyph unicode="&#xad;" glyph-name="uni00AD" horiz-adv-x="0" />
<glyph unicode="&#xae;" glyph-name="registered" horiz-adv-x="778" d="M389 209Q329 209 277 231T185 294T123 386T100 498Q100 558 122 610T185 702T277 764T389 787Q449 787 501 765T593 702T655 610T678 498Q678 438 656 386T593 294T501 232T389 209ZM389
235Q443 235 491 255T575 312T631 396T652 498Q652 552 632 600T575 684T491 740T389 761Q335 761 287 741T203 684T147 600T126 498Q126 444 146 396T203 312T287 256T389 235ZM243 305V329L267 342Q276 347 276 358V652L243 664Q243 672 247 681T258 696H368Q452
696 485 665T519 590Q519 558 502 529T447 483Q453 477 459 471T467 459L528 346L559 335Q559 327 556 319T546 305H459L450 315L454 322Q459 334 459 340Q459 344 457 348T452 358L405 448Q400 459 393 463T370 468H341V349L374 338Q374 317 359 305H243ZM341
505H371Q415 505 433 529T451 586Q451 615 433 635T368 656Q360 656 351 654T341 640V505Z" />
<glyph unicode="&#xaf;" glyph-name="overscore" horiz-adv-x="408" d="M56 617Q56 637 62 660T82 697H351Q351 677 346 654T325 617H56Z" />
<glyph unicode="&#xb0;" glyph-name="degree" horiz-adv-x="435" d="M217 361Q135 361 88 411T40 546Q40 631 87 681T217 731Q299 731 347 681T395 546Q395 462 347 412T217 361ZM212 408Q254 408 281 445T309 549Q309 614 286 649T222 684Q180 684 153 647T125
543Q125 478 148 443T212 408Z" />
<glyph unicode="&#xb1;" glyph-name="plusminus" horiz-adv-x="621" d="M273 146V319H99V395H273V569H348V395H522V319H348V146H273ZM99 -1V75H522V-1H99Z" />
<glyph unicode="&#xb2;" glyph-name="uni00B2" horiz-adv-x="388" d="M46 288L27 326Q99 385 144 428T213 503T245 562T254 616Q254 651 234 668T188 685Q163 685 142 668T121 618Q121 602 129 588T138 564Q138 553 116 553Q85 553 64 572T42 622Q42 659 63 683T118
720T189 732Q260 732 301 702T343 615Q343 575 315 532T242 444T142 356H355Q355 338 350 320T329 288H46Z" />
<glyph unicode="&#xb3;" glyph-name="uni00B3" horiz-adv-x="388" d="M186 281Q149 281 116 292T61 326T39 383Q39 414 60 433T113 452Q126 452 131 451T136 438Q135 438 133 434T130 427Q128 422 124 413T119 388Q119 361 139 346T185 331Q214 331 237 350T260
408Q260 423 254 442T229 475T171 490Q159 490 149 489T132 485Q131 484 128 484T123 484Q104 484 104 501Q104 512 109 517T145 527Q191 536 213 552T241 587T248 621Q248 653 228 669T184 686Q164 686 147 673T130 632Q130 618 134 608T141 592Q143 590 145 586T147
581Q147 568 125 568Q93 568 72 587T51 636Q51 669 70 690T120 721T185 732Q222 732 256 720T312 684T334 623Q334 587 314 562T258 519Q302 504 324 473T346 404Q346 344 303 313T186 281Z" />
<glyph unicode="&#xb4;" glyph-name="acute" horiz-adv-x="288" d="M92 569L63 604L219 760Q238 751 249 735T261 697Q261 675 249 658T205 625L92 569Z" />
<glyph unicode="&#xb5;" glyph-name="uni00B5" horiz-adv-x="614" d="M185 -209L82 -196L70 -183L82 -165Q96 -145 96 -114V381Q96 396 92 403T74 414L22 425V458Q34 468 59 477T113 492T162 498Q185 498 185 452V175Q185 53 286 53Q345 53 383 100T421 220V409Q420
418 418 429T407 454L395 472L407 485L511 498V0L499 -14Q421 -14 421 82Q401 40 359 13T272 -14Q249 -14 227 -6T185 20V-209Z" />
<glyph unicode="&#xb6;" glyph-name="paragraph" horiz-adv-x="616" d="M306 -202Q241 -202 199 -171T157 -91Q157 -47 185 -20T255 7Q274 7 274 -4Q274 -8 268 -16T256 -41T250 -86Q250 -118 272 -137T326 -157Q367 -157 395 -132T424 -59Q424 -24 405 16T331
119L171 304Q116 369 92 429T67 541Q67 599 94 641T169 708T278 732Q343 732 398 721T504 706L515 693L503 675Q498 666 494 658T490 636V-20Q490 -63 473 -105T415 -174T306 -202ZM398 180V497Q398 577 362 626T249 676Q223 676 199 664T160 628T144 567Q144 528
166 476T244 358L398 180Z" />
<glyph unicode="&#xb7;" glyph-name="middot" horiz-adv-x="191" d="M94 256Q83 256 69 267T44 293T33 321Q33 334 43 349T68 376T94 387Q107 387 121 376T146 350T157 321Q157 308 147 293T122 267T94 256Z" />
<glyph unicode="&#xb8;" glyph-name="cedilla" horiz-adv-x="350" d="M164 -295Q123 -295 89 -276T55 -218Q55 -191 74 -176T119 -160Q136 -160 136 -170Q136 -177 129 -184T122 -214Q122 -232 134 -242T163 -253Q194 -253 210 -229T226 -177Q226 -149 210 -126T159
-103Q147 -103 133 -107T104 -120L84 -102L202 51L226 29L149 -70Q166 -66 187 -66Q231 -66 265 -93T300 -179Q300 -210 283 -236T234 -279T164 -295Z" />
<glyph unicode="&#xb9;" glyph-name="uni00B9" horiz-adv-x="319" d="M76 295L65 326L99 335Q117 340 123 348T129 380V642L70 604Q51 609 37 624T14 655L189 735Q203 732 212 723T226 704L208 693V421Q208 386 213 365T233 325L244 312L231 295H76Z" />
<glyph unicode="&#xba;" glyph-name="ordmasculine" horiz-adv-x="435" d="M217 361Q135 361 88 411T40 546Q40 631 87 681T217 731Q299 731 347 681T395 546Q395 462 347 412T217 361ZM222 408Q262 408 285 443T309 540Q309 605 282 645T211 686Q171 686 148
649T125 546Q125 484 152 446T222 408Z" />
<glyph unicode="&#xbb;" glyph-name="guillemotright" horiz-adv-x="506" d="M345 72Q326 74 304 81T259 118Q270 137 292 164T342 221T396 279Q370 307 342 337T292 394T259 440Q282 469 304 477T345 486Q387 418 411 377T446 314T456 279Q456 266 445 243T410
178T345 72ZM136 72Q117 74 95 81T50 118Q61 137 83 164T133 221T187 279Q161 307 133 337T83 394T50 440Q73 469 95 477T136 486Q178 418 202 377T237 314T247 279Q247 266 236 243T201 178T136 72Z" />
<glyph unicode="&#xbc;" glyph-name="onequarter" horiz-adv-x="843" d="M76 295L65 326L99 335Q117 340 123 348T129 380V642L70 604Q51 609 37 624T14 655L189 735Q203 732 212 723T226 704L208 693V421Q208 386 213 365T233 325L244 312L231 295H76ZM219 0L518
718H590L290 0H219ZM631 0L619 31L653 40Q671 45 677 53T683 85V95H471L613 436H664L681 421L557 146H683V220Q683 237 681 248T669 273L681 287L763 296V146H818Q818 133 814 119T798 95H764Q766 73 771 58T787 30L798 17L786 0H631Z" />
<glyph unicode="&#xbd;" glyph-name="onehalf" horiz-adv-x="860" d="M76 295L65 326L99 335Q117 340 123 348T129 380V642L70 604Q51 609 37 624T14 655L189 735Q203 732 212 723T226 704L208 693V421Q208 386 213 365T233 325L244 312L231 295H76ZM219 0L518
718H590L290 0H219ZM526 0L507 38Q579 97 624 140T693 215T725 274T734 328Q734 363 714 380T668 397Q643 397 622 380T601 330Q601 314 609 300T618 276Q618 265 596 265Q565 265 544 284T522 334Q522 371 543 395T598 432T669 444Q740 444 781 414T823 327Q823
287 795 244T722 156T622 68H835Q835 50 830 32T809 0H526Z" />
<glyph unicode="&#xbe;" glyph-name="threequarters" horiz-adv-x="869" d="M162 281Q125 281 92 292T37 326T15 383Q15 414 36 433T89 452Q102 452 107 451T112 438Q111 438 109 434T106 427Q104 422 100 413T95 388Q95 361 115 346T161 331Q190 331 213 350T236
408Q236 423 230 442T205 475T147 490Q135 490 125 489T108 485Q107 484 104 484T99 484Q80 484 80 501Q80 512 85 517T121 527Q167 536 189 552T217 587T224 621Q224 653 204 669T160 686Q140 686 123 673T106 632Q106 618 110 608T117 592Q119 590 121 586T123
581Q123 568 101 568Q69 568 48 587T27 636Q27 669 46 690T96 721T161 732Q198 732 232 720T288 684T310 623Q310 587 290 562T234 519Q278 504 300 473T322 404Q322 344 279 313T162 281ZM245 0L544 718H616L316 0H245ZM657 0L645 31L679 40Q697 45 703 53T709
85V95H497L639 436H690L707 421L583 146H709V220Q709 237 707 248T695 273L707 287L789 296V146H844Q844 133 840 119T824 95H790Q792 73 797 58T813 30L824 17L812 0H657Z" />
<glyph unicode="&#xbf;" glyph-name="questiondown" horiz-adv-x="538" d="M312 281L373 219Q308 162 269 118T211 38T185 -26T178 -81Q178 -143 212 -174T300 -205Q343 -205 368 -182T394 -118Q394 -90 388 -74T376 -49T370 -36Q370 -25 389 -25Q432 -25 459
-52T487 -123Q487 -164 460 -195T386 -244T276 -262Q219 -262 171 -242T93 -183T64 -87Q64 -30 101 30T205 154Q240 186 259 209T288 262L293 281H312ZM305 511Q317 511 331 500T355 474T366 446Q366 433 356 418T332 391T305 380Q293 380 278 391T253 417T242
446Q242 459 252 474T278 500T305 511Z" />
<glyph unicode="&#xc0;" glyph-name="Agrave" horiz-adv-x="706" d="M-4 0L-16 34L7 40Q34 47 50 57T77 84T99 133L256 585Q261 601 264 612T267 634Q267 653 256 662T222 678L199 684L211 718H404L605 138Q617 105 629 84T658 48T695 16L682 0H457L445 34L468
40Q491 46 502 55T513 84Q513 94 510 105T502 133L454 273H223L199 200Q188 166 182 141T176 95Q176 61 190 34L199 16L180 0H-4ZM244 335H433L337 615L244 335ZM403 790L290 846Q259 861 247 878T234 918Q234 940 245 956T276 981L432 825L403 790Z" />
<glyph unicode="&#xc1;" glyph-name="Aacute" horiz-adv-x="706" d="M-4 0L-16 34L7 40Q34 47 50 57T77 84T99 133L256 585Q261 601 264 612T267 634Q267 653 256 662T222 678L199 684L211 718H404L605 138Q617 105 629 84T658 48T695 16L682 0H457L445 34L468
40Q491 46 502 55T513 84Q513 94 510 105T502 133L454 273H223L199 200Q188 166 182 141T176 95Q176 61 190 34L199 16L180 0H-4ZM244 335H433L337 615L244 335ZM273 790L244 825L400 981Q419 972 430 956T442 918Q442 896 430 879T386 846L273 790Z" />
<glyph unicode="&#xc2;" glyph-name="Acircumflex" horiz-adv-x="706" d="M-4 0L-16 34L7 40Q34 47 50 57T77 84T99 133L256 585Q261 601 264 612T267 634Q267 653 256 662T222 678L199 684L211 718H404L605 138Q617 105 629 84T658 48T695 16L682 0H457L445 34L468
40Q491 46 502 55T513 84Q513 94 510 105T502 133L454 273H223L199 200Q188 166 182 141T176 95Q176 61 190 34L199 16L180 0H-4ZM244 335H433L337 615L244 335ZM229 790L196 818Q218 856 242 889T286 945T320 976H347Q358 970 378 947T423 891T470 818L438 790L333
873L229 790Z" />
<glyph unicode="&#xc3;" glyph-name="Atilde" horiz-adv-x="706" d="M-4 0L-16 34L7 40Q34 47 50 57T77 84T99 133L256 585Q261 601 264 612T267 634Q267 653 256 662T222 678L199 684L211 718H404L605 138Q617 105 629 84T658 48T695 16L682 0H457L445 34L468
40Q491 46 502 55T513 84Q513 94 510 105T502 133L454 273H223L199 200Q188 166 182 141T176 95Q176 61 190 34L199 16L180 0H-4ZM244 335H433L337 615L244 335ZM205 812L170 843Q202 887 236 913T299 940Q321 940 336 932T364 914T393 905Q406 905 422 914T461
944L495 913Q464 869 430 843T367 816Q345 816 330 825T301 842T272 851Q260 851 243 842T205 812Z" />
<glyph unicode="&#xc4;" glyph-name="Adieresis" horiz-adv-x="706" d="M-4 0L-16 34L7 40Q34 47 50 57T77 84T99 133L256 585Q261 601 264 612T267 634Q267 653 256 662T222 678L199 684L211 718H404L605 138Q617 105 629 84T658 48T695 16L682 0H457L445 34L468
40Q491 46 502 55T513 84Q513 94 510 105T502 133L454 273H223L199 200Q188 166 182 141T176 95Q176 61 190 34L199 16L180 0H-4ZM244 335H433L337 615L244 335ZM426 814Q415 814 401 825T376 851T365 879Q365 892 375 907T400 934T426 945Q439 945 453 934T478
908T489 879Q489 866 479 851T454 825T426 814ZM237 814Q226 814 212 825T187 851T176 879Q176 892 186 907T211 934T237 945Q250 945 264 934T289 908T300 879Q300 866 290 851T265 825T237 814Z" />
<glyph unicode="&#xc5;" glyph-name="Aring" horiz-adv-x="706" d="M-4 0L-16 34L7 40Q34 47 50 57T77 84T99 133L256 585Q261 601 264 612T267 634Q267 653 256 662T222 678L199 684L211 718H404L605 138Q617 105 629 84T658 48T695 16L682 0H457L445 34L468
40Q491 46 502 55T513 84Q513 94 510 105T502 133L454 273H223L199 200Q188 166 182 141T176 95Q176 61 190 34L199 16L180 0H-4ZM244 335H433L337 615L244 335ZM331 773Q276 773 248 803T219 879Q219 924 247 955T331 986Q389 986 417 955T446 879Q446 834 418
804T331 773ZM331 821Q353 821 364 838T375 879Q375 903 364 920T331 937Q311 937 300 920T289 879Q289 855 300 838T331 821Z" />
<glyph unicode="&#xc6;" glyph-name="AE" horiz-adv-x="964" d="M881 -25L873 -14Q862 0 831 0H410L399 32L420 38Q456 49 468 65T481 126V306H283L200 154Q185 126 182 111T179 79Q179 67 183 55T192 34L201 16L182 0H-2L-14 34L9 40Q31 46 51 56T87 94L435 718H742Q828
718 856 739L874 752L890 739V561L856 549L850 572Q841 608 829 627T797 653T741 661H644Q605 661 593 647T580 585V363H707Q730 363 748 373T786 409L794 420L814 409V238L780 226L774 249Q765 284 742 295T665 306H580V133Q580 87 592 72T644 57H752Q788 57 808
64T840 91T861 146L867 169L901 157V-14L881 -25ZM315 363H481V665L315 363Z" />
<glyph unicode="&#xc7;" glyph-name="Ccedilla" horiz-adv-x="617" d="M355 -14Q274 -14 214 15T114 95T55 213T35 358Q35 435 54 503T114 622T215 703T358 732Q424 732 475 714T554 662T583 585Q583 533 553 501T476 468Q455 468 455 480Q455 485 462 495T477
524T485 571Q485 618 450 647T358 676Q299 676 259 648T195 574T159 471T148 358Q148 275 174 206T248 96T364 55Q430 55 477 79T552 145Q555 149 559 149Q568 149 579 140T591 121Q591 118 588 113Q549 55 492 21T355 -14ZM297 -295Q256 -295 222 -276T188 -218Q188
-191 207 -176T252 -160Q269 -160 269 -170Q269 -177 262 -184T255 -214Q255 -232 267 -242T296 -253Q327 -253 343 -229T359 -177Q359 -149 343 -126T292 -103Q280 -103 266 -107T237 -120L217 -102L335 51L359 29L282 -70Q299 -66 320 -66Q364 -66 398 -93T433
-179Q433 -210 416 -236T367 -279T297 -295Z" />
<glyph unicode="&#xc8;" glyph-name="Egrave" horiz-adv-x="610" d="M527 -25L519 -14Q508 0 477 0H56L45 32L66 38Q102 49 114 65T127 126V517Q127 578 117 614T82 684L69 702L82 718H388Q474 718 502 739L520 752L536 739V561L502 549L496 572Q487 608 475 627T443
653T387 661H290Q251 661 239 647T226 585V393H353Q376 393 394 403T432 439L440 450L460 439V268L426 256L420 279Q411 314 388 325T311 336H226V133Q226 87 238 72T290 57H398Q434 57 454 64T486 91T507 146L513 169L547 157V-14L527 -25ZM391 790L278 846Q247
861 235 878T222 918Q222 940 233 956T264 981L420 825L391 790Z" />
<glyph unicode="&#xc9;" glyph-name="Eacute" horiz-adv-x="610" d="M527 -25L519 -14Q508 0 477 0H56L45 32L66 38Q102 49 114 65T127 126V517Q127 578 117 614T82 684L69 702L82 718H388Q474 718 502 739L520 752L536 739V561L502 549L496 572Q487 608 475 627T443
653T387 661H290Q251 661 239 647T226 585V393H353Q376 393 394 403T432 439L440 450L460 439V268L426 256L420 279Q411 314 388 325T311 336H226V133Q226 87 238 72T290 57H398Q434 57 454 64T486 91T507 146L513 169L547 157V-14L527 -25ZM261 790L232 825L388
981Q407 972 418 956T430 918Q430 896 418 879T374 846L261 790Z" />
<glyph unicode="&#xca;" glyph-name="Ecircumflex" horiz-adv-x="610" d="M527 -25L519 -14Q508 0 477 0H56L45 32L66 38Q102 49 114 65T127 126V517Q127 578 117 614T82 684L69 702L82 718H388Q474 718 502 739L520 752L536 739V561L502 549L496 572Q487 608
475 627T443 653T387 661H290Q251 661 239 647T226 585V393H353Q376 393 394 403T432 439L440 450L460 439V268L426 256L420 279Q411 314 388 325T311 336H226V133Q226 87 238 72T290 57H398Q434 57 454 64T486 91T507 146L513 169L547 157V-14L527 -25ZM217 790L184
818Q206 856 230 889T274 945T308 976H335Q346 970 366 947T411 891T458 818L426 790L321 873L217 790Z" />
<glyph unicode="&#xcb;" glyph-name="Edieresis" horiz-adv-x="610" d="M527 -25L519 -14Q508 0 477 0H56L45 32L66 38Q102 49 114 65T127 126V517Q127 578 117 614T82 684L69 702L82 718H388Q474 718 502 739L520 752L536 739V561L502 549L496 572Q487 608 475
627T443 653T387 661H290Q251 661 239 647T226 585V393H353Q376 393 394 403T432 439L440 450L460 439V268L426 256L420 279Q411 314 388 325T311 336H226V133Q226 87 238 72T290 57H398Q434 57 454 64T486 91T507 146L513 169L547 157V-14L527 -25ZM414 814Q403
814 389 825T364 851T353 879Q353 892 363 907T388 934T414 945Q427 945 441 934T466 908T477 879Q477 866 467 851T442 825T414 814ZM225 814Q214 814 200 825T175 851T164 879Q164 892 174 907T199 934T225 945Q238 945 252 934T277 908T288 879Q288 866 278
851T253 825T225 814Z" />
<glyph unicode="&#xcc;" glyph-name="Igrave" horiz-adv-x="353" d="M52 0L40 34L63 40Q101 50 114 68T127 133V585Q127 632 114 650T63 678L40 684L52 718H271L284 702L271 684Q247 650 237 614T226 517V126Q226 82 238 66T287 38L308 32L297 0H52ZM247 790L134
846Q103 861 91 878T78 918Q78 940 89 956T120 981L276 825L247 790Z" />
<glyph unicode="&#xcd;" glyph-name="Iacute" horiz-adv-x="353" d="M52 0L40 34L63 40Q101 50 114 68T127 133V585Q127 632 114 650T63 678L40 684L52 718H271L284 702L271 684Q247 650 237 614T226 517V126Q226 82 238 66T287 38L308 32L297 0H52ZM117 790L88
825L244 981Q263 972 274 956T286 918Q286 896 274 879T230 846L117 790Z" />
<glyph unicode="&#xce;" glyph-name="Icircumflex" horiz-adv-x="353" d="M52 0L40 34L63 40Q101 50 114 68T127 133V585Q127 632 114 650T63 678L40 684L52 718H271L284 702L271 684Q247 650 237 614T226 517V126Q226 82 238 66T287 38L308 32L297 0H52ZM73 790L40
818Q62 856 86 889T130 945T164 976H191Q202 970 222 947T267 891T314 818L282 790L177 873L73 790Z" />
<glyph unicode="&#xcf;" glyph-name="Idieresis" horiz-adv-x="353" d="M52 0L40 34L63 40Q101 50 114 68T127 133V585Q127 632 114 650T63 678L40 684L52 718H271L284 702L271 684Q247 650 237 614T226 517V126Q226 82 238 66T287 38L308 32L297 0H52ZM270 814Q259
814 245 825T220 851T209 879Q209 892 219 907T244 934T270 945Q283 945 297 934T322 908T333 879Q333 866 323 851T298 825T270 814ZM81 814Q70 814 56 825T31 851T20 879Q20 892 30 907T55 934T81 945Q94 945 108 934T133 908T144 879Q144 866 134 851T109 825T81
814Z" />
<glyph unicode="&#xd0;" glyph-name="Eth" horiz-adv-x="733" d="M52 0L40 34L63 40Q91 48 109 64T127 122V332H10Q10 349 15 367T33 395H127V627Q127 651 105 651H47L35 688Q63 698 107 708T203 725T306 732Q418 732 493 702T614 620T678 500T698 358Q698 259
662 178T552 48T366 0H52ZM334 51Q465 51 527 130T589 360Q589 420 574 476T526 578T443 649T324 676Q280 676 259 669T232 650T226 630V395H421Q421 379 417 361T398 332H226V175Q226 123 241 97T282 61T334 51Z" />
<glyph unicode="&#xd1;" glyph-name="Ntilde" horiz-adv-x="779" d="M46 0L34 34L57 40Q95 50 108 68T121 133V585Q121 632 108 650T57 678L34 684L46 718H207L589 151V585Q589 632 576 650T525 678L502 684L514 718H704L717 702L704 684Q680 650 670 614T659
517V88Q659 69 662 57T673 34L686 16L673 0H572L191 565V201Q191 140 201 104T236 34L249 16L236 0H46ZM271 812L236 843Q268 887 302 913T365 940Q387 940 402 932T430 914T459 905Q472 905 488 914T527 944L561 913Q530 869 496 843T433 816Q411 816 396 825T367
842T338 851Q326 851 309 842T271 812Z" />
<glyph unicode="&#xd2;" glyph-name="Ograve" horiz-adv-x="733" d="M366 -14Q254 -14 181 36T71 170T35 358Q35 435 55 503T116 622T220 703T366 732Q450 732 512 703T615 623T677 503T698 358Q698 255 662 171T552 36T366 -14ZM362 45Q434 45 485 86T562 198T589
355Q589 392 583 435T561 521T521 598T459 654T371 675Q298 675 247 631T170 513T143 350Q143 265 167 196T241 86T362 45ZM437 790L324 846Q293 861 281 878T268 918Q268 940 279 956T310 981L466 825L437 790Z" />
<glyph unicode="&#xd3;" glyph-name="Oacute" horiz-adv-x="733" d="M366 -14Q254 -14 181 36T71 170T35 358Q35 435 55 503T116 622T220 703T366 732Q450 732 512 703T615 623T677 503T698 358Q698 255 662 171T552 36T366 -14ZM362 45Q434 45 485 86T562 198T589
355Q589 392 583 435T561 521T521 598T459 654T371 675Q298 675 247 631T170 513T143 350Q143 265 167 196T241 86T362 45ZM307 790L278 825L434 981Q453 972 464 956T476 918Q476 896 464 879T420 846L307 790Z" />
<glyph unicode="&#xd4;" glyph-name="Ocircumflex" horiz-adv-x="733" d="M366 -14Q254 -14 181 36T71 170T35 358Q35 435 55 503T116 622T220 703T366 732Q450 732 512 703T615 623T677 503T698 358Q698 255 662 171T552 36T366 -14ZM362 45Q434 45 485 86T562
198T589 355Q589 392 583 435T561 521T521 598T459 654T371 675Q298 675 247 631T170 513T143 350Q143 265 167 196T241 86T362 45ZM263 790L230 818Q252 856 276 889T320 945T354 976H381Q392 970 412 947T457 891T504 818L472 790L367 873L263 790Z" />
<glyph unicode="&#xd5;" glyph-name="Otilde" horiz-adv-x="733" d="M366 -14Q254 -14 181 36T71 170T35 358Q35 435 55 503T116 622T220 703T366 732Q450 732 512 703T615 623T677 503T698 358Q698 255 662 171T552 36T366 -14ZM362 45Q434 45 485 86T562 198T589
355Q589 392 583 435T561 521T521 598T459 654T371 675Q298 675 247 631T170 513T143 350Q143 265 167 196T241 86T362 45ZM239 812L204 843Q236 887 270 913T333 940Q355 940 370 932T398 914T427 905Q440 905 456 914T495 944L529 913Q498 869 464 843T401 816Q379
816 364 825T335 842T306 851Q294 851 277 842T239 812Z" />
<glyph unicode="&#xd6;" glyph-name="Odieresis" horiz-adv-x="733" d="M366 -14Q254 -14 181 36T71 170T35 358Q35 435 55 503T116 622T220 703T366 732Q450 732 512 703T615 623T677 503T698 358Q698 255 662 171T552 36T366 -14ZM362 45Q434 45 485 86T562
198T589 355Q589 392 583 435T561 521T521 598T459 654T371 675Q298 675 247 631T170 513T143 350Q143 265 167 196T241 86T362 45ZM460 814Q449 814 435 825T410 851T399 879Q399 892 409 907T434 934T460 945Q473 945 487 934T512 908T523 879Q523 866 513 851T488
825T460 814ZM271 814Q260 814 246 825T221 851T210 879Q210 892 220 907T245 934T271 945Q284 945 298 934T323 908T334 879Q334 866 324 851T299 825T271 814Z" />
<glyph unicode="&#xd7;" glyph-name="multiply" horiz-adv-x="621" d="M166 158L112 212L256 357L112 502L166 556L310 411L455 556L509 502L364 357L509 212L455 158L310 303L166 158Z" />
<glyph unicode="&#xd8;" glyph-name="Oslash" horiz-adv-x="733" d="M181 -63L210 20Q122 64 79 154T35 358Q35 435 55 503T116 622T220 703T366 732Q415 732 459 721L480 781H552L522 698Q611 653 654 562T698 358Q698 255 662 171T552 36T366 -14Q317 -14 273
-3L252 -63H181ZM143 350Q143 267 166 199T235 91L438 663Q407 675 371 675Q298 675 247 631T170 513T143 350ZM362 45Q434 45 485 86T562 198T589 355Q589 398 581 448T552 546T497 626L294 56Q326 45 362 45Z" />
<glyph unicode="&#xd9;" glyph-name="Ugrave" horiz-adv-x="739" d="M373 -14Q300 -14 241 10T146 86T111 220V585Q111 632 98 650T47 678L24 684L36 718H255L268 702L255 684Q231 650 221 614T210 517V220Q210 166 233 128T297 69T386 49Q435 49 475 69T538 127T562
220V585Q562 632 549 650T498 678L475 684L487 718H677L690 702L677 684Q653 650 643 614T632 517V220Q632 138 598 86T504 10T373 -14ZM452 790L339 846Q308 861 296 878T283 918Q283 940 294 956T325 981L481 825L452 790Z" />
<glyph unicode="&#xda;" glyph-name="Uacute" horiz-adv-x="739" d="M373 -14Q300 -14 241 10T146 86T111 220V585Q111 632 98 650T47 678L24 684L36 718H255L268 702L255 684Q231 650 221 614T210 517V220Q210 166 233 128T297 69T386 49Q435 49 475 69T538 127T562
220V585Q562 632 549 650T498 678L475 684L487 718H677L690 702L677 684Q653 650 643 614T632 517V220Q632 138 598 86T504 10T373 -14ZM322 790L293 825L449 981Q468 972 479 956T491 918Q491 896 479 879T435 846L322 790Z" />
<glyph unicode="&#xdb;" glyph-name="Ucircumflex" horiz-adv-x="739" d="M373 -14Q300 -14 241 10T146 86T111 220V585Q111 632 98 650T47 678L24 684L36 718H255L268 702L255 684Q231 650 221 614T210 517V220Q210 166 233 128T297 69T386 49Q435 49 475 69T538
127T562 220V585Q562 632 549 650T498 678L475 684L487 718H677L690 702L677 684Q653 650 643 614T632 517V220Q632 138 598 86T504 10T373 -14ZM278 790L245 818Q267 856 291 889T335 945T369 976H396Q407 970 427 947T472 891T519 818L487 790L382 873L278 790Z"
/>
<glyph unicode="&#xdc;" glyph-name="Udieresis" horiz-adv-x="739" d="M373 -14Q300 -14 241 10T146 86T111 220V585Q111 632 98 650T47 678L24 684L36 718H255L268 702L255 684Q231 650 221 614T210 517V220Q210 166 233 128T297 69T386 49Q435 49 475 69T538
127T562 220V585Q562 632 549 650T498 678L475 684L487 718H677L690 702L677 684Q653 650 643 614T632 517V220Q632 138 598 86T504 10T373 -14ZM475 814Q464 814 450 825T425 851T414 879Q414 892 424 907T449 934T475 945Q488 945 502 934T527 908T538 879Q538
866 528 851T503 825T475 814ZM286 814Q275 814 261 825T236 851T225 879Q225 892 235 907T260 934T286 945Q299 945 313 934T338 908T349 879Q349 866 339 851T314 825T286 814Z" />
<glyph unicode="&#xdd;" glyph-name="Yacute" horiz-adv-x="626" d="M218 0L205 16L218 34Q242 67 253 103T265 201V295L105 576Q80 621 59 649T5 702L18 718H243L255 684L232 678Q209 672 198 663T187 634Q187 624 198 605T218 571L326 382L439 584Q451 607 451
625Q451 647 438 660T409 678L386 684L398 718H588L601 702L586 684Q567 661 548 633T515 578L360 303V133Q360 87 374 69T426 40L449 34L437 0H218ZM280 790L251 825L407 981Q426 972 437 956T449 918Q449 896 437 879T393 846L280 790Z" />
<glyph unicode="&#xde;" glyph-name="Thorn" horiz-adv-x="596" d="M52 0L40 34L63 40Q101 51 114 69T127 133V585Q127 632 114 649T63 678L40 684L52 718H271L284 702L271 684Q254 661 244 637T229 581Q258 592 286 596T340 601Q409 601 462 569T545 484T576
363Q576 301 551 248T472 162T336 130Q302 130 275 138T248 165Q248 174 252 181T264 189Q270 189 280 186T313 182Q390 182 431 231T472 360Q472 413 454 455T401 523T313 548Q274 548 256 540T232 520T226 498V126Q226 82 238 66T287 38L308 32L297 0H52Z" />
<glyph unicode="&#xdf;" glyph-name="germandbls" horiz-adv-x="635" d="M435 -14Q367 -14 320 11Q316 14 314 20T311 31Q311 40 314 48T326 56Q335 56 347 51T380 41T436 36Q457 36 478 44T514 70T529 117Q529 157 503 186T430 238L355 276Q317 300 297 325T277
395Q277 425 297 455T342 516T388 582T408 654Q408 699 382 714T326 730Q281 730 253 706T212 639T199 542V201Q199 140 209 104T244 34L257 16L244 0H25L13 34L36 40Q74 51 87 69T100 133V526Q100 609 132 666T220 752T350 782Q412 782 455 751T499 654Q499 625
486 601T453 554T413 511T380 469T366 424Q366 375 419 348L490 312Q543 285 580 245T617 145Q617 103 594 67T530 8T435 -14Z" />
<glyph unicode="&#xe0;" glyph-name="agrave" horiz-adv-x="604" d="M224 -14Q177 -14 136 13T70 94T45 229Q45 316 76 379T166 476T304 510Q351 510 402 500T504 485L515 472L503 454Q497 445 494 437T490 415V88Q490 57 520 57Q545 57 570 75L589 49Q563 20
534 3T478 -14Q437 -14 419 11T401 92Q358 31 315 9T224 -14ZM264 63Q302 63 337 85T401 154V424Q355 455 303 455Q230 455 190 401T150 248Q150 180 166 140T208 81T264 63ZM382 569L269 625Q238 640 226 657T213 697Q213 719 224 735T255 760L411 604L382 569Z"
/>
<glyph unicode="&#xe1;" glyph-name="aacute" horiz-adv-x="604" d="M224 -14Q177 -14 136 13T70 94T45 229Q45 316 76 379T166 476T304 510Q351 510 402 500T504 485L515 472L503 454Q497 445 494 437T490 415V88Q490 57 520 57Q545 57 570 75L589 49Q563 20
534 3T478 -14Q437 -14 419 11T401 92Q358 31 315 9T224 -14ZM264 63Q302 63 337 85T401 154V424Q355 455 303 455Q230 455 190 401T150 248Q150 180 166 140T208 81T264 63ZM242 569L213 604L369 760Q388 751 399 735T411 697Q411 675 399 658T355 625L242 569Z"
/>
<glyph unicode="&#xe2;" glyph-name="acircumflex" horiz-adv-x="604" d="M224 -14Q177 -14 136 13T70 94T45 229Q45 316 76 379T166 476T304 510Q351 510 402 500T504 485L515 472L503 454Q497 445 494 437T490 415V88Q490 57 520 57Q545 57 570 75L589 49Q563
20 534 3T478 -14Q437 -14 419 11T401 92Q358 31 315 9T224 -14ZM264 63Q302 63 337 85T401 154V424Q355 455 303 455Q230 455 190 401T150 248Q150 180 166 140T208 81T264 63ZM208 569L175 597Q197 635 221 668T265 724T299 755H326Q337 749 357 726T402 670T449
597L417 569L312 652L208 569Z" />
<glyph unicode="&#xe3;" glyph-name="atilde" horiz-adv-x="604" d="M224 -14Q177 -14 136 13T70 94T45 229Q45 316 76 379T166 476T304 510Q351 510 402 500T504 485L515 472L503 454Q497 445 494 437T490 415V88Q490 57 520 57Q545 57 570 75L589 49Q563 20
534 3T478 -14Q437 -14 419 11T401 92Q358 31 315 9T224 -14ZM264 63Q302 63 337 85T401 154V424Q355 455 303 455Q230 455 190 401T150 248Q150 180 166 140T208 81T264 63ZM184 591L149 622Q181 666 215 692T278 719Q300 719 315 711T343 693T372 684Q385 684
401 693T440 723L474 692Q443 648 409 622T346 595Q324 595 309 604T280 621T251 630Q239 630 222 621T184 591Z" />
<glyph unicode="&#xe4;" glyph-name="adieresis" horiz-adv-x="604" d="M224 -14Q177 -14 136 13T70 94T45 229Q45 316 76 379T166 476T304 510Q351 510 402 500T504 485L515 472L503 454Q497 445 494 437T490 415V88Q490 57 520 57Q545 57 570 75L589 49Q563
20 534 3T478 -14Q437 -14 419 11T401 92Q358 31 315 9T224 -14ZM264 63Q302 63 337 85T401 154V424Q355 455 303 455Q230 455 190 401T150 248Q150 180 166 140T208 81T264 63ZM405 593Q394 593 380 604T355 630T344 658Q344 671 354 686T379 713T405 724Q418
724 432 713T457 687T468 658Q468 645 458 630T433 604T405 593ZM216 593Q205 593 191 604T166 630T155 658Q155 671 165 686T190 713T216 724Q229 724 243 713T268 687T279 658Q279 645 269 630T244 604T216 593Z" />
<glyph unicode="&#xe5;" glyph-name="aring" horiz-adv-x="604" d="M224 -14Q177 -14 136 13T70 94T45 229Q45 316 76 379T166 476T304 510Q351 510 402 500T504 485L515 472L503 454Q497 445 494 437T490 415V88Q490 57 520 57Q545 57 570 75L589 49Q563 20 534
3T478 -14Q437 -14 419 11T401 92Q358 31 315 9T224 -14ZM264 63Q302 63 337 85T401 154V424Q355 455 303 455Q230 455 190 401T150 248Q150 180 166 140T208 81T264 63ZM310 552Q255 552 227 582T198 658Q198 703 226 734T310 765Q368 765 396 734T425 658Q425
613 397 583T310 552ZM310 600Q332 600 343 617T354 658Q354 682 343 699T310 716Q290 716 279 699T268 658Q268 634 279 617T310 600Z" />
<glyph unicode="&#xe6;" glyph-name="ae" horiz-adv-x="865" d="M215 -14Q158 -14 120 7T64 62T45 133Q45 175 66 214T131 280T236 306Q248 306 267 304T307 296T342 281T356 259Q356 251 352 244T341 237Q332 237 317 243T267 250Q225 250 197 233T154 189T140
132Q140 97 164 69T235 40Q303 40 342 95T381 254Q381 342 344 393T233 444Q178 444 149 433T106 410T85 399Q77 399 68 408T59 428Q59 438 83 457T152 493T254 510Q313 510 360 486T437 419Q471 462 522 486T640 510Q698 510 735 489T791 435T810 363Q810 322
789 283T725 219T619 194Q609 194 591 196T554 204T522 219T509 241Q509 249 513 256T524 263Q532 263 544 257T588 250Q631 250 659 266T701 309T715 364Q715 401 691 430T620 460Q556 460 520 404T484 242Q484 154 521 103T632 52Q674 52 711 66T778 109Q782
113 787 113Q795 113 804 104T813 84Q813 79 809 75Q732 -14 611 -14Q541 -14 490 18T410 106Q385 50 335 18T215 -14Z" />
<glyph unicode="&#xe7;" glyph-name="ccedilla" horiz-adv-x="509" d="M286 -14Q216 -14 162 20T76 113T45 247Q45 327 75 386T159 477T287 510Q364 510 413 473T463 376Q463 333 436 306T365 278Q346 278 346 289Q346 294 352 302T364 326T370 371Q370 411 345
434T276 458Q219 458 184 402T149 255Q149 162 190 108T303 53Q375 53 435 103Q438 106 444 106Q452 106 460 97T469 78Q469 72 466 69Q431 29 385 8T286 -14ZM232 -295Q191 -295 157 -276T123 -218Q123 -191 142 -176T187 -160Q204 -160 204 -170Q204 -177 197
-184T190 -214Q190 -232 202 -242T231 -253Q262 -253 278 -229T294 -177Q294 -149 278 -126T227 -103Q215 -103 201 -107T172 -120L152 -102L270 51L294 29L217 -70Q234 -66 255 -66Q299 -66 333 -93T368 -179Q368 -210 351 -236T302 -279T232 -295Z" />
<glyph unicode="&#xe8;" glyph-name="egrave" horiz-adv-x="529" d="M275 -14Q205 -14 154 18T74 107T45 242Q45 323 77 383T167 476T304 510Q362 510 399 489T455 435T474 363Q474 322 453 283T389 219T283 194Q273 194 255 196T218 204T186 219T173 241Q173
249 177 256T188 263Q196 263 208 257T252 250Q295 250 323 266T365 309T379 364Q379 401 355 430T284 460Q220 460 184 404T148 242Q148 154 185 103T296 52Q338 52 375 66T442 109Q446 113 451 113Q459 113 468 104T477 84Q477 79 473 75Q396 -14 275 -14ZM335
569L222 625Q191 640 179 657T166 697Q166 719 177 735T208 760L364 604L335 569Z" />
<glyph unicode="&#xe9;" glyph-name="eacute" horiz-adv-x="529" d="M275 -14Q205 -14 154 18T74 107T45 242Q45 323 77 383T167 476T304 510Q362 510 399 489T455 435T474 363Q474 322 453 283T389 219T283 194Q273 194 255 196T218 204T186 219T173 241Q173
249 177 256T188 263Q196 263 208 257T252 250Q295 250 323 266T365 309T379 364Q379 401 355 430T284 460Q220 460 184 404T148 242Q148 154 185 103T296 52Q338 52 375 66T442 109Q446 113 451 113Q459 113 468 104T477 84Q477 79 473 75Q396 -14 275 -14ZM195
569L166 604L322 760Q341 751 352 735T364 697Q364 675 352 658T308 625L195 569Z" />
<glyph unicode="&#xea;" glyph-name="ecircumflex" horiz-adv-x="529" d="M275 -14Q205 -14 154 18T74 107T45 242Q45 323 77 383T167 476T304 510Q362 510 399 489T455 435T474 363Q474 322 453 283T389 219T283 194Q273 194 255 196T218 204T186 219T173 241Q173
249 177 256T188 263Q196 263 208 257T252 250Q295 250 323 266T365 309T379 364Q379 401 355 430T284 460Q220 460 184 404T148 242Q148 154 185 103T296 52Q338 52 375 66T442 109Q446 113 451 113Q459 113 468 104T477 84Q477 79 473 75Q396 -14 275 -14ZM161
569L128 597Q150 635 174 668T218 724T252 755H279Q290 749 310 726T355 670T402 597L370 569L265 652L161 569Z" />
<glyph unicode="&#xeb;" glyph-name="edieresis" horiz-adv-x="529" d="M275 -14Q205 -14 154 18T74 107T45 242Q45 323 77 383T167 476T304 510Q362 510 399 489T455 435T474 363Q474 322 453 283T389 219T283 194Q273 194 255 196T218 204T186 219T173 241Q173
249 177 256T188 263Q196 263 208 257T252 250Q295 250 323 266T365 309T379 364Q379 401 355 430T284 460Q220 460 184 404T148 242Q148 154 185 103T296 52Q338 52 375 66T442 109Q446 113 451 113Q459 113 468 104T477 84Q477 79 473 75Q396 -14 275 -14ZM358
593Q347 593 333 604T308 630T297 658Q297 671 307 686T332 713T358 724Q371 724 385 713T410 687T421 658Q421 645 411 630T386 604T358 593ZM169 593Q158 593 144 604T119 630T108 658Q108 671 118 686T143 713T169 724Q182 724 196 713T221 687T232 658Q232
645 222 630T197 604T169 593Z" />
<glyph unicode="&#xec;" glyph-name="igrave" horiz-adv-x="312" d="M185 -14Q144 -14 126 11T108 92V402Q108 424 88 424H44L35 450Q64 476 101 493T167 510Q181 510 189 501T198 478V88Q198 54 228 54Q253 54 278 75L297 49Q271 20 241 3T185 -14ZM226 569L113
625Q82 640 70 657T57 697Q57 719 68 735T99 760L255 604L226 569Z" />
<glyph unicode="&#xed;" glyph-name="iacute" horiz-adv-x="312" d="M185 -14Q144 -14 126 11T108 92V402Q108 424 88 424H44L35 450Q64 476 101 493T167 510Q181 510 189 501T198 478V88Q198 54 228 54Q253 54 278 75L297 49Q271 20 241 3T185 -14ZM342 569L313
604L469 760Q488 751 499 735T511 697Q511 675 499 658T455 625L342 569Z" />
<glyph unicode="&#xee;" glyph-name="icircumflex" horiz-adv-x="312" d="M185 -14Q144 -14 126 11T108 92V402Q108 424 88 424H44L35 450Q64 476 101 493T167 510Q181 510 189 501T198 478V88Q198 54 228 54Q253 54 278 75L297 49Q271 20 241 3T185 -14ZM308
569L275 597Q297 635 321 668T365 724T399 755H426Q437 749 457 726T502 670T549 597L517 569L412 652L308 569Z" />
<glyph unicode="&#xef;" glyph-name="idieresis" horiz-adv-x="312" d="M185 -14Q144 -14 126 11T108 92V402Q108 424 88 424H44L35 450Q64 476 101 493T167 510Q181 510 189 501T198 478V88Q198 54 228 54Q253 54 278 75L297 49Q271 20 241 3T185 -14ZM505 593Q494
593 480 604T455 630T444 658Q444 671 454 686T479 713T505 724Q518 724 532 713T557 687T568 658Q568 645 558 630T533 604T505 593ZM316 593Q305 593 291 604T266 630T255 658Q255 671 265 686T290 713T316 724Q329 724 343 713T368 687T379 658Q379 645 369
630T344 604T316 593Z" />
<glyph unicode="&#xf0;" glyph-name="eth" horiz-adv-x="584" d="M292 -14Q216 -14 160 17T74 104T43 238Q43 316 73 372T160 459T292 490Q331 490 367 476T431 430Q414 522 385 593L286 544Q286 582 290 600T307 625L358 650Q333 694 302 719T236 745Q199 745
179 721T159 664Q159 632 170 613T191 585T202 569Q202 559 186 559Q131 559 103 592T74 665Q74 696 91 724T145 771T237 790Q297 790 343 760T423 682L559 751Q559 712 555 694T538 670L455 628Q487 566 506 495T533 356T541 238Q541 161 511 105T424 17T292 -14ZM304
40Q370 40 409 91T448 229Q448 291 428 338T372 411T289 438Q224 438 186 384T147 238Q147 179 167 134T223 65T304 40Z" />
<glyph unicode="&#xf1;" glyph-name="ntilde" horiz-adv-x="644" d="M512 -14Q471 -14 453 11T435 92V330Q435 432 349 432Q306 432 274 398T223 303T204 160Q204 113 211 85T236 31L248 15L236 0H61L50 31L71 36Q97 42 105 58T113 111V392Q113 414 93 414H49L40
440Q69 466 106 483T172 500Q186 500 195 491T204 468V361Q221 405 250 438T316 491T391 510Q461 510 493 467T525 330V88Q525 54 555 54Q578 54 605 75L624 49Q598 20 568 3T512 -14ZM194 591L159 622Q191 666 225 692T288 719Q310 719 325 711T353 693T382 684Q395
684 411 693T450 723L484 692Q453 648 419 622T356 595Q334 595 319 604T290 621T261 630Q249 630 232 621T194 591Z" />
<glyph unicode="&#xf2;" glyph-name="ograve" horiz-adv-x="578" d="M289 -14Q214 -14 160 18T75 109T45 248Q45 329 75 387T159 478T289 510Q364 510 418 478T503 388T533 248Q533 168 503 109T419 18T289 -14ZM286 40Q348 40 388 96T428 245Q428 275 422 312T400
382T358 436T292 458Q250 458 218 432T167 358T149 247Q149 153 186 97T286 40ZM359 569L246 625Q215 640 203 657T190 697Q190 719 201 735T232 760L388 604L359 569Z" />
<glyph unicode="&#xf3;" glyph-name="oacute" horiz-adv-x="578" d="M289 -14Q214 -14 160 18T75 109T45 248Q45 329 75 387T159 478T289 510Q364 510 418 478T503 388T533 248Q533 168 503 109T419 18T289 -14ZM286 40Q348 40 388 96T428 245Q428 275 422 312T400
382T358 436T292 458Q250 458 218 432T167 358T149 247Q149 153 186 97T286 40ZM219 569L190 604L346 760Q365 751 376 735T388 697Q388 675 376 658T332 625L219 569Z" />
<glyph unicode="&#xf4;" glyph-name="ocircumflex" horiz-adv-x="578" d="M289 -14Q214 -14 160 18T75 109T45 248Q45 329 75 387T159 478T289 510Q364 510 418 478T503 388T533 248Q533 168 503 109T419 18T289 -14ZM286 40Q348 40 388 96T428 245Q428 275 422
312T400 382T358 436T292 458Q250 458 218 432T167 358T149 247Q149 153 186 97T286 40ZM185 569L152 597Q174 635 198 668T242 724T276 755H303Q314 749 334 726T379 670T426 597L394 569L289 652L185 569Z" />
<glyph unicode="&#xf5;" glyph-name="otilde" horiz-adv-x="578" d="M289 -14Q214 -14 160 18T75 109T45 248Q45 329 75 387T159 478T289 510Q364 510 418 478T503 388T533 248Q533 168 503 109T419 18T289 -14ZM286 40Q348 40 388 96T428 245Q428 275 422 312T400
382T358 436T292 458Q250 458 218 432T167 358T149 247Q149 153 186 97T286 40ZM161 591L126 622Q158 666 192 692T255 719Q277 719 292 711T320 693T349 684Q362 684 378 693T417 723L451 692Q420 648 386 622T323 595Q301 595 286 604T257 621T228 630Q216 630
199 621T161 591Z" />
<glyph unicode="&#xf6;" glyph-name="odieresis" horiz-adv-x="578" d="M289 -14Q214 -14 160 18T75 109T45 248Q45 329 75 387T159 478T289 510Q364 510 418 478T503 388T533 248Q533 168 503 109T419 18T289 -14ZM286 40Q348 40 388 96T428 245Q428 275 422
312T400 382T358 436T292 458Q250 458 218 432T167 358T149 247Q149 153 186 97T286 40ZM382 593Q371 593 357 604T332 630T321 658Q321 671 331 686T356 713T382 724Q395 724 409 713T434 687T445 658Q445 645 435 630T410 604T382 593ZM193 593Q182 593 168 604T143
630T132 658Q132 671 142 686T167 713T193 724Q206 724 220 713T245 687T256 658Q256 645 246 630T221 604T193 593Z" />
<glyph unicode="&#xf7;" glyph-name="divide" horiz-adv-x="621" d="M99 319V395H522V319H99ZM309 458Q298 458 284 469T259 495T248 523Q248 536 258 551T283 578T309 589Q322 589 336 578T361 552T372 523Q372 510 362 495T337 469T309 458ZM309 125Q298 125
284 136T259 162T248 190Q248 203 258 218T283 245T309 256Q322 256 336 245T361 219T372 190Q372 177 362 162T337 136T309 125Z" />
<glyph unicode="&#xf8;" glyph-name="oslash" horiz-adv-x="578" d="M153 -68L180 8Q116 36 81 98T45 248Q45 329 75 387T159 478T289 510Q324 510 355 503L377 565H431L403 486Q464 457 498 396T533 248Q533 168 503 109T419 18T289 -14Q257 -14 227 -8L206 -68H153ZM149
247Q149 130 203 75L336 449Q316 458 292 458Q250 458 218 432T167 358T149 247ZM286 40Q348 40 388 96T428 245Q428 284 417 333T378 416L247 47Q265 40 286 40Z" />
<glyph unicode="&#xf9;" glyph-name="ugrave" horiz-adv-x="632" d="M256 -14Q184 -14 144 29T103 152V402Q103 424 83 424H39L30 450Q56 476 93 493T162 510Q176 510 185 501T194 478V175Q194 53 290 53Q357 53 394 111T432 271Q432 320 430 355T419 416T393
466L381 482L393 497L515 510V88Q515 57 544 57Q567 57 593 75L612 49Q589 21 559 4T502 -14Q425 -14 425 82Q403 38 358 12T256 -14ZM378 569L265 625Q234 640 222 657T209 697Q209 719 220 735T251 760L407 604L378 569Z" />
<glyph unicode="&#xfa;" glyph-name="uacute" horiz-adv-x="632" d="M256 -14Q184 -14 144 29T103 152V402Q103 424 83 424H39L30 450Q56 476 93 493T162 510Q176 510 185 501T194 478V175Q194 53 290 53Q357 53 394 111T432 271Q432 320 430 355T419 416T393
466L381 482L393 497L515 510V88Q515 57 544 57Q567 57 593 75L612 49Q589 21 559 4T502 -14Q425 -14 425 82Q403 38 358 12T256 -14ZM238 569L209 604L365 760Q384 751 395 735T407 697Q407 675 395 658T351 625L238 569Z" />
<glyph unicode="&#xfb;" glyph-name="ucircumflex" horiz-adv-x="632" d="M256 -14Q184 -14 144 29T103 152V402Q103 424 83 424H39L30 450Q56 476 93 493T162 510Q176 510 185 501T194 478V175Q194 53 290 53Q357 53 394 111T432 271Q432 320 430 355T419 416T393
466L381 482L393 497L515 510V88Q515 57 544 57Q567 57 593 75L612 49Q589 21 559 4T502 -14Q425 -14 425 82Q403 38 358 12T256 -14ZM204 569L171 597Q193 635 217 668T261 724T295 755H322Q333 749 353 726T398 670T445 597L413 569L308 652L204 569Z" />
<glyph unicode="&#xfc;" glyph-name="udieresis" horiz-adv-x="632" d="M256 -14Q184 -14 144 29T103 152V402Q103 424 83 424H39L30 450Q56 476 93 493T162 510Q176 510 185 501T194 478V175Q194 53 290 53Q357 53 394 111T432 271Q432 320 430 355T419 416T393
466L381 482L393 497L515 510V88Q515 57 544 57Q567 57 593 75L612 49Q589 21 559 4T502 -14Q425 -14 425 82Q403 38 358 12T256 -14ZM401 593Q390 593 376 604T351 630T340 658Q340 671 350 686T375 713T401 724Q414 724 428 713T453 687T464 658Q464 645 454
630T429 604T401 593ZM212 593Q201 593 187 604T162 630T151 658Q151 671 161 686T186 713T212 724Q225 724 239 713T264 687T275 658Q275 645 265 630T240 604T212 593Z" />
<glyph unicode="&#xfd;" glyph-name="yacute" horiz-adv-x="610" d="M291 -278Q233 -278 195 -257T139 -203T120 -135Q120 -104 134 -77T177 -32T247 -14Q258 -14 262 -17T266 -25Q266 -31 254 -42T230 -75T217 -133Q217 -171 240 -198T304 -226Q347 -226 373
-202T412 -135T424 -38V110Q401 67 356 41T254 15Q183 15 143 58T103 181V403Q103 425 83 425H39L30 451Q56 477 93 494T162 511Q176 511 185 502T194 479V204Q194 82 288 82Q355 82 392 132T430 272Q430 321 428 356T417 417T391 467L379 483L391 498L513 511V-22Q513
-146 453 -212T291 -278ZM235 569L206 604L362 760Q381 751 392 735T404 697Q404 675 392 658T348 625L235 569Z" />
<glyph unicode="&#xfe;" glyph-name="thorn" horiz-adv-x="595" d="M71 -266L59 -251L71 -235Q89 -209 96 -181T103 -106V665Q103 680 99 687T82 698L30 709V742Q41 752 65 761T118 776T169 782Q193 782 193 736V447Q258 510 337 510Q400 510 448 479T523 394T550
268Q550 187 522 124T444 23T330 -14Q271 -14 230 13Q221 19 221 31Q221 40 224 48T236 56Q244 56 258 48T307 40Q347 40 378 67T426 141T444 248Q444 306 427 350T378 419T305 444Q244 444 193 405V-155Q193 -192 201 -208T235 -230L256 -235L245 -266H71Z" />
<glyph unicode="&#xff;" glyph-name="ydieresis" horiz-adv-x="610" d="M291 -278Q233 -278 195 -257T139 -203T120 -135Q120 -104 134 -77T177 -32T247 -14Q258 -14 262 -17T266 -25Q266 -31 254 -42T230 -75T217 -133Q217 -171 240 -198T304 -226Q347 -226 373
-202T412 -135T424 -38V110Q401 67 356 41T254 15Q183 15 143 58T103 181V403Q103 425 83 425H39L30 451Q56 477 93 494T162 511Q176 511 185 502T194 479V204Q194 82 288 82Q355 82 392 132T430 272Q430 321 428 356T417 417T391 467L379 483L391 498L513 511V-22Q513
-146 453 -212T291 -278ZM398 593Q387 593 373 604T348 630T337 658Q337 671 347 686T372 713T398 724Q411 724 425 713T450 687T461 658Q461 645 451 630T426 604T398 593ZM209 593Q198 593 184 604T159 630T148 658Q148 671 158 686T183 713T209 724Q222 724
236 713T261 687T272 658Q272 645 262 630T237 604T209 593Z" />
<glyph unicode="&#x2013;" glyph-name="endash" horiz-adv-x="779" d="M50 252Q50 270 56 290T76 322L730 332Q730 314 725 294T704 262L50 252Z" />
<glyph unicode="&#x2014;" glyph-name="emdash" horiz-adv-x="910" d="M50 252Q50 270 56 290T76 322L859 332Q859 314 854 294T833 262L50 252Z" />
<glyph unicode="&#x2018;" glyph-name="quoteleft" horiz-adv-x="225" d="M155 766L184 747L138 657Q126 633 126 616Q126 596 149 579L167 567L172 543L155 536Q142 531 128 528T99 524Q72 524 53 539T34 591Q34 622 57 654T116 724L155 766Z" />
<glyph unicode="&#x2019;" glyph-name="quoteright" horiz-adv-x="225" d="M70 522L41 541L87 631Q99 655 99 672Q99 692 76 709L58 721L53 745L70 752Q84 757 98 760T126 764Q153 764 172 749T191 697Q191 666 168 634T109 564L70 522Z" />
<glyph unicode="&#x201a;" glyph-name="quotesinglbase" horiz-adv-x="191" d="M36 -123L7 -104L53 -14Q65 10 65 27Q65 47 42 64L24 76L19 100L36 107Q50 112 64 115T92 119Q119 119 138 104T157 52Q157 21 134 -11T75 -81L36 -123Z" />
<glyph unicode="&#x201c;" glyph-name="quotedblleft" horiz-adv-x="379" d="M155 766L184 747L138 657Q126 633 126 616Q126 596 149 579L167 567L172 543L155 536Q142 531 128 528T99 524Q72 524 53 539T34 591Q34 622 57 654T116 724L155 766ZM309 766L338
747L292 657Q280 633 280 616Q280 596 303 579L321 567L326 543L309 536Q296 531 282 528T253 524Q226 524 207 539T188 591Q188 622 211 654T270 724L309 766Z" />
<glyph unicode="&#x201d;" glyph-name="quotedblright" horiz-adv-x="379" d="M70 522L41 541L87 631Q99 655 99 672Q99 692 76 709L58 721L53 745L70 752Q84 757 98 760T126 764Q153 764 172 749T191 697Q191 666 168 634T109 564L70 522ZM224 522L195 541L241
631Q253 655 253 672Q253 692 230 709L212 721L207 745L224 752Q238 757 252 760T280 764Q307 764 326 749T345 697Q345 666 322 634T263 564L224 522Z" />
<glyph unicode="&#x201e;" glyph-name="quotedblbase" horiz-adv-x="345" d="M36 -122L7 -103L53 -13Q65 11 65 28Q65 48 42 65L24 77L19 101L36 108Q50 113 64 116T92 120Q119 120 138 105T157 53Q157 22 134 -10T75 -80L36 -122ZM190 -122L161 -103L207 -13Q219
11 219 28Q219 48 196 65L178 77L173 101L190 108Q204 113 218 116T246 120Q273 120 292 105T311 53Q311 22 288 -10T229 -80L190 -122Z" />
<glyph unicode="&#x2022;" glyph-name="bullet" horiz-adv-x="266" d="M131 215Q115 215 96 229T63 264T49 303Q49 320 62 341T95 377T131 392Q148 392 167 377T201 341T216 303Q216 285 202 265T168 230T131 215Z" />
<glyph unicode="&#x2039;" glyph-name="guilsinglleft" horiz-adv-x="297" d="M161 72Q121 137 97 178T61 242T50 279Q50 291 60 313T95 377T161 486Q181 485 203 477T247 440Q237 421 215 394T165 337T110 279Q137 251 164 221T214 164T247 118Q225 89 203 82T161 72Z" />
<glyph unicode="&#x203a;" glyph-name="guilsinglright" horiz-adv-x="297" d="M136 72Q117 74 95 81T50 118Q61 137 83 164T133 221T187 279Q161 307 133 337T83 394T50 440Q73 469 95 477T136 486Q178 418 202 377T237 314T247 279Q247 266 236 243T201 178T136 72Z" />
</font>
</defs>
</svg>
