<?xml version="1.0" standalone="no"?>
<!DOCTYPE svg PUBLIC "-//W3C//DTD SVG 1.1//EN" "http://www.w3.org/Graphics/SVG/1.1/DTD/svg11.dtd">
<svg xmlns="http://www.w3.org/2000/svg">
  <defs>
    <font id="Livvic" horiz-adv-x="554">
      <font-face font-family="Livvic" units-per-em="1000" panose-1="0 0 0 0 0 0 0 0 0 0" ascent="1005" descent="-250" alphabetic="0" />
      <glyph unicode=" " glyph-name="space" horiz-adv-x="228" />
      <glyph unicode="!" glyph-name="exclam" horiz-adv-x="190" d="M70,172L60,740h82L119,172H70ZM94-8Q72-8 57.5,6T43,42T57.5,79T94,94q23,0 37.5-15T146,42q0-21-14.5-35.5T94-8Z" />
      <glyph unicode="&quot;" glyph-name="quotedbl" horiz-adv-x="347" d="M84,470L70,710h78L134,470H84Zm129,0L199,710h78L263,470H213Z" />
      <glyph unicode="#" glyph-name="numbersign" horiz-adv-x="600" d="M83,0l43,204H21l13,63H139l37,175H71l13,63H190l43,205h66L256,505H408l43,205h66L474,505H579l-13-63H460L423,267H529l-13-63H410L367,0H301l43,204H192L149,0H83ZM205,267H357l37,175H242L205,267Z" />
      <glyph unicode="$" glyph-name="dollar" horiz-adv-x="600" d="M273-120V-6Q181,3 126.5,57T61,210l72,10q15-85 59-122.5T316,60q66,0 106.5,33.5T463,186q0,42-20,65.5t-53,36T317,309t-79.5,20T165,361t-53.5,57.5T91,515q0,53 24,96t65,71t93,35V830h54V719q78-5 129.5-54.5T519,531l-67-12q-14,69-50,101.5T308,653q-61,0-100.5-37T168,518q0-46 20-72t53.5-40.5t73-23.5t79-20t73-30T520,278.5T540,187q0-55-27.5-97.5T437,21.5T327-7V-120H273Z" />
      <glyph unicode="%" glyph-name="percent" horiz-adv-x="731" d="M203,420q-69,0-110.5,39T51,561q0,46 21,81.5t57.5,56T214,719q68,0 109-38.5T364,579q0-45-21-81t-57.5-57T203,420ZM115,0L550,710h66L182,0H115Zm89,471q45,0 74,30t29,76q0,42-25.5,67.5T214,670q-47,0-76.5-31T108,561q0-41 26-65.5T204,471ZM519-7Q451-7 409.5,32T368,134q0,46 20.5,81.5t57.5,56T531,292q67,0 108-38.5T680,152q0-45-21-81T601.5,14T519-7Zm2,50q45,0 74,30.5T624,150q0,42-25.5,67T530,242q-47,0-76.5-30.5T424,134q0-41 26.5-66T521,43Z" />
      <glyph unicode="&amp;" glyph-name="ampersand" horiz-adv-x="778" d="M300-8Q228-8 173.5,17.5t-85,71T58,196q0,55 19,93.5t49.5,66T192,405l-7,8q-40,44-56.5,79.5T112,570q0,45 21,80t58.5,54.5T278,724q70,0 112.5-37.5T433,587q0-53-20.5-87t-53-58T291,397L512,157q25,36 40,83.5T571,347H462v61H736V347H633q-4-72-25-131T554,113q30-31 55-43.5T666,56q31,0 60,19l22-52Q710-6 657-6q-42,0-77.5,16.5T507,64Q421-8 300-8ZM247,445l5-5q31,19 58,38.5T353,523t16,58q0,42-24,64.5T279,668q-43,0-70-26.5T182,572q0-32 14-59t51-68ZM133,204q0-70 48.5-110T309,54q93,0 158,53L231,362q-40-26-69-62t-29-96Z" />
      <glyph unicode="&apos;" glyph-name="quotesingle" horiz-adv-x="218" d="M84,470L70,710h78L134,470H84Z" />
      <glyph unicode="(" glyph-name="parenleft" horiz-adv-x="292" d="M280-210Q171-115 120.5,5.5T70,269q0,144 50.5,265.5T280,748l33-38q-78-69-122-185T147,269q0-139 44-255.5T313-172l-33-38Z" />
      <glyph unicode=")" glyph-name="parenright" horiz-adv-x="292" d="M12-210l-33,38Q57-103 101,13.5T145,269q0,140-44,256T-21,710l33,38q109-92 159.5-213.5T222,269q0-143-50.5-263.5T12-210Z" />
      <glyph unicode="*" glyph-name="asterisk" horiz-adv-x="466" d="M380,511q36-22 19-50q-8-14-22-16t-30,7q-20,11-40,30t-57,46q4-47 10.5-72.5T267,406q0-19-9.5-30T233,365q-16,0-25,11t-9,30q0,24 6.5,49.5T216,528q-37-27-57-46t-40-30q-16-9-30-7T67,461q-17,28 18,50q21,11 46.5,19T200,556q-43,19-68.5,27T85,602q-34,22-18,51q17,29 52,8q20-11 40-30t57-45q-4,45-10.5,71.5T199,707q0,18 9,29.5T233,748q15,0 24.5-11.5T267,707q0-23-6.5-49.5T250,586q37,26 57,45t40,30q35,21 52-8q16-29-19-51q-20-11-45.5-19T266,556q43-18 68.5-26T380,511Z" />
      <glyph unicode="+" glyph-name="plus" horiz-adv-x="600" d="M266,497h69V282H544V215H335V0H266V215H56v67H266V497Z" />
      <glyph unicode="," glyph-name="comma" horiz-adv-x="178" d="M38-114Q56-69 56-37Q56-9 47.5,9.5T39,51q0,22 14.5,35.5T90,100q51,0 51-59q0-33-18.5-77.5T77-114H38Z" />
      <glyph unicode="-" glyph-name="hyphen" horiz-adv-x="393" d="M60,221v66H333V221H60Z" />
      <glyph unicode="." glyph-name="period" horiz-adv-x="178" d="M89-8Q65-8 50,7.5T35,46T50,84.5T89,100q25,0 39.5-15.5T143,46T128.5,7.5T89-8Z" />
      <glyph unicode="/" glyph-name="slash" horiz-adv-x="314" d="M0-200L250,740h71L71-200H0Z" />
      <glyph unicode="0" glyph-name="zero" horiz-adv-x="600" d="M297-8Q181-8 117.5,79T54,342q0,114 32,199t90,132t135,47q109,0 172-91.5T546,369q0-118-31.5-202.5T426.5,37T297-8Zm0,69q79,0 127,77.5T472,371q0,136-43,208.5T311,652q-82,0-132-81T129,342q0-143 44-212T297,61Z" />
      <glyph unicode="1" glyph-name="one" horiz-adv-x="600" d="M126,0V62H285V610L140,512l-36,53L318,710h42V62H514V0H126Z" />
      <glyph unicode="2" glyph-name="two" horiz-adv-x="600" d="M98,0V50q101,83 166,150.5t102.5,124t52.5,104T434,518q0,62-36,98t-97,36q-126,0-171-138L72,542q23,78 83,128t149,50q59,0 105.5-23t73-67T510,523q1-68-30-139T380.5,233.5T198,62H529V0H98Z" />
      <glyph unicode="3" glyph-name="three" horiz-adv-x="600" d="M271-8Q211-8 158.5,6T73,43l24,65q33-21 78-34T277,61q75,0 123,34t48,103q0,67-45,99T287,329H246v64h24q78,0 121.5,36.5T435,534q0,52-36,85t-97,33q-65,0-107-34.5T130,514L72,542q23,78 83,128t150,50q65,0 111-24.5t70.5-66T511,538q0-61-32-106.5T390,366q64-18 99-61t35-110q0-94-67.5-148.5T271-8Z" />
      <glyph unicode="4" glyph-name="four" horiz-adv-x="600" d="M384,0V209H51v51L406,712h51V271H557V209H457V0H384ZM132,271H384V591L132,271Z" />
      <glyph unicode="5" glyph-name="five" horiz-adv-x="600" d="M271-8Q212-8 159,6T73,43l24,67q33-22 78.5-35.5T277,61q75,0 123,37t48,113q0,70-55,108T216,360l-98,3l25,347H490V648H212L196,426l31-1q156-5 226.5-62.5T524,212q0-104-68.5-162T271-8Z" />
      <glyph unicode="6" glyph-name="six" horiz-adv-x="600" d="M323-8Q201-8 138.5,77.5T76,326q0,117 32,206t93.5,138.5T351,720q155,0 208-158l-64-29q-22,64-58.5,91.5T346,652q-84,0-139.5-77.5T151,336V325q26,56 77.5,88.5T346,446q61,0 108.5-27T529,344t27-111q0-70-30.5-124.5T442.5,23T323-8Zm-2,64q71,0 115,46.5T480,226q0,71-40,113.5T333,382q-47,0-84.5-21t-59-58.5T168,215q0-73 41-116T321,56Z" />
      <glyph unicode="7" glyph-name="seven" horiz-adv-x="600" d="M212,0H135L449,648H83v62H529V656L212,0Z" />
      <glyph unicode="8" glyph-name="eight" horiz-adv-x="600" d="M300-8Q188-8 122.5,43.5T57,182q0,62 37,110.5T192,361q-55,20-87,63.5T73,524t28.5,100.5t79.5,70T300,720t119-25.5t79.5-70T527,524T495,424t-87-63q60-20 97.5-68.5T543,182q0-87-65.5-138.5T300-8Zm0,397q69,0 110.5,35.5T452,519q0,63-42.5,100T300,656T190.5,619T148,519q0-59 42-94.5T300,389Zm0-333q78,0 122.5,35.5T467,188q0,62-46.5,101.5T300,329q-75,0-121-39T133,188q0-61 44.5-96.5T300,56Z" />
      <glyph unicode="9" glyph-name="nine" horiz-adv-x="600" d="M277,720q122,0 184.5-85.5T524,386q0-117-32-206T398.5,41.5T249-8Q94-8 41,150l64,29q22-64 58.5-91.5T254,60q84,0 139.5,77.5T449,376v11q-26-56-77.5-88.5T254,266q-61,0-108.5,27T71,368T44,479q0,70 30.5,124.5t83,85.5T277,720Zm2-64q-71,0-115-46.5T120,486q0-71 40-113.5T267,330q47,0 84.5,21t59,58.5T432,497q0,73-41,116T279,656Z" />
      <glyph unicode=":" glyph-name="colon" horiz-adv-x="178" d="M89-8Q65-8 50,7.5T35,46T50,84.5T89,100q25,0 39.5-15.5T143,46T128.5,7.5T89-8Zm0,405q-24,0-39,15.5T35,451t15,38.5T89,505q25,0 39.5-15.5T143,451t-14.5-38.5T89,397Z" />
      <glyph unicode=";" glyph-name="semicolon" horiz-adv-x="178" d="M38-114Q56-69 56-37Q56-9 47.5,9.5T39,51q0,22 14.5,35.5T90,100q51,0 51-59q0-33-18.5-77.5T77-114H38ZM89,397q-24,0-39,15.5T35,451t15,38.5T89,505q25,0 39.5-15.5T143,451t-14.5-38.5T89,397Z" />
      <glyph unicode="&lt;" glyph-name="less" horiz-adv-x="600" d="M66,220v57L534,499V427L154,249L534,70V-1L66,220Z" />
      <glyph unicode="=" glyph-name="equal" horiz-adv-x="600" d="M544,380V317H56v63H544Zm0-199V118H56v63H544Z" />
      <glyph unicode="&gt;" glyph-name="greater" horiz-adv-x="600" d="M534,220L66-1V70L446,249L66,427v72L534,277V220Z" />
      <glyph unicode="?" glyph-name="question" horiz-adv-x="511" d="M230,169l-55,2q-2,70 20.5,119.5T276,388q38,34 58.5,58t29,46.5T372,543q0,53-36,81t-94,28Q116,652 72,514L14,542q25,83 86.5,130.5T247,720q58,0 103.5-21.5t71-60.5T447,546q0-59-28-104T324,341q-48-40-69.5-79.5T230,169ZM200-8Q178-8 163.5,6T149,42t14.5,37T200,94q23,0 37.5-15T252,42q0-21-14.5-35.5T200-8Z" />
      <glyph unicode="@" glyph-name="at" horiz-adv-x="969" d="M501-212q-139,0-238,55T111,1T58,249q0,106 32,193t91,150.5t140,98T501,725q125,0 217-46.5t142-131T910,348q0-93-26.5-164t-72-111.5T708,32q-53,0-81.5,30.5T599,145q-32-51-82-82T414,32q-73,0-114,44T259,199q0,64 21.5,120t59,98t86,65.5T530,506q39,0 76-12.5T661,461l14,36l47-4L667,194q-9-49 4-76t45-27q37,0 67,34t47.5,92T848,348q0,95-43,166T684,624.5T501,664q-112,0-197-52T172,466.5T125,249q0-191 99-295.5T504-151q74,0 142.5,25T758-59l40-49q-50-48-130-76T501-212ZM424,95q45,0 84.5,24.5t68,67T616,283l24,121q-39,40-113,40q-54,0-98.5-32.5T357,324T330,201q0-106 94-106Z" />
      <glyph unicode="A" glyph-name="A" horiz-adv-x="673" d="M12,0L307,710h67L657,0H579L505,190H168L91,0H12ZM194,255H480L340,615L194,255Z" />
      <glyph unicode="B" glyph-name="B" horiz-adv-x="611" d="M82,0V710H267q149,0 217.5-48.5T553,522q0-56-31-99t-90-63q60-18 94.5-62.5T561,195q0-95-63.5-145T325,0H82ZM267,646H158V390H286q95,0 142.5,31.5T476,521q0,66-50,95.5T267,646ZM158,64H322q75,0 118.5,30.5T484,193q0,132-171,132H158V64Z" />
      <glyph unicode="C" glyph-name="C" horiz-adv-x="648" d="M646,136Q607,66 538.5,29T382-8Q281-8 208.5,34T97,154.5T58,342q0,112 43,197T221,672t178,48q83,0 146.5-34T647,586l-60-45Q527,649 397,649q-77,0-135.5-39T170,502T137,342q0-132 64.5-205.5T382,63q142,0 205,118l59-45Z" />
      <glyph unicode="D" glyph-name="D" horiz-adv-x="733" d="M82,0V710H262q412,0 412-351q0-112-46-192.5T496,43T290,0H82Zm77,68H286q153,0 231.5,73T596,354q0,145-79.5,216.5T274,642H159V68Z" />
      <glyph unicode="E" glyph-name="E" horiz-adv-x="542" d="M493,644H158V394H484V328H158V66H507L501,0H82V710H493V644Z" />
      <glyph unicode="F" glyph-name="F" horiz-adv-x="484" d="M473,644H158V383H464V317H158V0H82V710H473V644Z" />
      <glyph unicode="G" glyph-name="G" horiz-adv-x="727" d="M418,344H665V0H606L596,95Q527-8 374-8Q278-8 207,34T97,154T58,342q0,112 44,197T224.5,672T410,720q172,0 249-134l-60-45Q540,648 405,648q-80,0-140-38.5T171.5,502T138,342q0-134 64-206.5T380,63q97,0 154.5,49.5T592,247v34H418v63Z" />
      <glyph unicode="H" glyph-name="H" horiz-adv-x="717" d="M82,0V710h77V395H558V710h77V0H558V327H159V0H82Z" />
      <glyph unicode="I" glyph-name="I" horiz-adv-x="241" d="M82,0V710h77V0H82Z" />
      <glyph unicode="J" glyph-name="J" horiz-adv-x="448" d="M176-8Q101-8 49,29t-66,99l63,28q16-50 48.5-72.5T179,61q57,0 84,34.5T290,205V710h78V208q0-106-47.5-161T176-8Z" />
      <glyph unicode="K" glyph-name="K" horiz-adv-x="562" d="M82,0V710h77V379L487,710h95L230,357q39-19 69-63L409,130q28-42 48-55.5T510,61q28,0 53,16l17-60Q550-6 498-6q-43,0-77.5,20T353,82L221,277q-11,16-25.5,27T159,319V0H82Z" />
      <glyph unicode="L" glyph-name="L" horiz-adv-x="484" d="M82,0V710h77V67H491L484,0H82Z" />
      <glyph unicode="M" glyph-name="M" horiz-adv-x="914" d="M75,0l31,710h75L458,93L736,710h75L837,0H765L743,562L488,0H423L172,560L147,0H75Z" />
      <glyph unicode="N" glyph-name="N" horiz-adv-x="717" d="M561,710h74V0H569L156,580V0H82V710h66L561,130V710Z" />
      <glyph unicode="O" glyph-name="O" horiz-adv-x="769" d="M380-8Q281-8 208.5,33.5T97,153T58,342t43.5,196.5T221.5,672T399,720q93,0 163.5-44T672,553.5T711,369q0-115-43-199.5T550.5,38.5T380-8Zm0,71q75,0 131.5,36.5T600,205t32,166q0,85-28.5,147.5T523,615T400,649q-77,0-136.5-38.5T170.5,503T137,342q0-134 65-206.5T380,63Z" />
      <glyph unicode="P" glyph-name="P" horiz-adv-x="598" d="M158,0H82V710H312q123,0 191.5-53T572,503T502,344.5T285,287H158V0ZM304,646H158V352H289q111,0 159,38t48,113q0,74-47,108.5T304,646Z" />
      <glyph unicode="Q" glyph-name="Q" horiz-adv-x="769" d="M670-77q-9-62-50-96.5T513-208q-87,0-134.5,49.5T331-11v6Q203,10 130.5,100T58,342q0,111 43.5,196.5T221.5,672T399,720q93,0 163.5-44T672,553t39-184q0-110-39.5-192.5T563,46.5T405-7v-6q0-70 26.5-101T514-145q39,0 64,20.5T607-70l63-7ZM380,63q75,0 131.5,36.5T600,205t32,166q0,85-28.5,147.5T523,615T400,649q-77,0-136.5-38.5T170.5,503T137,342q0-134 65-206.5T380,63Z" />
      <glyph unicode="R" glyph-name="R" horiz-adv-x="582" d="M594,77l17-60Q580-6 529-6q-43,0-78,20T383,82L250,278q-13,19-31,31.5T182,322H158V0H82V710H282q119,0 182.5-51.5T528,518q0-64-31.5-107T412,346T295,324h-6q28-14 57-57l93-136q19-29 33.5-44t30-20.5T541,61q15,0 28,4.5T594,77ZM276,646H158V384H267q88,0 136,31.5T451,516q0,61-42,95.5T276,646Z" />
      <glyph unicode="S" glyph-name="S" horiz-adv-x="566" d="M290-8Q54-8 30,210l72,10q15-85 60.5-122.5T295,60q74,0 115.5,33.5T452,186q0,38-17.5,61t-53,37.5T292,311q-66,15-115,36t-76,60T74,515q0,59 29.5,105.5t81,73T302,720q92,0 150.5-50T522,531l-67-12q-14,69-51.5,101T300,652q-68,0-108.5-36.5T151,518q0-65 42-94t128-47q66-14 112.5-34.5t71-57T529,187q0-58-30.5-102T414,16.5T290-8Z" />
      <glyph unicode="T" glyph-name="T" horiz-adv-x="546" d="M546,710l-7-67H312V0H234V643H2v67H546Z" />
      <glyph unicode="U" glyph-name="U" horiz-adv-x="722" d="M565,710h77l1-369q0-170-71.5-259.5T356-8Q216-8 147.5,67T79,303V710h79V307q0-128 47-186T356,63q111,0 161,68.5T566,342l-1,368Z" />
      <glyph unicode="V" glyph-name="V" horiz-adv-x="586" d="M523,710h77L334,0H231L10,710H90L286,63L523,710Z" />
      <glyph unicode="W" glyph-name="W" horiz-adv-x="935" d="M844,710h74L712,0H622L474,602L299,0H209L33,710h78L258,91L438,710h83L671,93L844,710Z" />
      <glyph unicode="X" glyph-name="X" horiz-adv-x="578" d="M86,0H-1L247,363L16,710h87L292,426L484,710h83L332,364L577,0H489L289,301L86,0Z" />
      <glyph unicode="Y" glyph-name="Y" horiz-adv-x="548" d="M569,710L313,321V0H236V320L-23,710H64L278,388L488,710h81Z" />
      <glyph unicode="Z" glyph-name="Z" horiz-adv-x="597" d="M40,0V56L464,643H55v67H563V654L139,67H575L568,0H40Z" />
      <glyph unicode="[" glyph-name="bracketleft" horiz-adv-x="262" d="M247-200H82V740H247V684H153V-144h94v-56Z" />
      <glyph unicode="\" glyph-name="backslash" horiz-adv-x="314" d="M314-200H243L-7,740H64L314-200Z" />
      <glyph unicode="]" glyph-name="bracketright" horiz-adv-x="262" d="M16-200v56h93V684H16v56H180V-200H16Z" />
      <glyph unicode="^" glyph-name="asciicircum" horiz-adv-x="600" d="M327,587L550,119H479L300,502L121,119H50L271,587h56Z" />
      <glyph unicode="_" glyph-name="underscore" horiz-adv-x="465" d="M30-62V0H434V-62H30Z" />
      <glyph unicode="`" glyph-name="grave" horiz-adv-x="642" d="M301,573L176,728l78,22L368,573H301Z" />
      <glyph unicode="a" glyph-name="a" horiz-adv-x="576" d="M501,497V0H427l3,117q-28-58-75-91.5T248-8Q185-8 142,21.5t-66,82T53,225q0,83 30,146.5t84,99T292,506q50,0 88-23t56-59l10,73h55ZM294,440q-75,0-120-57T129,231q0-81 34.5-126.5T258,59q49,0 88,29t61,80t22,117q0,72-36,113.5T294,440Z" />
      <glyph unicode="b" glyph-name="b" horiz-adv-x="576" d="M75,0V740h73V498l-3-120q27,59 74,93.5T328,506q63,0 106.5-29.5t66-82T523,274q0-83-30-146.5T409,28T284-8q-50,0-88,23.5T141,76L130,0H75ZM282,59q75,0 120,57.5T447,269q0,80-34.5,125.5T318,440q-49,0-87.5-29t-61-80T147,215q0-73 36.5-114.5T282,59Z" />
      <glyph unicode="c" glyph-name="c" horiz-adv-x="487" d="M286-8Q177-8 115,57.5T53,240q0,79 31,139t86,93.5T298,506q120,0 176-96l-56-42q-40,71-122,71q-75,0-120.5-54.5T130,240q0-88 41-134T289,60q41,0 75,17t56,54l54-42Q414-8 286-8Z" />
      <glyph unicode="d" glyph-name="d" horiz-adv-x="576" d="M501,740V0H427l3,117q-28-58-75-91.5T248-8Q185-8 142,21.5t-66,82T53,225q0,83 30,146.5t84,99T292,506q45,0 81.5-19T430,435l-2,62V740h73ZM294,440q-75,0-120-57T129,231q0-81 34.5-126.5T258,59q49,0 88,29t61,80t22,117q0,72-36,113.5T294,440Z" />
      <glyph unicode="e" glyph-name="e" horiz-adv-x="535" d="M299-8Q184-8 118.5,58T53,242q0,77 31,137t84.5,93.5T290,506q102,0 157.5-71T487,223H128q3-80 48.5-122T304,59q40,0 77,17.5T444,131l46-42Q423-8 299-8Zm-8,455q-46,0-80.5-22T155,365.5T129,282H423q4,87-34,126t-98,39Z" />
      <glyph unicode="f" glyph-name="f" horiz-adv-x="336" d="M96,0V435H-4v62H96v46q0,96 50.5,151.5T280,750q69,0 108.5-34T434,620l-62-8q-9,75-93,75q-52,0-82-35T167,551V497H338V435H168V0H96Z" />
      <glyph unicode="g" glyph-name="g" horiz-adv-x="580" d="M252-210q-42,0-86.5,8.5T89-175l20,66q33-17 71-25.5t74-8.5q96,0 136.5,47.5T433,56l2,73q-28-59-76-93.5T249,1Q154,1 103.5,65T53,230q0,81 30.5,143t85,97.5T294,506q51,0 89.5-23T440,424l10,73h55V67q0-277-253-277Zm44,650q-50,0-87.5-26T150,342T129,236q0-80 35-124t96-44q49,0 88.5,29t62,79T433,289q0,71-36.5,111T296,440Z" />
      <glyph unicode="h" glyph-name="h" horiz-adv-x="571" d="M75,0V740h73l1-243l-6-170q25,87 77.5,133T344,506q76,0 117-53t41-153L500,0H427l2,291q0,73-24.5,110T326,438q-51,0-91.5-40.5T170.5,261T147,0H75Z" />
      <glyph unicode="i" glyph-name="i" horiz-adv-x="222" d="M147,497V0H75V497h72ZM113,610q-24,0-37,15T63,660t13.5,35T113,710t36.5-15T163,660t-13.5-35T113,610Z" />
      <glyph unicode="j" glyph-name="j" horiz-adv-x="237" d="M-26-211q-26,0-52.5,5T-123-191l17,62q36-16 78-16q63,0 90,38.5T89-2V497h73V-6q0-97-51-151T-26-211ZM127,610q-24,0-37,15T77,660t13.5,35T127,710t36.5-15T177,660t-13.5-35T127,610Z" />
      <glyph unicode="k" glyph-name="k" horiz-adv-x="461" d="M75,0V740h73V285L363,496h92L213,259q21-14 41-42l75-108q21-30 41.5-41T419,57q25,0 47,13l18-55Q467,4 447.5-1T407-6Q324-6 273,68L197,175q-27,39-49,54V0H75Z" />
      <glyph unicode="l" glyph-name="l" horiz-adv-x="265" d="M197-8q-62,0-92,34T75,116V740h73V125q0-33 14-50t46-17q15,0 29,4.5T259,72l20-55Q265,5 242.5-1.5T197-8Z" />
      <glyph unicode="m" glyph-name="m" horiz-adv-x="909" d="M75,0V497h74l-6-171q27,92 78.5,136T336,506q65,0 105-39t49-118q28,79 80.5,118T684,506q76,0 116.5-53T840,300L838,0H765l2,291q2,147-101,147q-34,0-65-21t-55.5-70.5T507,212T493,0H421V291q0,74-23.5,110.5T322,438q-35,0-66-21t-55.5-70.5T161.5,212T147,0H75Z" />
      <glyph unicode="n" glyph-name="n" horiz-adv-x="571" d="M75,0V497h74l-6-170q25,87 77.5,133T344,506q76,0 117-53t41-153L500,0H427l2,291q0,73-24.5,110T326,438q-51,0-91.5-40.5T170.5,261T147,0H75Z" />
      <glyph unicode="o" glyph-name="o" horiz-adv-x="567" d="M292,506q103,0 162.5-66.5T514,259q0-76-29.5-136.5T402,27T278-8Q173-8 113,58.5T53,240q0,76 29.5,136T166,471t126,35ZM278,59q72,0 116,55t44,145q0,87-38.5,134T293,440q-50,0-86.5-25.5t-57-70.5T129,240q0-88 39.5-134.5T278,59Z" />
      <glyph unicode="p" glyph-name="p" horiz-adv-x="576" d="M75-200V497h74l-3-116q27,58 74,91.5T328,506q63,0 106.5-29.5t66-82T523,274q0-83-30-146.5T409,28T284-8q-46,0-82,20T147,65l1-65V-200H75ZM282,59q75,0 120,57.5T447,269q0,80-34.5,125.5T318,440q-49,0-87.5-29t-61-80T147,215q0-73 36.5-114.5T282,59Z" />
      <glyph unicode="q" glyph-name="q" horiz-adv-x="576" d="M501,497V-200H428V0l4,121q-27-59-75-94T248-8Q185-8 142,21.5t-66,82T53,225q0,83 30,146.5t84,99T292,506q50,0 88-23t56-59l10,73h55ZM294,440q-75,0-120-57T129,231q0-81 34.5-126.5T258,59q49,0 88,29t61,80t22,117q0,72-36,113.5T294,440Z" />
      <glyph unicode="r" glyph-name="r" horiz-adv-x="376" d="M357,428q-10,3-20,4t-22,1q-87,0-127-102.5T148,0H76V319L75,497h73l-5-177q24,101 72,143.5T318,506q16,0 28.5-1.5T368,499l-11-71Z" />
      <glyph unicode="s" glyph-name="s" horiz-adv-x="452" d="M235-8Q142-8 91,30.5T32,140l64,15q7-53 40.5-78T235,52q55,0 83.5,22.5T347,133q0,34-29,50.5T227,212q-52,10-89,25.5T81,281T61,356q0,42 23,76t63.5,53.5T239,505q70,0 114.5-33.5T408,379l-62-16q-15,82-108,82q-48,0-76.5-23.5T133,358q0-33 25-52.5T248,272q53-11 91-25.5T397.5,207T419,138q0-42-23-75T331.5,11T235-8Z" />
      <glyph unicode="t" glyph-name="t" horiz-adv-x="368" d="M264-8Q179-8 136,37.5T94,159l3,276H9v62H98l1,104h73l-1-104H344V435H170l-3-271q0-48 24.5-77T268,58q23,0 43,5.5T353,86l24-58Q355,9 325,0.5T264-8Z" />
      <glyph unicode="u" glyph-name="u" horiz-adv-x="561" d="M224-8Q149-8 109,44T69,188l3,309h73l-3-300q-1-65 23-101t76-36q51,0 90,41t61.5,136.5T416,497h70V0H412l6,163Q390,75 339,33.5T224-8Z" />
      <glyph unicode="v" glyph-name="v" horiz-adv-x="491" d="M417,497h73L296,0H194L33,497h78L249,59L417,497Z" />
      <glyph unicode="w" glyph-name="w" horiz-adv-x="836" d="M756,497h74L644,0H559L432,403L279,0H194L37,497h77L240,77L396,497h77L602,75L756,497Z" />
      <glyph unicode="x" glyph-name="x" horiz-adv-x="477" d="M95,0H11L195,251L19,497h89L240,312L374,497h84L281,254L462,0H374L236,194L95,0Z" />
      <glyph unicode="y" glyph-name="y" horiz-adv-x="566" d="M241-210q-43,0-87.5,8.5T78-175l20,65q32-16 70-24.5t75-8.5q96,0 136.5,47T422,56l3,122Q397,87 345,44T225,1Q149,1 109,53T69,197l3,300h73l-3-291q-1-65 23-100.5T242,70t93,40t63,133.5T421,497h70V67q0-277-250-277Z" />
      <glyph unicode="z" glyph-name="z" horiz-adv-x="453" d="M39,0V51L321,435H51v62H413V446L131,62H411V0H39Z" />
      <glyph unicode="{" glyph-name="braceleft" horiz-adv-x="336" d="M186-64q0-43 28.5-68T290-159l-10-47q-71,5-120,42.5T111-54q0,34 13,72.5T150.5,93T164,156q0,38-27.5,62T51,242v58q58,0 85.5,24T164,386q0,27-13.5,63T124,523.5T111,596q0,72 49,109.5T280,748l10-47q-47-2-75.5-27T186,606q0-38 13.5-73t27-69T240,395q0-51-32-82t-80-42q48-11 80-42t32-82q0-35-13.5-69t-27-69T186-64Z" />
      <glyph unicode="|" glyph-name="bar" horiz-adv-x="256" d="M92-200V740h72V-200H92Z" />
      <glyph unicode="}" glyph-name="braceright" horiz-adv-x="336" d="M150-64q0,38-13.5,73t-27,69T96,147q0,51 32,82t80,42q-48,11-80,42T96,395q0,35 13.5,69t27,69T150,606q0,43-28.5,68T46,701l10,47q71-5 120.5-42.5T226,596q0-34-13.5-72.5t-27-74.5T172,386q0-38 27.5-62T285,300V242q-58,0-85.5-24T172,156q0-27 13.5-63t27-74.5T226-54q0-72-49.5-109.5T56-206L46-159q47,2 75.5,27T150-64Z" />
      <glyph unicode="~" glyph-name="asciitilde" horiz-adv-x="600" d="M407,189q-18,0-47,8t-61,18.5T237.5,234T188,242q-28,0-48.5-14.5T105,187L64,223q20,39 52.5,62.5T193,309q18,0 47-8t61-18.5t61.5-18T412,257q28,0 48.5,14T495,311l41-35q-20-40-52.5-63.5T407,189Z" />
      <glyph unicode="&#xa0;" glyph-name="uni00A0" horiz-adv-x="228" />
      <glyph unicode="&#xa1;" glyph-name="exclamdown" horiz-adv-x="190" d="M94,404q-22,0-36.5,14T43,454t14.5,36.5T94,505q23,0 37.5-14.5T146,454q0-21-14.5-35.5T94,404ZM46-200L71,326h49l8-526H46Z" />
      <glyph unicode="&#xa2;" glyph-name="cent" horiz-adv-x="600" d="M291-120V-6Q197,3 144,67.5T91,240q0,70 25,126t70,91.5T291,503V617h55V506q112-4 165-96l-55-42q-40,71-122,71q-75,0-120.5-54.5T168,240q0-88 41-134T327,60q40,0 74,17t57,54l53-42Q457,1 346-7V-120H291Z" />
      <glyph unicode="&#xa3;" glyph-name="sterling" horiz-adv-x="600" d="M92-11L60,37q61,32 87,68t26,87q0,32-8.5,66T145,329H21v52H129q-7,29-12.5,57.5T111,496q0,67 28.5,117.5t80,78.5T339,720q86,0 143-46.5T555,542l-59-23Q468,654 340,654q-75,0-116-41.5T183,498q0-30 6-59t14-58H404V329H218q10-33 17-65t7-66q0-68-40-109q16,5 30,5q34,0 73-9.5T380,65t63-10q54,0 83,55l44-33q-18-41-53-64T438-10q-25,0-66,10T286,20T204,30Q141,30 92-11Z" />
      <glyph unicode="&#xa4;" glyph-name="currency" horiz-adv-x="600" d="M95,99L57,138l53,55q-25,32-39,72T57,349q0,45 14.5,85T111,506L57,562l38,39l53-56q31,26 70,40.5T300,600t81.5-14.5T451,546l53,55l39-40l-53-55q25-32 39-72t14-85q0-44-14-84t-39-72l54-55l-40-38l-52,54q-32-26-70.5-40.5T300,99t-81.5,14.5T148,154L95,99Zm206,59q50,0 91,25.5t65.5,69T482,349q0,54-24.5,97.5t-65.5,69T301,541q-51,0-92.5-25.5t-66-69T118,349q0-53 24.5-96.5t66-69T301,158Z" />
      <glyph unicode="&#xa5;" glyph-name="yen" horiz-adv-x="600" d="M89,165v53H262v96H89v53H241L13,710h87L304,402L505,710h82L361,367H511V314H340V218H511V165H340V0H262V165H89Z" />
      <glyph unicode="&#xa6;" glyph-name="brokenbar" horiz-adv-x="256" d="M92,380V740h72V380H92Zm72-220V-200H92V160h72Z" />
      <glyph unicode="&#xa7;" glyph-name="section" horiz-adv-x="499" d="M421,140q0-43-23-77T334,9.5T240-10q-71,0-116,33.5T69,116l63,16q8-38 35-58.5T241,53q50,0 79,23t29,61q0,32-21,49t-54,26.5t-70.5,18T133,252T79,289.5T58,357q0,37 20,64.5T131,464q-23,16-38,41T78,570q0,43 23.5,77t64,53.5T259,720q71,0 116-33.5T430,593l-63-15q-7,38-34,58.5T258,657q-50,0-79-23.5T150,573q0-32 21-49t54.5-26.5T296,480t70-21.5t54-38T441,354q0-37-20-64.5T368,246q24-16 38.5-41.5T421,140ZM130,368q0-25 15.5-40t41-23.5t56.5-15T304,274q29,6 47,24t18,44t-15.5,41t-41,23.5t-56,15T196,436q-29-5-47.5-23T130,368Z" />
      <glyph unicode="&#xa8;" glyph-name="dieresis" horiz-adv-x="670" d="M250,568q-22,0-35,13.5T202,614q0,18 13,31.5T250,659t34.5-13.5T297,614q0-19-12.5-32.5T250,568Zm172,0q-23,0-36,13.5T373,614q0,18 13,31.5T422,659q21,0 33.5-13.5T468,614q0-19-12.5-32.5T422,568Z" />
      <glyph unicode="&#xa9;" glyph-name="copyright" horiz-adv-x="810" d="M405-8Q329-8 263.5,19.5T149,95.5t-76.5,113T45,349T72.5,490T149,603.5T263.5,679T405,706t141.5-27T661,603.5T737.5,490T765,349T737.5,208.5T661,95.5t-114.5-76T405-8Zm0,37q68,0 126,24t101.5,68T700,223.5T724,350T700,476T632.5,577.5T531,645T405,669T279,645T177.5,577.5T110,476T86,350t24.5-126.5t67.5-102t101.5-68T405,29ZM561,230q-23-39-62.5-60T409,149q-88,0-137.5,51.5T222,342q0,61 24.5,108t69,73.5T418,550q96,0 144-77l-48-33q-16,28-40.5,41.5T417,495q-58,0-94.5-42.5T286,343q0-66 32.5-102.5T410,204q33,0 60.5,15T515,265l46-35Z" />
      <glyph unicode="&#xaa;" glyph-name="ordfeminine" horiz-adv-x="341" d="M296,470H237l2,53q-33-58-96-58q-54,0-82.5,36T32,595q0,69 38.5,112T168,750q27,0 47.5-11.5T246,707l7,38h43V470ZM172,700q-37,0-58.5-28T92,598q0-39 16.5-61T154,515q35,0 59.5,30.5T238,624q0,35-18,55.5T172,700Z" />
      <glyph unicode="&#xab;" glyph-name="guillemotleft" horiz-adv-x="428" d="M158,70L33,238v30L158,436h80L103,253L238,70H158Zm176,0L209,238v30L334,436h80L279,253L414,70H334Z" />
      <glyph unicode="&#xac;" glyph-name="logicalnot" horiz-adv-x="600" d="M66,282H534V0H465V215H66v67Z" />
      <glyph unicode="&#xad;" glyph-name="uni00AD" horiz-adv-x="393" d="M60,221v66H333V221H60Z" />
      <glyph unicode="&#xae;" glyph-name="registered" horiz-adv-x="810" d="M405-8Q329-8 263.5,19.5T149,95.5T72.5,209T45,349q0,76 27,140.5t76,113t115,76T405,706q77,0 142-27.5t114-76t76.5-113T765,349T737.5,208T661,95T546.5,19.5T405-8Zm0,37q68,0 126,24.5t101.5,68t67.5,102T724,350T700,476T632.5,577.5T531,645T405,669T279,645T177.5,577.5T110,476T86,350t24.5-126.5t67.5-102t101.5-68T405,29ZM535,152q-35,0-58.5,17.5T437,212t-29.5,50.5t-30,43T337,323V156H276V547H395q63,0 99.5-30T531,434q0-43-31-73.5T418,325q20-11 34-31t27-40.5T507,219t37-14q17,0 33,9l14-47q-21-15-56-15ZM391,501H337V365h39q93,0 93,69q0,31-21.5,49T391,501Z" />
      <glyph unicode="&#xaf;" glyph-name="macron" horiz-adv-x="626" d="M163,653H467V600H163v53Z" />
      <glyph unicode="&#xb0;" glyph-name="degree" horiz-adv-x="365" d="M183,430q-40,0-72.5,19T59,500.5T40,574t19,73t51.5,51T183,717t72-19t51-51t19-73t-19-73.5T255,449t-72-19Zm0,47q41,0 67,27t26,70q0,42-26,69.5T183,671t-67-27.5T90,574q0-43 26-70t67-27Z" />
      <glyph unicode="&#xb1;" glyph-name="plusminus" horiz-adv-x="600" d="M267,497h66V344H495V281H333V127H267V281H105v63H267V497ZM66,0V63H534V0H66Z" />
      <glyph unicode="&#xb2;" glyph-name="uni00B2" horiz-adv-x="330" d="M47,359q101,80 139,138t38,102q0,30-17,47.5T159,664q-59,0-81-68L33,617q13,44 48.5,71T166,715q52,0 85-30t33-83T247,492T120,366H294V319H47v40Z" />
      <glyph unicode="&#xb3;" glyph-name="uni00B3" horiz-adv-x="330" d="M144,314q-28,0-59.5,8T36,341l16,50q41-25 96-25q38,0 61,18t23,48q0,32-22.5,48.5T145,497H116v44h28q38,0 59,18t21,49q0,25-17,40.5T163,664q-57,0-81-58L40,631q16,39 50.5,61.5T170,715q52,0 83-27.5T284,614q0-31-16.5-56T221,522q71-19 71-92q0-51-41.5-83.5T144,314Z" />
      <glyph unicode="&#xb4;" glyph-name="acute" horiz-adv-x="642" d="M297,573L411,750l78-22L364,573H297Z" />
      <glyph unicode="&#xb5;" glyph-name="uni00B5" horiz-adv-x="561" d="M414,497h70V0H413l6,179Q395,86 345.5,39T236-8q-33,0-57,9T138,34l2-234H69V497h74l-3-300q0-68 23.5-102.5T240,60q50,0 89,41t62,136.5T414,497Z" />
      <glyph unicode="&#xb6;" glyph-name="paragraph" horiz-adv-x="621" d="M26,500q0,98 69,154.5T300,711h92V0H316V288H290q-128,0-196,57T26,500ZM464,710h76V0H464V710Z" />
      <glyph unicode="&#xb7;" glyph-name="periodcentered" horiz-adv-x="188" d="M94,215q-24,0-39,15.5T40,269t15,38.5T94,323q25,0 39.5-15.5T148,269t-14.5-38.5T94,215Z" />
      <glyph unicode="&#xb8;" glyph-name="cedilla" horiz-adv-x="618" d="M275-223q-32,0-55,6t-44,17l20,42q18-9 37.5-14t40.5-5q24,0 40,11t16,32q0,37-58,37H231L289,18h55L308-55q39-6 61-26.5T391-134q0-40-33-64.5T275-223Z" />
      <glyph unicode="&#xb9;" glyph-name="uni00B9" horiz-adv-x="330" d="M61,366h88V631L78,583L50,624l126,86h34V366h84V319H61v47Z" />
      <glyph unicode="&#xba;" glyph-name="ordmasculine" horiz-adv-x="332" d="M171,750q60,0 94.5-38.5T300,613q0-65-38.5-106.5T161,465q-60,0-94.5,38T32,601q0,66 39,107.5T171,750Zm-8-236q36,0 58,27t22,72q0,42-20,65t-53,23q-37,0-59-27.5T89,601q0-41 20-64t54-23Z" />
      <glyph unicode="&#xbb;" glyph-name="guillemotright" horiz-adv-x="428" d="M95,70H14L150,253L14,436H95L219,268V238L95,70Zm176,0H190L326,253L190,436h81L395,268V238L271,70Z" />
      <glyph unicode="&#xbc;" glyph-name="onequarter" horiz-adv-x="797" d="M61,366h88V631L78,583L50,624l126,86h34V366h84V319H61v47ZM192,0L542,710h63L255,0H192ZM777,106H726V0H674V106H494v36L684,392h42V146h51V106ZM544,146H674V314L544,146Z" />
      <glyph unicode="&#xbd;" glyph-name="onehalf" horiz-adv-x="797" d="M61,366h88V631L78,583L50,624l126,86h34V366h84V319H61v47ZM192,0L542,710h63L255,0H192ZM514,40q101,80 139,138t38,102q0,30-17,47.5T626,345q-59,0-81-68l-45,21q13,44 48.5,71T633,396q52,0 85-30t33-83T714,173T587,47H761V0H514V40Z" />
      <glyph unicode="&#xbe;" glyph-name="threequarters" horiz-adv-x="797" d="M144,314q-28,0-59.5,8T36,341l16,50q41-25 96-25q38,0 61,18t23,48q0,32-22.5,48.5T145,497H116v44h28q38,0 59,18t21,49q0,25-17,40.5T163,664q-57,0-81-58L40,631q16,39 50.5,61.5T170,715q52,0 83-27.5T284,614q0-31-16.5-56T221,522q71-19 71-92q0-51-41.5-83.5T144,314ZM192,0L542,710h63L255,0H192ZM777,106H726V0H674V106H494v36L684,392h42V146h51V106ZM544,146H674V314L544,146Z" />
      <glyph unicode="&#xbf;" glyph-name="questiondown" horiz-adv-x="511" d="M311,404q-23,0-37.5,14.5T259,455q0,21 14.5,35.5T311,505q22,0 36.5-14T362,455t-14.5-36.5T311,404ZM264-212q-58,0-103.5,21t-71,59.5T64-41Q64,16 92,60t95,100q48,39 69.5,77.5T281,329l55-3q2-68-21-115.5T235,115q-38-33-58.5-57.5t-29-46T139-37q0-52 36-79.5T269-144Q395-144 439-9l58-28q-25-82-86.5-128.5T264-212Z" />
      <glyph unicode="&#xc0;" glyph-name="Agrave" horiz-adv-x="674" d="M12,0L307,710h67L657,0H579L505,190H168L91,0H12ZM194,255H480L340,615L194,255ZM304,786L179,941l78,22L371,786H304Z" />
      <glyph unicode="&#xc1;" glyph-name="Aacute" horiz-adv-x="674" d="M12,0L307,710h67L657,0H579L505,190H168L91,0H12ZM194,255H480L340,615L194,255ZM299,786L413,963l78-22L366,786H299Z" />
      <glyph unicode="&#xc2;" glyph-name="Acircumflex" horiz-adv-x="674" d="M12,0L307,710h67L657,0H579L505,190H168L91,0H12ZM194,255H480L340,615L194,255ZM496,786H424L337,903L250,786H178L304,953h66L496,786Z" />
      <glyph unicode="&#xc3;" glyph-name="Atilde" horiz-adv-x="674" d="M12,0L307,710h67L657,0H579L505,190H168L91,0H12ZM194,255H480L340,615L194,255ZM418,781q-19,0-41,9.5t-45,22T288.5,834T253,843q-21,0-36.5-15.5T194,784l-34,23q9,44 34,69t62,25q19,0 41-9.5t45-22t43.5-22T421,838q21,0 36,16t23,44l34-23q-9-45-34-69.5T418,781Z" />
      <glyph unicode="&#xc4;" glyph-name="Adieresis" horiz-adv-x="674" d="M12,0L307,710h67L657,0H579L505,190H168L91,0H12ZM194,255H480L340,615L194,255Zm58,526q-22,0-35,13.5T204,827q0,18 13,31.5T252,872t34.5-13.5T299,827q0-19-12.5-32.5T252,781Zm172,0q-23,0-36,13.5T375,827q0,18 13,31.5T424,872q21,0 33.5-13.5T470,827q0-19-12.5-32.5T424,781Z" />
      <glyph unicode="&#xc5;" glyph-name="Aring" horiz-adv-x="674" d="M12,0L307,710h67L657,0H579L505,190H168L91,0H12ZM194,255H480L340,615L194,255ZM336,781q-44,0-73.5,28T233,880t31,72.5T340,982q44,0 72.5-28T441,884q0-44-30-73.5T336,781Zm1,37q28,0 45.5,18T400,884q0,27-17,43.5T339,944q-29,0-47-18t-18-46q0-27 18-44.5T337,818Z" />
      <glyph unicode="&#xc6;" glyph-name="AE" horiz-adv-x="896" d="M12,0L307,710H847V644H522V394H838V328H522V66H862L855,0H446V190H168L91,0H12ZM194,255H446V644H351L194,255Z" />
      <glyph unicode="&#xc7;" glyph-name="Ccedilla" horiz-adv-x="648" d="M646,136Q607,66 538.5,29T382-8Q281-8 208.5,34T97,154.5T58,342q0,112 43,197T221,672t178,48q83,0 146.5-34T647,586l-60-45Q527,649 397,649q-77,0-135.5-39T170,502T137,342q0-132 64.5-205.5T382,63q142,0 205,118l59-45ZM363-223q-32,0-55,6t-44,17l20,42q18-9 37.5-14t40.5-5q24,0 40,11t16,32q0,37-58,37H319L377,18h55L396-55q39-6 61-26.5T479-134q0-40-33-64.5T363-223Z" />
      <glyph unicode="&#xc8;" glyph-name="Egrave" horiz-adv-x="542" d="M493,644H158V394H484V328H158V66H507L501,0H82V710H493V644ZM254,786L129,941l78,22L321,786H254Z" />
      <glyph unicode="&#xc9;" glyph-name="Eacute" horiz-adv-x="542" d="M493,644H158V394H484V328H158V66H507L501,0H82V710H493V644ZM250,786L364,963l78-22L317,786H250Z" />
      <glyph unicode="&#xca;" glyph-name="Ecircumflex" horiz-adv-x="542" d="M493,644H158V394H484V328H158V66H507L501,0H82V710H493V644ZM447,786H375L288,903L201,786H129L255,953h66L447,786Z" />
      <glyph unicode="&#xcb;" glyph-name="Edieresis" horiz-adv-x="542" d="M493,644H158V394H484V328H158V66H507L501,0H82V710H493V644ZM203,781q-22,0-35,13.5T155,827q0,18 13,31.5T203,872t34.5-13.5T250,827q0-19-12.5-32.5T203,781Zm172,0q-23,0-36,13.5T326,827q0,18 13,31.5T375,872q21,0 33.5-13.5T421,827q0-19-12.5-32.5T375,781Z" />
      <glyph unicode="&#xcc;" glyph-name="Igrave" horiz-adv-x="241" d="M82,0V710h77V0H82Zm6,786L-37,941l78,22L155,786H88Z" />
      <glyph unicode="&#xcd;" glyph-name="Iacute" horiz-adv-x="241" d="M82,0V710h77V0H82Zm1,786L197,963l78-22L150,786H83Z" />
      <glyph unicode="&#xce;" glyph-name="Icircumflex" horiz-adv-x="241" d="M82,0V710h77V0H82ZM280,786H208L121,903L34,786H-38L88,953h66L280,786Z" />
      <glyph unicode="&#xcf;" glyph-name="Idieresis" horiz-adv-x="241" d="M82,0V710h77V0H82ZM36,781q-22,0-35,13.5T-12,827q0,18 13,31.5T36,872t34.5-13.5T83,827q0-19-12.5-32.5T36,781Zm172,0q-23,0-36,13.5T159,827q0,18 13,31.5T208,872q21,0 33.5-13.5T254,827q0-19-12.5-32.5T208,781Z" />
      <glyph unicode="&#xd0;" glyph-name="Eth" horiz-adv-x="733" d="M82,0V710H262q412,0 412-351q0-112-46-192.5T496,43T290,0H82Zm77,68H286q153,0 231.5,73T596,354q0,145-79.5,216.5T274,642H159V68ZM5,332v56H369V332H5Z" />
      <glyph unicode="&#xd1;" glyph-name="Ntilde" horiz-adv-x="717" d="M561,710h74V0H569L156,580V0H82V710h66L561,130V710ZM440,781q-19,0-41,9.5t-45,22T310.5,834T275,843q-21,0-36.5-15.5T216,784l-34,23q9,44 34,69t62,25q19,0 41-9.5t45-22t43.5-22T443,838q21,0 36,16t23,44l34-23q-9-45-34-69.5T440,781Z" />
      <glyph unicode="&#xd2;" glyph-name="Ograve" horiz-adv-x="769" d="M380-8Q281-8 208.5,33.5T97,153T58,342t43.5,196.5T221.5,672T399,720q93,0 163.5-44T672,553.5T711,369q0-115-43-199.5T550.5,38.5T380-8Zm0,71q75,0 131.5,36.5T600,205t32,166q0,85-28.5,147.5T523,615T400,649q-77,0-136.5-38.5T170.5,503T137,342q0-134 65-206.5T380,63ZM351,786L226,941l78,22L418,786H351Z" />
      <glyph unicode="&#xd3;" glyph-name="Oacute" horiz-adv-x="769" d="M380-8Q281-8 208.5,33.5T97,153T58,342t43.5,196.5T221.5,672T399,720q93,0 163.5-44T672,553.5T711,369q0-115-43-199.5T550.5,38.5T380-8Zm0,71q75,0 131.5,36.5T600,205t32,166q0,85-28.5,147.5T523,615T400,649q-77,0-136.5-38.5T170.5,503T137,342q0-134 65-206.5T380,63ZM347,786L461,963l78-22L414,786H347Z" />
      <glyph unicode="&#xd4;" glyph-name="Ocircumflex" horiz-adv-x="769" d="M380-8Q281-8 208.5,33.5T97,153T58,342t43.5,196.5T221.5,672T399,720q93,0 163.5-44T672,553.5T711,369q0-115-43-199.5T550.5,38.5T380-8Zm0,71q75,0 131.5,36.5T600,205t32,166q0,85-28.5,147.5T523,615T400,649q-77,0-136.5-38.5T170.5,503T137,342q0-134 65-206.5T380,63ZM544,786H472L385,903L298,786H226L352,953h66L544,786Z" />
      <glyph unicode="&#xd5;" glyph-name="Otilde" horiz-adv-x="769" d="M380-8Q281-8 208.5,33.5T97,153T58,342t43.5,196.5T221.5,672T399,720q93,0 163.5-44T672,553.5T711,369q0-115-43-199.5T550.5,38.5T380-8Zm0,71q75,0 131.5,36.5T600,205t32,166q0,85-28.5,147.5T523,615T400,649q-77,0-136.5-38.5T170.5,503T137,342q0-134 65-206.5T380,63Zm86,718q-19,0-41,9.5t-45,22T336.5,834T301,843q-21,0-36.5-15.5T242,784l-34,23q9,44 34,69t62,25q19,0 41-9.5t45-22t43.5-22T469,838q21,0 36,16t23,44l34-23q-9-45-34-69.5T466,781Z" />
      <glyph unicode="&#xd6;" glyph-name="Odieresis" horiz-adv-x="769" d="M380-8Q281-8 208.5,33.5T97,153T58,342t43.5,196.5T221.5,672T399,720q93,0 163.5-44T672,553.5T711,369q0-115-43-199.5T550.5,38.5T380-8Zm0,71q75,0 131.5,36.5T600,205t32,166q0,85-28.5,147.5T523,615T400,649q-77,0-136.5-38.5T170.5,503T137,342q0-134 65-206.5T380,63ZM300,781q-22,0-35,13.5T252,827q0,18 13,31.5T300,872t34.5-13.5T347,827q0-19-12.5-32.5T300,781Zm172,0q-23,0-36,13.5T423,827q0,18 13,31.5T472,872q21,0 33.5-13.5T518,827q0-19-12.5-32.5T472,781Z" />
      <glyph unicode="&#xd7;" glyph-name="multiply" horiz-adv-x="600" d="M489,107L442,59L300,201L158,59l-47,48L252,249L111,390l47,48L300,296L442,438l47-48L348,249L489,107Z" />
      <glyph unicode="&#xd8;" glyph-name="Oslash" horiz-adv-x="769" d="M380-8Q281-8 208.5,33.5T97,153T58,342t43.5,196.5T221.5,672T399,720q93,0 163.5-44T672,553.5T711,369q0-115-43-199.5T550.5,38.5T380-8Zm0,71q75,0 131.5,36.5T600,205t32,166q0,85-28.5,147.5T523,615T400,649q-77,0-136.5-38.5T170.5,503T137,342q0-134 65-206.5T380,63ZM162-30L111,3L608,740l51-33L162-30Z" />
      <glyph unicode="&#xd9;" glyph-name="Ugrave" horiz-adv-x="722" d="M565,710h77l1-369q0-170-71.5-259.5T356-8Q216-8 147.5,67T79,303V710h79V307q0-128 47-186T356,63q111,0 161,68.5T566,342l-1,368ZM328,786L203,941l78,22L395,786H328Z" />
      <glyph unicode="&#xda;" glyph-name="Uacute" horiz-adv-x="722" d="M565,710h77l1-369q0-170-71.5-259.5T356-8Q216-8 147.5,67T79,303V710h79V307q0-128 47-186T356,63q111,0 161,68.5T566,342l-1,368ZM324,786L438,963l78-22L391,786H324Z" />
      <glyph unicode="&#xdb;" glyph-name="Ucircumflex" horiz-adv-x="722" d="M565,710h77l1-369q0-170-71.5-259.5T356-8Q216-8 147.5,67T79,303V710h79V307q0-128 47-186T356,63q111,0 161,68.5T566,342l-1,368Zm-44,76H449L362,903L275,786H203L329,953h66L521,786Z" />
      <glyph unicode="&#xdc;" glyph-name="Udieresis" horiz-adv-x="722" d="M565,710h77l1-369q0-170-71.5-259.5T356-8Q216-8 147.5,67T79,303V710h79V307q0-128 47-186T356,63q111,0 161,68.5T566,342l-1,368ZM277,781q-22,0-35,13.5T229,827q0,18 13,31.5T277,872t34.5-13.5T324,827q0-19-12.5-32.5T277,781Zm172,0q-23,0-36,13.5T400,827q0,18 13,31.5T449,872q21,0 33.5-13.5T495,827q0-19-12.5-32.5T449,781Z" />
      <glyph unicode="&#xdd;" glyph-name="Yacute" horiz-adv-x="548" d="M569,710L313,321V0H236V320L-23,710H64L278,388L488,710h81ZM238,786L352,963l78-22L305,786H238Z" />
      <glyph unicode="&#xde;" glyph-name="Thorn" horiz-adv-x="605" d="M158,710V592H312q123,0 191.5-53.5T572,384T502,225.5T285,168H158V0H82V711l76-1ZM304,528H158V233H289q111,0 159,38t48,113q0,74-47,109T304,528Z" />
      <glyph unicode="&#xdf;" glyph-name="germandbls" horiz-adv-x="640" d="M-4,436v61H96q3,117 67.5,185T337,750q77,0 124-37.5T508,616q0-39-16-66.5t-40-49T404.5,460T365,420.5T349,372q0-29 19.5-46.5t51-29T486,274t66-26.5t51-42T623,136q0-44-24-76.5t-64.5-50T442-8Q361-8 309,30.5T250,141l65,14q7-50 40.5-75.5T442,54q55,0 82,21t27,54q0,30-19.5,47T481,204t-65.5,21.5T350,251t-50.5,41T280,361q0,39 16.5,67t41,49.5T386,519t41,43t17,55t-28.5,52.5T337,690q-82,0-125.5-52T168,491V0H95V436H-4Z" />
      <glyph unicode="&#xe0;" glyph-name="agrave" horiz-adv-x="576" d="M501,497V0H427l3,117q-28-58-75-91.5T248-8Q185-8 142,21.5t-66,82T53,225q0,83 30,146.5t84,99T292,506q50,0 88-23t56-59l10,73h55ZM294,440q-75,0-120-57T129,231q0-81 34.5-126.5T258,59q49,0 88,29t61,80t22,117q0,72-36,113.5T294,440ZM276,573L151,728l78,22L343,573H276Z" />
      <glyph unicode="&#xe1;" glyph-name="aacute" horiz-adv-x="576" d="M501,497V0H427l3,117q-28-58-75-91.5T248-8Q185-8 142,21.5t-66,82T53,225q0,83 30,146.5t84,99T292,506q50,0 88-23t56-59l10,73h55ZM294,440q-75,0-120-57T129,231q0-81 34.5-126.5T258,59q49,0 88,29t61,80t22,117q0,72-36,113.5T294,440ZM271,573L385,750l78-22L338,573H271Z" />
      <glyph unicode="&#xe2;" glyph-name="acircumflex" horiz-adv-x="576" d="M501,497V0H427l3,117q-28-58-75-91.5T248-8Q185-8 142,21.5t-66,82T53,225q0,83 30,146.5t84,99T292,506q50,0 88-23t56-59l10,73h55ZM294,440q-75,0-120-57T129,231q0-81 34.5-126.5T258,59q49,0 88,29t61,80t22,117q0,72-36,113.5T294,440ZM468,573H396L309,690L222,573H150L276,740h66L468,573Z" />
      <glyph unicode="&#xe3;" glyph-name="atilde" horiz-adv-x="576" d="M501,497V0H427l3,117q-28-58-75-91.5T248-8Q185-8 142,21.5t-66,82T53,225q0,83 30,146.5t84,99T292,506q50,0 88-23t56-59l10,73h55ZM294,440q-75,0-120-57T129,231q0-81 34.5-126.5T258,59q49,0 88,29t61,80t22,117q0,72-36,113.5T294,440Zm96,128q-19,0-41,9.5t-45,22t-43.5,22T225,631q-21,0-36.5-16T166,571l-34,23q9,44 34,69t62,25q19,0 41-9.5t45-22t43.5-22T393,625q21,0 36,16t23,44l34-23q-9-44-34-69t-62-25Z" />
      <glyph unicode="&#xe4;" glyph-name="adieresis" horiz-adv-x="576" d="M501,497V0H427l3,117q-28-58-75-91.5T248-8Q185-8 142,21.5t-66,82T53,225q0,83 30,146.5t84,99T292,506q50,0 88-23t56-59l10,73h55ZM294,440q-75,0-120-57T129,231q0-81 34.5-126.5T258,59q49,0 88,29t61,80t22,117q0,72-36,113.5T294,440ZM224,568q-22,0-35,13.5T176,614q0,18 13,31.5T224,659t34.5-13.5T271,614q0-19-12.5-32.5T224,568Zm172,0q-23,0-36,13.5T347,614q0,18 13,31.5T396,659q21,0 33.5-13.5T442,614q0-19-12.5-32.5T396,568Z" />
      <glyph unicode="&#xe5;" glyph-name="aring" horiz-adv-x="576" d="M501,497V0H427l3,117q-28-58-75-91.5T248-8Q185-8 142,21.5t-66,82T53,225q0,83 30,146.5t84,99T292,506q50,0 88-23t56-59l10,73h55ZM294,440q-75,0-120-57T129,231q0-81 34.5-126.5T258,59q49,0 88,29t61,80t22,117q0,72-36,113.5T294,440Zm14,128q-44,0-73.5,28.5T205,667q0,43 31,72.5T312,769q44,0 72.5-27.5T413,671q0-44-30-73.5T308,568Zm1,38q28,0 45.5,18T372,671q0,27-17,44t-44,17q-29,0-47-18.5T246,667q0-27 18-44t45-17Z" />
      <glyph unicode="&#xe6;" glyph-name="ae" horiz-adv-x="864" d="M224-8q-52,0-92.5,18.5T68,61T45,135q0,68 50.5,107.5T240,282H384v24q0,137-123,137q-57,0-92-28.5T123,334L57,346q8,44 34,80.5t69,58T262,506q136,0 174-110q28,52 77.5,81T617,506q103,0 158.5-71T816,223H460q2-79 47-121.5T632,59q41,0 77.5,17.5T772,131l47-42Q752-8 628-8Q474-8 420,114q-24-56-76-89T224-8ZM619,447q-46,0-80-22.5t-54.5-60T461,282H751q4,87-34,126t-98,39ZM232,53q69,0 110.5,45.5T384,218v4H240q-60,0-90-22.5T120,138q0-38 30.5-61.5T232,53Z" />
      <glyph unicode="&#xe7;" glyph-name="ccedilla" horiz-adv-x="487" d="M286-8Q177-8 115,57.5T53,240q0,79 31,139t86,93.5T298,506q120,0 176-96l-56-42q-40,71-122,71q-75,0-120.5-54.5T130,240q0-88 41-134T289,60q41,0 75,17t56,54l54-42Q414-8 286-8ZM256-223q-32,0-55,6t-44,17l20,42q18-9 37.5-14t40.5-5q24,0 40,11t16,32q0,37-58,37H212L270,18h55L289-55q39-6 61-26.5T372-134q0-40-33-64.5T256-223Z" />
      <glyph unicode="&#xe8;" glyph-name="egrave" horiz-adv-x="535" d="M299-8Q184-8 118.5,58T53,242q0,77 31,137t84.5,93.5T290,506q102,0 157.5-71T487,223H128q3-80 48.5-122T304,59q40,0 77,17.5T444,131l46-42Q423-8 299-8Zm-8,455q-46,0-80.5-22T155,365.5T129,282H423q4,87-34,126t-98,39ZM255,573L130,728l78,22L322,573H255Z" />
      <glyph unicode="&#xe9;" glyph-name="eacute" horiz-adv-x="535" d="M299-8Q184-8 118.5,58T53,242q0,77 31,137t84.5,93.5T290,506q102,0 157.5-71T487,223H128q3-80 48.5-122T304,59q40,0 77,17.5T444,131l46-42Q423-8 299-8Zm-8,455q-46,0-80.5-22T155,365.5T129,282H423q4,87-34,126t-98,39ZM251,573L365,750l78-22L318,573H251Z" />
      <glyph unicode="&#xea;" glyph-name="ecircumflex" horiz-adv-x="535" d="M299-8Q184-8 118.5,58T53,242q0,77 31,137t84.5,93.5T290,506q102,0 157.5-71T487,223H128q3-80 48.5-122T304,59q40,0 77,17.5T444,131l46-42Q423-8 299-8Zm-8,455q-46,0-80.5-22T155,365.5T129,282H423q4,87-34,126t-98,39ZM448,573H376L289,690L202,573H130L256,740h66L448,573Z" />
      <glyph unicode="&#xeb;" glyph-name="edieresis" horiz-adv-x="535" d="M299-8Q184-8 118.5,58T53,242q0,77 31,137t84.5,93.5T290,506q102,0 157.5-71T487,223H128q3-80 48.5-122T304,59q40,0 77,17.5T444,131l46-42Q423-8 299-8Zm-8,455q-46,0-80.5-22T155,365.5T129,282H423q4,87-34,126t-98,39ZM204,568q-22,0-35,13.5T156,614q0,18 13,31.5T204,659t34.5-13.5T251,614q0-19-12.5-32.5T204,568Zm172,0q-23,0-36,13.5T327,614q0,18 13,31.5T376,659q21,0 33.5-13.5T422,614q0-19-12.5-32.5T376,568Z" />
      <glyph unicode="&#xec;" glyph-name="igrave" horiz-adv-x="222" d="M147,497V0H75V497h72ZM78,573L-47,728l78,22L145,573H78Z" />
      <glyph unicode="&#xed;" glyph-name="iacute" horiz-adv-x="222" d="M147,497V0H75V497h72ZM74,573L188,750l78-22L141,573H74Z" />
      <glyph unicode="&#xee;" glyph-name="icircumflex" horiz-adv-x="222" d="M147,497V0H75V497h72Zm124,76H199L112,690L25,573H-47L79,740h66L271,573Z" />
      <glyph unicode="&#xef;" glyph-name="idieresis" horiz-adv-x="222" d="M147,497V0H75V497h72ZM27,568Q5,568-8,581.5T-21,614q0,18 13,31.5T27,659t34.5-13.5T74,614q0-19-12.5-32.5T27,568Zm172,0q-23,0-36,13.5T150,614q0,18 13,31.5T199,659q21,0 33.5-13.5T245,614q0-19-12.5-32.5T199,568Z" />
      <glyph unicode="&#xf0;" glyph-name="eth" horiz-adv-x="553" d="M269-8Q169-8 110.5,52.5T52,218q0,73 30.5,129.5T164,437t114,33q95,0 144-70q-22,117-99,195L155,528l-17,46l144,57q-53,39-124,64l24,57q101-36 170-93l115,45l16-45l-93-37Q504,498 504,281q0-83-28.5-148.5T394,29.5T269-8Zm4,67q44,0 78.5,23.5t55,64.5T427,241q0,78-37.5,121T287,405q-45,0-81-23t-57.5-65.5T127,218q0-73 36.5-116T273,59Z" />
      <glyph unicode="&#xf1;" glyph-name="ntilde" horiz-adv-x="571" d="M75,0V497h74l-6-170q25,87 77.5,133T344,506q76,0 117-53t41-153L500,0H427l2,291q0,73-24.5,110T326,438q-51,0-91.5-40.5T170.5,261T147,0H75ZM367,568q-19,0-41,9.5t-45,22t-43.5,22T202,631q-21,0-36.5-16T143,571l-34,23q9,44 34,69t62,25q19,0 41-9.5t45-22t43.5-22T370,625q21,0 36,16t23,44l34-23q-9-44-34-69t-62-25Z" />
      <glyph unicode="&#xf2;" glyph-name="ograve" horiz-adv-x="567" d="M292,506q103,0 162.5-66.5T514,259q0-76-29.5-136.5T402,27T278-8Q173-8 113,58.5T53,240q0,76 29.5,136T166,471t126,35ZM278,59q72,0 116,55t44,145q0,87-38.5,134T293,440q-50,0-86.5-25.5t-57-70.5T129,240q0-88 39.5-134.5T278,59ZM251,573L126,728l78,22L318,573H251Z" />
      <glyph unicode="&#xf3;" glyph-name="oacute" horiz-adv-x="567" d="M292,506q103,0 162.5-66.5T514,259q0-76-29.5-136.5T402,27T278-8Q173-8 113,58.5T53,240q0,76 29.5,136T166,471t126,35ZM278,59q72,0 116,55t44,145q0,87-38.5,134T293,440q-50,0-86.5-25.5t-57-70.5T129,240q0-88 39.5-134.5T278,59ZM246,573L360,750l78-22L313,573H246Z" />
      <glyph unicode="&#xf4;" glyph-name="ocircumflex" horiz-adv-x="567" d="M292,506q103,0 162.5-66.5T514,259q0-76-29.5-136.5T402,27T278-8Q173-8 113,58.5T53,240q0,76 29.5,136T166,471t126,35ZM278,59q72,0 116,55t44,145q0,87-38.5,134T293,440q-50,0-86.5-25.5t-57-70.5T129,240q0-88 39.5-134.5T278,59ZM443,573H371L284,690L197,573H125L251,740h66L443,573Z" />
      <glyph unicode="&#xf5;" glyph-name="otilde" horiz-adv-x="567" d="M292,506q103,0 162.5-66.5T514,259q0-76-29.5-136.5T402,27T278-8Q173-8 113,58.5T53,240q0,76 29.5,136T166,471t126,35ZM278,59q72,0 116,55t44,145q0,87-38.5,134T293,440q-50,0-86.5-25.5t-57-70.5T129,240q0-88 39.5-134.5T278,59Zm87,509q-19,0-41,9.5t-45,22t-43.5,22T200,631q-21,0-36.5-16T141,571l-34,23q9,44 34,69t62,25q19,0 41-9.5t45-22t43.5-22T368,625q21,0 36,16t23,44l34-23q-9-44-34-69t-62-25Z" />
      <glyph unicode="&#xf6;" glyph-name="odieresis" horiz-adv-x="567" d="M292,506q103,0 162.5-66.5T514,259q0-76-29.5-136.5T402,27T278-8Q173-8 113,58.5T53,240q0,76 29.5,136T166,471t126,35ZM278,59q72,0 116,55t44,145q0,87-38.5,134T293,440q-50,0-86.5-25.5t-57-70.5T129,240q0-88 39.5-134.5T278,59ZM199,568q-22,0-35,13.5T151,614q0,18 13,31.5T199,659t34.5-13.5T246,614q0-19-12.5-32.5T199,568Zm172,0q-23,0-36,13.5T322,614q0,18 13,31.5T371,659q21,0 33.5-13.5T417,614q0-19-12.5-32.5T371,568Z" />
      <glyph unicode="&#xf7;" glyph-name="divide" horiz-adv-x="600" d="M300,426q-19,0-30.5,12T258,467t11.5,28.5T300,507q20,0 31.5-11.5T343,467t-11.5-29T300,426ZM544,281V218H56v63H544ZM300-8Q281-8 269.5,4T258,33t11.5,28.5T300,73q20,0 31.5-11.5T343,33T331.5,4T300-8Z" />
      <glyph unicode="&#xf8;" glyph-name="oslash" horiz-adv-x="567" d="M292,506q103,0 162.5-66.5T514,259q0-76-29.5-136.5T402,27T278-8Q173-8 113,58.5T53,240q0,76 29.5,136T166,471t126,35ZM278,59q72,0 116,55t44,145q0,87-38.5,134T293,440q-50,0-86.5-25.5t-57-70.5T129,240q0-88 39.5-134.5T278,59ZM127-34L80-5l46,68l28,37L375,428l20,36l46,68l46-30l-46-68l-27-36L192,69L173,34L127-34Z" />
      <glyph unicode="&#xf9;" glyph-name="ugrave" horiz-adv-x="561" d="M224-8Q149-8 109,44T69,188l3,309h73l-3-300q-1-65 23-101t76-36q51,0 90,41t61.5,136.5T416,497h70V0H412l6,163Q390,75 339,33.5T224-8Zm23,581L122,728l78,22L314,573H247Z" />
      <glyph unicode="&#xfa;" glyph-name="uacute" horiz-adv-x="561" d="M224-8Q149-8 109,44T69,188l3,309h73l-3-300q-1-65 23-101t76-36q51,0 90,41t61.5,136.5T416,497h70V0H412l6,163Q390,75 339,33.5T224-8Zm19,581L357,750l78-22L310,573H243Z" />
      <glyph unicode="&#xfb;" glyph-name="ucircumflex" horiz-adv-x="561" d="M224-8Q149-8 109,44T69,188l3,309h73l-3-300q-1-65 23-101t76-36q51,0 90,41t61.5,136.5T416,497h70V0H412l6,163Q390,75 339,33.5T224-8ZM440,573H368L281,690L194,573H122L248,740h66L440,573Z" />
      <glyph unicode="&#xfc;" glyph-name="udieresis" horiz-adv-x="561" d="M224-8Q149-8 109,44T69,188l3,309h73l-3-300q-1-65 23-101t76-36q51,0 90,41t61.5,136.5T416,497h70V0H412l6,163Q390,75 339,33.5T224-8ZM196,568q-22,0-35,13.5T148,614q0,18 13,31.5T196,659t34.5-13.5T243,614q0-19-12.5-32.5T196,568Zm172,0q-23,0-36,13.5T319,614q0,18 13,31.5T368,659q21,0 33.5-13.5T414,614q0-19-12.5-32.5T368,568Z" />
      <glyph unicode="&#xfd;" glyph-name="yacute" horiz-adv-x="566" d="M241-210q-43,0-87.5,8.5T78-175l20,65q32-16 70-24.5t75-8.5q96,0 136.5,47T422,56l3,122Q397,87 345,44T225,1Q149,1 109,53T69,197l3,300h73l-3-291q-1-65 23-100.5T242,70t93,40t63,133.5T421,497h70V67q0-277-250-277Zm5,783L360,750l78-22L313,573H246Z" />
      <glyph unicode="&#xfe;" glyph-name="thorn" horiz-adv-x="576" d="M75-200V740h73V498l-2-118q27,58 74,92t108,34q63,0 106.5-29.5t66-82T523,274q0-83-30-146.5T409,28T284-8q-46,0-82,20T147,65l1-65V-200H75ZM282,59q75,0 120,57.5T447,269q0,80-34.5,125.5T318,440q-49,0-87.5-29t-61-80T147,215q0-73 36.5-114.5T282,59Z" />
      <glyph unicode="&#xff;" glyph-name="ydieresis" horiz-adv-x="566" d="M241-210q-43,0-87.5,8.5T78-175l20,65q32-16 70-24.5t75-8.5q96,0 136.5,47T422,56l3,122Q397,87 345,44T225,1Q149,1 109,53T69,197l3,300h73l-3-291q-1-65 23-100.5T242,70t93,40t63,133.5T421,497h70V67q0-277-250-277ZM199,568q-22,0-35,13.5T151,614q0,18 13,31.5T199,659t34.5-13.5T246,614q0-19-12.5-32.5T199,568Zm172,0q-23,0-36,13.5T322,614q0,18 13,31.5T371,659q21,0 33.5-13.5T417,614q0-19-12.5-32.5T371,568Z" />
      <glyph unicode="&#x2013;" glyph-name="endash" horiz-adv-x="500" d="M20,226v62H480V226H20Z" />
      <glyph unicode="&#x2014;" glyph-name="emdash" horiz-adv-x="1000" d="M20,226v62H980V226H20Z" />
      <glyph unicode="&#x2018;" glyph-name="quoteleft" horiz-adv-x="188" d="M142,750q-17-45-17-77q0-29 8.5-47t8.5-41q0-22-14-35.5T92,536q-50,0-50,58q0,34 18,78.5T105,750h37Z" />
      <glyph unicode="&#x2019;" glyph-name="quoteright" horiz-adv-x="188" d="M43,536q18,45 18,77q0,28-8.5,46.5T44,700q0,23 14,36.5T94,750q24,0 37-15.5T144,691q0-34-18.5-78T81,536H43Z" />
      <glyph unicode="&#x201a;" glyph-name="quotesinglbase" horiz-adv-x="188" d="M43-114Q61-69 61-37Q61-9 52.5,9.5T44,51q0,22 14.5,35.5T95,100q51,0 51-59q0-33-18.5-77.5T82-114H43Z" />
      <glyph unicode="&#x201c;" glyph-name="quotedblleft" horiz-adv-x="326" d="M282,750q-17-45-17-77q0-29 8.5-47t8.5-41q0-22-14-35.5T232,536q-50,0-50,58q0,34 18,78.5T245,750h37Zm-139,0q-17-45-17-77q0-29 8.5-47t8.5-41q0-22-14-35.5T93,536q-50,0-50,58q0,34 18,78.5T106,750h37Z" />
      <glyph unicode="&#x201d;" glyph-name="quotedblright" horiz-adv-x="326" d="M182,536q18,45 18,77q0,28-8.5,46.5T183,700q0,23 14,36.5T233,750q24,0 37-15.5T283,691q0-34-18.5-78T220,536H182ZM43,536q18,45 18,77q0,28-8.5,46.5T44,700q0,23 14,36.5T94,750q24,0 37-15.5T144,691q0-34-18.5-78T81,536H43Z" />
      <glyph unicode="&#x201e;" glyph-name="quotedblbase" horiz-adv-x="321" d="M176-114q18,45 18,77q0,28-8.5,46.5T177,51q0,22 14.5,35.5T228,100q51,0 51-59q0-33-18.5-77.5T215-114H176ZM43-114Q61-69 61-37Q61-9 52.5,9.5T44,51q0,22 14.5,35.5T95,100q51,0 51-59q0-33-18.5-77.5T82-114H43Z" />
      <glyph unicode="&#x2022;" glyph-name="bullet" horiz-adv-x="452" d="M225,85q-48,0-86.5,22.5t-61,61T55,256t22.5,88t61,61T225,427t87-22t61.5-61T396,256t-22.5-87.5t-61.5-61T225,85Z" />
      <glyph unicode="&#x2039;" glyph-name="guilsinglleft" horiz-adv-x="252" d="M158,70L33,238v30L158,436h80L103,253L238,70H158Z" />
      <glyph unicode="&#x203a;" glyph-name="guilsinglright" horiz-adv-x="252" d="M95,70H14L150,253L14,436H95L219,268V238L95,70Z" />
    </font>
</defs>
</svg>
