<?xml version="1.0" standalone="no"?>
<!DOCTYPE svg PUBLIC "-//W3C//DTD SVG 1.1//EN" "http://www.w3.org/Graphics/SVG/1.1/DTD/svg11.dtd">
<svg xmlns="http://www.w3.org/2000/svg">
  <defs>
    <font id="Almarai" horiz-adv-x="612">
      <font-face font-family="Almarai" units-per-em="1000" panose-1="0 0 0 0 0 0 0 0 0 0" ascent="905" descent="-211" alphabetic="0" />
      <glyph unicode=" " glyph-name="space" horiz-adv-x="184" />
      <glyph unicode="!" glyph-name="exclam" horiz-adv-x="199" d="M141,716V207L98,172H56V716h85ZM100,93q21,0 35-14t14-35q0-20-14-34.5T100-5Q80-5 65.5,9.5T51,44q0,21 14.5,35T100,93Z" />
      <glyph unicode="&quot;" glyph-name="quotedbl" horiz-adv-x="340" d="M140,716V517l-35-29H69V716h71Zm131,0V517l-36-29H199V716h72Z" />
      <glyph unicode="#" glyph-name="numbersign" horiz-adv-x="609" d="M502,672L464,466H589V403H452L423,264H557V201H412L374,0H295l39,201H222L184,0H108l37,201H21v63H156l29,139H54v63H196l38,206h78L274,466H388l39,206h75ZM375,403H262L233,264H346l29,139Z" />
      <glyph unicode="$" glyph-name="dollar" horiz-adv-x="580" d="M322,716V634q64-8 124-35V532q-64,28-124,33V371q87-31 124-64q41-39 41-102q0-64-44-104Q400,62 322,51V-55H258V47q-70,0-131,17L92,108v32q65-25 149-25q10,0 17,1V316q-86,29-121,64Q98,418 98,484q0,61 44,101q42,39 116,47v84h64ZM258,393V563q-41-7-61-29q-18-20-18-51q0-34 17-54t62-36Zm64-101V121q47,7 68,34q16,20 16,50q0,31-18,51q-19,20-66,36Z" />
      <glyph unicode="%" glyph-name="percent" horiz-adv-x="741" d="M167,684q70,0 110-59q40-61 40-158q0-99-39-154q-40-53-110-53q-74,0-113,56Q18,370 18,466q0,98 38,155q38,63 111,63Zm442-11L212,0H140L536,673h73ZM167,631q-42,0-63-35Q79,555 79,466q0-65 14-101q21-52 74-52q50,0 73,49q17,39 17,104q0,91-29,133q-22,32-61,32ZM572,415q70,0 110-59q40-61 40-158q0-98-39-154Q643-9 573-9Q499-9 460,47q-37,54-37,150q0,99 38,156q38,62 111,62Zm0-53q-42,0-63-35q-25-41-25-130q0-65 15-101q20-52 73-52q50,0 73,49q17,39 17,104q0,91-29,133q-22,32-61,32Z" />
      <glyph unicode="&amp;" glyph-name="ampersand" horiz-adv-x="655" d="M492,330h78q-1-71-64-171L634,0H528L457,88q-48-47-75-64Q327-11 253-11q-97,0-148,60Q62,101 62,184q0,128 148,209q-46,58-62.5,91.5T131,553q0,70 55,115q47,40 113,40q74,0 120-49q39-43 39-105q0-53-29.5-90.5T323,383L454,223q2,3 8,15q30,57 30,92ZM280,435l13,8q88,55 88,112q0,36-24.5,60T296,639q-39,0-62-23t-23-62q0-27 11-46t58-73Zm-27-93q-39-14-74-62.5T144,191q0-54 33.5-89.5T262,66q71,0 149,80L253,342Z" />
      <glyph unicode="&apos;" glyph-name="quotesingle" horiz-adv-x="209" d="M140,716V517l-35-29H69V716h71Z" />
      <glyph unicode="(" glyph-name="parenleft" horiz-adv-x="313" d="M241,716l27-21q-61-85-92-197q-26-93-26-196q0-111 34-215Q211-1 268-85l-27-21H213Q143-26 108,82Q74,185 74,301q0,117 34,222q35,110 105,193h28Z" />
      <glyph unicode=")" glyph-name="parenright" horiz-adv-x="313" d="M73,716h28q70-83 105-193q34-105 34-222q0-116-34-219Q171-26 101-106H73L46-85Q102-1 130,87q33,104 33,215q0,103-25,196Q107,610 46,695l27,21Z" />
      <glyph unicode="*" glyph-name="asterisk" horiz-adv-x="382" d="M157,716h61l-4-111l104,38l18-58L230,555l69-86l-50-36l-61,92l-62-92L77,469l68,86L39,585l19,58l104-38l-5,111Z" />
      <glyph unicode="+" glyph-name="plus" horiz-adv-x="517" d="M224,14V191H46v70H224V440h69V261H471V191H293V14H224Z" />
      <glyph unicode="," glyph-name="comma" horiz-adv-x="210" d="M103-4q0,0-1-1h-1Q81-5 67.5,8.5T53,42q0,15 7,28q13,24 42,24q25,0 41-20t16-52q0-73-66-149H74L50-108Q71-81 87-47Q98-26 103-4Z" />
      <glyph unicode="-" glyph-name="hyphen" horiz-adv-x="321" d="M284,263V191H37v72H284Z" />
      <glyph unicode="." glyph-name="period" horiz-adv-x="199" d="M100,93q21,0 35-14t14-35q0-20-14-34.5T100-5Q80-5 65.5,9.5T51,44q0,21 14.5,35T100,93Z" />
      <glyph unicode="/" glyph-name="slash" horiz-adv-x="350" d="M340,673L90,0H9L260,673h80Z" />
      <glyph unicode="0" glyph-name="zero" horiz-adv-x="528" d="M264-13Q131-13 74,126Q37,215 37,347q0,166 58,274q57,108 169,108q109,0 167-105q61-107 61-274q0-157-50-252Q383-13 264-13ZM405,348q0,305-141,305q-140,0-140-303q0-127 23-191q33-95 117-95q141,0 141,284Z" />
      <glyph unicode="1" glyph-name="one" horiz-adv-x="355" d="M286,716V38L243,0H201V614L77,510L32,566L210,716h76Z" />
      <glyph unicode="2" glyph-name="two" horiz-adv-x="482" d="M66,664q94,61 190,61q94,0 141-55q41-48 41-128q0-63-32-123q-29-51-102-138L163,121L122,71H450V43L415,0H32V72l76,91L262,342q46,55 65,92q26,50 26,97q0,52-31,84t-83,32q-61,0-127-47L66,664Z" />
      <glyph unicode="3" glyph-name="three" horiz-adv-x="475" d="M90,705q65,20 106,20q100,0 160-52q57-50 57-134q0-141-125-169q72-12 113.5-61T443,188q0-104-81-158Q300-11 207-11Q147-11 87,6L55,46V77q69-15 121-15q181,0 181,122q0,66-55,111q-31,25-65.5,34.5T135,340v65h85q48,0 78.5,31.5T329,518q0,59-39,93.5T184,646q-33,0-94-13v72Z" />
      <glyph unicode="4" glyph-name="four" horiz-adv-x="530" d="M401,716V251H507V174H401V38L358,0H316V174H23v75L309,716h92ZM316,604L107,251H316V604Z" />
      <glyph unicode="5" glyph-name="five" horiz-adv-x="474" d="M386,716V644H153L141,423q46,7 73,7q111,0 171-68q52-59 52-157q0-110-77-166Q299-6 200-6Q140-6 80,12L48,51V82q69-14 121-14q93,0 136,30q48,33 48,109q0,152-179,152q-42,0-122-9L72,716H386Z" />
      <glyph unicode="6" glyph-name="six" horiz-adv-x="513" d="M132,358q64,83 151,83q101,0 154-73q42-59 42-149q0-110-63-174Q358-12 264-12Q51-12 51,268v38q0,182 72,296q77,123 222,123q18,0 44-2l34-42V650q-40,6-66,6q-193,0-225-298ZM393,223q0,63-33.5,104.5T274,369q-56,0-103-47q-41-41-41-89q0-74 38-122q37-46 98-46q56,0 91.5,43.5T393,223Z" />
      <glyph unicode="7" glyph-name="seven" horiz-adv-x="495" d="M465,716V653L227,47L169,0H117L377,644H30v72H465Z" />
      <glyph unicode="8" glyph-name="eight" horiz-adv-x="531" d="M205,365Q76,451 76,564q0,86 62,129q49,35 126,35q91,0 142-47q49-44 49-121q0-59-26.5-99T328,368q161-76 161-202q0-92-80-141Q348-13 264-13Q164-13 102,36Q41,84 41,168q0,125 164,197Zm63,34q102,64 102,165q0,48-28,76.5T266,669q-53,0-80-32q-25-28-25-74q0-47 24-86q26-44 83-78Zm-1-59q-75-36-105.5-72.5T131,176q0-56 36-87.5T266,57t99.5,32T402,175q0,52-31,90T267,340Z" />
      <glyph unicode="9" glyph-name="nine" horiz-adv-x="512" d="M385,355q-58-82-151-82q-101,0-154,73Q37,405 37,496q0,110 64,173q57,58 151,58q139,0 188-126q31-76 31-217Q471-9 192-9q-25,0-65,4L95,36V66q40-6 68-6q120,0 169,65.5T385,355ZM251,650q-65,0-101-55q-27-43-27-103q0-64 34-105.5T243,345q60,0 97,39t37,101q0,165-126,165Z" />
      <glyph unicode=":" glyph-name="colon" horiz-adv-x="200" d="M100,280q21,0 35-14t14-35q0-20-14-34.5T100,182q-20,0-34.5,14.5T51,231q0,21 14.5,35T100,280Zm1-187q20,0 34.5-14T150,44q0-20-14.5-34.5T101-5Q80-5 65.5,9.5T51,44q0,21 14.5,35T101,93Z" />
      <glyph unicode=";" glyph-name="semicolon" horiz-adv-x="210" d="M103-4q0,0-1-1h-1Q81-5 67.5,8.5T53,42q0,15 7,28q13,24 42,24q25,0 41-20t16-52q0-73-66-149H74L50-108Q71-81 87-47Q98-26 103-4Zm-2,186q-20,0-34.5,14.5T52,232q0,20 14.5,34.5T102,281q20,0 34-14.5T150,232q0-21-14-35.5T101,182Z" />
      <glyph unicode="&lt;" glyph-name="less" horiz-adv-x="508" d="M466,573V498L132,332L466,186V110L41,305v47L466,573Z" />
      <glyph unicode="=" glyph-name="equal" horiz-adv-x="517" d="M471,286H46v68H471V286Zm0-189H46v69H471V97Z" />
      <glyph unicode="&gt;" glyph-name="greater" horiz-adv-x="508" d="M41,573L466,352V305L41,110v76L375,332L41,498v75Z" />
      <glyph unicode="?" glyph-name="question" horiz-adv-x="546" d="M324,195H236v54q0,49 28,85q17,23 74,75q74,66 74,130q0,50-34.5,80.5T287,650q-67,0-97.5-36.5T159,498H76q0,229 215,229q103,0 160-58q49-50 49-131q0-49-21-87t-77-88q-50-45-64-67t-14-55V195Zm-42-85q20,0 34.5-14T331,61q0-20-14.5-34.5T282,12q-21,0-35,14.5T233,61q0,21 14,35t35,14Z" />
      <glyph unicode="@" glyph-name="at" horiz-adv-x="803" d="M465-48q-44-8-86-8Q211-56 121,62Q46,159 46,309q0,177 124,287q98,87 233,87q170,0 269-104q88-93 88-240q0-101-44-168q-46-70-127-70q-56,0-85,34q-43-33-103-33q-91,0-139,61q-40,51-40,132q0,101 59,157q48,44 123,47q46,0 89-24l46,37h25V195q0-22 38-22q39,0 63,42t24,111q0,142-87,220q-75,68-199,68q-115,0-197-81q-89-88-89-222q0-152 88-234Q283,4 414,4q37,0 77,6V-16L465-48Zm27,470q-38,14-71,14q-57,0-92-38T294,298q0-63 32-99t88-36q45,0 78,26V422Z" />
      <glyph unicode="A" glyph-name="A" horiz-adv-x="655" d="M466,215H190L114,0H17L272,716H390L641,0H540L466,215Zm-26,77L330,617L213,292H440Z" />
      <glyph unicode="B" glyph-name="B" horiz-adv-x="655" d="M78,0V716H369q100,0 155-50q57-52 57-132q0-110-100-156q131-50 131-174q0-86-55-144Q500,0 400,0H78Zm91,408H346q70,0 104,25q39,29 39,88t-39,89q-34,25-104,25H169V408Zm0-327H392q61,0 95,32.5T521,204t-34,90.5T392,327H169V81Z" />
      <glyph unicode="C" glyph-name="C" horiz-adv-x="709" d="M650,497H556q-15,72-52,105q-48,44-140,44q-112,0-173-88q-53-77-53-202q0-141 71-219q63-67 162-67q121,0 167,89q21,41 33,109h94Q632-11 372-11Q232-11 151,71Q47,176 47,353q0,172 100,283q82,91 226,91q234,0 277-230Z" />
      <glyph unicode="D" glyph-name="D" horiz-adv-x="709" d="M87,0V716H363q145,0 223-108q68-95 68-250q0-178-88-274Q489,0 363,0H87Zm91,81H347q216,0 216,277T347,635H178V81Z" />
      <glyph unicode="E" glyph-name="E" horiz-adv-x="655" d="M179,326V81H601V0H88V716H584V635H179V407H569V326H179Z" />
      <glyph unicode="F" glyph-name="F" horiz-adv-x="600" d="M179,326V0H88V716H568V635H179V407H521V326H179Z" />
      <glyph unicode="G" glyph-name="G" horiz-adv-x="764" d="M696,377V0H638L615,101Q513-11 371-11Q215-11 123,104Q43,205 43,356q0,197 129,303q84,68 215,68q155,0 238-94q45-51 61-132H593q-15,68-70,106.5T385,646q-121,0-191-88q-60-77-60-197q0-140 76-221q66-70 181-70q104,0 168,68q56,60 56,146v12H397v81H696Z" />
      <glyph unicode="H" glyph-name="H" horiz-adv-x="709" d="M541,326H172V0H81V716h91V407H541V716h91V0H541V326Z" />
      <glyph unicode="I" glyph-name="I" horiz-adv-x="273" d="M191,716V0H98V716h93Z" />
      <glyph unicode="J" glyph-name="J" horiz-adv-x="491" d="M327,716h91V190q0-91-53-145Q309-11 214-11Q118-11 64,47Q17,97 17,178v52h93V195Q110,66 217,66q59,0 88,44q22,34 22,113V716Z" />
      <glyph unicode="K" glyph-name="K" horiz-adv-x="655" d="M169,251V0H78V716h91V354L526,716H644L351,424L646,0H538L286,367L169,251Z" />
      <glyph unicode="L" glyph-name="L" horiz-adv-x="546" d="M170,716V81H523V0H79V716h91Z" />
      <glyph unicode="M" glyph-name="M" horiz-adv-x="818" d="M460,0H364L160,600V0H74V716H200L413,93L621,716H748V0H661V600L460,0Z" />
      <glyph unicode="N" glyph-name="N" horiz-adv-x="709" d="M634,716V0H532L161,581V0H75V716h99L548,131V716h86Z" />
      <glyph unicode="O" glyph-name="O" horiz-adv-x="764" d="M383,727q166,0 262-115q83-100 83-254q0-177-107-280Q527-11 383-11Q216-11 120,104Q37,204 37,358q0,177 108,280q93,89 238,89Zm-1-81q-122,0-193-89q-61-78-61-199q0-139 79-219q69-69 175-69q123,0 194,89q61,78 61,199q0,139-79,219q-69,69-176,69Z" />
      <glyph unicode="P" glyph-name="P" horiz-adv-x="655" d="M180,303V0H89V716H385q113,0 170-62q50-54 50-148q0-95-61-151q-56-52-139-52H180Zm0,81H371q65,0 102,33t37,93q0,59-37,92T371,635H180V384Z" />
      <glyph unicode="Q" glyph-name="Q" horiz-adv-x="764" d="M563,35Q488-10 382-11Q216-11 120,104Q37,204 37,358q0,177 108,280q93,89 238,89q166,0 262-115q83-100 83-254q0-167-101-274l-9-9l89-88L660-57L563,35Zm-7,101l3,3q78,78 78,219q0,139-79,219q-69,69-176,69q-122,0-193-89q-61-78-61-199q0-139 79-219q69-69 175-69q63,0 116,26h1l-91,86l52,49l96-95Z" />
      <glyph unicode="R" glyph-name="R" horiz-adv-x="709" d="M182,308V0H91V716H420q114,0 170-56q49-49 49-136q0-61-26.5-101T525,353q49-19 72-51q23-33 26-135q2-75 9.5-100.5T666,23V0H556q-22,46-22,97l1,112q0,11-9,34t-17,33q-27,32-92,32H182Zm0,81H403q141,0 141,123T403,635H182V389Z" />
      <glyph unicode="S" glyph-name="S" horiz-adv-x="655" d="M585,510H499q-3,140-179,140q-72,0-116-32.5T160,532q0-40 26.5-63.5T278,428l170-44q162-43 162-180q0-99-79-161Q461-11 330-11Q164-11 89,89Q49,143 47,234h86v-2q0-78 53.5-120.5T336,69q88,0 131,29q51,35 51,98q0,80-131,113L209,355Q69,391 69,520q0,102 77,158q67,49 177,49q156,0 223-91q39-53 39-115q0-3 0-11Z" />
      <glyph unicode="T" glyph-name="T" horiz-adv-x="600" d="M348,635V0H257V635H21v81H582V635H348Z" />
      <glyph unicode="U" glyph-name="U" horiz-adv-x="709" d="M542,716h91V225q0-116-85-180Q475-11 357-11Q221-11 147,60Q83,123 83,225V716h91V225q0-74 48-114.5T357,70q92,0 142,46q43,41 43,109V716Z" />
      <glyph unicode="V" glyph-name="V" horiz-adv-x="655" d="M385,0H286L29,716h98L338,110L536,716h97L385,0Z" />
      <glyph unicode="W" glyph-name="W" horiz-adv-x="927" d="M731,0H631L466,588L305,0H205L22,716H124L259,135L418,716h98L679,135L811,716H912L731,0Z" />
      <glyph unicode="X" glyph-name="X" horiz-adv-x="655" d="M384,367L638,0H524L330,299L133,0H22L276,367L38,716H149L332,435L517,716H626L384,367Z" />
      <glyph unicode="Y" glyph-name="Y" horiz-adv-x="655" d="M380,281V0H289V281L13,716H125L336,367L540,716H649L380,281Z" />
      <glyph unicode="Z" glyph-name="Z" horiz-adv-x="600" d="M571,716V633L143,81H573V0H28V81L458,635H55v81H571Z" />
      <glyph unicode="[" glyph-name="bracketleft" horiz-adv-x="372" d="M303,716V649H145V-35H303v-67H69V716H303Z" />
      <glyph unicode="\" glyph-name="backslash" horiz-adv-x="350" d="M90,673L340,0H260L9,673H90Z" />
      <glyph unicode="]" glyph-name="bracketright" horiz-adv-x="372" d="M303,716V-102H69v67H227V649H69v67H303Z" />
      <glyph unicode="^" glyph-name="asciicircum" horiz-adv-x="460" d="M193,696h72L417,323H349L229,618L111,323H43L193,696Z" />
      <glyph unicode="_" glyph-name="underscore" horiz-adv-x="384" d="M387-85v-64H-4v64H387Z" />
      <glyph unicode="`" glyph-name="grave" horiz-adv-x="491" d="M238,727l94-146H273L127,727H238Z" />
      <glyph unicode="a" glyph-name="a" horiz-adv-x="546" d="M525,69V3Q491-9 472-9q-80,0-87,73Q330-11 210-11Q127-11 81,35Q41,75 41,138q0,72 51,111q29,22 121,43l168,38l1,43q0,77-116,77q-111,0-119-90H64q3,68 34,104q53,61 172,61q193,0 193-140V98q0-38 33-38q4,0 21,6q6,2 8,3ZM382,263L250,229q-71-18-97.5-37T126,139q0-79 102-79q72,0 122,47q32,29 32,66v90Z" />
      <glyph unicode="b" glyph-name="b" horiz-adv-x="546" d="M53,716h81V445q57,80 160,80q109,0 168-80q52-70 52-185q0-133-69-207Q385-11 290-11Q183-11 127,70V0H53V716ZM279,449q-66,0-105.5-53.5T134,254q0-92 45-144q39-44 100-44q68,0 108.5,51T428,254q0,94-46,148q-40,47-103,47Z" />
      <glyph unicode="c" glyph-name="c" horiz-adv-x="491" d="M462,342H380Q365,450 258,450q-67,0-105-53T115,250q0-93 45-142q38-43 102-43q103,0 123,112h83q-8-96-69-145Q346-11 260-11Q147-11 84,69Q30,138 30,250q0,134 71,210q61,65 158,65q112,0 168-75q29-39 35-108Z" />
      <glyph unicode="d" glyph-name="d" horiz-adv-x="546" d="M487,716V0H405V71Q356-12 253-12Q140-12 79,70Q26,142 26,260q0,129 69,202q59,63 153,63q104,0 157-78V716h82ZM262,449q-68,0-109.5-53.5T111,254q0-91 48-143q41-46 104-46q65,0 103.5,51T405,254q0,95-44,148q-39,47-99,47Z" />
      <glyph unicode="e" glyph-name="e" horiz-adv-x="546" d="M503,233H124q1-66 28-105q43-63 124-63q100,0 135,95h82Q477,79 419,34T273-11Q156-11 94,69Q39,139 39,254q0,133 72,207q63,64 163,64q73,0 128.5-35T482,394q21-52 21-158v-3Zm-88,67q0,67-39.5,108.5T274,450q-63,0-102.5-40.5T127,300H415Z" />
      <glyph unicode="f" glyph-name="f" horiz-adv-x="273" d="M253,514V448H168V0H87V448H18v66H87v88q0,55 31.5,86T207,719q22,0 46-5V646h-9q-11,1-19,1q-57,0-57-52V514h85Z" />
      <glyph unicode="g" glyph-name="g" horiz-adv-x="546" d="M404,514h76V84q0-167-54-232q-54-66-177-66q-96,0-150,46Q51-127 45-59h84q6-40 30-59q35-27 94-27q80,0 114,48q29,41 29,140V76Q332-11 242-11Q154-11 93,55Q28,126 28,249q0,132 68,210q60,66 151,66q98,0 157-88v77ZM256,450q-66,0-104.5-52.5T113,254q0-95 44-145q37-44 100-44q66,0 102.5,50T396,254q0,98-42,150q-37,46-98,46Z" />
      <glyph unicode="h" glyph-name="h" horiz-adv-x="546" d="M69,716h81V442q37,46 74,64.5T316,525q75,0 118-37.5T477,385V0H396V352q0,54-33,79q-31,23-73,23q-63,0-101.5-47T150,282V0H69V716Z" />
      <glyph unicode="i" glyph-name="i" horiz-adv-x="218" d="M146,514V0H65V514h81ZM107,715q21,0 35.5-14.5T157,666q0-21-14.5-35.5T107,616q-20,0-34.5,14.5T58,666q0,20 14.5,34.5T107,715Z" />
      <glyph unicode="j" glyph-name="j" horiz-adv-x="218" d="M68,514h82V-107Q150-214 8-214q-15,0-26,3v69q8,0 15,0H1q39,0 53,14T68-75V514Zm39,197q21,0 35-14.5T156,662t-14-34.5T107,613q-20,0-34.5,14.5T58,662t14.5,34.5T107,711Z" />
      <glyph unicode="k" glyph-name="k" horiz-adv-x="491" d="M138,716V296L356,514H462L283,337L493,0H392L218,279l-80-78V0H57V716h81Z" />
      <glyph unicode="l" glyph-name="l" horiz-adv-x="218" d="M149,716V0H67V716h82Z" />
      <glyph unicode="m" glyph-name="m" horiz-adv-x="818" d="M69,514h76V440q60,85 158,85q95,0 138-76q37,43 71.5,59.5T598,525q150,0 150-141V0H666V352q0,102-96,102q-50,0-85-39t-35-93V0H368V352q0,102-95,102q-51,0-86.5-38.5T151,322V0H69V514Z" />
      <glyph unicode="n" glyph-name="n" horiz-adv-x="546" d="M69,514h76V427q62,98 170,98q75,0 119-37.5T478,387V0H397V354q0,46-28.5,73T291,454q-64,0-102-47T151,282V0H69V514Z" />
      <glyph unicode="o" glyph-name="o" horiz-adv-x="546" d="M270,525q116,0 177-81q54-70 54-190q0-134-70-204Q371-11 269-11Q151-11 89,68Q35,137 35,254q0,136 71,209q61,62 164,62Zm0-75q-70,0-110-52.5T120,254q0-95 45-145q39-44 104-44q69,0 107.5,50T415,254q0,98-44,150q-38,46-101,46Z" />
      <glyph unicode="p" glyph-name="p" horiz-adv-x="546" d="M53-214V514h76V435q57,90 164,90q109,0 168-84q52-73 52-192q0-127-68-198Q386-11 292-11q-95,0-157,69V-214H53ZM279,449q-65,0-104.5-53T135,254q0-92 45-144q38-44 99-44q68,0 108.5,51.5T428,254q0,94-46,148q-41,47-103,47Z" />
      <glyph unicode="q" glyph-name="q" horiz-adv-x="546" d="M487-214H405V67Q350-11 247-11Q137-11 77,67Q26,136 26,248q0,135 69,212q60,66 155,66q105,0 164-83v71h73V-214ZM261,449q-67,0-108.5-53.5T111,254q0-91 47-143q40-45 104-45q65,0 104,51t39,137q0,95-44,149q-39,46-100,46Z" />
      <glyph unicode="r" glyph-name="r" horiz-adv-x="327" d="M68,514h76V420q45,106 142,106q12,0 29-3V439q-80-1-110-23q-55-40-55-149V0H68V514Z" />
      <glyph unicode="s" glyph-name="s" horiz-adv-x="491" d="M434,373H344q-4,77-103,77q-51,0-80.5-19.5T131,378q0-50 95-72l79-18q77-18 111-51t34-90q0-73-57-115.5T239-11Q133-11 78,39Q32,80 29,148h93q8-35 22-51q27-32 101-32q55,0 87.5,20.5T365,140q0,51-79,70l-77,18q-88,21-123,50q-40,33-40,95q0,70 53.5,111T243,525q94,0 146-47q45-41 45-105Z" />
      <glyph unicode="t" glyph-name="t" horiz-adv-x="297" d="M270,514V448H165V106q0-18 12.5-30.5T210,63q19,0 58,9l9-72q-62-11-94-11Q84-11 84,70V448H14v66H84V619l81,37V514H270Z" />
      <glyph unicode="u" glyph-name="u" horiz-adv-x="546" d="M473,0H392V81Q337-11 228-11q-75,0-119.5,37.5T64,127V514h81V160q0-45 29-72t78-27q64,0 102,46.5T392,233V514h81V0Z" />
      <glyph unicode="v" glyph-name="v" horiz-adv-x="491" d="M280,0H191L10,514h93L239,98L385,514h92L280,0Z" />
      <glyph unicode="w" glyph-name="w" horiz-adv-x="709" d="M544,0H451L346,404L247,0H155L6,514H96L202,114l98,400H400L501,114L603,514h92L544,0Z" />
      <glyph unicode="x" glyph-name="x" horiz-adv-x="491" d="M287,266L465,0H370L241,198L110,0H17L199,262L26,514h94L244,328L368,514h92L287,266Z" />
      <glyph unicode="y" glyph-name="y" horiz-adv-x="491" d="M382,514h88L241-108Q201-214 108-214q-44,0-77,20l16,71q25-10 49-10q48,0 67,50L194-1L20,514h88L239,114L382,514Z" />
      <glyph unicode="z" glyph-name="z" horiz-adv-x="491" d="M435,514V441L129,72H448V0H30V74L337,442H51v72H435Z" />
      <glyph unicode="{" glyph-name="braceleft" horiz-adv-x="382" d="M313,719l22-29V666q-16,0-46-3q-43-4-58-14q-22-16-22-52V413q0-86-107-102v-6q107-16 107-102V20q0-37 22-52q16-11 58-15q23-2 46-3V-74l-22-29q-17,0-29,1q-74,6-110,29q-40,27-40,98V184q0,83-118,83v82q118,0 118,77q0,2 0,5V591q0,70 40,98q34,22 110,29q12,1 29,1Z" />
      <glyph unicode="|" glyph-name="bar" horiz-adv-x="200" d="M69,688h62V28H69V688Z" />
      <glyph unicode="}" glyph-name="braceright" horiz-adv-x="382" d="M46,690l23,29q17,0 28-1q77-7 110-29q41-28 41-98V431q-1-3-1-5q0-77 118-77V267q-117,0-117-83V25q0-71-41-98Q172-96 97-102q-11-1-28-1L46-74v24q24,1 46,3q42,4 58,15q22,15 22,52V203q0,86 108,102v6Q172,327 172,413V597q0,36-22,52q-15,10-58,14q-30,3-46,3v24Z" />
      <glyph unicode="~" glyph-name="asciitilde" horiz-adv-x="491" d="M405,404h52q0-13 0-19q0-55-28-88.5T354,263q-39,0-80,26l-95,61q-22,14-43,14q-29,0-44-34q-5-13-8-42H32q8,142 106,142q27,0 53-15l115-68q28-17 49-17q50,0 50,62q0,4 0,12Z" />
      <glyph unicode="&#xa0;" glyph-name="nonbreakingspace" horiz-adv-x="184" />
      <glyph unicode="&#xa1;" glyph-name="exclamdown" horiz-adv-x="327" d="M119-201V130l21,219h39l21-219V-201H119Zm36,721q21,0 35.5-14.5T205,470q0-20-14.5-34.5T155,421q-20,0-34.5,14.5T106,470q0,21 14.5,35.5T155,520Z" />
      <glyph unicode="&#xa2;" glyph-name="cent" horiz-adv-x="550" d="M328,683V607q34-1 68-10q29-7 49-17l-25-71q-27,11-50,17q-30,8-52,8q-64,0-97-36q-42-45-42-155q0-108 42-152q33-34 93-34q33,0 70,8q43,9 74,21V149l-35-44q-37-17-95-22V-9H265V86q-83,12-127,71Q92,220 92,342q0,124 47,190q42,59 126,71v80h63Z" />
      <glyph unicode="&#xa3;" glyph-name="sterling" horiz-adv-x="645" d="M184,512q0,78 52,125q49,45 131,45q70,0 129-32V579q-63,33-125,33q-47,0-74-26q-29-29-29-87V363H441V300H268V203q0-67-24-110q53,6 102,6q115,0 207-35V36L523,0Q420,30 323,30Q225,30 92,0V70q42,10 66,40q26,34 26,92v98H93v63h91V512Z" />
      <glyph unicode="&#xa4;" glyph-name="currency" horiz-adv-x="516" d="M114,431L55,490l45,45l59-59q46,31 99,31t98-31l59,59l46-44l-60-59q31-47 31-99q0-56-31-99l58-59l-44-44l-59,59q-46-31-98-31q-56,0-99,32l-59-59L56,176l58,59q-30,44-30,98q0,51 30,98Zm34-98q0-47 32-78q32-33 78-33q47,0 79,33q33,32 33,78q0,47-33,79q-32,33-79,33q-46,0-78-33q-32-32-32-79Z" />
      <glyph unicode="&#xa5;" glyph-name="yen" horiz-adv-x="521" d="M493,673L330,319H440V256H301V184H440V121H301V34L260,0H219V121H81v63H219v72H81v63H189L28,673h88L260,333L405,673h88Z" />
      <glyph unicode="&#xa6;" glyph-name="brokenbar" horiz-adv-x="200" d="M69,412V688h62V412H69Zm62-108V28H69V304h62Z" />
      <glyph unicode="&#xa7;" glyph-name="section" horiz-adv-x="546" d="M456,514H374q-1,63-16,86q-27,40-79,40q-38,0-63-23.5T191,557q0-39 56-76l143-92q59-38 83-74.5T497,225q0-113-106-153q51-60 51-117q0-76-59-123q-51-41-124-41q-62,0-107.5,29.5T87-98Q76-67 76-13h84v-3q0-117 100-117q42,0 68,23.5T354-49q0,49-54,86L133,153Q43,215 43,307T146,454q-43,48-43,99q0,74 59,121q51,42 122,42q82,0 130-55q42-47 42-119V514ZM348,104q71,38 71,101q0,60-71,109L190,421q-69-45-69-99q0-30 12.5-49.5T185,225L348,104Z" />
      <glyph unicode="&#xa8;" glyph-name="dieresis" horiz-adv-x="491" d="M155,715q21,0 35.5-14.5T205,666q0-21-14.5-35.5T155,616q-20,0-34.5,14.5T106,666q0,20 14.5,34.5T155,715Zm171,0q21,0 35.5-14.5T376,666q0-21-14.5-35.5T326,616q-20,0-34.5,14.5T277,666q0,20 14.5,34.5T326,715Z" />
      <glyph unicode="&#xa9;" glyph-name="copyright" horiz-adv-x="784" d="M392,683q93,0 175-47q78-46 124-125q47-82 47-175q0-92-47-174Q646,84 567,38Q486-9 392-9T218,38Q138,84 93,162Q46,243 46,336q0,94 47,175q46,79 125,125q81,47 174,47Zm0-51q-122,0-209-86Q96,459 96,336q0-122 87-208q86-87 209-87t210,87q86,86 86,208q0,123-86,210q-88,86-210,86Zm79-499q-20-8-64-8q-91,0-140,59q-47,56-47,153q0,95 50,151q51,59 140,59q59,0 117-29l-29-58q-48,25-88,25q-55,0-86-39q-30-39-30-110q0-72 28-110t88-38q20,0 49,6q23,5 50,15V180l-38-47Z" />
      <glyph unicode="&#xaa;" glyph-name="ordfeminine" horiz-adv-x="401" d="M348,348V298H75v50H348Zm17,88V393q-22-8-34-8q-51,0-56,48q-35-49-112-49q-49,0-78.5,26T55,480q0,46 33,71q24,18 77,27l108,24v28q0,49-74,49q-71,0-76-57H70q2,44 21,67q34,39 111,39q124,0 124-90V454q0-25 21-25q2,0 13,5q4,1 5,2ZM273,560l-84-22q-80-14-80-58q0-50 66-50q46,0 78,30q20,19 20,42v58Z" />
      <glyph unicode="&#xab;" glyph-name="guillemotleft" horiz-adv-x="426" d="M202,475l27-23L109,267L230,81L202,58H176L37,262v8L176,475h26Zm159,0l28-23L268,267L389,81L362,58H335L196,262v8L335,475h26Z" />
      <glyph unicode="&#xac;" glyph-name="logicalnot" horiz-adv-x="573" d="M39,285H534V2H465V217H39v68Z" />
      <glyph unicode="&#xad;" glyph-name="uni00AD" horiz-adv-x="327" d="M278,306V236H45v70H278Z" />
      <glyph unicode="&#xae;" glyph-name="registered" horiz-adv-x="784" d="M392,683q93,0 175-47q78-46 124-125q47-82 47-175q0-92-47-174Q646,84 567,38Q486-9 392-9T218,38Q138,84 93,162Q46,243 46,336q0,94 47,175q46,79 125,125q81,47 174,47Zm0-51q-122,0-209-86Q96,459 96,336q0-122 87-208q86-87 209-87t210,87q86,86 86,208q0,123-86,210q-88,86-210,86ZM242,539H394q65,0 103.5-37.5T536,401q0-70-64-102l75-141l-32-25H478L403,280H316V133H242V539Zm146-66H316V347h77q32,0 52,18q18,18 18,47q0,23-11,38q-16,23-64,23Z" />
      <glyph unicode="&#xaf;" glyph-name="macron" horiz-adv-x="479" d="M479,824V761H0v63H479Z" />
      <glyph unicode="&#xb0;" glyph-name="degree" horiz-adv-x="373" d="M41,537q0,60 43,103q42,43 102,43t103-43q42-43 42-103q0-59-42-102q-43-42-103-42q-61,0-102,42Q41,478 41,537Zm57,0q0-39 25-67q26-28 63-28q36,0 63,28q26,28 26,67q0,40-26,69q-27,28-63,28t-63-28q-25-29-25-69Z" />
      <glyph unicode="&#xb1;" glyph-name="plusminus" horiz-adv-x="573" d="M524,419V351H321V147H252V351H49v68H252V622h69V419H524Zm0-351V0H49V68H524Z" />
      <glyph unicode="&#xb2;" glyph-name="twosuperior" horiz-adv-x="345" d="M317,336V279H19q4,72 28.5,109T143,462l58,31q58,31 58,78q0,31-24,52t-60,21q-51,0-73-38q-10-18-13-59H28q5,149 149,149q63,0 103.5-34.5T321,573q0-80-95-128l-62-31q-54-28-72-78H317Z" />
      <glyph unicode="&#xb3;" glyph-name="threesuperior" horiz-adv-x="345" d="M133,473v49q63,1 85.5,13T241,581q0,65-74,65q-52,0-71-34q-9-17-9-53H26q2,139 140,139q63,0 100-31t37-85q0-57-55-82q69-23 69-97q0-58-41.5-93.5T165,274Q22,274 16,413H77q4-88 90-88q41,0 64.5,21T255,403q0,47-44,64q-15,6-78,6Z" />
      <glyph unicode="&#xb4;" glyph-name="acute" horiz-adv-x="491" d="M267,727H377L231,581H172l95,146Z" />
      <glyph unicode="&#xb5;" glyph-name="mu" horiz-adv-x="570" d="M469,514h81L441,0H367l18,82Q298-12 199-12q-51,0-82,25L68-214H-13L142,514h81L148,161q-3-15-3-28q0-33 24-53t63-20q64,0 112,47.5T409,234l60,280Z" />
      <glyph unicode="&#xb6;" glyph-name="paragraph" horiz-adv-x="527" d="M513,716V653H456V-174H394V653H313V-174H250V254q-75,4-123,44Q47,364 47,480q0,107 71,176q62,60 149,60H513Z" />
      <glyph unicode="&#xb7;" glyph-name="periodcentered" horiz-adv-x="273" d="M207,419V296H85V419H207Z" />
      <glyph unicode="&#xb8;" glyph-name="cedilla" horiz-adv-x="491" d="M243,0h38L259-55q15,2 26,2q79,0 79-65q0-43-32.5-67.5T243-210q-47,0-123,33l21,40l2-1q5-3 6-3q56-29 88-29q23,0 38,12.5T290-126q0,37-45,37q-15,0-31-8l-11,7L243,0Z" />
      <glyph unicode="&#xb9;" glyph-name="onesuperior" horiz-adv-x="345" d="M157,570H60v44l15,2q54,5 70.5,18.5T176,696h42V279H157V570Z" />
      <glyph unicode="&#xba;" glyph-name="ordmasculine" horiz-adv-x="358" d="M308,348V298H50v50H308ZM179,727q66,0 102.5-44T318,558q0-80-36.5-124T179,390q-67,0-103.5,44T39,558q0,81 36.5,125T179,727Zm-1-51q-38,0-60-31.5T96,558t22-86t61-31q38,0 60,31t22,86t-22,86.5T178,676Z" />
      <glyph unicode="&#xbb;" glyph-name="guillemotright" horiz-adv-x="439" d="M65,475H91L230,270v-8L91,58H65L37,81L158,267L37,452l28,23Zm173,0h26L402,270v-8L264,58H237L210,81L331,267L210,452l28,23Z" />
      <glyph unicode="&#xbc;" glyph-name="onequarter" horiz-adv-x="674" d="M196,673V290l-34-27H129V593L51,535L16,579l120,94h60Zm360,0L160,0H87L484,673h72Zm54-263V147h48V89H610V22L581,0H544V89H355l-1,52L549,410h61Zm-66-84L416,147H544V326Z" />
      <glyph unicode="&#xbd;" glyph-name="onehalf" horiz-adv-x="723" d="M196,673V290l-34-27H129V593L51,535L16,579l120,94h60Zm378,0L178,0H106L502,673h72ZM461,372q61,41 118,41q54,0 84-30t30-82q0-38-26-79T573,112q-15-15-22-22L521,58H700V26L677,0H436V56l45,43q60,54 99,99q30,35 39,54q10,20 10,42q0,62-58,62q-39,0-76-28l-34,44Z" />
      <glyph unicode="&#xbe;" glyph-name="threequarters" horiz-adv-x="727" d="M42,667q43,17 83,17q53,0 86-30t33-78q0-36-23-63.5T165,482q48-4 76-41q22-28 22-63q0-112-148-112q-46,0-77,11L16,304v23q46-14 87-14t66.5,17.5T195,377q0,37-35,61q-38,26-94,26v39h43q30,0 47,15q25,23 25,56q0,60-70,60q-31,0-69-10v43Zm576,6L221,0H149L545,673h73Zm44-263V147h49V89H662V22L633,0H597V89H407v52L602,410h60Zm-65-84L469,147H597V326Z" />
      <glyph unicode="&#xbf;" glyph-name="questiondown" horiz-adv-x="600" d="M270,319h88V266q0-68-64-126l-39-34Q181,39 181-24q0-51 35-81.5T308-136q80,0 110,57q17,32 17,96h83q-1-90-32-142q-52-88-183-88q-103,0-160,58Q93-105 93-24q0,49 21.5,87.5T192,152q51,46 64.5,67T270,273v46Zm36,191q20,0 34.5-14.5T355,460q0-20-14.5-34.5T306,411q-21,0-35,14.5T257,460q0,21 14,35.5T306,510Z" />
      <glyph unicode="&#xc0;" glyph-name="Agrave" horiz-adv-x="655" d="M466,215H190L114,0H17L272,716H390L641,0H540L466,215Zm-26,77L330,617L213,292H440ZM298,922l95-145H334L187,922H298Z" />
      <glyph unicode="&#xc1;" glyph-name="Aacute" horiz-adv-x="655" d="M466,215H190L114,0H17L272,716H390L641,0H540L466,215Zm-26,77L330,617L213,292H440ZM396,922H507L360,777H301l95,145Z" />
      <glyph unicode="&#xc2;" glyph-name="Acircumflex" horiz-adv-x="655" d="M466,215H190L114,0H17L272,716H390L641,0H540L466,215Zm-26,77L330,617L213,292H440ZM283,923h92l95-147H408l-79,94l-78-94H188l95,147Z" />
      <glyph unicode="&#xc3;" glyph-name="Atilde" horiz-adv-x="655" d="M466,215H190L114,0H17L272,716H390L641,0H540L466,215Zm-26,77L330,617L213,292H440ZM427,900h56q-14-102-87-102q-21,0-64,17q-52,20-68,20q-22,0-32-36H175q17,101 84,101q23,0 46-9l41-16q27-11 45-11q24,0 36,36Z" />
      <glyph unicode="&#xc4;" glyph-name="Adieresis" horiz-adv-x="655" d="M466,215H190L114,0H17L272,716H390L641,0H540L466,215Zm-26,77L330,617L213,292H440ZM248,892q21,0 35-14.5T297,843t-14-34.5T248,794q-20,0-34.5,14.5T199,843t14.5,34.5T248,892Zm163,0q20,0 34.5-14.5T460,843t-14.5-34.5T411,794q-21,0-35.5,14.5T361,843t14.5,34.5T411,892Z" />
      <glyph unicode="&#xc5;" glyph-name="Aring" horiz-adv-x="655" d="M466,215H190L114,0H17L272,716H390L641,0H540L466,215Zm-26,77L330,617L213,292H440ZM329,936q36,0 61-25t25-61t-25-61t-61-25t-61,25.5T243,850q0,36 25,61t61,25Zm0-43q-18,0-31-12.5T285,850t13-30.5T329,807t31,12.5T373,850t-12.5,30.5T329,893Z" />
      <glyph unicode="&#xc6;" glyph-name="AE" horiz-adv-x="982" d="M460,210H195L112,0H11L305,716H915V635H551V407H896V326H551V81H933V0H460V210Zm0,80V635H362L226,290H460Z" />
      <glyph unicode="&#xc7;" glyph-name="Ccedilla" horiz-adv-x="709" d="M378-11L360-55q16,2 27,2q78,0 78-65q0-43-32.5-67.5T344-210q-48,0-123,33l21,40q5-3 8-5q56-28 88-28q23,0 38,12.5T391-126q0,37-45,37q-15,0-31-8l-11,7l36,80Q249-3 189,39Q122,86 84.5,169T47,355q0,176 100,284q81,88 227,88q233,0 276-230H556q-15,72-52,105q-48,44-140,44q-112,0-173-88q-53-77-53-202q0-141 71-219q63-67 162-67q121,0 167,89q21,41 33,109h94Q632-6 378-11Z" />
      <glyph unicode="&#xc8;" glyph-name="Egrave" horiz-adv-x="655" d="M179,326V81H601V0H88V716H584V635H179V407H569V326H179ZM313,922l95-145H349L203,922H313Z" />
      <glyph unicode="&#xc9;" glyph-name="Eacute" horiz-adv-x="655" d="M179,326V81H601V0H88V716H584V635H179V407H569V326H179ZM360,922H470L324,777H265l95,145Z" />
      <glyph unicode="&#xca;" glyph-name="Ecircumflex" horiz-adv-x="655" d="M179,326V81H601V0H88V716H584V635H179V407H569V326H179ZM292,923h92l95-147H417l-79,94l-78-94H197l95,147Z" />
      <glyph unicode="&#xcb;" glyph-name="Edieresis" horiz-adv-x="655" d="M179,326V81H601V0H88V716H584V635H179V407H569V326H179Zm81,566q21,0 35.5-14.5T310,843t-14.5-34.5T260,794q-20,0-34.5,14.5T211,843t14.5,34.5T260,892Zm163,0q20,0 34.5-14.5T472,843t-14.5-34.5T423,794t-34.5,14.5T374,843t14.5,34.5T423,892Z" />
      <glyph unicode="&#xcc;" glyph-name="Igrave" horiz-adv-x="273" d="M189,716V0H98V716h91ZM112,922l94-145H147L1,922H112Z" />
      <glyph unicode="&#xcd;" glyph-name="Iacute" horiz-adv-x="273" d="M189,716V0H98V716h91Zm7,206H307L161,777H102l94,145Z" />
      <glyph unicode="&#xce;" glyph-name="Icircumflex" horiz-adv-x="273" d="M189,716V0H98V716h91ZM93,923h93l95-147H219l-79,94L62,776H-1L93,923Z" />
      <glyph unicode="&#xcf;" glyph-name="Idieresis" horiz-adv-x="273" d="M189,716V0H98V716h91ZM59,892q21,0 35.5-14.5T109,843T94.5,808.5T59,794q-20,0-34.5,14.5T10,843t14.5,34.5T59,892Zm163,0q20,0 34.5-14.5T271,843t-14.5-34.5T222,794q-21,0-35,14.5T173,843t14,34.5T222,892Z" />
      <glyph unicode="&#xd0;" glyph-name="Eth" horiz-adv-x="709" d="M88,333H20v65H88V716H364q145,0 223-108q68-95 68-250q0-178-88-274Q490,0 364,0H88V333Zm91,0V81H348q106,0 161,72q55,70 55,205T509,563q-55,72-161,72H179V398H346V333H179Z" />
      <glyph unicode="&#xd1;" glyph-name="Ntilde" horiz-adv-x="709" d="M634,716V0H531L161,581V0H75V716h99L548,131V716h86ZM459,900h57q-15-102-88-102q-17,0-57,14l-47,17q-15,6-28,6q-22,0-32-36H207q17,101 84,101q23,0 46-9l41-16q27-11 45-11q25,0 36,36Z" />
      <glyph unicode="&#xd2;" glyph-name="Ograve" horiz-adv-x="764" d="M351,922l95-145H387L241,922H351Zm32-195q166,0 262-115q83-100 83-254q0-177-107-280Q527-11 383-11Q216-11 120,104Q37,204 37,358q0,177 108,280q93,89 238,89Zm-1-81q-122,0-193-89q-61-78-61-199q0-139 79-219q69-69 175-69q123,0 194,89q61,78 61,199q0,139-79,219q-69,69-176,69Z" />
      <glyph unicode="&#xd3;" glyph-name="Oacute" horiz-adv-x="764" d="M411,922H521L375,777H316l95,145ZM383,727q166,0 262-115q83-100 83-254q0-177-107-280Q527-11 383-11Q216-11 120,104Q37,204 37,358q0,177 108,280q93,89 238,89Zm-1-81q-122,0-193-89q-61-78-61-199q0-139 79-219q69-69 175-69q123,0 194,89q61,78 61,199q0,139-79,219q-69,69-176,69Z" />
      <glyph unicode="&#xd4;" glyph-name="Ocircumflex" horiz-adv-x="764" d="M336,923h93l95-147H461l-79,94l-77-94H242l94,147Zm47-196q166,0 262-115q83-100 83-254q0-177-107-280Q527-11 383-11Q216-11 120,104Q37,204 37,358q0,177 108,280q93,89 238,89Zm-1-81q-122,0-193-89q-61-78-61-199q0-139 79-219q69-69 175-69q123,0 194,89q61,78 61,199q0,139-79,219q-69,69-176,69Z" />
      <glyph unicode="&#xd5;" glyph-name="Otilde" horiz-adv-x="764" d="M483,900h57q-14-102-87-102q-20,0-84,24q-33,13-48,13q-23,0-33-36H232q17,101 83,101q23,0 46-9l41-16q28-11 46-11q24,0 35,36ZM383,727q166,0 262-115q83-100 83-254q0-177-107-280Q527-11 383-11Q216-11 120,104Q37,204 37,358q0,177 108,280q93,89 238,89Zm-1-81q-122,0-193-89q-61-78-61-199q0-139 79-219q69-69 175-69q123,0 194,89q61,78 61,199q0,139-79,219q-69,69-176,69Z" />
      <glyph unicode="&#xd6;" glyph-name="Odieresis" horiz-adv-x="764" d="M383,727q166,0 262-115q83-100 83-254q0-177-107-280Q527-11 383-11Q216-11 120,104Q37,204 37,358q0,177 108,280q93,89 238,89Zm-1-81q-122,0-193-89q-61-78-61-199q0-139 79-219q69-69 175-69q123,0 194,89q61,78 61,199q0,139-79,219q-69,69-176,69ZM301,894q20,0 34.5-14.5T350,845q0-21-14.5-35T301,796t-34.5,14T252,845q0,20 14.5,34.5T301,894Zm163,0q20,0 34.5-14.5T513,845q0-21-14.5-35T464,796q-21,0-35.5,14T414,845q0,20 14.5,34.5T464,894Z" />
      <glyph unicode="&#xd7;" glyph-name="multiply" horiz-adv-x="426" d="M350,408l44-44L257,226L386,97L342,53L213,182L84,53L40,97L169,226L32,364l44,44L213,271L350,408Z" />
      <glyph unicode="&#xd8;" glyph-name="Oslash" horiz-adv-x="764" d="M645,612q84-102 84-255q0-176-108-279Q527-11 383-11Q241-11 150,73L72-12L34,23l81,89Q38,211 38,359q0,177 108,279q93,89 238,89q132,0 224-77l80,87l39-35l-82-90Zm-60-65L209,137q69-67 174-67q123,0 193,89q62,78 62,199q0,109-53,189ZM176,178L550,586q-67,60-167,60q-123,0-193-89q-61-78-61-199q0-103 47-180Z" />
      <glyph unicode="&#xd9;" glyph-name="Ugrave" horiz-adv-x="709" d="M327,922l94-145H362L216,922H327ZM542,716h91V225q0-116-85-180Q475-11 357-11Q221-11 147,60Q83,123 83,225V716h91V225q0-74 48-114.5T357,70q92,0 142,46q43,41 43,109V716Z" />
      <glyph unicode="&#xda;" glyph-name="Uacute" horiz-adv-x="709" d="M379,922H490L344,777H285l94,145ZM542,716h91V225q0-116-85-180Q475-11 357-11Q221-11 147,60Q83,123 83,225V716h91V225q0-74 48-114.5T357,70q92,0 142,46q43,41 43,109V716Z" />
      <glyph unicode="&#xdb;" glyph-name="Ucircumflex" horiz-adv-x="709" d="M311,923h93l95-147H437l-79,94l-78-94H217l94,147ZM542,716h91V225q0-116-85-180Q475-11 357-11Q221-11 147,60Q83,123 83,225V716h91V225q0-74 48-114.5T357,70q92,0 142,46q43,41 43,109V716Z" />
      <glyph unicode="&#xdc;" glyph-name="Udieresis" horiz-adv-x="709" d="M542,716h91V225q0-116-85-180Q475-11 357-11Q221-11 147,60Q83,123 83,225V716h91V225q0-74 48-114.5T357,70q92,0 142,46q43,41 43,109V716ZM277,892q20,0 34.5-14.5T326,843t-14.5-34.5T277,794t-34.5,14.5T228,843t14.5,34.5T277,892Zm163,0q20,0 34.5-14.5T489,843t-14.5-34.5T440,794q-21,0-35.5,14.5T390,843t14.5,34.5T440,892Z" />
      <glyph unicode="&#xdd;" glyph-name="Yacute" horiz-adv-x="654" d="M379,281V0H288V281L13,716H125L335,367L539,716H648L379,281Zm4,641H493L347,777H288l95,145Z" />
      <glyph unicode="&#xde;" glyph-name="Thorn" horiz-adv-x="654" d="M180,185V0H89V716h91V598H385q109,0 168-63q51-55 51-145q0-97-63-154q-55-51-136-51H180Zm0,81H371q64,0 99.5,33T506,392q0,59-35.5,92T371,517H180V266Z" />
      <glyph unicode="&#xdf;" glyph-name="germandbls" horiz-adv-x="600" d="M297,346v81q67,1 105,29.5T440,534q0,46-32.5,75.5T325,639q-55,0-87.5-30T205,529V0H124V529q0,88 51,133q63,54 156,54t147-56q48-49 48-123q0-100-108-141q138-46 138-176q0-114-68-176Q429-11 334-11q-21,0-41,4V70h16q86,0 126,45q36,41 36,100q0,67-44,103q-35,28-107,28q-10,0-23,0Z" />
      <glyph unicode="&#xe0;" glyph-name="agrave" horiz-adv-x="546" d="M245,727l95-146H281L135,727H245ZM525,69V3Q491-9 472-9q-80,0-87,73Q330-11 210-11Q127-11 81,35Q41,75 41,138q0,72 51,111q29,22 121,43l168,38l1,43q0,77-116,77q-111,0-119-90H64q3,68 34,104q53,61 172,61q193,0 193-140V98q0-38 33-38q4,0 21,6q6,2 8,3ZM382,263L250,229q-71-18-97.5-37T126,139q0-79 102-79q72,0 122,47q32,29 32,66v90Z" />
      <glyph unicode="&#xe1;" glyph-name="aacute" horiz-adv-x="546" d="M325,727H436L290,581H230l95,146ZM525,69V3Q491-9 472-9q-80,0-87,73Q330-11 210-11Q127-11 81,35Q41,75 41,138q0,72 51,111q29,22 121,43l168,38l1,43q0,77-116,77q-111,0-119-90H64q3,68 34,104q53,61 172,61q193,0 193-140V98q0-38 33-38q4,0 21,6q6,2 8,3ZM382,263L250,229q-71-18-97.5-37T126,139q0-79 102-79q72,0 122,47q32,29 32,66v90Z" />
      <glyph unicode="&#xe2;" glyph-name="acircumflex" horiz-adv-x="546" d="M237,728h93l94-148H362l-79,94l-77-94H143l94,148ZM525,69V3Q491-9 472-9q-80,0-87,73Q330-11 210-11Q127-11 81,35Q41,75 41,138q0,72 51,111q29,22 121,43l168,38l1,43q0,77-116,77q-111,0-119-90H64q3,68 34,104q53,61 172,61q193,0 193-140V98q0-38 33-38q4,0 21,6q6,2 8,3ZM382,263L250,229q-71-18-97.5-37T126,139q0-79 102-79q72,0 122,47q32,29 32,66v90Z" />
      <glyph unicode="&#xe3;" glyph-name="atilde" horiz-adv-x="546" d="M379,704h57q-15-102-86-102q-20,0-45,9l-55,21q-19,8-33,8q-23,0-33-37H128q17,102 84,102q22,0 45-10l41-16q28-11 46-11q24,0 35,36ZM525,69V3Q491-9 472-9q-80,0-87,73Q330-11 210-11Q127-11 81,35Q41,75 41,138q0,72 51,111q29,22 121,43l168,38l1,43q0,77-116,77q-111,0-119-90H64q3,68 34,104q53,61 172,61q193,0 193-140V98q0-38 33-38q4,0 21,6q6,2 8,3ZM382,263L250,229q-71-18-97.5-37T126,139q0-79 102-79q72,0 122,47q32,29 32,66v90Z" />
      <glyph unicode="&#xe4;" glyph-name="adieresis" horiz-adv-x="546" d="M200,700q20,0 34.5-14.5T249,651t-14.5-34.5T200,602q-21,0-35.5,14.5T150,651t14.5,34.5T200,700Zm162,0q21,0 35-14.5T411,651t-14-34.5T362,602q-20,0-34.5,14.5T313,651t14.5,34.5T362,700ZM525,69V3Q491-9 472-9q-80,0-87,73Q330-11 210-11Q127-11 81,35Q41,75 41,138q0,72 51,111q29,22 121,43l168,38l1,43q0,77-116,77q-111,0-119-90H64q3,68 34,104q53,61 172,61q193,0 193-140V98q0-38 33-38q4,0 21,6q6,2 8,3ZM382,263L250,229q-71-18-97.5-37T126,139q0-79 102-79q72,0 122,47q32,29 32,66v90Z" />
      <glyph unicode="&#xe5;" glyph-name="aring" horiz-adv-x="546" d="M287,741q36,0 61-25t25-61t-25-61t-61-25t-61,25t-25,61q0,35 25,60.5T287,741Zm0-43q-18,0-31-12.5T243,655t13-31t31-13t31,13t13,30q0,19-12.5,31.5T287,698ZM525,69V3Q491-9 472-9q-80,0-87,73Q330-11 210-11Q127-11 81,35Q41,75 41,138q0,72 51,111q29,22 121,43l168,38l1,43q0,77-116,77q-111,0-119-90H64q3,68 34,104q53,61 172,61q193,0 193-140V98q0-38 33-38q4,0 21,6q6,2 8,3ZM382,263L250,229q-71-18-97.5-37T126,139q0-79 102-79q72,0 122,47q32,29 32,66v90Z" />
      <glyph unicode="&#xe6;" glyph-name="ae" horiz-adv-x="881" d="M239,295l147,19l-4,59q-4,77-116,77q-111,0-119-90H64q3,68 34,104q53,61 171,61q128,0 169-73q66,73 172,73q72,0 127.5-34.5T818,394q21-51 21-158v-3H460q1-66 27-105q43-63 124-63q100,0 135,95h82Q813,79 754.5,34T607-11Q479-11 416,87Q330-11 211-11Q128-11 81,35Q41,74 41,138q0,72 51,110q44,34 147,47Zm143-48L250,227q-124-19-124-89q0-78 102-78q72,0 122,47q32,29 32,66v74Zm369,53q-1,68-40,109T609,450T506.5,409.5T462,300H751Z" />
      <glyph unicode="&#xe7;" glyph-name="ccedilla" horiz-adv-x="491" d="M264-11L246-54q16,1 27,1q78,0 78-65q0-43-32-67.5T230-210q-47,0-122,33l20,40q65-33 96-33q23,0 38,13t15,32q0,36-44,36q-15,0-31-7l-12,6L226-9Q128,4 75,81Q30,148 30,250q0,134 71,210q61,65 158,65q112,0 168-75q29-39 35-108H380Q365,450 258,450q-67,0-105-53T115,250q0-93 45-142q38-43 102-43q103,0 123,112h83q-8-94-67-144Q348-9 264-11Z" />
      <glyph unicode="&#xe8;" glyph-name="egrave" horiz-adv-x="546" d="M263,727l95-146H299L153,727H263ZM503,233H124q1-66 28-105q43-63 124-63q100,0 135,95h82Q477,79 419,34T273-11Q156-11 94,69Q39,139 39,254q0,133 72,207q63,64 163,64q73,0 128.5-35T482,394q21-52 21-158v-3Zm-88,67q0,67-39.5,108.5T274,450q-63,0-102.5-40.5T127,300H415Z" />
      <glyph unicode="&#xe9;" glyph-name="eacute" horiz-adv-x="546" d="M330,727H440L294,581H235l95,146ZM503,233H124q1-66 28-105q43-63 124-63q100,0 135,95h82Q477,79 419,34T273-11Q156-11 94,69Q39,139 39,254q0,133 72,207q63,64 163,64q73,0 128.5-35T482,394q21-52 21-158v-3Zm-88,67q0,67-39.5,108.5T274,450q-63,0-102.5-40.5T127,300H415Z" />
      <glyph unicode="&#xea;" glyph-name="ecircumflex" horiz-adv-x="546" d="M234,728h93l95-148H360l-79,94l-78-94H140l94,148ZM503,233H124q1-66 28-105q43-63 124-63q100,0 135,95h82Q477,79 419,34T273-11Q156-11 94,69Q39,139 39,254q0,133 72,207q63,64 163,64q73,0 128.5-35T482,394q21-52 21-158v-3Zm-88,67q0,67-39.5,108.5T274,450q-63,0-102.5-40.5T127,300H415Z" />
      <glyph unicode="&#xeb;" glyph-name="edieresis" horiz-adv-x="546" d="M503,233H124q1-66 28-105q43-63 124-63q100,0 135,95h82Q477,79 419,34T273-11Q156-11 94,69Q39,139 39,254q0,133 72,207q63,64 163,64q73,0 128.5-35T482,394q21-52 21-158v-3Zm-88,67q0,67-39.5,108.5T274,450q-63,0-102.5-40.5T127,300H415ZM200,702q20,0 34.5-14.5T249,653q0-21-14.5-35T200,604q-21,0-35.5,14T150,653q0,20 14.5,34.5T200,702Zm162,0q21,0 35-14.5T411,653q0-21-14-35t-35-14q-20,0-34.5,14T313,653q0,20 14.5,34.5T362,702Z" />
      <glyph unicode="&#xec;" glyph-name="igrave" horiz-adv-x="273" d="M174,514V0H92V514h82ZM106,727l94-146H141L-5,727H106Z" />
      <glyph unicode="&#xed;" glyph-name="iacute" horiz-adv-x="273" d="M173,514V0H92V514h81Zm24,213H308L162,581H103l94,146Z" />
      <glyph unicode="&#xee;" glyph-name="icircumflex" horiz-adv-x="273" d="M174,514V0H92V514h82ZM87,728h93l95-148H213l-79,94L56,580H-7L87,728Z" />
      <glyph unicode="&#xef;" glyph-name="idieresis" horiz-adv-x="273" d="M174,514V0H92V514h82ZM50,693q21,0 35.5-14.5T100,644q0-21-14.5-35.5T50,594q-20,0-34.5,14.5T1,644q0,20 14.5,34.5T50,693Zm163,0q20,0 34.5-14.5T262,644q0-21-14.5-35.5T213,594q-21,0-35,14.5T164,644q0,20 14,34.5T213,693Z" />
      <glyph unicode="&#xf0;" glyph-name="eth" horiz-adv-x="546" d="M214,602l-95-44L84,596l85,39q-37,26-82,51l43,43q56-27 110-61l94,44l39-37l-86-40q93-72 143-147q71-107 71-233q0-135-69-205Q371-11 269-11Q151-11 89,68Q35,137 35,254q0,167 104,235q53,35 118,35q25,0 53-9q-50,49-96,87Zm56-152q-70,0-110-52.5T120,254q0-95 45-145q39-44 104-44q69,0 107.5,50T415,254q0,98-44,150q-38,46-101,46Z" />
      <glyph unicode="&#xf1;" glyph-name="ntilde" horiz-adv-x="546" d="M69,514h76V427q62,98 170,98q75,0 119-37.5T478,387V0H397V354q0,46-28.5,73T291,454q-64,0-102-47T151,282V0H69V514ZM372,704h56q-14-102-86-102q-20,0-45,9l-40,16q-33,13-47,13q-23,0-33-37H120q17,102 84,102q22,0 46-10l41-16q27-11 45-11q24,0 36,36Z" />
      <glyph unicode="&#xf2;" glyph-name="ograve" horiz-adv-x="546" d="M250,727l94-146H285L139,727H250Zm20-202q116,0 177-81q54-70 54-190q0-134-70-204Q371-11 269-11Q151-11 89,68Q35,137 35,254q0,136 71,209q61,62 164,62Zm0-75q-70,0-110-52.5T120,254q0-95 45-145q39-44 104-44q69,0 107.5,50T415,254q0,98-44,150q-38,46-101,46Z" />
      <glyph unicode="&#xf3;" glyph-name="oacute" horiz-adv-x="546" d="M325,727H435L289,581H230l95,146ZM270,525q116,0 177-81q54-70 54-190q0-134-70-204Q371-11 269-11Q151-11 89,68Q35,137 35,254q0,136 71,209q61,62 164,62Zm0-75q-70,0-110-52.5T120,254q0-95 45-145q39-44 104-44q69,0 107.5,50T415,254q0,98-44,150q-38,46-101,46Z" />
      <glyph unicode="&#xf4;" glyph-name="ocircumflex" horiz-adv-x="546" d="M221,728h93l95-148H346l-79,94l-77-94H127l94,148Zm49-203q116,0 177-81q54-70 54-190q0-134-70-204Q371-11 269-11Q151-11 89,68Q35,137 35,254q0,136 71,209q61,62 164,62Zm0-75q-70,0-110-52.5T120,254q0-95 45-145q39-44 104-44q69,0 107.5,50T415,254q0,98-44,150q-38,46-101,46Z" />
      <glyph unicode="&#xf5;" glyph-name="otilde" horiz-adv-x="546" d="M270,525q116,0 177-81q54-70 54-190q0-134-70-204Q371-11 269-11Q151-11 89,68Q35,137 35,254q0,136 71,209q61,62 164,62Zm0-75q-70,0-110-52.5T120,254q0-95 45-145q39-44 104-44q69,0 107.5,50T415,254q0,98-44,150q-38,46-101,46Zm98,254h57q-15-102-86-102q-21,0-45,9l-41,16q-33,13-47,13q-22,0-33-37H116q17,102 84,102q22,0 46-10l41-16q27-11 46-11q23,0 35,36Z" />
      <glyph unicode="&#xf6;" glyph-name="odieresis" horiz-adv-x="546" d="M270,525q116,0 177-81q54-70 54-190q0-134-70-204Q371-11 269-11Q151-11 89,68Q35,137 35,254q0,136 71,209q61,62 164,62Zm0-75q-70,0-110-52.5T120,254q0-95 45-145q39-44 104-44q69,0 107.5,50T415,254q0,98-44,150q-38,46-101,46ZM185,698q20,0 34.5-14T234,649q0-20-14.5-34.5T185,600q-21,0-35.5,14.5T135,649t14.5,34.5T185,698Zm162,0q21,0 35.5-14T397,649q0-20-14.5-34.5T347,600q-20,0-34.5,14.5T298,649t14.5,34.5T347,698Z" />
      <glyph unicode="&#xf7;" glyph-name="divide" horiz-adv-x="508" d="M253,432q21,0 35-14.5T302,383t-14-34.5T253,334q-20,0-34.5,14.5T204,383t14.5,34.5T253,432ZM466,261V191H41v70H466ZM253,119q21,0 35-14.5T302,70q0-21-14-35.5T253,20q-20,0-34.5,14.5T204,70q0,20 14.5,34.5T253,119Z" />
      <glyph unicode="&#xf8;" glyph-name="oslash" horiz-adv-x="600" d="M431,464l55,63l32-27l-61-69q44-68 44-177q0-134-69-204Q372-11 270-11q-94,0-156,54L52-26L21,1L86,74Q35,145 35,254q0,136 71,208q62,63 164,63q99,0 161-61ZM144,140L375,401q-41,49-105,49q-69,0-109-52.5T121,254q0-69 23-114ZM397,363L169,105q41-40 101-40q68,0 107,50t39,139q0,64-19,109Z" />
      <glyph unicode="&#xf9;" glyph-name="ugrave" horiz-adv-x="546" d="M238,727l95-146H274L128,727H238ZM473,0H400V81Q334-11 228-11q-75,0-119.5,37.5T64,127V514h81V160q0-45 29-72t78-27q64,0 102,46.5T392,233V514h81V0Z" />
      <glyph unicode="&#xfa;" glyph-name="uacute" horiz-adv-x="546" d="M318,727H429L283,581H224l94,146ZM473,0H400V81Q334-11 228-11q-75,0-119.5,37.5T64,127V514h81V160q0-45 29-72t78-27q64,0 102,46.5T392,233V514h81V0Z" />
      <glyph unicode="&#xfb;" glyph-name="ucircumflex" horiz-adv-x="546" d="M223,728h93l95-148H348l-79,94l-77-94H129l94,148ZM473,0H400V81Q334-11 228-11q-75,0-119.5,37.5T64,127V514h81V160q0-45 29-72t78-27q64,0 102,46.5T392,233V514h81V0Z" />
      <glyph unicode="&#xfc;" glyph-name="udieresis" horiz-adv-x="546" d="M473,0H400V81Q334-11 228-11q-75,0-119.5,37.5T64,127V514h81V160q0-45 29-72t78-27q64,0 102,46.5T392,233V514h81V0ZM187,700q21,0 35-14.5T236,651t-14-34.5T187,602q-20,0-34.5,14.5T138,651t14.5,34.5T187,700Zm163,0q20,0 34.5-14.5T399,651t-14.5-34.5T350,602q-21,0-35.5,14.5T300,651t14.5,34.5T350,700Z" />
      <glyph unicode="&#xfd;" glyph-name="yacute" horiz-adv-x="491" d="M303,727H413L267,581H208l95,146Zm79-213h88L241-108Q201-214 108-214q-44,0-77,20l16,71q25-10 49-10q48,0 67,50L194-1L20,514h88L239,114L382,514Z" />
      <glyph unicode="&#xfe;" glyph-name="thorn" horiz-adv-x="545" d="M134,444q56,81 159,81q109,0 168-84q52-73 52-192q0-127-68-198Q386-11 292-11q-99,0-158,71V-214H53V701h81V444Zm145,5q-65,0-104.5-53T135,254q0-92 45-144q38-44 99-44q68,0 108.5,51.5T428,254q0,94-46,148q-41,47-103,47Z" />
      <glyph unicode="&#xff;" glyph-name="ydieresis" horiz-adv-x="491" d="M158,702q20,0 34.5-14.5T207,653q0-21-14.5-35T158,604q-21,0-35,14t-14,35q0,20 14,34.5T158,702Zm162,0q21,0 35.5-14.5T370,653q0-21-14.5-35T320,604q-20,0-34.5,14T271,653q0,20 14.5,34.5T320,702Zm62-188h88L241-108Q201-214 108-214q-44,0-77,20l16,71q25-10 49-10q48,0 67,50L194-1L20,514h88L239,114L382,514Z" />
      <glyph unicode="&#x2013;" glyph-name="endash" horiz-adv-x="470" d="M433,263V191H37v72H433Z" />
      <glyph unicode="&#x2014;" glyph-name="emdash" horiz-adv-x="941" d="M904,263V191H37v72H904Z" />
      <glyph unicode="&#x2018;" glyph-name="quoteleft" horiz-adv-x="210" d="M136,716l24-20q-22-26-38-60q-10-21-15-43q1,0 3,0q19,0 33-14t14-34q0-12-7-26q-13-25-42-25q-25,0-41,20.5T51,567q0,73 65,149h20Z" />
      <glyph unicode="&#x2019;" glyph-name="quoteright" horiz-adv-x="210" d="M104,617h-2q-20,0-33.5,13T54,664q0,14 7,27q13,25 42,25q25,0 41-20.5T160,643q0-72-66-149H75L51,514q21,27 37,60q11,21 16,43Z" />
      <glyph unicode="&#x201a;" glyph-name="quotesinglbase" horiz-adv-x="210" d="M104,17q0,0-1,0h-1Q82,17 68.5,30T54,64q0,14 7,27q13,25 42,25q25,0 41-20.5T160,43q0-72-66-149H75L51-87Q72-60 88-26Q99-5 104,17Z" />
      <glyph unicode="&#x201c;" glyph-name="quotedblleft" horiz-adv-x="360" d="M136,716l24-20q-22-26-38-60q-10-21-15-43q1,0 3,0q19,0 33-14t14-34q0-12-7-26q-13-25-42-25q-25,0-41,20.5T51,567q0,73 65,149h20Zm150,0l24-20q-21-26-37-60q-11-21-16-43q11,0 17-2q10-3 16-9q16-13 17-36q0-14-7-27q-13-25-42-25q-25,0-41,20.5T201,567q0,72 66,149h19Z" />
      <glyph unicode="&#x201d;" glyph-name="quotedblright" horiz-adv-x="360" d="M104,617h-2q-20,0-33.5,13T54,664q0,14 7,27q13,25 42,25q25,0 41-20.5T160,643q0-72-66-149H75L51,514q21,27 37,60q11,21 16,43Zm150,0q-1,0-3,0q-19,0-33,14t-14,34q0,12 7,26q13,25 42,25q25,0 41-20.5T310,643q0-72-66-149H225l-24,20q21,27 37,60q11,21 16,43Z" />
      <glyph unicode="&#x201e;" glyph-name="quotedblbase" horiz-adv-x="360" d="M104,17q0,0-1,0h-1Q82,17 68.5,30T54,64q0,14 7,27q13,25 42,25q25,0 41-20.5T160,43q0-72-66-149H75L51-87Q72-60 88-26Q99-5 104,17Zm150,0q-1,0-3,0q-19,0-33,14T204,64q0,13 7,27q13,25 42,25q25,0 41-20.5T310,43q0-72-66-149H225L201-87q21,27 37,61q11,21 16,43Z" />
      <glyph unicode="&#x2022;" glyph-name="bullet" horiz-adv-x="366" d="M183,271q40,0 69-29t29-69q0-41-29-70T183,74q-41,0-70,29T84,173q0,40 29,69t70,29Z" />
      <glyph unicode="&#x2039;" glyph-name="guilsinglleft" horiz-adv-x="267" d="M202,475l27-23L109,267L230,81L202,58H176L37,262v8L176,475h26Z" />
      <glyph unicode="&#x203a;" glyph-name="guilsinglright" horiz-adv-x="267" d="M65,475H91L230,270v-8L91,58H65L37,81L158,267L37,452l28,23Z" />
    </font>
</defs>
</svg>
