<?xml version="1.0" standalone="no"?>
<!DOCTYPE svg PUBLIC "-//W3C//DTD SVG 1.1//EN" "http://www.w3.org/Graphics/SVG/1.1/DTD/svg11.dtd">
<svg xmlns="http://www.w3.org/2000/svg">
<defs >
<font id="FiraSansCondensed" horiz-adv-x="505" ><font-face
    font-family="Fira Sans Condensed"
    units-per-em="1000"
    panose-1="2 11 5 3 5 0 0 2 0 4"
    ascent="935"
    descent="-265"
    alphabetic="0" />
<glyph unicode=" " glyph-name="space" horiz-adv-x="235" />
<glyph unicode="!" glyph-name="exclam" horiz-adv-x="229" d="M162 688L151 230H77L66 688H162ZM142 114T159 96T177 51Q177 25 160 6T114 -13Q87 -13 70 6T52 51Q52 77 69 95T114 114Q142 114 159 96Z" />
<glyph unicode="&quot;" glyph-name="quotedbl" horiz-adv-x="378" d="M70 427L58 688H144L133 427H70ZM246 427L234 688H320L309 427H246Z" />
<glyph unicode="#" glyph-name="numbersign" horiz-adv-x="472" d="M459 448H393L364 232H426V167H355L333 0H259L281 167H145L123 0H49L71 167H13V232H80L108 448H46V514H117L137 669H211L191 514H327L347 669H422L401 514H459V448ZM290 232L318 448H182L154 232H290Z" />
<glyph unicode="$" glyph-name="dollar" horiz-adv-x="482" d="M444 113T400 60T279 -7V-154H208V-10Q100 -5 22 75L70 127Q105 95 142 78T225 61Q283 61 317 94T352 183Q352 233 324 262T222 316Q128 349 87 392T46 506Q46 573 91 620T208 677V823H279V677Q323
671 358 653T427 602L380 550Q349 580 316 594T245 608Q196 608 167 582T137 511Q137 481 148 461T188 423T269 388Q358 357 401 313T444 187Q444 113 400 60Z" />
<glyph unicode="%" glyph-name="percent" horiz-adv-x="748" d="M555 709L614 674L196 -29L137 6L555 709ZM253 680T293 635T334 512Q334 433 294 388T188 343Q124 343 84 388T43 511Q43 590 83 635T188 680Q253 680 293 635ZM114 621T114 511Q114 402 188 402Q228
402 245 431T262 512Q262 621 188 621Q114 621 114 511ZM624 324T664 279T705 156Q705 77 665 32T560 -13Q495 -13 454 32T413 155Q413 234 454 279T560 324Q624 324 664 279ZM485 265T485 155Q485 46 560 46Q600 46 616 75T633 156Q633 265 560 265Q485 265 485
155Z" />
<glyph unicode="&amp;" glyph-name="ampersand" horiz-adv-x="665" d="M354 701T400 658T446 548Q446 490 413 448T315 363L475 194Q510 277 528 365L605 344Q575 228 526 144L635 34L566 -13L476 84Q436 36 387 12T275 -13Q216 -13 171 10T99 76T73 174Q73 236
104 281T200 371Q151 421 131 458T110 545Q110 613 154 657T278 701Q354 701 400 658ZM240 636T219 612T197 545Q197 509 211 481T266 410Q315 444 337 474T359 545Q359 591 338 613T279 636Q240 636 219 612ZM207 290T187 256T166 177Q166 121 199 89T285 57Q330
57 364 75T428 131L251 322Q207 290 187 256Z" />
<glyph unicode="&apos;" glyph-name="quotesingle" horiz-adv-x="202" d="M70 427L58 688H144L133 427H70Z" />
<glyph unicode="(" glyph-name="parenleft" horiz-adv-x="295" d="M260 806Q213 730 185 669T142 531T126 350Q126 247 141 170T185 32T260 -106L202 -144Q147 -61 113 3T57 154T35 350Q35 460 57 546T113 696T202 844L260 806Z" />
<glyph unicode=")" glyph-name="parenright" horiz-adv-x="295" d="M149 759T182 695T238 546T260 350Q260 240 238 155T183 5T93 -144L35 -106Q82 -30 109 31T153 170T169 350Q169 452 153 529T110 668T35 806L93 844Q149 759 182 695Z" />
<glyph unicode="*" glyph-name="asterisk" horiz-adv-x="408" d="M383 565L249 531L343 414L274 371L204 500L134 371L66 414L159 531L26 565L51 636L176 581L163 739H245L232 580L357 637L383 565Z" />
<glyph unicode="+" glyph-name="plus" horiz-adv-x="457" d="M267 518V368H403V294H267V145H190V294H54V368H190V518H267Z" />
<glyph unicode="," glyph-name="comma" horiz-adv-x="209" d="M131 114T148 96T165 52Q165 38 161 23T146 -20L91 -161H35L72 -2Q43 17 43 51Q43 78 60 96T105 114Q131 114 148 96Z" />
<glyph unicode="-" glyph-name="hyphen" horiz-adv-x="369" d="M55 276V350H314V276H55Z" />
<glyph unicode="." glyph-name="period" horiz-adv-x="212" d="M133 114T150 96T168 51Q168 25 151 6T105 -13Q78 -13 61 6T43 51Q43 77 60 95T105 114Q133 114 150 96Z" />
<glyph unicode="/" glyph-name="slash" horiz-adv-x="468" d="M302 807L378 790L166 -103L90 -86L302 807Z" />
<glyph unicode="0" glyph-name="zero" horiz-adv-x="521" d="M362 680T414 593T466 334Q466 160 414 74T261 -13Q159 -13 107 74T55 334Q55 680 261 680Q362 680 414 593ZM203 610T176 547T148 334Q148 184 175 121T261 58Q318 58 345 121T373 334Q373 484 346
547T261 610Q203 610 176 547Z" />
<glyph unicode="1" glyph-name="one" horiz-adv-x="390" d="M294 669V0H205V575L66 481L25 541L215 669H294Z" />
<glyph unicode="2" glyph-name="two" horiz-adv-x="441" d="M260 680T301 657T365 593T387 501Q387 440 364 386T288 264T128 74H402L391 0H29V70Q145 204 198 273T273 391T294 496Q294 549 268 578T196 607Q158 607 130 590T72 536L16 579Q89 680 203 680Q260
680 301 657Z" />
<glyph unicode="3" glyph-name="three" horiz-adv-x="451" d="M260 680T301 658T364 597T386 512Q386 448 353 409T259 355Q325 349 365 307T405 190Q405 133 380 87T307 14T196 -13Q138 -13 93 9T9 78L63 124Q94 90 124 75T193 59Q248 59 280 94T313 192Q313
258 281 287T187 317H145L156 384H184Q234 384 266 415T299 504Q299 554 272 582T196 610Q161 610 132 596T72 552L25 600Q103 680 205 680Q260 680 301 658Z" />
<glyph unicode="4" glyph-name="four" horiz-adv-x="484" d="M458 237V165H382V0H296V165H34V230L213 681L289 652L126 237H297L306 419H382V237H458Z" />
<glyph unicode="5" glyph-name="five" horiz-adv-x="459" d="M384 599H150V399Q197 427 248 427Q325 427 372 371T419 216Q419 149 393 97T318 16T206 -13Q149 -13 106 9T23 74L76 122Q105 91 135 76T204 60Q262 60 294 100T326 217Q326 360 218 360Q194 360 174
354T129 333H64V669H396L384 599Z" />
<glyph unicode="6" glyph-name="six" horiz-adv-x="496" d="M338 440T375 416T435 344T457 227Q457 153 433 99T364 16T263 -13Q156 -13 106 71T55 307Q55 422 83 506T165 635T291 680Q361 680 415 639L380 582Q338 610 293 610Q228 610 190 542T146 354Q203 440
292 440Q338 440 375 416ZM314 57T340 100T367 225Q367 302 342 337T272 372Q235 372 203 347T146 278Q148 163 175 110T262 57Q314 57 340 100Z" />
<glyph unicode="7" glyph-name="seven" horiz-adv-x="405" d="M379 669V603L150 -10L69 16L289 597H21V669H379Z" />
<glyph unicode="8" glyph-name="eight" horiz-adv-x="500" d="M397 326T429 283T461 177Q461 121 435 78T361 11T248 -13Q185 -13 138 10T65 77T39 175Q39 299 166 353Q112 382 88 419T64 508Q64 562 89 601T156 660T250 680Q330 680 383 636T437 512Q437 461
411 424T328 357Q397 326 429 283ZM205 614T178 588T151 507Q151 462 173 437T250 389L273 379Q315 407 332 436T350 508Q350 561 324 587T251 614Q205 614 178 588ZM307 57T339 87T371 177Q371 230 345 259T250 317L222 328Q174 303 152 267T129 177Q129 117 161
87T250 57Q307 57 339 87Z" />
<glyph unicode="9" glyph-name="nine" horiz-adv-x="486" d="M338 680T388 611T439 416Q439 283 403 199T296 64T106 -22L86 44Q208 82 271 145T345 321Q320 285 286 265T208 244Q162 244 123 270T62 344T39 458Q39 528 65 578T136 654T238 680Q338 680 388 611ZM298
312T347 397Q348 512 323 561T239 611Q187 611 158 573T129 457Q129 386 156 349T230 312Q298 312 347 397Z" />
<glyph unicode=":" glyph-name="colon" horiz-adv-x="212" d="M133 114T150 96T168 51Q168 25 151 6T105 -13Q78 -13 61 6T43 51Q43 77 60 95T105 114Q133 114 150 96ZM133 486T150 468T168 423Q168 397 151 378T105 359Q78 359 61 378T43 423Q43 449 60 467T105
486Q133 486 150 468Z" />
<glyph unicode=";" glyph-name="semicolon" horiz-adv-x="212" d="M131 114T148 96T165 52Q165 38 161 23T146 -20L91 -161H35L72 -2Q43 17 43 51Q43 78 60 96T105 114Q131 114 148 96ZM133 486T150 468T168 423Q168 397 151 378T105 359Q78 359 61 378T43 423Q43
449 60 467T105 486Q133 486 150 468Z" />
<glyph unicode="&lt;" glyph-name="less" horiz-adv-x="455" d="M378 543L410 475L119 333L410 189L378 122L45 291V375L378 543Z" />
<glyph unicode="=" glyph-name="equal" horiz-adv-x="453" d="M54 389V461H399V389H54ZM54 456V528H399V456H54Z" />
<glyph unicode="&gt;" glyph-name="greater" horiz-adv-x="455" d="M77 543L410 375V291L77 122L45 189L336 333L45 475L77 543Z" />
<glyph unicode="?" glyph-name="question" horiz-adv-x="422" d="M273 701T312 680T372 623T392 547Q392 510 381 484T352 440T306 401Q267 370 248 344T229 275V230H144V280Q144 322 156 351T186 399T233 440Q267 466 283 487T300 544Q300 583 276 605T211 627Q176
627 146 611T86 559L30 603Q68 652 114 676T218 701Q273 701 312 680ZM216 114T233 96T251 51Q251 25 234 6T188 -13Q161 -13 144 6T126 51Q126 77 143 95T188 114Q216 114 233 96Z" />
<glyph unicode="@" glyph-name="at" horiz-adv-x="924" d="M597 701T683 649T814 507T859 309Q859 219 837 151T775 46T681 9Q634 9 605 38T567 110Q549 66 517 39T437 12Q364 12 322 70T279 232Q279 359 332 425T476 491Q549 491 618 451V195Q618 130 633 103T679
75Q723 75 748 130T774 307Q774 456 698 542T477 629Q377 629 303 580T190 442T150 240Q150 122 189 37T301 -93T477 -139Q566 -139 649 -106L672 -173Q625 -191 579 -201T476 -211Q354 -211 261 -157T117 -1T65 240Q65 372 117 477T263 641T477 701Q597 701 683
649ZM478 75T501 96T539 148V415Q508 428 475 428Q420 428 392 380T363 231Q363 75 447 75Q478 75 501 96Z" />
<glyph unicode="A" glyph-name="A" horiz-adv-x="526" d="M423 0L377 175H146L100 0H7L206 688H320L519 0H423ZM165 248H358L262 614L165 248Z" />
<glyph unicode="B" glyph-name="B" horiz-adv-x="547" d="M509 338T509 194Q509 96 443 48T261 0H85V688H234Q353 688 417 644T481 515Q481 454 448 416T359 364Q509 338 509 194ZM178 617V395H264Q322 395 354 424T387 507Q387 565 352 591T243 617H178ZM335
73T374 101T413 196Q413 326 272 326H178V73H262Q335 73 374 101Z" />
<glyph unicode="C" glyph-name="C" horiz-adv-x="508" d="M367 701T407 685T486 633L438 577Q409 602 381 614T318 626Q240 626 194 560T148 345Q148 201 194 133T318 64Q357 64 385 78T446 119L493 64Q418 -13 313 -13Q236 -13 177 27T84 147T50 345Q50 461 84
541T178 661T313 701Q367 701 407 685Z" />
<glyph unicode="D" glyph-name="D" horiz-adv-x="581" d="M316 688T382 661T489 559T531 348Q531 154 449 77T240 0H85V688H227Q316 688 382 661ZM178 615V72H246Q332 72 383 131T434 348Q434 458 408 517T340 595T241 615H178Z" />
<glyph unicode="E" glyph-name="E" horiz-adv-x="469" d="M427 688L416 616H178V389H385V317H178V73H430V0H85V688H427Z" />
<glyph unicode="F" glyph-name="F" horiz-adv-x="438" d="M85 0V688H419L409 616H178V376H378V304H178V0H85Z" />
<glyph unicode="G" glyph-name="G" horiz-adv-x="573" d="M382 701T425 683T511 626L461 574Q427 602 396 614T326 627Q248 627 198 561T148 345Q148 193 190 128T316 62Q378 62 428 92V307H323L313 380H518V49Q423 -13 316 -13Q188 -13 119 76T50 346Q50 462
87 542T186 661T324 701Q382 701 425 683Z" />
<glyph unicode="H" glyph-name="H" horiz-adv-x="606" d="M428 0V323H178V0H85V688H178V399H428V688H521V0H428Z" />
<glyph unicode="I" glyph-name="I" horiz-adv-x="262" d="M178 688V0H85V688H178Z" />
<glyph unicode="J" glyph-name="J" horiz-adv-x="273" d="M193 96Q193 28 174 -16T119 -87T27 -135L2 -69Q43 -49 63 -29T92 21T100 100V688H193V96Z" />
<glyph unicode="K" glyph-name="K" horiz-adv-x="529" d="M178 688V0H85V688H178ZM516 688L283 374L532 0H425L182 368L417 688H516Z" />
<glyph unicode="L" glyph-name="L" horiz-adv-x="443" d="M178 688V79H429L419 0H85V688H178Z" />
<glyph unicode="M" glyph-name="M" horiz-adv-x="711" d="M656 0H567L546 311Q532 520 531 599L399 78H312L174 599Q175 512 163 309L143 0H55L108 688H229L357 179L480 688H603L656 0Z" />
<glyph unicode="N" glyph-name="N" horiz-adv-x="607" d="M522 0H402L157 591Q169 459 169 334V0H85V688H204L450 96Q446 131 442 192T437 313V688H522V0Z" />
<glyph unicode="O" glyph-name="O" horiz-adv-x="628" d="M437 701T507 611T578 344Q578 171 508 79T314 -13Q191 -13 121 77T50 343Q50 458 82 538T174 660T314 701Q437 701 507 611ZM148 627T148 343Q148 62 314 62Q396 62 438 129T480 344Q480 491 438 559T314
627Q148 627 148 343Z" />
<glyph unicode="P" glyph-name="P" horiz-adv-x="523" d="M365 688T430 635T495 476Q495 364 429 310T244 255H178V0H85V688H241Q365 688 430 635ZM320 327T359 360T398 475Q398 550 360 583T242 617H178V327H241Q320 327 359 360Z" />
<glyph unicode="Q" glyph-name="Q" horiz-adv-x="628" d="M530 33T608 -34L548 -107Q499 -55 446 -33T310 -10Q232 -10 174 30T83 149T50 343Q50 458 82 538T174 660T314 701Q437 701 507 610T578 344Q578 215 538 143T425 34Q530 33 608 -34ZM148 62T314 62Q396
62 438 129T480 344Q480 492 438 559T314 627Q148 627 148 343Q148 62 314 62Z" />
<glyph unicode="R" glyph-name="R" horiz-adv-x="545" d="M423 0L275 293H269H178V0H85V688H246Q492 688 492 494Q492 426 459 379T362 310L526 0H423ZM325 364T360 395T395 494Q395 557 360 587T244 617H178V364H253Q325 364 360 395Z" />
<glyph unicode="S" glyph-name="S" horiz-adv-x="496" d="M309 701T354 681T440 621L393 568Q359 598 326 612T253 627Q203 627 173 600T142 527Q142 497 154 476T195 437T277 401Q338 379 377 354T437 290T458 192Q458 133 431 87T354 14T235 -13Q110 -13 22
77L71 130Q108 97 146 80T232 62Q291 62 326 95T362 188Q362 239 334 269T229 325Q132 359 90 404T47 521Q47 572 72 613T144 678T248 701Q309 701 354 681Z" />
<glyph unicode="T" glyph-name="T" horiz-adv-x="463" d="M458 688L447 612H278V0H185V612H11V688H458Z" />
<glyph unicode="U" glyph-name="U" horiz-adv-x="588" d="M514 202Q514 107 457 47T294 -13Q187 -13 131 46T75 202V688H168V208Q168 63 294 63Q420 63 420 208V688H514V202Z" />
<glyph unicode="V" glyph-name="V" horiz-adv-x="509" d="M501 688L311 0H200L7 688H103L257 90L409 688H501Z" />
<glyph unicode="W" glyph-name="W" horiz-adv-x="749" d="M726 688L604 0H484L374 586L262 0H144L23 688H113L209 79L324 688H425L540 79L639 688H726Z" />
<glyph unicode="X" glyph-name="X" horiz-adv-x="488" d="M297 372L484 0H384L241 309L100 0H4L186 368L20 688H120L243 427L367 688H463L297 372Z" />
<glyph unicode="Y" glyph-name="Y" horiz-adv-x="498" d="M494 688L296 265V0H202V264L4 688H104L251 344L397 688H494Z" />
<glyph unicode="Z" glyph-name="Z" horiz-adv-x="472" d="M437 688V614L127 79H436L426 0H25V74L337 611H56V688H437Z" />
<glyph unicode="[" glyph-name="bracketleft" horiz-adv-x="289" d="M245 813V741H142V-45H245V-116H57V813H245Z" />
<glyph unicode="\" glyph-name="backslash" horiz-adv-x="468" d="M166 805L378 -86L302 -103L90 789L166 805Z" />
<glyph unicode="]" glyph-name="bracketright" horiz-adv-x="289" d="M232 813V-116H44V-45H147V741H44V813H232Z" />
<glyph unicode="^" glyph-name="asciicircum" horiz-adv-x="489" d="M284 837L453 527H360L244 760L129 527H37L204 837H284Z" />
<glyph unicode="_" glyph-name="underscore" horiz-adv-x="471" d="M19 -139V-63H452V-139H19Z" />
<glyph unicode="`" glyph-name="grave" horiz-adv-x="278" d="M71 797L251 684L225 638L33 725L71 797Z" />
<glyph unicode="a" glyph-name="a" horiz-adv-x="490" d="M409 88T418 73T446 49L427 -12Q388 -6 366 12T335 67Q284 -13 192 -13Q122 -13 81 30T40 147Q40 231 95 275T252 319H320V364Q320 419 298 443T224 468Q169 468 96 440L74 503Q162 539 238 539Q409 539
409 368V120Q409 88 418 73ZM283 55T320 137V261H262Q132 261 132 152Q132 105 153 80T213 55Q283 55 320 137Z" />
<glyph unicode="b" glyph-name="b" horiz-adv-x="532" d="M390 539T435 469T481 264Q481 136 432 62T297 -13Q257 -13 224 5T167 58L161 0H81V738L171 748V462Q196 498 230 518T307 539Q390 539 435 469ZM387 58T387 264Q387 375 360 421T283 468Q248 468 222
447T171 388V127Q190 96 217 77T276 58Q387 58 387 264Z" />
<glyph unicode="c" glyph-name="c" horiz-adv-x="428" d="M306 539T341 525T408 482L368 428Q344 447 320 456T268 466Q209 466 177 416T144 260Q144 62 268 62Q296 62 319 71T368 100L410 45Q346 -13 265 -13Q164 -13 107 57T49 259Q49 345 75 408T150 505T264
539Q306 539 341 525Z" />
<glyph unicode="d" glyph-name="d" horiz-adv-x="536" d="M455 739V0H375L369 69Q318 -13 232 -13Q146 -13 99 60T51 261Q51 344 74 407T141 504T240 539Q315 539 365 476V749L455 739ZM289 58T315 78T365 137V401Q320 468 260 468Q207 468 176 417T146 263Q146
158 174 108T253 58Q289 58 315 78Z" />
<glyph unicode="e" glyph-name="e" horiz-adv-x="494" d="M450 258T448 232H142Q146 140 179 100T269 59Q305 59 333 70T393 106L433 53Q359 -13 265 -13Q162 -13 106 58T49 259Q49 388 103 463T253 539Q348 539 399 472T450 279Q450 258 448 232ZM363 306Q363
471 254 471Q204 471 175 430T142 295H363V306Z" />
<glyph unicode="f" glyph-name="f" horiz-adv-x="306" d="M216 678T199 660T181 604V526H299L289 458H181V0H91V458H13V526H91V603Q91 669 131 709T244 749Q304 749 362 720L335 658Q294 678 253 678Q216 678 199 660Z" />
<glyph unicode="g" glyph-name="g" horiz-adv-x="470" d="M467 507Q424 490 334 490Q418 448 418 352Q418 273 369 225T234 176Q202 176 176 186Q148 166 148 135Q148 88 214 88H283Q361 88 407 49T453 -52Q453 -126 396 -168T229 -211Q115 -211 68 -172T20 -53H101Q101
-86 112 -105T151 -134T230 -144Q301 -144 332 -122T363 -59Q363 -21 338 -1T265 19H206Q137 19 103 45T69 116Q69 167 124 207Q82 231 62 267T41 356Q41 438 93 488T230 538Q309 538 352 549T442 583L467 507ZM182 475T157 445T131 356Q131 300 157 269T231 237Q330
237 330 357Q330 415 305 445T231 475Q182 475 157 445Z" />
<glyph unicode="h" glyph-name="h" horiz-adv-x="527" d="M379 539T414 497T450 383V0H360V372Q360 423 343 445T291 468Q225 468 171 374V0H81V738L171 748V451Q200 494 235 516T316 539Q379 539 414 497Z" />
<glyph unicode="i" glyph-name="i" horiz-adv-x="252" d="M171 526V0H81V526H171ZM152 774T168 757T185 715Q185 690 169 674T126 657Q100 657 84 673T67 715Q67 740 83 757T126 774Q152 774 168 757Z" />
<glyph unicode="j" glyph-name="j" horiz-adv-x="252" d="M171 21Q171 -46 154 -88T104 -157T16 -210L-12 -145Q23 -127 42 -109T71 -61T81 19V526H171V21ZM152 774T168 757T185 715Q185 690 169 674T126 657Q100 657 84 673T67 715Q67 740 83 757T126 774Q152
774 168 757Z" />
<glyph unicode="k" glyph-name="k" horiz-adv-x="466" d="M171 749V0H81V739L171 749ZM448 526L270 292L465 0H365L176 288L354 526H448Z" />
<glyph unicode="l" glyph-name="l" horiz-adv-x="264" d="M132 -13T104 16T76 97V739L166 749V100Q166 61 198 61Q211 61 227 67L247 4Q215 -13 180 -13Q132 -13 104 16Z" />
<glyph unicode="m" glyph-name="m" horiz-adv-x="769" d="M624 539T658 497T692 383V0H603V373Q603 469 541 469Q481 469 431 377V0H342V373Q342 469 280 469Q219 469 170 377V0H81V526H159L166 449Q224 539 306 539Q349 539 379 514T422 443Q483 539 567 539Q624
539 658 497Z" />
<glyph unicode="n" glyph-name="n" horiz-adv-x="527" d="M379 539T414 498T450 383V0H360V372Q360 423 343 445T291 468Q225 468 171 374V0H81V526H159L166 448Q227 539 316 539Q379 539 414 498Z" />
<glyph unicode="o" glyph-name="o" horiz-adv-x="526" d="M365 539T421 468T477 264Q477 136 420 62T263 -13Q162 -13 106 60T49 263Q49 394 106 466T264 539Q365 539 421 468ZM205 467T174 418T143 263Q143 58 263 58Q383 58 383 264Q383 369 353 418T264 467Q205
467 174 418Z" />
<glyph unicode="p" glyph-name="p" horiz-adv-x="532" d="M394 539T437 468T481 265Q481 137 433 62T297 -13Q219 -13 171 50V-200L81 -211V526H160L165 455Q219 539 308 539Q394 539 437 468ZM387 59T387 264Q387 371 362 419T284 468Q249 468 222 447T171 390V124Q212
59 276 59Q387 59 387 264Z" />
<glyph unicode="q" glyph-name="q" horiz-adv-x="536" d="M455 526V-211L365 -200V66Q343 29 309 8T231 -13Q146 -13 99 59T51 261Q51 344 74 407T140 504T240 539Q319 539 372 468L377 526H455ZM290 58T316 78T365 139V400Q321 468 260 468Q207 468 176 417T146
263Q146 58 253 58Q290 58 316 78Z" />
<glyph unicode="r" glyph-name="r" horiz-adv-x="349" d="M323 538T342 532L327 445Q308 451 286 451Q242 451 215 416T171 309V0H81V526H159L166 422Q205 538 297 538Q323 538 342 532Z" />
<glyph unicode="s" glyph-name="s" horiz-adv-x="427" d="M308 539T379 479L341 426Q309 448 281 459T222 470Q181 470 158 451T134 397Q134 364 156 345T242 306Q321 281 357 245T393 146Q393 72 339 30T204 -13Q97 -13 23 58L69 108Q132 57 202 57Q246 57 273
79T300 140Q300 168 291 185T257 215T185 244Q110 269 77 304T44 393Q44 435 66 468T127 520T217 539Q308 539 379 479Z" />
<glyph unicode="t" glyph-name="t" horiz-adv-x="327" d="M330 23Q280 -13 219 -13Q155 -13 121 24T86 128V458H11V526H86V647L176 658V526H292L282 458H176V129Q176 61 233 61Q250 61 264 66T297 81L330 23Z" />
<glyph unicode="u" glyph-name="u" horiz-adv-x="523" d="M442 0H364L359 79Q304 -13 212 -13Q149 -13 113 28T77 139V526H167V147Q167 101 184 80T237 58Q304 58 352 146V526H442V0Z" />
<glyph unicode="v" glyph-name="v" horiz-adv-x="445" d="M436 526L279 0H171L9 526H103L225 76L346 526H436Z" />
<glyph unicode="w" glyph-name="w" horiz-adv-x="655" d="M636 526L528 0H414L328 444L243 0H129L19 526H108L190 68L282 526H379L468 67L551 526H636Z" />
<glyph unicode="x" glyph-name="x" horiz-adv-x="438" d="M272 282L434 0H335L217 228L100 0H4L166 278L22 526H120L219 330L318 526H413L272 282Z" />
<glyph unicode="y" glyph-name="y" horiz-adv-x="446" d="M279 -2Q251 -95 200 -146T55 -211L45 -144Q92 -134 120 -117T165 -73T198 0H165L9 526H102L224 63L346 526H438L279 -2Z" />
<glyph unicode="z" glyph-name="z" horiz-adv-x="395" d="M368 526V459L119 74H369L360 0H20V67L269 452H41V526H368Z" />
<glyph unicode="{" glyph-name="braceleft" horiz-adv-x="292" d="M250 767Q208 767 191 751T173 696V460Q173 407 155 384T96 349Q137 338 155 315T174 239V4Q174 -35 191 -51T250 -67V-134Q163 -134 127 -100T91 8V238Q91 278 76 295T27 312V387Q62 387 76 404T91
462V692Q91 766 127 799T250 833V767Z" />
<glyph unicode="|" glyph-name="bar" horiz-adv-x="355" d="M220 807V-102H136V807H220Z" />
<glyph unicode="}" glyph-name="braceright" horiz-adv-x="292" d="M129 833T165 800T202 692V462Q202 422 216 405T266 387V312Q232 312 217 295T202 238V8Q202 -66 166 -100T42 -134V-67Q84 -67 101 -51T119 4V239Q119 292 137 314T197 349Q155 361 137 384T119
460V696Q119 734 102 750T43 767L42 833Q129 833 165 800Z" />
<glyph unicode="~" glyph-name="asciitilde" horiz-adv-x="443" d="M270 254T251 262T205 288Q201 290 189 297T166 308T147 312Q127 312 113 299T84 263L34 290Q55 331 83 356T152 382Q176 382 194 374T240 349Q260 336 272 330T297 324Q316 324 330 336T359
370L409 343Q388 303 361 279T294 254Q270 254 251 262Z" />
<glyph unicode="&#xa0;" glyph-name="uni00A0" horiz-adv-x="236" />
<glyph unicode="&#xa1;" glyph-name="exclamdown" horiz-adv-x="229" d="M142 489T159 471T177 425Q177 399 160 381T115 362Q87 362 70 380T52 425Q52 452 69 470T115 489Q142 489 159 471ZM152 248L163 -202H67L78 248H152Z" />
<glyph unicode="&#xa2;" glyph-name="cent" horiz-adv-x="428" d="M358 -2T294 -11V-154H223V-10Q141 4 95 73T49 259Q49 375 95 448T224 535V684H294V537Q356 530 408 482L368 428Q344 447 320 456T268 466Q209 466 177 416T144 260Q144 62 268 62Q296 62 319
71T368 100L410 45Q358 -2 294 -11Z" />
<glyph unicode="&#xa3;" glyph-name="sterling" horiz-adv-x="472" d="M200 148T187 121T136 74H429L419 0H37V70Q83 89 97 114T112 195V324H52V380H112V499Q112 579 157 629T283 680Q334 680 373 660T444 597L388 555Q366 583 344 596T290 609Q246 609 223 581T200
501V380H382V324H200V197Q200 148 187 121Z" />
<glyph unicode="&#xa4;" glyph-name="currency" horiz-adv-x="504" d="M427 92L358 169Q314 137 251 137Q192 137 146 170L76 92L28 137L102 218Q69 270 69 341Q69 409 101 463L26 546L77 590L146 512Q192 545 251 545Q312 545 358 512L428 590L476 545L403 465Q437
412 437 341Q437 270 404 218L478 136L427 92ZM305 204T332 239T359 342Q359 410 332 444T252 479Q199 479 172 444T145 342Q145 274 172 239T252 204Q305 204 332 239Z" />
<glyph unicode="&#xa5;" glyph-name="yen" horiz-adv-x="483" d="M479 669L309 344H409V286H287V194H409V137H287V0H196V137H75V194H196V286H75V344H174L4 669H99L243 368L387 669H479Z" />
<glyph unicode="&#xa6;" glyph-name="brokenbar" horiz-adv-x="355" d="M220 807V443H136V807H220ZM220 262V-102H136V262H220Z" />
<glyph unicode="&#xa7;" glyph-name="section" horiz-adv-x="486" d="M377 152T389 129T401 73Q401 7 353 -32T228 -72Q138 -72 69 -23L103 34Q159 -4 225 -4Q266 -4 290 15T314 67Q314 90 306 104T274 132T204 163Q128 191 96 222T63 311Q63 348 82 379T136 434Q110
453 98 477T86 535Q86 600 133 639T254 679Q302 679 339 666T410 626L376 573Q319 611 259 611Q218 611 196 592T173 540Q173 516 181 501T213 472T284 440Q357 413 389 381T422 296Q422 221 352 171Q377 152 389 129ZM145 286T164 267T240 226Q286 208 302 200Q341
238 341 283Q341 317 321 337T241 381Q220 389 183 406Q145 368 145 323Q145 286 164 267Z" />
<glyph unicode="&#xa8;" glyph-name="dieresis" horiz-adv-x="352" d="M108 762T123 747T138 709Q138 686 123 671T86 655Q63 655 48 670T33 709Q33 732 48 747T86 762Q108 762 123 747ZM295 762T310 747T325 709Q325 686 310 671T273 655Q251 655 236 670T220
709Q220 732 235 747T273 762Q295 762 310 747Z" />
<glyph unicode="&#xa9;" glyph-name="copyright" horiz-adv-x="729" d="M444 746T508 707T610 597T647 434Q647 342 610 271T509 161T365 122Q286 122 222 161T120 271T82 434Q82 526 119 597T221 707T365 746Q444 746 508 707ZM301 695T250 663T169 572T140 434Q140
356 169 297T249 207T365 175Q430 175 481 206T561 297T590 434Q590 513 561 572T481 663T365 695Q301 695 250 663ZM398 622T422 612T470 582L439 540Q422 553 407 558T371 564Q337 564 315 534T292 435Q292 369 314 338T373 307Q394 307 410 314T445 335L474
292Q427 247 367 247Q302 247 262 296T222 435Q222 525 263 573T368 622Q398 622 422 612Z" />
<glyph unicode="&#xaa;" glyph-name="ordfeminine" horiz-adv-x="455" d="M281 524V554Q281 591 264 607T207 623Q167 623 107 602L86 661Q156 688 220 688Q363 688 363 561V379Q363 357 369 346T391 329L374 272Q343 276 324 289T295 329Q256 271 182 271Q125
271 92 304T58 392Q58 456 102 490T227 524H281ZM252 334T281 386V472H234Q188 472 166 454T143 398Q143 367 158 351T202 334Q252 334 281 386ZM61 73H403V1H61V73Z" />
<glyph unicode="&#xab;" glyph-name="guillemotleft" horiz-adv-x="538" d="M212 532L267 496L143 287L267 78L212 41L55 256V316L212 532ZM428 532L483 496L359 287L483 78L428 41L271 256V316L428 532Z" />
<glyph unicode="&#xac;" glyph-name="logicalnot" horiz-adv-x="460" d="M406 359V148H327V287H54V359H406Z" />
<glyph unicode="&#xad;" glyph-name="uni00AD" horiz-adv-x="369" d="M55 276V350H314V276H55Z" />
<glyph unicode="&#xae;" glyph-name="registered" horiz-adv-x="575" d="M352 746T404 714T487 624T517 493Q517 421 487 364T405 274T287 241Q223 241 171 273T88 362T58 492Q58 564 88 622T170 713T287 746Q352 746 404 714ZM339 288T379 313T443 385T466 493Q466
554 443 601T380 673T287 699Q237 699 197 673T133 600T109 492Q109 431 132 385T196 314T287 288Q339 288 379 313ZM383 523T368 505T327 477L393 360H336L282 467H254V360H205V635H273Q383 635 383 551Q383 523 368 505ZM254 510H285Q332 510 332 552Q332 574
320 583T281 593H254V510Z" />
<glyph unicode="&#xaf;" glyph-name="overscore" horiz-adv-x="302" d="M275 669H33V735H275V669Z" />
<glyph unicode="&#xb0;" glyph-name="degree" horiz-adv-x="469" d="M158 385T125 403T71 457T50 543Q50 592 70 628T124 682T197 701Q236 701 269 683T323 629T343 543Q343 493 323 458T270 404T197 385Q158 385 125 403ZM232 444T253 469T275 543Q275 591 254
616T197 641Q162 641 141 617T119 543Q119 494 140 469T197 444Q232 444 253 469Z" />
<glyph unicode="&#xb1;" glyph-name="plusminus" horiz-adv-x="457" d="M56 0V72H401V0H56ZM267 547V397H403V323H267V174H190V323H54V397H190V547H267Z" />
<glyph unicode="&#xb2;" glyph-name="uni00B2" horiz-adv-x="362" d="M234 745T268 712T302 628Q302 592 288 561T240 489T138 381H312L304 322H60V377Q135 457 168 496T215 564T229 624Q229 654 213 670T170 687Q147 687 129 677T91 645L49 678Q99 745 177 745Q234
745 268 712Z" />
<glyph unicode="&#xb3;" glyph-name="uni00B3" horiz-adv-x="362" d="M237 746T269 716T302 639Q302 601 281 577T220 543Q263 540 289 514T315 440Q315 385 277 349T172 313Q94 313 45 373L85 409Q105 389 125 380T168 370Q202 370 221 390T241 444Q241 481 222
497T166 514H138L146 566H165Q195 566 213 583T232 631Q232 660 216 675T171 691Q149 691 130 683T89 656L54 694Q81 721 111 733T179 746Q237 746 269 716Z" />
<glyph unicode="&#xb4;" glyph-name="acute" horiz-adv-x="278" d="M213 797L251 725L59 638L33 684L213 797Z" />
<glyph unicode="&#xb5;" glyph-name="uni00B5" horiz-adv-x="528" d="M383 -12Q373 14 369 34T360 88Q337 44 306 17T235 -11Q204 -11 184 2T148 44Q159 11 163 -19T168 -94V-201L81 -210V526H171V153Q171 106 190 85T241 63Q309 63 352 160V526H442V179Q442 79
465 -1L383 -12Z" />
<glyph unicode="&#xb6;" glyph-name="paragraph" horiz-adv-x="668" d="M545 688V-200L465 -213V619H363V-200L283 -213V283Q180 288 129 343T78 486Q78 583 136 635T301 688H545Z" />
<glyph unicode="&#xb7;" glyph-name="middot" horiz-adv-x="212" d="M133 376T150 358T168 313Q168 287 151 268T105 249Q78 249 61 268T43 313Q43 339 60 357T105 376Q133 376 150 358Z" />
<glyph unicode="&#xb8;" glyph-name="cedilla" horiz-adv-x="256" d="M142 -60Q186 -65 207 -86T229 -143Q229 -188 198 -213T117 -239Q67 -239 33 -215L57 -169Q83 -182 112 -182Q133 -182 145 -172T158 -143Q158 -121 139 -111T77 -100L89 16H142V-60Z" />
<glyph unicode="&#xb9;" glyph-name="uni00B9" horiz-adv-x="362" d="M248 738V322H178V665L90 609L57 656L185 738H248Z" />
<glyph unicode="&#xba;" glyph-name="ordmasculine" horiz-adv-x="454" d="M310 688T356 635T402 480Q402 382 356 327T227 271Q144 271 98 325T51 480Q51 578 98 633T227 688Q310 688 356 635ZM182 623T160 590T137 480Q137 404 159 370T227 336Q271 336 293
370T316 480Q316 557 294 590T227 623Q182 623 160 590ZM54 0V72H399V0H54Z" />
<glyph unicode="&#xbb;" glyph-name="guillemotright" horiz-adv-x="534" d="M110 532L267 316V256L110 41L55 78L179 287L55 496L110 532ZM322 532L479 316V256L322 41L267 78L391 287L267 496L322 532Z" />
<glyph unicode="&#xbc;" glyph-name="onequarter" horiz-adv-x="847" d="M248 688V272H178V615L90 559L57 606L185 688H248ZM579 751L636 725L269 -76L212 -51L579 751ZM809 153V97H761V0H693V97H522V148L636 424L696 401L595 153H694L705 261H761V153H809Z" />
<glyph unicode="&#xbd;" glyph-name="onehalf" horiz-adv-x="847" d="M248 688V272H178V615L90 559L57 606L185 688H248ZM579 751L636 725L269 -76L212 -51L579 751ZM719 423T753 390T787 306Q787 270 773 239T725 167T623 59H797L789 0H545V55Q620 135 653 174T700
242T714 302Q714 332 698 348T655 365Q632 365 614 355T576 323L534 356Q584 423 662 423Q719 423 753 390Z" />
<glyph unicode="&#xbe;" glyph-name="threequarters" horiz-adv-x="847" d="M237 696T269 666T302 589Q302 551 281 527T220 493Q263 490 289 464T315 390Q315 335 277 299T172 263Q94 263 45 323L85 359Q105 339 125 330T168 320Q202 320 221 340T241 394Q241
431 222 447T166 464H138L146 516H165Q195 516 213 533T232 581Q232 610 216 625T171 641Q149 641 130 633T89 606L54 644Q81 671 111 683T179 696Q237 696 269 666ZM579 751L636 725L269 -76L212 -51L579 751ZM809 153V97H761V0H693V97H522V148L636 424L696 401L595
153H694L705 261H761V153H809Z" />
<glyph unicode="&#xbf;" glyph-name="questiondown" horiz-adv-x="422" d="M206 362T189 380T171 425Q171 451 188 469T234 488Q261 488 278 470T296 425Q296 399 279 381T234 362Q206 362 189 380ZM149 -214T110 -193T50 -137T30 -62Q30 -25 42 2T71 46T117 86Q155
115 174 140T193 207V245H278V203Q278 162 266 134T236 88T190 47Q156 21 139 -1T122 -59Q122 -97 146 -118T211 -140Q246 -140 276 -124T335 -72L392 -116Q354 -165 308 -189T204 -214Q149 -214 110 -193Z" />
<glyph unicode="&#xc0;" glyph-name="Agrave" horiz-adv-x="526" d="M423 0L377 175H146L100 0H7L206 688H320L519 0H423ZM165 248H358L262 614L165 248ZM187 908L368 803L344 755L150 835L187 908Z" />
<glyph unicode="&#xc1;" glyph-name="Aacute" horiz-adv-x="526" d="M423 0L377 175H146L100 0H7L206 688H320L519 0H423ZM165 248H358L262 614L165 248ZM334 908L372 835L178 756L154 803L334 908Z" />
<glyph unicode="&#xc2;" glyph-name="Acircumflex" horiz-adv-x="526" d="M423 0L377 175H146L100 0H7L206 688H320L519 0H423ZM165 248H358L262 614L165 248ZM148 761L113 800L235 912H290L411 800L376 761L262 842L148 761Z" />
<glyph unicode="&#xc3;" glyph-name="Atilde" horiz-adv-x="526" d="M423 0L377 175H146L100 0H7L206 688H320L519 0H423ZM165 248H358L262 614L165 248ZM299 785T285 791T252 811Q242 818 231 823T211 829Q196 829 185 819T161 787L113 810Q130 849 154 871T209
894Q226 894 240 888T271 869Q285 859 295 855T316 850Q330 850 341 860T364 893L413 870Q381 785 317 785Q299 785 285 791Z" />
<glyph unicode="&#xc4;" glyph-name="Adieresis" horiz-adv-x="526" d="M423 0L377 175H146L100 0H7L206 688H320L519 0H423ZM165 248H358L262 614L165 248ZM194 888T209 873T224 835Q224 812 209 797T172 781Q149 781 134 796T119 835Q119 858 134 873T172 888Q194
888 209 873ZM381 888T396 873T411 835Q411 812 396 797T359 781Q337 781 322 796T306 835Q306 858 321 873T359 888Q381 888 396 873Z" />
<glyph unicode="&#xc5;" glyph-name="Aring" horiz-adv-x="526" d="M423 0L377 175H146L100 0H7L206 688H320L519 0H423ZM165 248H358L262 614L165 248ZM310 961T338 932T367 856Q367 809 339 780T263 750Q216 750 188 779T159 856Q159 903 187 932T263 961Q310
961 338 932ZM217 913T217 856Q217 799 263 799Q310 799 310 856Q310 913 263 913Q217 913 217 856Z" />
<glyph unicode="&#xc6;" glyph-name="AE" horiz-adv-x="730" d="M486 73H693V0H410L376 173H144L87 0H-9L235 688H654L643 616H372L420 388H646V316H435L486 73ZM168 246H362L289 616L168 246Z" />
<glyph unicode="&#xc7;" glyph-name="Ccedilla" horiz-adv-x="508" d="M427 -4T337 -12V-60Q381 -65 402 -86T424 -143Q424 -188 393 -213T312 -239Q262 -239 228 -215L252 -169Q278 -182 307 -182Q328 -182 340 -172T353 -143Q353 -121 334 -111T272 -100L281
-11Q176 1 113 92T50 345Q50 461 84 541T178 661T313 701Q367 701 407 685T486 633L438 577Q409 602 381 614T318 626Q240 626 194 560T148 345Q148 201 194 133T318 64Q357 64 385 78T446 119L493 64Q427 -4 337 -12Z" />
<glyph unicode="&#xc8;" glyph-name="Egrave" horiz-adv-x="469" d="M427 688L416 616H178V389H385V317H178V73H430V0H85V688H427ZM182 908L363 803L339 755L145 835L182 908Z" />
<glyph unicode="&#xc9;" glyph-name="Eacute" horiz-adv-x="469" d="M427 688L416 616H178V389H385V317H178V73H430V0H85V688H427ZM329 908L367 835L173 756L149 803L329 908Z" />
<glyph unicode="&#xca;" glyph-name="Ecircumflex" horiz-adv-x="469" d="M427 688L416 616H178V389H385V317H178V73H430V0H85V688H427ZM143 761L108 800L230 912H285L406 800L371 761L257 842L143 761Z" />
<glyph unicode="&#xcb;" glyph-name="Edieresis" horiz-adv-x="469" d="M427 688L416 616H178V389H385V317H178V73H430V0H85V688H427ZM189 888T204 873T219 835Q219 812 204 797T167 781Q144 781 129 796T114 835Q114 858 129 873T167 888Q189 888 204 873ZM376
888T391 873T406 835Q406 812 391 797T354 781Q332 781 317 796T301 835Q301 858 316 873T354 888Q376 888 391 873Z" />
<glyph unicode="&#xcc;" glyph-name="Igrave" horiz-adv-x="262" d="M178 688V0H85V688H178ZM55 908L236 803L212 755L18 835L55 908Z" />
<glyph unicode="&#xcd;" glyph-name="Iacute" horiz-adv-x="262" d="M178 688V0H85V688H178ZM202 908L240 835L46 756L22 803L202 908Z" />
<glyph unicode="&#xce;" glyph-name="Icircumflex" horiz-adv-x="262" d="M178 688V0H85V688H178ZM16 761L-19 800L103 912H158L279 800L244 761L130 842L16 761Z" />
<glyph unicode="&#xcf;" glyph-name="Idieresis" horiz-adv-x="262" d="M178 688V0H85V688H178ZM62 888T77 873T92 835Q92 812 77 797T40 781Q17 781 2 796T-13 835Q-13 858 2 873T40 888Q62 888 77 873ZM249 888T264 873T279 835Q279 812 264 797T227 781Q205
781 190 796T174 835Q174 858 189 873T227 888Q249 888 264 873Z" />
<glyph unicode="&#xd0;" glyph-name="Eth" horiz-adv-x="593" d="M327 688T393 661T500 559T542 348Q542 154 460 77T251 0H96V320H20V386H96V688H238Q327 688 393 661ZM343 72T394 131T445 348Q445 458 419 517T351 595T252 615H189V386H323V320H189V72H257Q343
72 394 131Z" />
<glyph unicode="&#xd1;" glyph-name="Ntilde" horiz-adv-x="607" d="M522 0H402L157 591Q169 459 169 334V0H85V688H204L450 96Q446 131 442 192T437 313V688H522V0ZM346 785T332 791T299 811Q289 818 278 823T258 829Q243 829 232 819T208 787L160 810Q177 849
201 871T256 894Q273 894 287 888T318 869Q332 859 342 855T363 850Q377 850 388 860T411 893L460 870Q428 785 364 785Q346 785 332 791Z" />
<glyph unicode="&#xd2;" glyph-name="Ograve" horiz-adv-x="628" d="M437 701T507 611T578 344Q578 171 508 79T314 -13Q191 -13 121 77T50 343Q50 458 82 538T174 660T314 701Q437 701 507 611ZM148 627T148 343Q148 62 314 62Q396 62 438 129T480 344Q480 491
438 559T314 627Q148 627 148 343ZM238 908L419 803L395 755L201 835L238 908Z" />
<glyph unicode="&#xd3;" glyph-name="Oacute" horiz-adv-x="628" d="M437 701T507 611T578 344Q578 171 508 79T314 -13Q191 -13 121 77T50 343Q50 458 82 538T174 660T314 701Q437 701 507 611ZM148 627T148 343Q148 62 314 62Q396 62 438 129T480 344Q480 491
438 559T314 627Q148 627 148 343ZM385 908L423 835L229 756L205 803L385 908Z" />
<glyph unicode="&#xd4;" glyph-name="Ocircumflex" horiz-adv-x="628" d="M437 701T507 611T578 344Q578 171 508 79T314 -13Q191 -13 121 77T50 343Q50 458 82 538T174 660T314 701Q437 701 507 611ZM148 627T148 343Q148 62 314 62Q396 62 438 129T480 344Q480
491 438 559T314 627Q148 627 148 343ZM199 761L164 800L286 912H341L462 800L427 761L313 842L199 761Z" />
<glyph unicode="&#xd5;" glyph-name="Otilde" horiz-adv-x="628" d="M437 701T507 611T578 344Q578 171 508 79T314 -13Q191 -13 121 77T50 343Q50 458 82 538T174 660T314 701Q437 701 507 611ZM148 627T148 343Q148 62 314 62Q396 62 438 129T480 344Q480 491
438 559T314 627Q148 627 148 343ZM350 785T336 791T303 811Q293 818 282 823T262 829Q247 829 236 819T212 787L164 810Q181 849 205 871T260 894Q277 894 291 888T322 869Q336 859 346 855T367 850Q381 850 392 860T415 893L464 870Q432 785 368 785Q350 785
336 791Z" />
<glyph unicode="&#xd6;" glyph-name="Odieresis" horiz-adv-x="628" d="M437 701T507 611T578 344Q578 171 508 79T314 -13Q191 -13 121 77T50 343Q50 458 82 538T174 660T314 701Q437 701 507 611ZM148 627T148 343Q148 62 314 62Q396 62 438 129T480 344Q480
491 438 559T314 627Q148 627 148 343ZM245 888T260 873T275 835Q275 812 260 797T223 781Q200 781 185 796T170 835Q170 858 185 873T223 888Q245 888 260 873ZM432 888T447 873T462 835Q462 812 447 797T410 781Q388 781 373 796T357 835Q357 858 372 873T410
888Q432 888 447 873Z" />
<glyph unicode="&#xd7;" glyph-name="multiply" horiz-adv-x="453" d="M336 484L392 437L278 308L392 177L336 130L227 258L117 130L61 177L174 306L61 437L117 484L225 355L336 484Z" />
<glyph unicode="&#xd8;" glyph-name="Oslash" horiz-adv-x="628" d="M507 631T542 550T578 344Q578 171 508 79T314 -13Q284 -13 255 -7L225 -125L151 -105L186 19Q121 57 86 139T50 343Q50 458 82 538T174 660T314 701Q341 701 371 696L403 817L477 797L441 669Q507
631 542 550ZM232 627T189 559T145 343Q145 149 220 90L359 622Q336 627 314 627Q232 627 189 559ZM482 541T407 599L268 66Q291 61 314 61Q398 61 440 129T482 351Q482 541 407 599Z" />
<glyph unicode="&#xd9;" glyph-name="Ugrave" horiz-adv-x="588" d="M514 202Q514 107 457 47T294 -13Q187 -13 131 46T75 202V688H168V208Q168 63 294 63Q420 63 420 208V688H514V202ZM218 908L399 803L375 755L181 835L218 908Z" />
<glyph unicode="&#xda;" glyph-name="Uacute" horiz-adv-x="588" d="M514 202Q514 107 457 47T294 -13Q187 -13 131 46T75 202V688H168V208Q168 63 294 63Q420 63 420 208V688H514V202ZM365 908L403 835L209 756L185 803L365 908Z" />
<glyph unicode="&#xdb;" glyph-name="Ucircumflex" horiz-adv-x="588" d="M514 202Q514 107 457 47T294 -13Q187 -13 131 46T75 202V688H168V208Q168 63 294 63Q420 63 420 208V688H514V202ZM179 761L144 800L266 912H321L442 800L407 761L293 842L179 761Z" />
<glyph unicode="&#xdc;" glyph-name="Udieresis" horiz-adv-x="588" d="M514 202Q514 107 457 47T294 -13Q187 -13 131 46T75 202V688H168V208Q168 63 294 63Q420 63 420 208V688H514V202ZM225 888T240 873T255 835Q255 812 240 797T203 781Q180 781 165 796T150
835Q150 858 165 873T203 888Q225 888 240 873ZM412 888T427 873T442 835Q442 812 427 797T390 781Q368 781 353 796T337 835Q337 858 352 873T390 888Q412 888 427 873Z" />
<glyph unicode="&#xdd;" glyph-name="Yacute" horiz-adv-x="498" d="M494 688L296 265V0H202V264L4 688H104L251 344L397 688H494ZM320 908L358 835L164 756L140 803L320 908Z" />
<glyph unicode="&#xde;" glyph-name="Thorn" horiz-adv-x="523" d="M366 570T430 517T495 355Q495 240 430 185T248 129H178V0H85V688H178V570H245Q366 570 430 517ZM320 201T359 235T399 354Q399 431 360 465T243 499H178V201H242Q320 201 359 235Z" />
<glyph unicode="&#xdf;" glyph-name="germandbls" horiz-adv-x="535" d="M317 749T354 731T412 680T432 609Q432 570 418 546T375 493Q355 474 345 460T335 426Q335 404 349 387T396 345Q429 319 450 297T487 241T503 160Q503 108 482 69T424 9T342 -13Q288 -13
247 11L275 72Q301 60 331 60Q368 60 390 86T412 161Q412 208 391 237T328 302Q291 332 273 357T254 418Q254 446 265 465T299 506Q323 531 335 551T347 603Q347 640 325 660T266 680Q221 680 196 649T171 555V0H81V554Q81 643 131 696T268 749Q317 749 354 731Z"
/>
<glyph unicode="&#xe0;" glyph-name="agrave" horiz-adv-x="490" d="M409 88T418 73T446 49L427 -12Q388 -6 366 12T335 67Q284 -13 192 -13Q122 -13 81 30T40 147Q40 231 95 275T252 319H320V364Q320 419 298 443T224 468Q169 468 96 440L74 503Q162 539 238
539Q409 539 409 368V120Q409 88 418 73ZM283 55T320 137V261H262Q132 261 132 152Q132 105 153 80T213 55Q283 55 320 137ZM173 797L353 684L327 638L135 725L173 797Z" />
<glyph unicode="&#xe1;" glyph-name="aacute" horiz-adv-x="490" d="M409 88T418 73T446 49L427 -12Q388 -6 366 12T335 67Q284 -13 192 -13Q122 -13 81 30T40 147Q40 231 95 275T252 319H320V364Q320 419 298 443T224 468Q169 468 96 440L74 503Q162 539 238
539Q409 539 409 368V120Q409 88 418 73ZM283 55T320 137V261H262Q132 261 132 152Q132 105 153 80T213 55Q283 55 320 137ZM303 797L341 725L149 638L123 684L303 797Z" />
<glyph unicode="&#xe2;" glyph-name="acircumflex" horiz-adv-x="490" d="M409 88T418 73T446 49L427 -12Q388 -6 366 12T335 67Q284 -13 192 -13Q122 -13 81 30T40 147Q40 231 95 275T252 319H320V364Q320 419 298 443T224 468Q169 468 96 440L74 503Q162 539
238 539Q409 539 409 368V120Q409 88 418 73ZM283 55T320 137V261H262Q132 261 132 152Q132 105 153 80T213 55Q283 55 320 137ZM123 637L88 676L209 793H265L386 676L351 637L237 723L123 637Z" />
<glyph unicode="&#xe3;" glyph-name="atilde" horiz-adv-x="490" d="M409 88T418 73T446 49L427 -12Q388 -6 366 12T335 67Q284 -13 192 -13Q122 -13 81 30T40 147Q40 231 95 275T252 319H320V364Q320 419 298 443T224 468Q169 468 96 440L74 503Q162 539 238
539Q409 539 409 368V120Q409 88 418 73ZM283 55T320 137V261H262Q132 261 132 152Q132 105 153 80T213 55Q283 55 320 137ZM273 659T259 665T226 685Q216 692 205 697T185 703Q170 703 159 693T135 661L87 684Q104 723 128 745T183 768Q200 768 214 762T245 743Q259
733 269 729T290 724Q304 724 315 734T338 767L387 744Q355 659 291 659Q273 659 259 665Z" />
<glyph unicode="&#xe4;" glyph-name="adieresis" horiz-adv-x="490" d="M409 88T418 73T446 49L427 -12Q388 -6 366 12T335 67Q284 -13 192 -13Q122 -13 81 30T40 147Q40 231 95 275T252 319H320V364Q320 419 298 443T224 468Q169 468 96 440L74 503Q162 539 238
539Q409 539 409 368V120Q409 88 418 73ZM283 55T320 137V261H262Q132 261 132 152Q132 105 153 80T213 55Q283 55 320 137ZM165 762T180 747T195 709Q195 686 180 671T143 655Q120 655 105 670T90 709Q90 732 105 747T143 762Q165 762 180 747ZM352 762T367 747T382
709Q382 686 367 671T330 655Q308 655 293 670T277 709Q277 732 292 747T330 762Q352 762 367 747Z" />
<glyph unicode="&#xe5;" glyph-name="aring" horiz-adv-x="490" d="M409 88T418 73T446 49L427 -12Q388 -6 366 12T335 67Q284 -13 192 -13Q122 -13 81 30T40 147Q40 231 95 275T252 319H320V364Q320 419 298 443T224 468Q169 468 96 440L74 503Q162 539 238 539Q409
539 409 368V120Q409 88 418 73ZM283 55T320 137V261H262Q132 261 132 152Q132 105 153 80T213 55Q283 55 320 137ZM284 835T312 806T341 730Q341 683 313 654T237 624Q190 624 162 653T133 730Q133 777 161 806T237 835Q284 835 312 806ZM191 787T191 730Q191
673 237 673Q284 673 284 730Q284 787 237 787Q191 787 191 730Z" />
<glyph unicode="&#xe6;" glyph-name="ae" horiz-adv-x="769" d="M725 258T723 232H416Q422 142 456 101T546 59Q580 59 608 70T667 106L707 54Q632 -13 539 -13Q480 -13 435 12T363 86Q329 33 289 10T196 -13Q125 -13 83 31T40 147Q40 229 96 274T255 319H323V360Q323
418 301 443T226 468Q174 468 99 440L78 503Q166 539 240 539Q297 539 331 518T384 454Q437 539 534 539Q624 539 674 471T725 279Q725 258 723 232ZM637 306Q637 471 530 471Q424 471 416 295H637V306ZM253 55T282 77T338 147Q324 197 324 253V260H266Q135 260
135 151Q135 104 156 80T216 55Q253 55 282 77Z" />
<glyph unicode="&#xe7;" glyph-name="ccedilla" horiz-adv-x="428" d="M325 -65T346 -86T368 -143Q368 -188 337 -213T256 -239Q206 -239 172 -215L196 -169Q222 -182 251 -182Q272 -182 284 -172T297 -143Q297 -121 278 -111T216 -100L225 -10Q142 3 96 72T49
259Q49 345 75 408T150 505T264 539Q306 539 341 525T408 482L368 428Q344 447 320 456T268 466Q209 466 177 416T144 260Q144 62 268 62Q296 62 319 71T368 100L410 45Q352 -8 281 -12V-60Q325 -65 346 -86Z" />
<glyph unicode="&#xe8;" glyph-name="egrave" horiz-adv-x="494" d="M450 258T448 232H142Q146 140 179 100T269 59Q305 59 333 70T393 106L433 53Q359 -13 265 -13Q162 -13 106 58T49 259Q49 388 103 463T253 539Q348 539 399 472T450 279Q450 258 448 232ZM363
306Q363 471 254 471Q204 471 175 430T142 295H363V306ZM190 797L370 684L344 638L152 725L190 797Z" />
<glyph unicode="&#xe9;" glyph-name="eacute" horiz-adv-x="494" d="M450 258T448 232H142Q146 140 179 100T269 59Q305 59 333 70T393 106L433 53Q359 -13 265 -13Q162 -13 106 58T49 259Q49 388 103 463T253 539Q348 539 399 472T450 279Q450 258 448 232ZM363
306Q363 471 254 471Q204 471 175 430T142 295H363V306ZM320 797L358 725L166 638L140 684L320 797Z" />
<glyph unicode="&#xea;" glyph-name="ecircumflex" horiz-adv-x="494" d="M450 258T448 232H142Q146 140 179 100T269 59Q305 59 333 70T393 106L433 53Q359 -13 265 -13Q162 -13 106 58T49 259Q49 388 103 463T253 539Q348 539 399 472T450 279Q450 258 448 232ZM363
306Q363 471 254 471Q204 471 175 430T142 295H363V306ZM140 637L105 676L226 793H282L403 676L368 637L254 723L140 637Z" />
<glyph unicode="&#xeb;" glyph-name="edieresis" horiz-adv-x="494" d="M450 258T448 232H142Q146 140 179 100T269 59Q305 59 333 70T393 106L433 53Q359 -13 265 -13Q162 -13 106 58T49 259Q49 388 103 463T253 539Q348 539 399 472T450 279Q450 258 448 232ZM363
306Q363 471 254 471Q204 471 175 430T142 295H363V306ZM182 762T197 747T212 709Q212 686 197 671T160 655Q137 655 122 670T107 709Q107 732 122 747T160 762Q182 762 197 747ZM369 762T384 747T399 709Q399 686 384 671T347 655Q325 655 310 670T294 709Q294
732 309 747T347 762Q369 762 384 747Z" />
<glyph unicode="&#xec;" glyph-name="igrave" horiz-adv-x="252" d="M171 526V0H81V526H171ZM62 797L242 684L216 638L24 725L62 797Z" />
<glyph unicode="&#xed;" glyph-name="iacute" horiz-adv-x="252" d="M171 526V0H81V526H171ZM192 797L230 725L38 638L12 684L192 797Z" />
<glyph unicode="&#xee;" glyph-name="icircumflex" horiz-adv-x="252" d="M171 526V0H81V526H171ZM12 637L-23 676L98 793H154L275 676L240 637L126 723L12 637Z" />
<glyph unicode="&#xef;" glyph-name="idieresis" horiz-adv-x="252" d="M171 526V0H81V526H171ZM54 762T69 747T84 709Q84 686 69 671T32 655Q9 655 -6 670T-21 709Q-21 732 -6 747T32 762Q54 762 69 747ZM241 762T256 747T271 709Q271 686 256 671T219 655Q197
655 182 670T166 709Q166 732 181 747T219 762Q241 762 256 747Z" />
<glyph unicode="&#xf0;" glyph-name="eth" horiz-adv-x="516" d="M390 599T426 505T462 274Q462 139 406 63T253 -13Q193 -13 147 16T75 100T49 234Q49 300 71 354T134 441T229 473Q310 473 364 406Q353 473 328 523T256 612L191 541L132 570L203 648Q151 673
102 684L119 749Q189 734 252 701L316 774L368 733L308 665Q390 599 426 505ZM309 58T340 110T371 269L370 328Q322 404 249 404Q194 404 167 360T140 236Q140 146 169 102T253 58Q309 58 340 110Z" />
<glyph unicode="&#xf1;" glyph-name="ntilde" horiz-adv-x="527" d="M379 539T414 498T450 383V0H360V372Q360 423 343 445T291 468Q225 468 171 374V0H81V526H159L166 448Q227 539 316 539Q379 539 414 498ZM304 659T290 665T257 685Q247 692 236 697T216 703Q201
703 190 693T166 661L118 684Q135 723 159 745T214 768Q231 768 245 762T276 743Q290 733 300 729T321 724Q335 724 346 734T369 767L418 744Q386 659 322 659Q304 659 290 665Z" />
<glyph unicode="&#xf2;" glyph-name="ograve" horiz-adv-x="526" d="M365 539T421 468T477 264Q477 136 420 62T263 -13Q162 -13 106 60T49 263Q49 394 106 466T264 539Q365 539 421 468ZM205 467T174 418T143 263Q143 58 263 58Q383 58 383 264Q383 369 353 418T264
467Q205 467 174 418ZM199 797L379 684L353 638L161 725L199 797Z" />
<glyph unicode="&#xf3;" glyph-name="oacute" horiz-adv-x="526" d="M365 539T421 468T477 264Q477 136 420 62T263 -13Q162 -13 106 60T49 263Q49 394 106 466T264 539Q365 539 421 468ZM205 467T174 418T143 263Q143 58 263 58Q383 58 383 264Q383 369 353 418T264
467Q205 467 174 418ZM329 797L367 725L175 638L149 684L329 797Z" />
<glyph unicode="&#xf4;" glyph-name="ocircumflex" horiz-adv-x="526" d="M365 539T421 468T477 264Q477 136 420 62T263 -13Q162 -13 106 60T49 263Q49 394 106 466T264 539Q365 539 421 468ZM205 467T174 418T143 263Q143 58 263 58Q383 58 383 264Q383 369
353 418T264 467Q205 467 174 418ZM149 637L114 676L235 793H291L412 676L377 637L263 723L149 637Z" />
<glyph unicode="&#xf5;" glyph-name="otilde" horiz-adv-x="526" d="M365 539T421 468T477 264Q477 136 420 62T263 -13Q162 -13 106 60T49 263Q49 394 106 466T264 539Q365 539 421 468ZM205 467T174 418T143 263Q143 58 263 58Q383 58 383 264Q383 369 353 418T264
467Q205 467 174 418ZM299 659T285 665T252 685Q242 692 231 697T211 703Q196 703 185 693T161 661L113 684Q130 723 154 745T209 768Q226 768 240 762T271 743Q285 733 295 729T316 724Q330 724 341 734T364 767L413 744Q381 659 317 659Q299 659 285 665Z" />
<glyph unicode="&#xf6;" glyph-name="odieresis" horiz-adv-x="526" d="M365 539T421 468T477 264Q477 136 420 62T263 -13Q162 -13 106 60T49 263Q49 394 106 466T264 539Q365 539 421 468ZM205 467T174 418T143 263Q143 58 263 58Q383 58 383 264Q383 369 353
418T264 467Q205 467 174 418ZM191 762T206 747T221 709Q221 686 206 671T169 655Q146 655 131 670T116 709Q116 732 131 747T169 762Q191 762 206 747ZM378 762T393 747T408 709Q408 686 393 671T356 655Q334 655 319 670T303 709Q303 732 318 747T356 762Q378
762 393 747Z" />
<glyph unicode="&#xf7;" glyph-name="divide" horiz-adv-x="453" d="M254 168T271 150T289 105Q289 79 272 60T226 41Q199 41 182 60T164 105Q164 131 181 149T226 168Q254 168 271 150ZM254 621T271 603T289 558Q289 532 272 513T226 494Q199 494 182 513T164
558Q164 584 181 602T226 621Q254 621 271 603ZM54 296V368H399V296H54Z" />
<glyph unicode="&#xf8;" glyph-name="oslash" horiz-adv-x="526" d="M424 478T450 416T477 264Q477 136 420 62T263 -13Q237 -13 218 -9L183 -129L113 -109L152 17Q102 49 76 112T49 263Q49 394 106 466T264 539Q290 539 310 535L344 655L413 635L375 509Q424
478 450 416ZM202 469T170 419T138 263Q138 193 150 150T186 83L296 466Q281 469 264 469Q202 469 170 419ZM388 57T388 264Q388 396 342 442L232 60Q247 57 263 57Q388 57 388 264Z" />
<glyph unicode="&#xf9;" glyph-name="ugrave" horiz-adv-x="523" d="M442 0H364L359 79Q304 -13 212 -13Q149 -13 113 28T77 139V526H167V147Q167 101 184 80T237 58Q304 58 352 146V526H442V0ZM196 797L376 684L350 638L158 725L196 797Z" />
<glyph unicode="&#xfa;" glyph-name="uacute" horiz-adv-x="523" d="M442 0H364L359 79Q304 -13 212 -13Q149 -13 113 28T77 139V526H167V147Q167 101 184 80T237 58Q304 58 352 146V526H442V0ZM326 797L364 725L172 638L146 684L326 797Z" />
<glyph unicode="&#xfb;" glyph-name="ucircumflex" horiz-adv-x="523" d="M442 0H364L359 79Q304 -13 212 -13Q149 -13 113 28T77 139V526H167V147Q167 101 184 80T237 58Q304 58 352 146V526H442V0ZM146 637L111 676L232 793H288L409 676L374 637L260 723L146 637Z" />
<glyph unicode="&#xfc;" glyph-name="udieresis" horiz-adv-x="523" d="M442 0H364L359 79Q304 -13 212 -13Q149 -13 113 28T77 139V526H167V147Q167 101 184 80T237 58Q304 58 352 146V526H442V0ZM188 762T203 747T218 709Q218 686 203 671T166 655Q143 655 128
670T113 709Q113 732 128 747T166 762Q188 762 203 747ZM375 762T390 747T405 709Q405 686 390 671T353 655Q331 655 316 670T300 709Q300 732 315 747T353 762Q375 762 390 747Z" />
<glyph unicode="&#xfd;" glyph-name="yacute" horiz-adv-x="446" d="M279 -2Q251 -95 200 -146T55 -211L45 -144Q92 -134 120 -117T165 -73T198 0H165L9 526H102L224 63L346 526H438L279 -2ZM289 797L327 725L135 638L109 684L289 797Z" />
<glyph unicode="&#xfe;" glyph-name="thorn" horiz-adv-x="532" d="M394 539T437 468T481 265Q481 137 433 62T297 -13Q218 -13 171 53V-198L81 -211V739L171 749V462Q225 539 308 539Q394 539 437 468ZM387 59T387 264Q387 371 362 419T284 468Q249 468 222 447T171
390V124Q212 59 276 59Q387 59 387 264Z" />
<glyph unicode="&#xff;" glyph-name="ydieresis" horiz-adv-x="446" d="M279 -2Q251 -95 200 -146T55 -211L45 -144Q92 -134 120 -117T165 -73T198 0H165L9 526H102L224 63L346 526H438L279 -2ZM151 762T166 747T181 709Q181 686 166 671T129 655Q106 655 91 670T76
709Q76 732 91 747T129 762Q151 762 166 747ZM338 762T353 747T368 709Q368 686 353 671T316 655Q294 655 279 670T263 709Q263 732 278 747T316 762Q338 762 353 747Z" />
<glyph unicode="&#x2013;" glyph-name="endash" horiz-adv-x="474" d="M32 276V350H442V276H32Z" />
<glyph unicode="&#x2014;" glyph-name="emdash" horiz-adv-x="717" d="M32 276V350H685V276H32Z" />
<glyph unicode="&#x2018;" glyph-name="quoteleft" horiz-adv-x="213" d="M79 501T64 517T48 558Q48 570 53 585T66 620L121 751H172L136 607Q161 588 161 559Q161 534 146 518T104 501Q79 501 64 517Z" />
<glyph unicode="&#x2019;" glyph-name="quoteright" horiz-adv-x="213" d="M134 751T149 735T165 694Q165 682 160 667T147 632L92 501H41L77 645Q52 664 52 693Q52 718 67 734T109 751Q134 751 149 735Z" />
<glyph unicode="&#x201a;" glyph-name="quotesinglbase" horiz-adv-x="213" d="M134 100T149 84T165 43Q165 31 160 16T147 -19L92 -150H41L77 -6Q52 13 52 42Q52 67 67 83T109 100Q134 100 149 84Z" />
<glyph unicode="&#x201c;" glyph-name="quotedblleft" horiz-adv-x="386" d="M78 501T63 517T47 558Q47 570 52 585T65 620L120 751H171L135 607Q160 588 160 559Q160 534 145 518T103 501Q78 501 63 517ZM252 501T237 517T221 558Q221 570 226 585T239 620L294
751H345L309 607Q334 588 334 559Q334 534 319 518T277 501Q252 501 237 517Z" />
<glyph unicode="&#x201d;" glyph-name="quotedblright" horiz-adv-x="386" d="M134 751T149 735T165 694Q165 682 160 667T147 632L92 501H41L77 645Q52 664 52 693Q52 718 67 734T109 751Q134 751 149 735ZM308 751T323 735T339 694Q339 682 334 667T321 632L266
501H215L251 645Q226 664 226 693Q226 718 241 734T283 751Q308 751 323 735Z" />
<glyph unicode="&#x201e;" glyph-name="quotedblbase" horiz-adv-x="386" d="M134 100T149 84T165 43Q165 31 160 16T147 -19L92 -150H41L77 -6Q52 13 52 42Q52 67 67 83T109 100Q134 100 149 84ZM308 100T323 84T339 43Q339 31 334 16T321 -19L266 -150H215L251
-6Q226 13 226 42Q226 67 241 83T283 100Q308 100 323 84Z" />
<glyph unicode="&#x2022;" glyph-name="bullet" horiz-adv-x="301" d="M194 444T221 415T249 343Q249 300 222 272T151 243Q108 243 80 272T52 344Q52 387 80 415T151 444Q194 444 221 415Z" />
<glyph unicode="&#x2039;" glyph-name="guilsinglleft" horiz-adv-x="322" d="M212 532L267 496L143 287L267 78L212 41L55 256V316L212 532Z" />
<glyph unicode="&#x203a;" glyph-name="guilsinglright" horiz-adv-x="322" d="M110 532L267 316V256L110 41L55 78L179 287L55 496L110 532Z" />
</font>
</defs>
</svg>
